osu file format v14

[General]
AudioFilename: jubeat prop glacia - DJ TOTTO.mp3
AudioLeadIn: 0
PreviewTime: 89587
Countdown: 0
SampleSet: Normal
StackLeniency: 0.7
Mode: 1
LetterboxInBreaks: 0
WidescreenStoryboard: 0

[Editor]
Bookmarks: 10837,21160,23741,34063,39225,44386,44708,56160,56321,56483,56644,56966,57128,57289,57450,58579,58741,58902,59063,59386,59547,59708,59870,61321,61483,61644,61805,62128,62289,62450,62612,63741,63902,64063,64225,64547,64708,64870,65031,73579,74870,75354,76321,80515,80837,85676,85999,86321,87128,87289,87450,87612,87934,88257,88579,88741,88902,90354,90676,98579,103741,108902,109225,111483,112773
DistanceSpacing: 1.8
BeatDivisor: 2
GridSize: 32
TimelineZoom: 0.8

[Metadata]
Title:glacia
TitleUnicode:glacia
Artist:DJ TOTTO
ArtistUnicode:DJ TOTTO
Creator:JUDYDANNY
Version:Kantan
Source:jubeat
Tags:prop
BeatmapID:667244
BeatmapSetID:296729

[Difficulty]
HPDrainRate:4
CircleSize:5
OverallDifficulty:3
ApproachRate:5
SliderMultiplier:1.2
SliderTickRate:1

[Events]
//Background and Video events
0,0,"mirai214.jpg",0,0
//Break Periods
//Storyboard Layer 0 (Background)
//Storyboard Layer 1 (Fail)
//Storyboard Layer 2 (Pass)
//Storyboard Layer 3 (Foreground)
//Storyboard Sound Samples

[TimingPoints]
1967,322.58064516129,4,1,0,75,1,0
11966,-100,4,1,0,98,0,0
22773,-100,4,1,0,60,0,0
23902,-100,4,1,0,80,0,0
24870,-100,4,1,0,98,0,0
25192,-100,4,1,0,98,0,1
45797,-100,4,1,0,75,0,1
45837,-100,4,1,0,75,0,0
56079,-100,4,1,0,65,0,0
73579,-100,4,1,0,75,0,0
75192,-100,4,1,0,90,0,0
76805,-100,4,1,0,98,0,0
89708,-100,4,1,0,98,0,1
110354,-100,4,1,0,98,0,0
110515,-100,4,1,0,65,0,0

[HitObjects]
256,192,1967,5,4,0:0:0:0:
256,192,4547,1,0,0:0:0:0:
256,192,7128,1,0,0:0:0:0:
256,192,9708,1,0,0:0:0:0:
256,192,10837,1,0,0:0:0:0:
256,192,12289,1,4,0:0:0:0:
224,64,13579,1,2,0:0:0:0:
224,64,14225,1,2,0:0:0:0:
224,192,14870,1,0,0:0:0:0:
224,160,16160,1,2,0:0:0:0:
224,160,16805,1,0,0:0:0:0:
224,160,17450,1,0,0:0:0:0:
224,160,18741,1,2,0:0:0:0:
224,64,19386,1,2,0:0:0:0:
224,160,20031,1,0,0:0:0:0:
224,96,20676,1,0,0:0:0:0:
192,0,21160,1,2,0:0:0:0:
192,64,21966,1,2,0:0:0:0:
192,64,22612,1,2,0:0:0:0:
192,128,23741,1,4,0:0:0:0:
160,64,25192,5,4,0:0:0:0:
160,32,25837,1,0,0:0:0:0:
160,64,26321,1,0,0:0:0:0:
160,64,27773,1,2,0:0:0:0:
160,32,28418,1,2,0:0:0:0:
160,64,28902,1,2,0:0:0:0:
160,64,29708,1,2,0:0:0:0:
160,64,30354,5,0,0:0:0:0:
160,64,30999,1,2,0:0:0:0:
160,64,31644,1,0,0:0:0:0:
160,64,32289,1,2,0:0:0:0:
160,32,32612,1,2,0:0:0:0:
192,32,32934,1,0,0:0:0:0:
160,64,33579,1,0,0:0:0:0:
160,32,34063,1,6,0:0:0:0:
160,64,35515,5,4,0:0:0:0:
160,64,36160,1,0,0:0:0:0:
160,64,36644,1,0,0:0:0:0:
160,64,38096,1,2,0:0:0:0:
160,64,38741,1,2,0:0:0:0:
160,64,39225,5,2,0:0:0:0:
160,64,40031,1,2,0:0:0:0:
160,64,40676,5,0,0:0:0:0:
160,64,41321,1,2,0:0:0:0:
160,64,41966,1,2,0:0:0:0:
160,64,42289,1,2,0:0:0:0:
160,64,42612,1,2,0:0:0:0:
160,64,43257,1,0,0:0:0:0:
160,32,43902,1,2,0:0:0:0:
160,32,44386,1,4,0:0:0:0:
160,32,44708,1,4,0:0:0:0:
192,0,45837,5,2,0:0:0:0:
160,64,47128,1,0,0:0:0:0:
160,32,47773,1,2,0:0:0:0:
160,64,48418,1,0,0:0:0:0:
160,32,50999,1,0,0:0:0:0:
160,32,52289,1,2,0:0:0:0:
160,32,52934,1,2,0:0:0:0:
160,32,53579,1,0,0:0:0:0:
160,32,54708,1,2,0:0:0:0:
160,32,56160,1,0,0:0:0:0:
160,32,56967,1,0,0:0:0:0:
160,32,57450,1,0,0:0:0:0:
160,32,58579,1,0,0:0:0:0:
160,32,59386,1,0,0:0:0:0:
160,32,59870,1,0,0:0:0:0:
160,32,61321,1,2,0:0:0:0:
160,32,62128,1,2,0:0:0:0:
160,32,62612,1,2,0:0:0:0:
160,32,63741,1,2,0:0:0:0:
160,32,64547,1,2,0:0:0:0:
160,32,65031,1,2,0:0:0:0:
192,64,66483,1,4,0:0:0:0:
160,64,69063,1,2,0:0:0:0:
160,64,71644,1,0,0:0:0:0:
160,64,74225,1,2,0:0:0:0:
160,64,75354,5,4,0:0:0:0:
160,32,75999,1,6,0:0:0:0:
160,64,76805,5,4,0:0:0:0:
192,64,77450,1,2,0:0:0:0:
160,64,78096,1,0,0:0:0:0:
160,64,78418,1,0,0:0:0:0:
160,64,78741,1,2,0:0:0:0:
160,64,79386,1,0,0:0:0:0:
192,32,80031,1,0,0:0:0:0:
160,64,80515,1,2,0:0:0:0:
160,64,81966,5,0,0:0:0:0:
160,64,82612,1,2,0:0:0:0:
160,64,83257,1,0,0:0:0:0:
160,64,83902,1,2,0:0:0:0:
160,64,84225,1,2,0:0:0:0:
160,64,84547,1,0,0:0:0:0:
192,64,85192,1,0,0:0:0:0:
160,64,85676,1,2,0:0:0:0:
160,64,85999,1,2,0:0:0:0:
160,64,86321,1,2,0:0:0:0:
160,32,87128,5,6,0:0:0:0:
160,32,88257,1,4,0:0:0:0:
160,32,89708,5,4,0:0:0:0:
160,32,90354,1,2,0:0:0:0:
160,32,90999,1,0,0:0:0:0:
160,32,91644,1,0,0:0:0:0:
160,32,91966,1,2,0:0:0:0:
160,32,92289,1,0,0:0:0:0:
160,32,92934,1,2,0:0:0:0:
160,32,93579,1,0,0:0:0:0:
160,32,94225,1,2,0:0:0:0:
160,32,94547,1,2,0:0:0:0:
160,32,94870,1,0,0:0:0:0:
160,32,95515,1,2,0:0:0:0:
160,32,96160,1,2,0:0:0:0:
160,32,96483,1,0,0:0:0:0:
160,32,96805,1,2,0:0:0:0:
160,32,97450,1,0,0:0:0:0:
160,32,98096,1,0,0:0:0:0:
160,32,98579,1,6,0:0:0:0:
160,32,100031,5,4,0:0:0:0:
160,32,100676,1,2,0:0:0:0:
160,32,101321,1,0,0:0:0:0:
160,32,101966,1,0,0:0:0:0:
160,32,102289,1,2,0:0:0:0:
160,32,102612,1,0,0:0:0:0:
160,32,103257,1,2,0:0:0:0:
160,32,103741,1,6,0:0:0:0:
160,32,104547,1,2,0:0:0:0:
160,32,105192,1,0,0:0:0:0:
160,32,105837,1,2,0:0:0:0:
160,32,106483,1,2,0:0:0:0:
160,0,106805,1,0,0:0:0:0:
160,32,107128,1,2,0:0:0:0:
160,32,107773,1,0,0:0:0:0:
160,32,108418,1,0,0:0:0:0:
160,32,108902,1,6,0:0:0:0:
160,32,110354,5,2,0:0:0:0:
160,0,111483,1,2,0:0:0:0:
160,0,112773,1,4,0:0:0:0:
