osu file format v14

[General]
AudioFilename: audio.mp3
AudioLeadIn: 0
PreviewTime: 76803
Countdown: 1
SampleSet: Soft
StackLeniency: 0.7
Mode: 0
LetterboxInBreaks: 0
WidescreenStoryboard: 0

[Editor]
Bookmarks: 43900,75352,85190,89868,108900,110352
DistanceSpacing: 0.7
BeatDivisor: 4
GridSize: 16
TimelineZoom: 2.8

[Metadata]
Title:glacia
TitleUnicode:glacia
Artist:DJ TOTTO
ArtistUnicode:DJ TOTTO
Creator:AsyouSaidsir
Version:Insane
Source:jubeat prop
Tags:田川 義浩 yoshihiro tagawa
BeatmapID:1274594
BeatmapSetID:521013

[Difficulty]
HPDrainRate:7
CircleSize:4
OverallDifficulty:8
ApproachRate:9
SliderMultiplier:1.8
SliderTickRate:1

[Events]
//Background and Video events
0,0,"5ab00c70d44b174d597a02b7f17620a8.jpg",0,0
//Break Periods
2,46035,55558
//Storyboard Layer 0 (Background)
//Storyboard Layer 1 (Fail)
//Storyboard Layer 2 (Pass)
//Storyboard Layer 3 (Foreground)
//Storyboard Sound Samples

[TimingPoints]
1642,322.58064516129,4,1,0,100,1,0
1965,-100,4,2,2,100,0,0
11803,-66.6666666666667,4,2,2,100,0,0
11964,-100,4,2,2,100,0,0
22610,-200,4,2,3,100,0,0
23739,-200,4,2,2,100,0,0
23900,-100,4,2,0,100,0,0
24868,-50,4,2,0,100,0,0
25029,-100,4,2,2,100,0,0
40513,-66.6666666666667,4,2,0,100,0,0
40674,-100,4,2,2,100,0,0
56158,-100,4,2,2,75,0,0
66642,-133.333333333333,4,2,2,100,0,0
75352,-100,4,2,2,100,0,0
76803,-100,4,2,2,100,0,1
83255,-66.6666666666667,4,2,2,100,0,1
83416,-100,4,2,2,100,0,1
87126,-100,4,2,2,100,0,0
98094,-66.6666666666667,4,2,2,100,0,0
98739,-100,4,2,2,100,0,0
111158,-100,4,2,2,40,0,0
111481,-133.333333333333,4,2,2,100,0,0
112126,-133.333333333333,4,2,2,100,0,0
112448,-50,4,2,3,100,0,0
112932,-50,4,2,0,50,0,0
116803,-50,4,2,0,5,0,0

[Colours]
Combo1 : 181,181,181
Combo2 : 65,191,252
Combo3 : 206,148,254
Combo4 : 128,128,255

[HitObjects]
142,162,1642,5,4,0:0:0:0:
309,74,1965,5,0,0:0:0:0:
142,162,2126,1,0,0:0:0:0:
301,262,2287,1,0,0:0:0:0:
206,88,2448,2,0,P|143:64|97:74,1,90
77,236,2771,2,0,P|117:257|162:259,1,90
279,178,3094,2,0,P|323:179|363:200,1,90
318,360,3416,2,0,P|273:357|233:336,1,90
161,259,3739,2,0,P|153:214|142:197,2,45,2|2|2,0:0|0:0|0:0,0:0:0:0:
161,259,4061,1,2,0:0:0:0:
279,178,4223,1,2,0:0:0:0:
279,178,4545,5,2,0:0:0:0:
201,46,4706,1,0,0:0:0:0:
167,267,4867,1,0,0:0:0:0:
201,46,5029,2,0,P|240:28|319:28,1,90
353,76,5352,2,0,P|311:93|267:98,1,90
247,174,5674,2,0,L|339:188,1,90
302,258,5996,2,0,L|213:244,1,90
144,208,6319,5,2,0:0:0:0:
124,188,6399,1,2,0:0:0:0:
116,162,6481,1,2,0:0:0:0:
201,46,6642,5,2,0:0:0:0:
288,102,6803,1,2,0:0:0:0:
384,60,6964,1,2,0:0:0:0:
379,341,7126,5,2,0:0:0:0:
302,258,7287,5,0,0:0:0:0:
456,231,7448,1,0,0:0:0:0:
302,258,7610,2,0,P|258:251|222:216,1,90
292,178,7932,1,0,0:0:0:0:
381,200,8094,1,0,0:0:0:0:
383,364,8255,2,0,L|257:344,1,90
381,200,8577,2,0,L|469:214,1,90
213,314,8900,5,2,0:0:0:0:
186,270,8981,1,2,0:0:0:0:
160,226,9061,1,2,0:0:0:0:
221,52,9223,1,2,0:0:0:0:
323,110,9384,1,2,0:0:0:0:
323,110,9706,5,2,0:0:0:0:
292,197,9868,1,0,0:0:0:0:
372,255,10029,1,0,0:0:0:0:
323,110,10190,5,0,0:0:0:0:
292,197,10352,1,0,0:0:0:0:
391,313,10513,1,0,0:0:0:0:
327,114,10674,5,0,0:0:0:0:
327,114,10835,2,0,B|316:94|316:94|270:69|270:69|263:42,1,90,2|0,0:0|0:0,0:0:0:0:
189,272,11158,2,0,B|200:292|200:292|245:316|245:316|253:344,1,90
340,326,11481,5,2,0:0:0:0:
360,343,11561,1,2,0:0:0:0:
386,336,11642,1,2,0:0:0:0:
395,310,11723,1,2,0:0:0:0:
377,288,11803,2,0,B|332:239|340:200|369:185|395:210|365:243,1,135.000005149842,2|2,0:0|0:0,0:0:0:0:
284,273,12126,1,0,0:0:0:0:
363,107,12287,5,8,0:0:0:0:
441,156,12448,1,2,0:0:0:0:
457,187,12529,1,0,0:0:0:0:
459,223,12610,1,10,0:0:0:0:
454,261,12690,1,0,0:0:0:0:
434,292,12771,1,2,0:0:0:0:
363,219,12932,2,0,L|310:139,1,90,8|0,0:0|0:0,0:0:0:0:
149,163,13255,2,0,L|202:243,1,90,8|0,0:0|0:0,0:0:0:0:
397,139,13577,5,8,0:0:0:0:
115,243,13739,1,0,0:0:0:0:
256,191,13900,1,8,0:0:0:0:
208,95,14061,1,2,0:0:0:0:
229,84,14142,1,0,0:0:0:0:
256,78,14223,1,10,0:0:0:0:
283,84,14303,1,0,0:0:0:0:
304,95,14384,1,2,0:0:0:0:
133,147,14545,5,8,0:0:0:0:
379,147,14706,1,0,0:0:0:0:
256,340,14868,1,8,0:0:0:0:
196,209,15029,5,2,0:0:0:0:
256,191,15110,1,0,0:0:0:0:
314,210,15190,1,10,0:0:0:0:
256,340,15352,5,2,0:0:0:0:
126,116,15513,1,10,0:0:0:0:
385,116,15674,1,2,0:0:0:0:
385,116,15755,1,0,0:0:0:0:
385,116,15835,1,10,0:0:0:0:
385,116,15916,1,0,0:0:0:0:
385,116,15997,1,2,0:0:0:0:
320,228,16158,5,8,0:0:0:0:
256,115,16319,2,0,L|256:23,1,90,0|8,0:0|0:0,0:0:0:0:
137,72,16642,1,2,0:0:0:0:
108,94,16723,1,0,0:0:0:0:
74,105,16803,2,0,L|48:92,4,22.5,10|0|2|0|2,0:0|0:0|0:0|0:0|0:0,0:0:0:0:
123,188,17126,5,8,0:0:0:0:
164,284,17287,1,0,0:0:0:0:
109,371,17448,1,8,0:0:0:0:
69,273,17610,5,2,0:0:0:0:
60,254,17690,1,0,0:0:0:0:
50,233,17771,1,10,0:0:0:0:
108,94,17932,2,0,P|146:57|149:14,1,90,0|8,0:0|0:0,0:0:0:0:
199,143,18255,2,0,P|161:180|158:223,1,90,0|8,0:0|0:0,0:0:0:0:
404,94,18577,2,0,P|366:57|363:14,1,90,0|8,0:0|0:0,0:0:0:0:
313,143,18900,2,0,P|351:180|354:223,1,90,0|8,0:0|0:0,0:0:0:0:
300,312,19223,6,0,L|271:368,1,45,2|0,0:0|0:0,0:0:0:0:
234,270,19384,2,0,L|213:230,1,45,8|0,0:0|0:0,0:0:0:0:
170,312,19545,2,0,P|130:342|77:339,1,90,10|8,0:0|0:0,0:0:0:0:
107,269,19868,1,0,0:0:0:0:
162,79,20029,5,8,0:0:0:0:
162,79,20190,1,2,0:0:0:0:
230,197,20352,1,10,0:0:0:0:
252,212,20432,1,0,0:0:0:0:
277,221,20513,1,2,0:0:0:0:
303,226,20594,1,0,0:0:0:0:
329,224,20674,2,2,L|338:186,4,22.5,10|2|2|2|2,0:0|0:0|0:0|0:0|0:0,0:0:0:0:
390,288,20997,1,8,0:0:0:0:
442,94,21158,1,0,0:0:0:0:
142,252,21319,5,8,0:0:0:0:
142,252,21481,2,0,P|74:292|26:283,1,90,0|8,0:0|0:0,0:0:0:0:
132,143,21803,1,2,0:0:0:0:
165,130,21884,1,0,0:0:0:0:
197,116,21964,1,10,0:0:0:0:
230,103,22045,1,0,0:0:0:0:
263,89,22126,1,2,0:0:0:0:
296,76,22207,1,0,0:0:0:0:
328,61,22287,1,10,0:0:0:0:
431,17,22448,1,10,0:0:0:0:
450,179,22610,6,0,P|444:217|394:126,1,315,0|6,0:0|0:0,2:0:0:0:
388,189,23900,1,0,0:0:0:0:
368,345,24061,5,0,0:0:0:0:
341,340,24142,1,0,0:0:0:0:
315,331,24223,1,0,0:0:0:0:
292,316,24303,1,0,0:0:0:0:
273,295,24384,1,0,0:0:0:0:
257,273,24464,1,0,0:0:0:0:
229,275,24545,5,0,0:0:0:0:
202,278,24626,1,0,0:0:0:0:
175,274,24706,1,0,0:0:0:0:
151,260,24787,1,0,0:0:0:0:
131,240,24868,2,0,L|52:23,1,180
204,200,25190,5,8,0:0:0:0:
260,156,25351,2,0,L|307:214,1,45,8|0,0:0|0:0,0:0:0:0:
317,113,25513,2,0,L|364:171,1,45,8|0,0:0|0:0,0:0:0:0:
370,65,25674,2,0,L|433:144,1,90,0|8,0:0|0:0,0:0:0:0:
142,317,25997,2,0,L|79:238,1,90,0|8,0:0|0:0,0:0:0:0:
184,328,26319,2,0,L|117:245,1,90,0|8,0:0|0:0,0:0:0:0:
225,337,26642,1,0,0:0:0:0:
168,266,26803,1,8,0:0:0:0:
102,198,26964,5,2,0:0:0:0:
89,192,27045,1,0,0:0:0:0:
76,187,27126,1,10,0:0:0:0:
63,182,27206,1,0,0:0:0:0:
50,176,27287,2,0,L|23:201,4,22.5,2|0|0|0|0,0:0|0:0|0:0|0:0|0:0,0:0:0:0:
2,112,27610,1,2,0:0:0:0:
199,27,27771,1,8,0:0:0:0:
310,18,27932,5,2,0:0:0:0:
343,31,28013,1,0,0:0:0:0:
376,44,28094,1,10,0:0:0:0:
409,56,28174,1,0,0:0:0:0:
442,69,28255,2,0,L|483:86,1,45,2|0,0:0|0:0,0:0:0:0:
500,132,28416,1,8,0:0:0:0:
416,220,28577,1,0,0:0:0:0:
500,132,28739,1,8,0:0:0:0:
469,344,28900,2,0,P|422:354|363:344,1,90,0|8,0:0|0:0,0:0:0:0:
416,220,29223,5,0,0:0:0:0:
380,349,29384,2,0,P|425:353|469:344,1,90,8|0,0:0|0:0,0:0:0:0:
483,310,29626,1,0,0:0:0:0:
495,276,29706,2,0,L|505:245,4,22.5,10|0|2|0|2,0:0|0:0|0:0|0:0|0:0,0:0:0:0:
436,192,30029,2,0,L|426:136,1,45,8|0,0:0|0:0,0:0:0:0:
477,91,30190,2,0,L|484:46,2,45,0|0|8,0:0|0:0|0:0,0:0:0:0:
312,128,30513,5,2,0:0:0:0:
284,112,30594,1,0,0:0:0:0:
255,104,30674,1,10,0:0:0:0:
227,112,30755,1,0,0:0:0:0:
199,128,30836,1,2,0:0:0:0:
199,254,30997,5,10,0:0:0:0:
227,270,31078,1,0,0:0:0:0:
256,278,31158,1,2,0:0:0:0:
284,270,31239,1,0,0:0:0:0:
312,254,31319,6,0,L|331:213,1,45,10|0,0:0|0:0,0:0:0:0:
312,128,31481,2,0,L|271:108,1,45,2|0,0:0|0:0,0:0:0:0:
199,128,31642,2,0,L|179:168,1,45,10|0,0:0|0:0,0:0:0:0:
199,262,31803,2,0,L|239:281,1,45,2|0,0:0|0:0,0:0:0:0:
312,254,31964,2,0,L|331:213,1,45,10|0,0:0|0:0,0:0:0:0:
380,289,32126,2,0,L|399:248,1,45,2|0,0:0|0:0,0:0:0:0:
450,321,32287,2,0,L|496:223,1,90,10|2,0:0|0:0,0:0:0:0:
477,195,32529,5,0,0:0:0:0:
468,150,32610,2,0,L|455:93,1,45,2|0,0:0|0:0,0:0:0:0:
350,172,32771,2,0,L|311:253,1,90,0|8,0:0|0:0,0:0:0:0:
201,253,33094,2,0,L|162:172,1,90,0|8,0:0|0:0,0:0:0:0:
94,49,33416,1,0,0:0:0:0:
94,49,33497,1,0,0:0:0:0:
94,49,33577,6,0,P|51:25|18:42,1,90,8|8,0:0|0:0,0:0:0:0:
418,333,34061,2,0,P|461:357|494:340,1,90,8|0,0:0|0:0,0:0:0:0:
256,191,34384,2,0,P|213:167|180:184,1,90,8|0,0:0|0:0,0:0:0:0:
149,223,34626,5,0,0:0:0:0:
144,271,34706,1,0,0:0:0:0:
159,318,34787,1,0,0:0:0:0:
197,349,34868,1,0,0:0:0:0:
244,360,34948,2,0,L|297:353,1,45
370,166,35190,1,8,0:0:0:0:
105,133,35352,1,8,0:0:0:0:
444,242,35513,5,2,0:0:0:0:
387,332,35674,6,0,L|422:381,2,45,0|0|8,0:0|0:0|0:0,0:0:0:0:
291,345,35997,2,0,L|220:245,1,90,0|8,0:0|0:0,0:0:0:0:
251,150,36319,2,0,L|303:223,1,90,0|8,0:0|0:0,0:0:0:0:
421,254,36642,1,0,0:0:0:0:
368,180,36803,1,8,0:0:0:0:
321,107,36964,1,0,0:0:0:0:
303,223,37126,1,8,0:0:0:0:
321,107,37287,6,0,L|280:51,3,45,2|0|10|0,0:0|0:0|0:0|0:0,0:0:0:0:
300,30,37610,2,0,L|310:-4,4,22.5,2|0|0|0|10,0:0|0:0|0:0|0:0|0:0,0:0:0:0:
368,180,37932,2,0,L|337:286,1,90,0|8,0:0|0:0,0:0:0:0:
224,305,38255,5,2,0:0:0:0:
202,312,38335,1,0,0:0:0:0:
179,315,38416,1,10,0:0:0:0:
156,312,38497,1,0,0:0:0:0:
135,304,38577,1,2,0:0:0:0:
103,140,38739,1,2,0:0:0:0:
179,225,38900,1,10,0:0:0:0:
264,94,39061,1,10,0:0:0:0:
224,305,39223,6,0,P|161:314|134:303,1,90,0|8,0:0|0:0,0:0:0:0:
288,77,39545,2,0,P|351:68|378:79,2,90,0|8|2,0:0|0:0|0:0,0:0:0:0:
264,94,39948,1,0,0:0:0:0:
250,117,40029,1,10,0:0:0:0:
244,143,40110,1,0,0:0:0:0:
244,169,40190,1,2,0:0:0:0:
331,146,40352,1,10,0:0:0:0:
171,36,40513,2,0,B|72:33|93:30|105:33|105:33|99:85,1,135.000005149842,0|8,0:0|0:0,0:0:0:0:
168,310,40835,5,2,0:0:0:0:
188,308,40916,1,0,0:0:0:0:
208,306,40997,1,10,0:0:0:0:
228,304,41077,1,0,0:0:0:0:
248,303,41158,1,2,0:0:0:0:
304,212,41319,5,10,0:0:0:0:
268,214,41400,1,0,0:0:0:0:
232,217,41480,1,2,0:0:0:0:
196,221,41561,1,0,0:0:0:0:
161,225,41642,6,0,L|99:230,1,45,10|0,0:0|0:0,0:0:0:0:
147,150,41803,2,0,L|191:146,1,45,2|0,0:0|0:0,0:0:0:0:
227,78,41964,2,0,L|271:81,1,45,10|0,0:0|0:0,0:0:0:0:
317,149,42126,2,0,L|379:154,1,45,2|0,0:0|0:0,0:0:0:0:
427,232,42287,5,10,0:0:0:0:
361,152,42448,1,2,0:0:0:0:
348,336,42610,1,10,0:0:0:0:
427,232,42771,6,0,L|451:203,4,22.5,2|0|2|0|10,0:0|0:0|0:0|0:0|0:0,0:0:0:0:
348,336,43094,2,0,B|299:347|299:347|230:336,1,90,0|8,0:0|0:0,0:0:0:0:
178,302,43416,1,2,0:0:0:0:
157,284,43497,1,0,0:0:0:0:
140,263,43577,1,10,0:0:0:0:
115,252,43658,1,0,0:0:0:0:
130,229,43739,1,2,0:0:0:0:
103,226,43819,1,0,0:0:0:0:
110,200,43900,6,0,L|136:127,1,45,10|0,0:0|0:0,0:0:0:0:
155,84,44061,2,0,L|227:57,1,45,2|0,0:0|0:0,0:0:0:0:
272,45,44223,2,0,L|339:83,1,45,10|0,0:0|0:0,0:0:0:0:
378,109,44384,2,0,L|399:222,1,90,2|10,0:0|0:0,0:0:0:0:
178,302,44706,5,2,0:0:0:0:
154,287,44786,1,0,0:0:0:0:
136,266,44867,1,0,0:0:0:0:
125,241,44947,1,0,0:0:0:0:
122,214,45029,1,2,0:0:0:0:
128,187,45109,1,0,0:0:0:0:
141,163,45189,1,0,0:0:0:0:
160,144,45270,1,0,0:0:0:0:
184,131,45351,1,2,0:0:0:0:
211,127,45431,1,0,0:0:0:0:
238,130,45512,5,0,0:0:0:0:
263,141,45593,1,0,0:0:0:0:
284,160,45673,1,2,0:0:0:0:
298,183,45754,1,0,0:0:0:0:
304,210,45835,1,4,0:0:0:0:
32,348,56158,5,8,0:0:0:0:
48,259,56319,1,8,0:0:0:0:
64,170,56481,1,8,0:0:0:0:
152,185,56642,1,8,0:0:0:0:
152,185,56964,5,8,0:0:0:0:
64,170,57125,1,8,0:0:0:0:
48,259,57287,1,8,0:0:0:0:
32,348,57448,1,8,0:0:0:0:
255,283,58577,5,8,0:0:0:0:
296,202,58739,1,8,0:0:0:0:
235,135,58900,1,8,0:0:0:0:
195,215,59061,1,8,0:0:0:0:
195,215,59384,5,8,0:0:0:0:
235,135,59545,1,8,0:0:0:0:
296,202,59706,1,8,0:0:0:0:
255,283,59868,1,8,0:0:0:0:
235,308,60190,5,2,0:0:0:0:
215,334,60513,5,2,0:0:0:0:
141,282,60674,1,2,0:0:0:0:
60,320,60835,1,2,0:0:0:0:
133,372,60997,1,2,0:0:0:0:
141,282,61158,1,2,0:0:0:0:
149,192,61319,5,8,0:0:0:0:
149,192,61481,1,8,0:0:0:0:
223,242,61642,1,8,0:0:0:0:
305,206,61803,1,8,0:0:0:0:
391,164,62126,5,8,0:0:0:0:
391,164,62287,1,8,0:0:0:0:
317,114,62448,1,8,0:0:0:0:
235,150,62610,1,8,0:0:0:0:
277,58,63739,5,8,0:0:0:0:
198,132,63900,1,8,0:0:0:0:
222,237,64061,1,8,0:0:0:0:
140,308,64223,1,8,0:0:0:0:
140,308,64545,5,8,0:0:0:0:
222,237,64707,1,8,0:0:0:0:
198,132,64868,1,8,0:0:0:0:
277,58,65029,2,0,P|306:50|276:72,1,90,8|0,0:0|0:0,0:0:0:0:
376,321,65352,5,2,0:0:0:0:
376,321,65432,1,0,0:0:0:0:
376,321,65513,1,2,0:0:0:0:
393,326,65594,1,0,0:0:0:0:
410,326,65674,1,2,0:0:0:0:
426,318,65755,1,0,0:0:0:0:
436,303,65835,1,2,0:0:0:0:
438,285,65916,1,0,0:0:0:0:
432,267,65997,1,2,0:0:0:0:
421,252,66077,1,0,0:0:0:0:
406,241,66158,5,2,0:0:0:0:
391,229,66239,1,0,0:0:0:0:
380,214,66319,1,2,0:0:0:0:
374,196,66400,1,0,0:0:0:0:
379,178,66481,1,6,0:0:0:0:
425,109,66642,6,0,L|462:92,2,33.7500012874604,0|0|2,0:0|0:0|0:0,0:0:0:0:
350,68,66964,2,0,P|289:74|266:65,1,67.5000025749208,2|2,0:0|0:0,0:0:0:0:
201,34,67287,1,2,0:0:0:0:
135,115,67448,1,2,0:0:0:0:
195,205,67610,1,2,0:0:0:0:
278,179,67932,5,2,0:0:0:0:
290,174,68013,1,0,0:0:0:0:
303,172,68094,1,2,0:0:0:0:
316,173,68174,1,0,0:0:0:0:
329,175,68255,1,2,0:0:0:0:
341,178,68335,1,0,0:0:0:0:
353,184,68416,1,2,0:0:0:0:
373,195,68497,1,0,0:0:0:0:
387,213,68577,1,2,0:0:0:0:
411,306,68739,5,2,0:0:0:0:
195,205,68900,2,0,B|128:219|126:212,1,67.5000025749208,0|2,0:0|0:0,0:0:0:0:
73,152,69223,2,0,L|37:127,2,33.7500012874604,0|0|2,0:0|0:0|0:0,0:0:0:0:
153,137,69545,2,0,B|220:123|219:128,1,67.5000025749208,0|2,0:0|0:0,0:0:0:0:
289,210,69868,1,2,0:0:0:0:
320,106,70029,1,2,0:0:0:0:
255,19,70190,1,2,0:0:0:0:
257,365,70513,5,2,0:0:0:0:
60,192,70835,5,2,0:0:0:0:
71,185,70916,1,0,0:0:0:0:
84,182,70997,1,2,0:0:0:0:
97,182,71077,1,0,0:0:0:0:
110,184,71158,1,2,0:0:0:0:
182,216,71319,1,2,0:0:0:0:
257,365,71481,1,0,0:0:0:0:
330,168,71642,5,2,0:0:0:0:
383,100,71803,2,0,P|421:88|435:87,4,33.7500012874604,2|0|2|0|2,0:0|0:0|0:0|0:0|0:0,0:0:0:0:
368,246,72448,1,2,0:0:0:0:
247,262,72610,1,2,0:0:0:0:
174,164,72771,1,2,0:0:0:0:
239,61,73094,5,2,0:0:0:0:
274,53,73174,1,0,0:0:0:0:
311,52,73255,1,2,0:0:0:0:
346,60,73335,1,0,0:0:0:0:
377,80,73416,1,2,0:0:0:0:
399,109,73497,1,0,0:0:0:0:
410,144,73577,1,2,0:0:0:0:
363,231,73739,5,2,0:0:0:0:
287,312,73900,1,2,0:0:0:0:
246,208,74061,2,0,P|207:170|168:160,1,67.5000025749208,2|2,0:0|0:0,0:0:0:0:
112,143,74384,5,2,0:0:0:0:
85,163,74464,1,0,0:0:0:0:
64,190,74545,1,10,0:0:0:0:
52,221,74625,1,0,0:0:0:0:
49,254,74706,1,2,0:0:0:0:
57,287,74787,1,0,0:0:0:0:
74,316,74867,1,10,0:0:0:0:
99,339,74948,1,0,0:0:0:0:
129,352,75029,1,2,0:0:0:0:
163,352,75110,1,0,0:0:0:0:
195,343,75190,1,10,0:0:0:0:
227,333,75271,1,0,0:0:0:0:
260,323,75352,6,0,L|359:282,1,90,8|0,0:0|0:0,0:0:0:0:
252,61,75674,2,0,L|153:102,1,90,8|0,0:0|0:0,0:0:0:0:
387,188,75997,2,0,L|346:89,1,90,8|0,0:0|0:0,0:0:0:0:
125,195,76319,1,8,0:0:0:0:
142,239,76400,1,0,0:0:0:0:
159,278,76481,2,0,L|169:301,8,22.5,0|0|0|0|0|0|0|0|4,0:0|0:0|0:0|0:0|0:0|0:0|0:0|0:0|0:0,0:0:0:0:
306,250,76964,6,0,P|357:273|379:272,1,45
357,200,77126,2,0,P|412:194|431:182,1,45,8|0,0:0|0:0,0:0:0:0:
377,131,77287,2,0,P|422:98|435:67,1,90,2|8,0:0|0:0,0:0:0:0:
358,55,77610,1,0,0:0:0:0:
186,119,77771,1,8,0:0:0:0:
357,200,77932,2,0,P|412:193|441:176,1,90,0|8,0:0|0:0,0:0:0:0:
358,55,78255,5,2,0:0:0:0:
336,49,78335,1,0,0:0:0:0:
313,46,78416,1,10,0:0:0:0:
290,44,78497,1,0,0:0:0:0:
267,44,78577,1,2,0:0:0:0:
244,46,78658,1,0,0:0:0:0:
221,50,78739,1,10,0:0:0:0:
200,58,78819,1,0,0:0:0:0:
179,68,78900,2,0,P|145:86|124:112,1,45,2|0,0:0|0:0,0:0:0:0:
195,138,79061,2,0,P|174:170|169:203,1,45,8|0,0:0|0:0,0:0:0:0:
243,193,79223,2,0,B|245:231|245:231|220:279,1,90,2|8,0:0|0:0,0:0:0:0:
139,360,79545,6,0,L|121:293,1,45
65,263,79706,2,0,L|83:196,1,45,8|0,0:0|0:0,0:0:0:0:
135,161,79868,2,0,L|104:46,1,90,2|8,0:0|0:0,0:0:0:0:
46,20,80190,1,2,0:0:0:0:
163,233,80352,1,10,0:0:0:0:
288,25,80513,2,0,L|388:32,1,90,2|8,0:0|0:0,0:0:0:0:
224,359,80835,6,0,L|124:352,1,90,0|8,0:0|0:0,0:0:0:0:
63,297,81158,1,2,0:0:0:0:
63,297,81239,1,0,0:0:0:0:
63,297,81319,1,10,0:0:0:0:
135,161,81481,1,2,0:0:0:0:
224,359,81642,1,10,0:0:0:0:
135,161,81803,1,2,0:0:0:0:
224,359,81964,1,8,0:0:0:0:
343,335,82126,6,0,P|397:320|409:310,1,45
350,263,82287,2,0,P|389:223|394:208,1,45,8|0,0:0|0:0,0:0:0:0:
319,198,82448,2,0,P|333:143|323:109,1,90,2|8,0:0|0:0,0:0:0:0:
256,151,82771,1,2,0:0:0:0:
446,239,82932,1,10,0:0:0:0:
425,42,83094,1,2,0:0:0:0:
256,151,83255,6,0,P|129:144|120:114,1,135.000005149842,8|2,0:0|0:0,0:0:0:0:
118,130,83497,1,0,0:0:0:0:
112,97,83577,1,10,0:0:0:0:
127,66,83658,1,0,0:0:0:0:
155,48,83739,1,2,0:0:0:0:
188,45,83819,1,0,0:0:0:0:
218,59,83900,1,10,0:0:0:0:
300,254,84061,1,2,0:0:0:0:
332,179,84223,2,0,P|352:153|377:142,2,45,10|0|2,0:0|0:0|0:0,0:0:0:0:
300,254,84545,1,8,0:0:0:0:
330,329,84706,5,2,0:0:0:0:
368,350,84786,1,0,0:0:0:0:
413,354,84868,1,10,0:0:0:0:
456,341,84947,1,0,0:0:0:0:
476,306,85028,1,2,0:0:0:0:
476,261,85109,1,0,0:0:0:0:
476,216,85190,6,0,L|497:142,1,45,10|0,0:0|0:0,0:0:0:0:
431,118,85352,2,0,L|411:42,1,45,2|0,0:0|0:0,0:0:0:0:
342,68,85513,2,0,L|287:12,1,45,10|0,0:0|0:0,0:0:0:0:
235,49,85674,2,0,L|145:24,1,90,2|8,0:0|0:0,0:0:0:0:
277,335,85997,2,0,L|367:360,1,90,0|8,0:0|0:0,0:0:0:0:
209,309,86319,2,0,L|119:284,1,90,0|8,0:0|0:0,0:0:0:0:
53,259,86642,5,2,0:0:0:0:
48,257,86723,1,0,0:0:0:0:
43,255,86803,1,8,0:0:0:0:
38,253,86884,1,0,0:0:0:0:
33,251,86964,1,2,0:0:0:0:
30,171,87126,5,10,0:0:0:0:
106,123,87287,1,10,0:0:0:0:
190,154,87448,1,10,0:0:0:0:
268,108,87610,1,10,0:0:0:0:
302,124,87932,5,10,0:0:0:0:
336,140,88255,6,0,L|435:180,1,90,8|0,0:0|0:0,0:0:0:0:
461,244,88577,1,2,0:0:0:0:
433,320,88739,1,10,0:0:0:0:
362,359,88900,1,2,0:0:0:0:
284,336,89061,5,2,0:0:0:0:
249,324,89142,1,2,0:0:0:0:
219,303,89223,1,2,0:0:0:0:
208,268,89303,1,2,0:0:0:0:
222,235,89384,1,2,0:0:0:0:
252,216,89464,1,2,0:0:0:0:
281,195,89545,1,2,0:0:0:0:
293,161,89626,1,2,0:0:0:0:
279,128,89706,1,2,0:0:0:0:
194,45,89868,6,0,P|160:31|137:28,1,45
147,102,90029,2,0,P|111:106|89:115,1,45,8|0,0:0|0:0,0:0:0:0:
135,174,90190,2,0,P|106:195|88:246,1,90,2|8,0:0|0:0,0:0:0:0:
114,316,90513,2,0,P|142:294|161:244,1,90,0|8,0:0|0:0,0:0:0:0:
351,244,90835,2,0,P|364:287|397:315,1,90,0|8,0:0|0:0,0:0:0:0:
423,245,91158,2,0,P|410:202|377:174,1,90,0|8,0:0|0:0,0:0:0:0:
288,170,91481,5,2,0:0:0:0:
276,213,91561,1,0,0:0:0:0:
275,258,91642,1,10,0:0:0:0:
285,302,91723,1,0,0:0:0:0:
306,340,91803,2,0,L|279:362,4,22.5,2|0|0|0|10,0:0|0:0|0:0|0:0|0:0,0:0:0:0:
423,245,92126,2,0,P|392:212|384:169,1,90,0|8,0:0|0:0,0:0:0:0:
292,62,92448,6,0,P|327:35|346:30,1,45
351,103,92610,2,0,P|394:97|413:102,1,45,8|0,0:0|0:0,0:0:0:0:
384,169,92771,2,0,P|417:207|423:253,1,90,2|8,0:0|0:0,0:0:0:0:
319,253,93094,1,2,0:0:0:0:
351,103,93255,2,0,P|394:97|443:126,2,90,10|0|8,0:0|0:0|0:0,0:0:0:0:
161,281,93739,2,0,P|118:287|69:258,1,90,0|8,0:0|0:0,0:0:0:0:
130,212,94061,5,2,0:0:0:0:
175,182,94142,1,0,0:0:0:0:
220,152,94223,1,10,0:0:0:0:
265,123,94303,1,0,0:0:0:0:
310,93,94384,1,2,0:0:0:0:
398,31,94545,1,10,0:0:0:0:
391,138,94706,2,0,L|297:213,1,90,0|8,0:0|0:0,0:0:0:0:
189,263,95029,5,2,0:0:0:0:
163,231,95110,1,0,0:0:0:0:
150,192,95190,1,10,0:0:0:0:
163,153,95271,1,0,0:0:0:0:
189,121,95352,1,2,0:0:0:0:
323,121,95513,5,10,0:0:0:0:
349,153,95594,1,0,0:0:0:0:
362,192,95675,1,2,0:0:0:0:
349,231,95755,1,0,0:0:0:0:
323,263,95835,6,0,L|353:325,1,45,10|0,0:0|0:0,0:0:0:0:
245,330,95997,2,0,L|240:399,1,45,2|0,0:0|0:0,0:0:0:0:
141,340,96158,2,0,L|102:397,1,45,8|0,0:0|0:0,0:0:0:0:
49,314,96319,2,0,L|-13:344,1,45,2|0,0:0|0:0,0:0:0:0:
90,243,96481,6,0,L|152:212,1,45,10|0,0:0|0:0,0:0:0:0:
149,142,96642,2,0,L|189:122,1,45,2|0,0:0|0:0,0:0:0:0:
263,160,96803,2,0,L|303:140,1,45,10|0,0:0|0:0,0:0:0:0:
317,58,96964,2,0,L|357:38,1,45,2|0,0:0|0:0,0:0:0:0:
436,67,97126,2,0,P|476:106|483:158,2,90,10|2|8,0:0|0:0|0:0,0:0:0:0:
227,36,97610,5,2,0:0:0:0:
407,140,97771,1,10,0:0:0:0:
402,184,97851,1,0,0:0:0:0:
378,221,97932,1,2,0:0:0:0:
339,243,98012,1,0,0:0:0:0:
294,244,98094,2,0,P|270:306|171:305,2,135.000005149842,10|0|8,0:0|0:0|0:0,0:0:0:0:
221,250,98577,2,0,P|245:188|344:189,1,135.000005149842,0|8,0:0|0:0,0:0:0:0:
306,170,98900,1,8,0:0:0:0:
208,323,99061,5,10,0:0:0:0:
179,309,99142,1,2,0:0:0:0:
150,295,99223,1,2,0:0:0:0:
121,281,99303,1,2,0:0:0:0:
92,267,99384,5,2,0:0:0:0:
113,261,99464,1,2,0:0:0:0:
134,255,99545,1,2,0:0:0:0:
255,221,99706,1,8,0:0:0:0:
101,140,99868,2,0,L|15:164,1,90,0|8,0:0|0:0,0:0:0:0:
92,267,100190,6,0,L|59:302,1,45
179,309,100352,2,0,L|167:355,1,45,8|0,0:0|0:0,0:0:0:0:
270,312,100513,2,0,P|291:339|353:354,1,90,2|8,0:0|0:0,0:0:0:0:
411,325,100835,2,0,P|390:298|328:283,1,90,0|8,0:0|0:0,0:0:0:0:
242,72,101158,2,0,P|221:45|159:30,1,90,0|8,0:0|0:0,0:0:0:0:
101,59,101480,2,0,P|122:86|184:101,1,90,0|8,0:0|0:0,0:0:0:0:
338,281,101803,5,2,0:0:0:0:
361,241,101884,1,0,0:0:0:0:
331,207,101964,1,10,0:0:0:0:
289,223,102045,1,0,0:0:0:0:
293,271,102126,1,2,0:0:0:0:
468,316,102287,5,8,0:0:0:0:
418,162,102448,2,0,L|446:258,1,90,0|8,0:0|0:0,0:0:0:0:
382,314,102771,6,0,P|383:340|372:370,1,45
311,327,102932,2,0,P|298:350|274:370,1,45,8|0,0:0|0:0,0:0:0:0:
242,303,103094,2,0,P|219:316|154:314,1,90,2|8,0:0|0:0,0:0:0:0:
177,104,103416,1,2,0:0:0:0:
191,249,103577,1,10,0:0:0:0:
125,49,103739,2,0,P|147:35|213:38,1,90,0|8,0:0|0:0,0:0:0:0:
302,347,104061,2,0,P|349:357|404:342,1,90,0|8,0:0|0:0,0:0:0:0:
402,160,104384,5,2,0:0:0:0:
358,166,104464,1,0,0:0:0:0:
326,197,104545,1,10,0:0:0:0:
318,241,104626,1,0,0:0:0:0:
336,282,104706,2,2,P|388:255|387:226,1,90,2|10,0:0|0:0,0:0:0:0:
179,120,105029,2,0,L|98:76,1,90,0|8,0:0|0:0,0:0:0:0:
176,281,105352,5,2,0:0:0:0:
215,303,105433,1,0,0:0:0:0:
256,319,105513,1,10,0:0:0:0:
297,303,105594,1,0,0:0:0:0:
336,281,105675,1,2,0:0:0:0:
336,103,105835,5,10,0:0:0:0:
297,81,105916,1,0,0:0:0:0:
256,65,105997,1,2,0:0:0:0:
215,81,106077,1,0,0:0:0:0:
174,101,106158,6,0,L|115:132,1,45,10|0,0:0|0:0,0:0:0:0:
175,192,106319,2,0,L|135:212,1,45,2|0,0:0|0:0,0:0:0:0:
176,281,106481,2,0,L|136:301,1,45,10|0,0:0|0:0,0:0:0:0:
52,313,106642,6,0,L|15:258,1,45,2|0,0:0|0:0,0:0:0:0:
98,233,106803,2,0,L|93:166,1,45,10|0,0:0|0:0,0:0:0:0:
175,192,106964,2,0,L|204:132,1,45,2|0,0:0|0:0,0:0:0:0:
264,200,107126,6,0,L|236:260,1,45,10|0,0:0|0:0,0:0:0:0:
321,271,107287,2,0,L|326:337,1,45,2|0,0:0|0:0,0:0:0:0:
404,300,107448,2,0,L|442:354,1,45,10|0,0:0|0:0,0:0:0:0:
486,272,107610,2,0,L|514:167,1,90,2|8,0:0|0:0,0:0:0:0:
446,88,107932,5,2,0:0:0:0:
403,104,108013,1,2,0:0:0:0:
358,98,108094,1,2,0:0:0:0:
314,90,108174,1,2,0:0:0:0:
271,75,108255,1,2,0:0:0:0:
233,50,108335,1,2,0:0:0:0:
190,34,108416,5,2,0:0:0:0:
145,39,108497,1,2,0:0:0:0:
110,67,108577,1,2,0:0:0:0:
99,111,108658,1,2,0:0:0:0:
110,154,108739,1,2,0:0:0:0:
147,178,108819,1,2,0:0:0:0:
192,178,108900,6,0,L|299:151,1,90
361,211,109223,5,2,0:0:0:0:
377,231,109303,1,2,0:0:0:0:
382,257,109384,1,2,0:0:0:0:
377,283,109464,1,2,0:0:0:0:
360,304,109545,1,2,0:0:0:0:
336,318,109626,1,2,0:0:0:0:
309,318,109706,1,2,0:0:0:0:
284,306,109787,1,2,0:0:0:0:
265,286,109868,5,2,0:0:0:0:
254,261,109948,1,2,0:0:0:0:
258,234,110029,1,2,0:0:0:0:
269,209,110110,1,2,0:0:0:0:
273,182,110190,1,2,0:0:0:0:
268,155,110271,1,2,0:0:0:0:
247,136,110352,5,0,0:0:0:0:
159,114,110513,1,0,0:0:0:0:
71,92,110674,1,0,0:0:0:0:
45,178,110835,1,0,0:0:0:0:
138,331,111158,5,2,2:0:0:0:
151,330,111239,1,2,2:0:0:0:
164,329,111319,1,2,2:0:0:0:
177,328,111400,1,2,2:0:0:0:
190,327,111481,2,0,L|280:320,1,67.5000025749208,2|0,0:0|0:0,0:0:0:0:
346,314,111803,1,0,0:0:0:0:
401,237,112126,5,2,2:0:0:0:
406,217,112206,1,2,2:0:0:0:
412,197,112287,1,2,2:0:0:0:
381,100,112448,2,0,B|314:55|265:57|265:57|192:133|192:133|140:137|65:77,1,360,0|8,0:0|0:0,2:2:0:0:
256,192,112932,12,0,116803,0:0:0:0:
