osu file format v14

[General]
AudioFilename: DJ TOTTO - chaplet.mp3
AudioLeadIn: 0
PreviewTime: 89305
Countdown: 0
SampleSet: Normal
StackLeniency: 0.7
Mode: 1
LetterboxInBreaks: 0
WidescreenStoryboard: 0

[Editor]
DistanceSpacing: 1.6
BeatDivisor: 3
GridSize: 32
TimelineZoom: 2.899999

[Metadata]
Title:chaplet
TitleUnicode:chaplet
Artist:DJ TOTTO
ArtistUnicode:DJ TOTTO
Creator:Nwolf
Version:MUZUKASHII
Source:jubeat Saucer
Tags:reflec beat colette
BeatmapID:593837
BeatmapSetID:246705

[Difficulty]
HPDrainRate:6
CircleSize:4
OverallDifficulty:5.5
ApproachRate:9
SliderMultiplier:1.4
SliderTickRate:3

[Events]
//Background and Video events
0,0,"wallpaper2_1024.jpg",0,-120
//Break Periods
//Storyboard Layer 0 (Background)
//Storyboard Layer 1 (Fail)
//Storyboard Layer 2 (Pass)
//Storyboard Layer 3 (Foreground)
//Storyboard Sound Samples

[TimingPoints]
1705,300,4,1,0,50,1,0
1705,-133.333333333333,4,1,0,50,0,0
11305,-114.942528735632,4,1,0,50,0,0
21505,-100,4,1,0,60,0,0
22105,-100,4,1,0,85,0,1
41305,-100,4,1,0,70,0,0
60655,-133.333333333333,4,1,0,50,0,0
69805,-114.942528735632,4,1,0,60,0,0
79105,-100,4,1,0,70,0,0
89305,-100,4,1,0,85,0,1
108505,-100,4,1,0,85,0,0

[Colours]
Combo1 : 18,124,255
Combo2 : 255,0,0

[HitObjects]
224,224,1705,5,4,0:0:0:0:
288,160,4105,1,8,0:0:0:0:
288,160,6505,1,8,0:0:0:0:
224,160,8905,1,0,0:0:0:0:
288,160,10705,1,8,0:0:0:0:
224,224,11305,1,4,0:0:0:0:
288,160,11905,1,8,0:0:0:0:
224,160,12505,1,0,0:0:0:0:
224,160,12805,1,0,0:0:0:0:
288,160,13105,1,8,0:0:0:0:
288,224,13705,1,12,0:0:0:0:
288,160,14305,1,8,0:0:0:0:
288,160,14605,1,8,0:0:0:0:
224,160,14905,1,0,0:0:0:0:
224,160,15205,1,0,0:0:0:0:
288,160,15505,1,8,0:0:0:0:
288,224,16105,1,12,0:0:0:0:
224,160,16405,1,0,0:0:0:0:
288,160,16705,1,8,0:0:0:0:
288,224,17305,1,12,0:0:0:0:
224,160,17605,1,0,0:0:0:0:
288,160,17905,1,8,0:0:0:0:
288,224,18505,1,12,0:0:0:0:
224,160,18805,1,0,0:0:0:0:
288,160,19105,1,8,0:0:0:0:
224,160,19405,1,0,0:0:0:0:
288,224,19705,1,12,0:0:0:0:
288,224,20305,1,12,0:0:0:0:
288,160,20605,1,8,0:0:0:0:
224,160,20755,1,0,0:0:0:0:
224,224,20905,1,4,0:0:0:0:
32,32,21505,2,0,L|192:32,1,140
224,224,22105,5,4,0:0:0:0:
224,160,22305,1,0,0:0:0:0:
288,160,22405,1,8,0:0:0:0:
224,160,22705,1,0,0:0:0:0:
224,160,22905,1,0,0:0:0:0:
288,160,23005,1,8,0:0:0:0:
224,160,23305,1,0,0:0:0:0:
224,160,23505,1,0,0:0:0:0:
288,160,23605,1,8,0:0:0:0:
288,160,23805,1,8,0:0:0:0:
288,160,23905,1,8,0:0:0:0:
224,160,24105,1,0,0:0:0:0:
288,160,24205,1,8,0:0:0:0:
224,160,24505,1,0,0:0:0:0:
224,160,24705,1,0,0:0:0:0:
288,160,24805,1,8,0:0:0:0:
224,160,25005,1,0,0:0:0:0:
224,160,25105,1,0,0:0:0:0:
224,160,25305,1,0,0:0:0:0:
288,160,25405,1,8,0:0:0:0:
288,160,25605,1,8,0:0:0:0:
224,160,25705,1,0,0:0:0:0:
288,160,26005,1,8,0:0:0:0:
288,160,26605,1,8,0:0:0:0:
224,224,26905,1,4,0:0:0:0:
224,160,27105,1,0,0:0:0:0:
288,160,27205,1,8,0:0:0:0:
288,160,27405,1,8,0:0:0:0:
288,160,27505,1,8,0:0:0:0:
224,160,27705,1,0,0:0:0:0:
288,160,27805,1,8,0:0:0:0:
288,160,28105,1,8,0:0:0:0:
224,160,28305,1,0,0:0:0:0:
288,160,28405,1,8,0:0:0:0:
288,160,28605,1,8,0:0:0:0:
224,160,28705,1,0,0:0:0:0:
224,160,28905,1,0,0:0:0:0:
288,160,29005,1,8,0:0:0:0:
224,224,29305,1,4,0:0:0:0:
288,160,29605,1,8,0:0:0:0:
288,224,29905,1,12,0:0:0:0:
288,160,30205,1,8,0:0:0:0:
224,224,30505,1,4,0:0:0:0:
288,160,30805,1,8,0:0:0:0:
224,224,31105,1,4,0:0:0:0:
224,224,31705,1,4,0:0:0:0:
224,160,31905,1,0,0:0:0:0:
288,160,32005,1,8,0:0:0:0:
288,160,32305,1,8,0:0:0:0:
224,160,32505,1,0,0:0:0:0:
288,160,32605,1,8,0:0:0:0:
288,160,32905,1,8,0:0:0:0:
224,160,33105,1,0,0:0:0:0:
288,160,33205,1,8,0:0:0:0:
288,160,33405,1,8,0:0:0:0:
288,160,33505,1,8,0:0:0:0:
224,160,33705,1,0,0:0:0:0:
288,160,33805,1,8,0:0:0:0:
288,160,34105,1,8,0:0:0:0:
224,160,34305,1,0,0:0:0:0:
288,160,34405,1,8,0:0:0:0:
288,160,34605,1,8,0:0:0:0:
288,160,34705,1,8,0:0:0:0:
224,160,34905,1,0,0:0:0:0:
288,160,35005,1,8,0:0:0:0:
288,160,35205,1,8,0:0:0:0:
224,160,35305,1,0,0:0:0:0:
224,160,35505,1,0,0:0:0:0:
224,160,35705,1,0,0:0:0:0:
288,160,35905,1,8,0:0:0:0:
288,160,36105,1,8,0:0:0:0:
288,160,36305,1,8,0:0:0:0:
224,224,36505,1,4,0:0:0:0:
288,160,36805,1,8,0:0:0:0:
224,160,37005,1,0,0:0:0:0:
224,160,37105,1,0,0:0:0:0:
288,160,37405,1,8,0:0:0:0:
288,224,37705,1,12,0:0:0:0:
288,160,38005,1,8,0:0:0:0:
224,160,38205,1,0,0:0:0:0:
288,160,38305,1,8,0:0:0:0:
224,160,38605,1,0,0:0:0:0:
288,224,38905,1,12,0:0:0:0:
288,160,39205,1,8,0:0:0:0:
224,160,39405,1,0,0:0:0:0:
288,160,39505,1,8,0:0:0:0:
288,160,39805,1,8,0:0:0:0:
288,224,40105,1,12,0:0:0:0:
288,160,40405,1,8,0:0:0:0:
288,160,40505,1,8,0:0:0:0:
288,160,40605,1,8,0:0:0:0:
288,160,40705,1,8,0:0:0:0:
224,160,41005,1,0,0:0:0:0:
224,160,41105,1,0,0:0:0:0:
224,160,41205,1,0,0:0:0:0:
224,160,41305,1,0,0:0:0:0:
224,160,41605,5,0,0:0:0:0:
288,160,41905,1,8,0:0:0:0:
288,160,42505,1,8,0:0:0:0:
224,160,42705,1,0,0:0:0:0:
224,160,42905,1,0,0:0:0:0:
288,160,43105,1,8,0:0:0:0:
224,160,43305,1,0,0:0:0:0:
224,160,43505,1,0,0:0:0:0:
288,160,43705,1,8,0:0:0:0:
224,160,44005,1,0,0:0:0:0:
288,160,44305,1,8,0:0:0:0:
288,160,44905,1,8,0:0:0:0:
224,160,45105,1,0,0:0:0:0:
288,160,45305,1,8,0:0:0:0:
288,160,45505,1,8,0:0:0:0:
224,160,45705,1,0,0:0:0:0:
288,160,45905,1,8,0:0:0:0:
224,160,46105,1,0,0:0:0:0:
224,160,46405,1,0,0:0:0:0:
288,160,46705,1,8,0:0:0:0:
224,160,47005,1,0,0:0:0:0:
288,160,47305,1,8,0:0:0:0:
288,160,47505,1,8,0:0:0:0:
224,160,47705,1,0,0:0:0:0:
288,160,47905,1,8,0:0:0:0:
288,160,48105,1,8,0:0:0:0:
224,160,48305,1,0,0:0:0:0:
224,160,48505,1,0,0:0:0:0:
224,160,48805,1,0,0:0:0:0:
224,160,49105,1,0,0:0:0:0:
224,160,49405,1,0,0:0:0:0:
288,224,49705,1,12,0:0:0:0:
288,224,50305,1,12,0:0:0:0:
288,224,50905,1,12,0:0:0:0:
224,160,51205,1,0,0:0:0:0:
288,160,51505,1,8,0:0:0:0:
288,160,52105,1,8,0:0:0:0:
224,160,52305,1,0,0:0:0:0:
224,160,52505,1,0,0:0:0:0:
288,160,52705,1,8,0:0:0:0:
224,160,52905,1,0,0:0:0:0:
224,160,53105,1,0,0:0:0:0:
288,224,53305,1,12,0:0:0:0:
224,160,53605,1,0,0:0:0:0:
288,160,53905,1,8,0:0:0:0:
288,160,54505,1,8,0:0:0:0:
288,160,54705,1,8,0:0:0:0:
224,160,54905,1,0,0:0:0:0:
288,160,55105,1,8,0:0:0:0:
224,160,55305,1,0,0:0:0:0:
288,160,55505,1,8,0:0:0:0:
288,224,55705,1,12,0:0:0:0:
224,160,56005,1,0,0:0:0:0:
224,160,56305,1,0,0:0:0:0:
224,160,56605,1,0,0:0:0:0:
288,224,56905,1,12,0:0:0:0:
288,160,57105,1,8,0:0:0:0:
288,160,57305,1,8,0:0:0:0:
224,160,57505,1,0,0:0:0:0:
224,160,57705,1,0,0:0:0:0:
224,160,57905,1,0,0:0:0:0:
288,224,58105,1,12,0:0:0:0:
224,160,58405,1,0,0:0:0:0:
288,224,58705,1,12,0:0:0:0:
224,160,59005,1,0,0:0:0:0:
224,224,59305,1,4,0:0:0:0:
288,160,59905,1,8,0:0:0:0:
288,160,60055,1,8,0:0:0:0:
224,160,60205,1,0,0:0:0:0:
224,160,60280,1,0,0:0:0:0:
224,160,60355,1,0,0:0:0:0:
288,224,60505,5,12,0:0:0:0:
224,160,61705,1,0,0:0:0:0:
224,160,62905,1,0,0:0:0:0:
224,160,64105,1,0,0:0:0:0:
288,160,64705,1,8,0:0:0:0:
224,160,65305,1,0,0:0:0:0:
224,160,66505,1,0,0:0:0:0:
224,160,67705,1,0,0:0:0:0:
224,160,68905,1,0,0:0:0:0:
288,160,69505,1,8,0:0:0:0:
224,224,70105,1,4,0:0:0:0:
288,160,70705,1,8,0:0:0:0:
224,160,71305,1,0,0:0:0:0:
224,160,71605,1,0,0:0:0:0:
288,160,71905,1,8,0:0:0:0:
288,224,72505,1,12,0:0:0:0:
288,160,73105,1,8,0:0:0:0:
288,160,73405,1,8,0:0:0:0:
224,160,73705,1,0,0:0:0:0:
224,160,74005,1,0,0:0:0:0:
288,160,74305,1,8,0:0:0:0:
288,224,74905,1,12,0:0:0:0:
288,160,75505,1,8,0:0:0:0:
288,160,75805,1,8,0:0:0:0:
288,224,76105,1,12,0:0:0:0:
224,160,76405,1,0,0:0:0:0:
288,160,76705,1,8,0:0:0:0:
288,224,77305,1,12,0:0:0:0:
224,160,77605,1,0,0:0:0:0:
288,160,77755,1,8,0:0:0:0:
288,224,77905,1,12,0:0:0:0:
224,160,78205,1,0,0:0:0:0:
288,224,78505,1,12,0:0:0:0:
32,32,79105,2,0,L|192:32,1,140
224,224,79705,1,4,0:0:0:0:
224,160,79905,1,0,0:0:0:0:
224,160,80005,1,0,0:0:0:0:
224,160,80305,1,0,0:0:0:0:
224,160,80505,1,0,0:0:0:0:
224,160,80605,1,0,0:0:0:0:
224,160,80905,1,0,0:0:0:0:
224,160,81205,1,0,0:0:0:0:
224,160,81305,1,0,0:0:0:0:
224,160,81405,1,0,0:0:0:0:
224,160,81505,1,0,0:0:0:0:
224,160,81805,1,0,0:0:0:0:
288,224,82105,1,12,0:0:0:0:
224,160,82405,1,0,0:0:0:0:
224,160,82705,1,0,0:0:0:0:
224,160,83005,1,0,0:0:0:0:
224,160,83105,1,0,0:0:0:0:
224,160,83205,1,0,0:0:0:0:
224,160,83305,1,0,0:0:0:0:
224,160,83905,1,0,0:0:0:0:
288,224,84505,1,12,0:0:0:0:
224,160,84805,1,0,0:0:0:0:
224,160,85105,1,0,0:0:0:0:
224,160,85205,1,0,0:0:0:0:
224,160,85305,1,0,0:0:0:0:
224,160,85405,1,0,0:0:0:0:
288,160,85705,1,8,0:0:0:0:
288,160,86005,1,8,0:0:0:0:
288,160,86305,1,8,0:0:0:0:
288,160,86405,1,8,0:0:0:0:
288,160,86505,1,8,0:0:0:0:
288,160,86605,1,8,0:0:0:0:
224,160,86905,1,0,0:0:0:0:
288,160,88105,1,8,0:0:0:0:
288,160,88405,1,8,0:0:0:0:
288,160,88705,1,8,0:0:0:0:
288,224,89005,1,12,0:0:0:0:
224,224,89305,5,4,0:0:0:0:
224,160,89505,1,0,0:0:0:0:
288,160,89605,1,8,0:0:0:0:
288,160,89805,1,8,0:0:0:0:
224,160,89905,1,0,0:0:0:0:
224,160,90105,1,0,0:0:0:0:
288,160,90205,1,8,0:0:0:0:
224,160,90505,1,0,0:0:0:0:
224,160,90705,1,0,0:0:0:0:
288,160,90805,1,8,0:0:0:0:
288,160,91005,1,8,0:0:0:0:
288,160,91105,1,8,0:0:0:0:
288,160,91205,1,8,0:0:0:0:
288,160,91305,1,8,0:0:0:0:
288,160,91405,1,8,0:0:0:0:
288,160,91705,1,8,0:0:0:0:
224,160,91905,1,0,0:0:0:0:
288,160,92005,1,8,0:0:0:0:
288,160,92205,1,8,0:0:0:0:
224,160,92305,1,0,0:0:0:0:
224,160,92505,1,0,0:0:0:0:
288,160,92605,1,8,0:0:0:0:
224,160,92905,1,0,0:0:0:0:
224,160,93105,1,0,0:0:0:0:
224,160,93305,1,0,0:0:0:0:
288,160,93505,1,8,0:0:0:0:
288,160,93705,1,8,0:0:0:0:
288,160,93905,1,8,0:0:0:0:
224,224,94105,1,4,0:0:0:0:
288,160,94405,1,8,0:0:0:0:
288,160,94505,1,8,0:0:0:0:
288,160,94605,1,8,0:0:0:0:
288,160,94705,1,8,0:0:0:0:
288,160,95005,1,8,0:0:0:0:
288,224,95305,1,12,0:0:0:0:
288,160,95605,1,8,0:0:0:0:
224,160,95805,1,0,0:0:0:0:
288,160,95905,1,8,0:0:0:0:
288,160,96205,1,8,0:0:0:0:
224,224,96505,1,4,0:0:0:0:
288,160,96805,1,8,0:0:0:0:
224,160,97005,1,0,0:0:0:0:
288,160,97105,1,8,0:0:0:0:
288,160,97405,1,8,0:0:0:0:
288,160,97705,1,8,0:0:0:0:
288,160,97805,1,8,0:0:0:0:
288,160,97905,1,8,0:0:0:0:
288,160,98005,1,8,0:0:0:0:
224,160,98305,1,0,0:0:0:0:
224,160,98405,1,0,0:0:0:0:
224,160,98505,1,0,0:0:0:0:
224,160,98605,1,0,0:0:0:0:
224,224,98905,1,4,0:0:0:0:
288,224,99505,1,12,0:0:0:0:
224,224,100105,1,4,0:0:0:0:
224,160,100405,1,0,0:0:0:0:
288,224,100705,1,12,0:0:0:0:
224,160,101005,1,0,0:0:0:0:
288,224,101305,1,12,0:0:0:0:
224,160,101505,1,0,0:0:0:0:
224,160,101605,1,0,0:0:0:0:
288,224,101905,1,12,0:0:0:0:
288,224,102505,1,12,0:0:0:0:
224,160,102705,1,0,0:0:0:0:
288,160,102805,1,8,0:0:0:0:
224,224,103105,1,4,0:0:0:0:
224,160,103305,1,0,0:0:0:0:
288,160,103405,1,8,0:0:0:0:
288,224,103705,1,12,0:0:0:0:
224,160,104005,1,0,0:0:0:0:
288,224,104305,1,12,0:0:0:0:
288,224,104905,1,12,0:0:0:0:
224,160,105105,1,0,0:0:0:0:
288,160,105205,1,8,0:0:0:0:
288,160,105405,1,8,0:0:0:0:
224,160,105505,1,0,0:0:0:0:
224,160,105705,1,0,0:0:0:0:
288,160,105805,1,8,0:0:0:0:
224,224,106105,1,4,0:0:0:0:
224,160,106305,1,0,0:0:0:0:
288,160,106405,1,8,0:0:0:0:
288,160,106605,1,8,0:0:0:0:
288,160,106705,1,8,0:0:0:0:
224,160,106905,1,0,0:0:0:0:
288,160,107005,1,8,0:0:0:0:
288,160,107305,1,8,0:0:0:0:
288,160,107405,1,8,0:0:0:0:
288,160,107505,1,8,0:0:0:0:
288,160,107605,1,8,0:0:0:0:
224,160,107905,1,0,0:0:0:0:
224,160,108005,1,0,0:0:0:0:
224,160,108105,1,0,0:0:0:0:
224,160,108205,1,0,0:0:0:0:
288,224,108505,1,12,0:0:0:0:
