osu file format v14

[General]
AudioFilename: audio.mp3
AudioLeadIn: 0
PreviewTime: 21505
Countdown: 1
SampleSet: Soft
StackLeniency: 0.7
Mode: 2
LetterboxInBreaks: 0
WidescreenStoryboard: 1

[Editor]
DistanceSpacing: 0.7
BeatDivisor: 6
GridSize: 8
TimelineZoom: 2.4

[Metadata]
Title:chaplet
TitleUnicode:chaplet
Artist:DJ TOTTO
ArtistUnicode:DJ TOTTO
Creator:Libegon
Version:Stratosphere
Source:
Tags:
BeatmapID:1769123
BeatmapSetID:845858

[Difficulty]
HPDrainRate:4
CircleSize:4
OverallDifficulty:9.6
ApproachRate:9.6
SliderMultiplier:2.3
SliderTickRate:2

[Events]
//Background and Video events
0,0,"chaplet.png",0,0
//Break Periods
//Storyboard Layer 0 (Background)
//Storyboard Layer 1 (Fail)
//Storyboard Layer 2 (Pass)
//Storyboard Layer 3 (Foreground)
//Storyboard Sound Samples

[TimingPoints]
1711,300,4,2,0,50,1,0
1711,-133.333333333333,4,2,0,50,0,0
21805,-100,4,2,0,80,0,0
22111,-100,4,2,0,80,0,1
26305,-133.333333333333,4,2,0,80,0,1
26605,-100,4,2,0,80,0,1
36305,-83.3333333333333,4,2,0,80,0,1
41305,-100,4,2,0,50,0,1
41311,-100,4,2,0,50,0,0
48805,-153.846153846153,4,2,0,50,0,0
49705,-100,4,2,0,50,0,0
59305,-200,4,2,0,50,0,0
60061,-200,4,2,0,40,0,0
60211,-200,4,2,0,30,0,0
60361,-200,4,2,0,20,0,0
60511,-200,4,2,0,10,0,0
70111,-200,4,2,0,30,0,0
77305,-100,4,2,0,50,0,0
80905,-200,4,2,0,50,0,0
82105,-100,4,2,0,50,0,0
83905,-200,4,2,0,50,0,0
84505,-100,4,2,0,50,0,0
89305,-83.3333333333333,4,2,0,90,0,0
89311,-83.3333333333333,4,2,0,90,0,1
94105,-74.0740740740741,4,2,0,90,0,1
102305,-133.333333333333,4,2,0,90,0,1
104905,-83.3333333333333,4,2,0,90,0,1
106105,-66.6666666666667,4,2,0,90,0,1
108511,-66.6666666666667,4,2,0,90,0,0

[HitObjects]
382,234,1711,6,0,B|397:123|397:124,1,86.2500032901765
275,138,2011,2,0,L|264:24,1,86.2500032901765
379,37,2311,1,0,0:0:0:0:
265,40,2461,1,0,0:0:0:0:
156,45,2611,1,0,0:0:0:0:
266,43,2761,1,0,0:0:0:0:
48,45,2911,6,0,L|36:168,1,86.2500032901765
146,129,3211,1,0,0:0:0:0:
247,128,3361,1,0,0:0:0:0:
353,123,3511,2,0,L|367:232,1,86.2500032901765
244,221,3811,2,0,L|230:326,1,86.2500032901765
480,307,4111,6,0,L|391:307,1,86.2500032901765
280,309,4411,1,0,0:0:0:0:
393,307,4561,1,0,0:0:0:0:
280,309,4711,5,0,0:0:0:0:
169,310,4861,1,0,0:0:0:0:
58,316,5011,2,0,L|38:205,1,86.2500032901765
408,200,5311,6,0,L|421:99,1,86.2500032901765
305,99,5611,2,0,L|207:100,1,86.2500032901765
108,100,5911,2,0,L|93:208,1,86.2500032901765
209,181,6211,2,0,L|315:179,1,86.2500032901765
44,349,6511,6,0,P|27:278|112:212,1,172.500006580353
196,208,6961,1,0,0:0:0:0:
308,207,7111,2,0,L|323:101,1,86.2500032901765
208,118,7411,1,0,0:0:0:0:
96,119,7561,1,0,0:0:0:0:
208,118,7711,5,0,0:0:0:0:
465,116,7861,1,0,0:0:0:0:
350,114,8011,2,0,L|250:114,1,86.2500032901765
149,115,8311,2,0,B|132:238|132:237,1,86.2500032901765
248,201,8611,2,0,L|265:321,1,86.2500032901765
16,295,8911,6,0,P|14:211|102:149,1,172.500006580353
179,147,9361,1,0,0:0:0:0:
288,147,9511,2,0,L|306:262,1,86.2500032901765
174,237,9811,2,0,L|152:340,1,86.2500032901765
267,327,10111,2,0,L|377:328,1,86.2500032901765
465,327,10411,2,0,L|480:203,1,86.2500032901765
78,266,10711,6,0,P|61:199|131:162,1,129.375004935265
314,145,11011,2,0,P|332:204|270:250,1,129.375004935265
37,272,11311,6,0,P|21:199|122:128,1,172.500006580353
420,151,11761,1,0,0:0:0:0:
301,152,11911,2,0,L|284:38,1,86.2500032901765
407,55,12211,2,0,L|298:53,1,86.2500032901765
203,52,12511,5,0,0:0:0:0:
82,49,12661,1,0,0:0:0:0:
76,91,12736,1,0,0:0:0:0:
71,134,12811,1,0,0:0:0:0:
405,138,12961,1,0,0:0:0:0:
290,143,13111,1,8,0:0:0:0:
117,147,13411,6,0,L|220:146,1,86.2500032901765
472,147,13711,2,0,P|474:198|368:249,1,172.500006580353
263,255,14161,1,0,0:0:0:0:
144,258,14311,2,0,L|134:152,1,86.2500032901765
248,157,14611,2,0,L|270:37,1,86.2500032901765
150,53,14911,6,0,L|27:55,2,86.2500032901765
63,54,15361,1,0,0:0:0:0:
391,49,15511,2,0,L|402:157,1,86.2500032901765
281,140,15811,2,0,L|178:139,1,86.2500032901765
482,139,16111,6,0,P|480:206|362:243,1,172.500006580353
286,253,16561,1,0,0:0:0:0:
173,253,16711,2,0,P|138:182|194:101,1,172.500006580353
282,96,17161,6,0,L|329:95,2,43.1250016450883
164,97,17461,1,0,0:0:0:0:
464,92,17611,6,0,L|476:202,1,86.2500032901765
356,183,17911,2,0,P|309:226|354:321,1,172.500006580353
163,317,18511,2,0,P|127:240|170:133,1,172.500006580353
250,147,18961,1,0,0:0:0:0:
369,142,19111,2,0,L|384:40,1,86.2500032901765
269,44,19411,1,0,0:0:0:0:
61,57,19561,6,2,L|18:58,2,28.7500010967255
109,58,19711,2,0,P|140:120|131:173,1,86.2500032901765
41,139,20011,1,0,0:0:0:0:
151,138,20161,1,0,0:0:0:0:
41,139,20311,5,12,0:0:0:0:
429,146,20461,1,0,0:0:0:0:
318,144,20611,1,0,0:0:0:0:
203,144,20761,1,0,0:0:0:0:
493,143,20911,5,4,0:0:0:0:
338,157,21511,6,0,L|420:156,2,57.500002193451
230,157,21811,2,0,L|131:157,2,76.6666666666667
339,154,22111,1,0,0:0:0:0:
343,77,22211,1,0,0:0:0:0:
348,0,22311,1,0,0:0:0:0:
58,157,22411,6,0,L|148:157,2,76.6666666666667
339,154,22711,2,0,L|236:154,2,76.6666666666667
59,153,23011,1,0,0:0:0:0:
148,153,23111,1,0,0:0:0:0:
237,154,23211,1,0,0:0:0:0:
148,153,23311,1,0,0:0:0:0:
415,154,23411,6,0,L|325:153,2,76.6666666666667
167,151,23711,1,2,0:0:0:0:
437,147,23811,1,2,0:0:0:0:
203,141,23911,6,0,L|106:143,2,76.6666666666667
387,140,24211,2,0,L|490:136,2,76.6666666666667
154,138,24511,5,2,0:0:0:0:
245,138,24611,1,2,0:0:0:0:
345,135,24711,1,2,0:0:0:0:
245,138,24811,5,10,0:0:0:0:
34,142,24911,1,0,0:0:0:0:
28,218,25011,1,0,0:0:0:0:
22,294,25111,1,0,0:0:0:0:
290,296,25211,1,0,0:0:0:0:
66,300,25311,1,2,0:0:0:0:
337,301,25411,6,0,L|233:301,2,76.6666666666667
27,302,25711,2,0,P|22:227|91:181,1,153.333333333333
444,170,26011,1,8,0:0:0:0:
195,179,26161,5,0,0:0:0:0:
178,144,26211,1,0,0:0:0:0:
162,109,26261,1,0,0:0:0:0:
442,77,26311,2,0,P|456:146|426:196,1,115.000004386902
80,220,26611,2,0,P|84:163|195:123,1,153.333333333333
447,225,26911,2,0,L|360:226,2,76.6666666666667
139,232,27211,5,10,0:0:0:0:
445,219,27411,2,0,L|354:220,2,76.6666666666667
151,230,27711,1,0,0:0:0:0:
444,233,27811,6,0,P|461:185|379:105,1,153.333333333333
83,136,28111,2,0,L|177:134,3,76.6666666666667
350,132,28511,1,2,0:0:0:0:
106,133,28611,1,2,0:0:0:0:
400,132,28711,6,0,B|416:228|416:227,1,76.6666666666667
302,221,28911,1,2,0:0:0:0:
50,222,29011,6,0,L|158:222,2,76.6666666666667
460,229,29311,6,0,P|463:171|361:113,1,153.333333333333
63,130,29611,1,0,0:0:0:0:
150,127,29711,1,0,0:0:0:0:
237,128,29811,1,0,0:0:0:0:
18,130,29911,6,0,P|18:195|75:278,1,153.333333333333
319,143,30211,2,0,L|423:143,2,76.6666666666667
194,142,30511,2,0,L|286:143,2,76.6666666666667
97,140,30811,2,0,L|5:140,2,76.6666666666667
194,142,31111,2,0,L|101:143,2,76.6666666666667
295,140,31411,6,0,L|389:138,2,76.6666666666667
47,141,31711,2,0,B|32:245|32:244,1,76.6666666666667
132,215,31911,1,2,0:0:0:0:
393,203,32011,2,0,L|489:200,2,76.6666666666667
281,206,32311,2,0,L|386:205,2,76.6666666666667
41,224,32611,6,0,P|31:173|124:125,1,153.333333333333
379,124,32911,2,0,P|357:68|266:43,1,153.333333333333
55,56,33211,1,0,0:0:0:0:
131,56,33311,1,0,0:0:0:0:
208,56,33411,1,0,0:0:0:0:
131,56,33511,5,2,0:0:0:0:
208,56,33611,1,0,0:0:0:0:
131,56,33711,1,0,0:0:0:0:
447,57,33811,6,0,L|334:58,2,76.6666666666667
104,67,34111,2,0,L|203:67,2,76.6666666666667
418,72,34411,1,0,0:0:0:0:
341,72,34511,1,0,0:0:0:0:
264,72,34611,1,0,0:0:0:0:
50,79,34711,2,0,L|38:182,1,76.6666666666667
324,170,34911,1,2,0:0:0:0:
84,211,35011,6,0,L|175:209,2,76.6666666666667
421,189,35311,6,0,L|449:101,1,76.6666666666667
170,127,35511,2,0,L|143:26,1,76.6666666666667
448,80,35711,2,0,L|357:76,1,76.6666666666667
88,85,35911,2,0,L|192:59,1,76.6666666666667
431,108,36111,2,0,L|448:206,1,76.6666666666667
163,178,36311,2,0,L|140:287,1,91.9999971923829
446,274,36511,6,0,P|432:318|287:341,1,183.999994384766
39,340,36811,2,0,L|160:340,2,91.9999971923829
403,331,37111,2,0,P|434:226|392:126,1,183.999994384766
82,205,37411,2,0,P|71:135|164:72,1,183.999994384766
418,276,37711,6,0,L|425:183,1,91.9999971923829
324,167,37911,1,0,0:0:0:0:
434,145,38011,2,0,L|441:35,1,91.9999971923829
327,47,38211,1,2,0:0:0:0:
62,58,38311,6,0,P|34:102|102:234,1,183.999994384766
373,223,38611,1,10,0:0:0:0:
209,226,38811,5,0,0:0:0:0:
321,224,38911,6,0,L|447:223,2,91.9999971923829
209,226,39211,2,0,L|330:225,2,91.9999971923829
469,226,39511,6,0,L|479:123,1,91.9999971923829
191,110,39711,2,0,L|68:111,2,91.9999971923829
99,110,40011,1,2,0:0:0:0:
333,100,40111,2,0,L|448:101,2,91.9999971923829
224,97,40411,2,0,L|111:95,2,91.9999971923829
400,96,40711,2,0,L|498:96,2,91.9999971923829
102,105,41011,5,0,0:0:0:0:
72,139,41061,1,0,0:0:0:0:
61,184,41111,1,0,0:0:0:0:
71,228,41161,1,0,0:0:0:0:
99,264,41211,1,0,0:0:0:0:
141,283,41261,1,0,0:0:0:0:
425,285,41311,6,0,P|452:238|377:152,1,153.333333333333
299,151,41611,1,8,0:0:0:0:
186,151,41711,2,0,L|176:56,1,76.6666666666667
291,64,41911,2,0,P|325:118|262:198,1,153.333333333333
171,193,42211,6,0,L|64:194,2,76.6666666666667
431,196,42511,2,0,L|452:101,1,76.6666666666667
348,102,42711,1,2,0:0:0:0:
244,101,42811,2,0,L|347:101,2,76.6666666666667
32,102,43111,6,0,L|20:210,1,76.6666666666667
131,173,43311,2,0,L|143:269,1,76.6666666666667
26,261,43511,2,0,L|20:360,1,76.6666666666667
288,338,43711,6,0,P|346:301|335:201,1,153.333333333333
101,134,44011,6,0,L|12:134,2,76.6666666666667
379,129,44311,2,0,P|392:189|299:253,1,153.333333333333
37,267,44611,2,0,L|33:188,1,76.6666666666667
128,190,44811,1,2,0:0:0:0:
227,186,44911,2,0,L|249:94,1,76.6666666666667
149,102,45111,1,2,0:0:0:0:
49,86,45211,6,0,L|33:182,1,76.6666666666667
138,167,45411,1,2,0:0:0:0:
399,176,45511,2,0,L|416:85,1,76.6666666666667
309,73,45711,2,0,L|211:61,1,76.6666666666667
125,49,45911,2,0,L|102:160,1,76.6666666666667
439,149,46111,6,0,P|439:201|343:269,1,153.333333333333
95,274,46411,5,8,0:0:0:0:
246,272,46711,5,8,0:0:0:0:
96,197,47011,6,0,L|2:198,2,76.6666666666667
200,193,47311,2,0,L|299:191,2,76.6666666666667
98,198,47611,1,0,0:0:0:0:
174,197,47711,1,0,0:0:0:0:
251,197,47811,1,0,0:0:0:0:
477,189,47911,6,0,L|487:283,1,76.6666666666667
255,261,48111,2,0,L|235:356,1,76.6666666666667
479,280,48311,2,0,L|489:367,1,76.6666666666667
131,331,48511,6,0,P|102:261|170:192,1,153.333333333333
327,169,48811,6,0,L|490:168,2,149.499993156433
69,185,49511,2,0,L|60:117,1,49.8333310521445
170,111,49711,2,0,L|271:109,1,76.6666666666667
370,101,49911,2,0,L|272:103,3,76.6666666666667
45,116,50311,6,0,L|41:211,1,76.6666666666667
153,193,50511,2,0,L|166:285,1,76.6666666666667
63,280,50711,1,0,0:0:0:0:
367,264,50811,1,8,0:0:0:0:
70,279,50911,6,0,P|55:216|132:160,1,153.333333333333
331,145,51211,2,0,L|432:143,2,76.6666666666667
58,176,51511,6,0,P|49:119|148:77,1,153.333333333333
220,63,51811,1,0,0:0:0:0:
229,139,51911,1,0,0:0:0:0:
238,215,52011,1,0,0:0:0:0:
135,218,52111,6,0,L|40:221,2,76.6666666666667
428,211,52411,2,0,L|435:105,1,76.6666666666667
330,128,52611,1,2,0:0:0:0:
221,128,52711,2,0,L|211:40,1,76.6666666666667
312,38,52911,2,0,L|412:32,1,76.6666666666667
484,30,53111,1,2,0:0:0:0:
241,32,53211,1,0,0:0:0:0:
490,35,53311,6,0,P|492:81|408:173,1,153.333333333333
105,207,53611,2,0,L|11:207,2,76.6666666666667
211,205,53911,2,0,L|227:102,1,76.6666666666667
126,113,54111,2,0,L|46:113,3,76.6666666666667
358,118,54511,6,0,P|387:188|314:239,1,153.333333333333
110,247,54811,2,0,L|197:246,2,76.6666666666667
469,152,55111,2,0,L|476:43,1,76.6666666666667
294,132,55311,2,0,L|303:31,1,76.6666666666667
129,126,55511,2,0,L|143:27,1,76.6666666666667
471,54,55711,6,0,P|474:117|322:189,3,230
69,200,56711,5,0,0:0:0:0:
145,199,56811,1,0,0:0:0:0:
222,198,56911,1,0,0:0:0:0:
145,199,57011,1,2,0:0:0:0:
222,198,57111,1,2,0:0:0:0:
462,188,57211,6,0,L|350:189,2,76.6666666666667
385,188,57511,2,0,L|286:189,2,76.6666666666667
290,188,57811,2,0,L|390:185,2,76.6666666666667
42,200,58111,6,0,P|37:142|138:87,1,153.333333333333
380,74,58411,2,0,P|397:125|311:203,1,153.333333333333
79,198,58711,2,0,L|176:197,2,76.6666666666667
443,192,59011,5,8,0:0:0:0:
262,195,59111,1,2,0:0:0:0:
79,198,59211,1,2,0:0:0:0:
335,189,59311,6,0,L|345:319,1,115
139,297,59911,2,0,L|134:241,1,28.75
202,242,60061,1,0,0:0:0:0:
265,229,60136,2,0,L|272:180,1,28.75
203,184,60286,2,0,L|151:183,2,28.75
437,184,60511,5,6,0:0:0:0:
182,175,61711,5,2,0:0:0:0:
378,157,62911,5,2,0:0:0:0:
215,164,64111,5,2,0:0:0:0:
444,162,64711,1,2,0:0:0:0:
176,170,65311,5,2,0:0:0:0:
381,170,66511,5,2,0:0:0:0:
144,182,67711,5,2,0:0:0:0:
466,177,68911,5,2,0:0:0:0:
250,183,69511,2,0,P|224:121|304:47,1,172.5
397,42,70111,2,0,L|404:114,1,57.5
293,104,70411,2,0,L|297:184,1,57.5
181,176,70711,2,0,L|187:251,1,57.5
461,229,71011,6,0,P|461:267|383:317,1,115
296,319,71461,2,0,L|218:318,2,57.5
396,318,71911,1,0,0:0:0:0:
185,306,72211,5,0,0:0:0:0:
295,303,72361,1,0,0:0:0:0:
399,301,72511,2,0,L|407:238,1,57.5
293,220,72811,2,0,L|214:217,1,57.5
124,216,73111,2,0,L|115:142,1,57.5
461,118,73411,6,0,P|499:166|462:210,1,115
357,206,73861,1,0,0:0:0:0:
328,253,74011,1,0,0:0:0:0:
345,307,74161,1,0,0:0:0:0:
396,329,74311,1,0,0:0:0:0:
253,330,74611,5,0,0:0:0:0:
375,324,74911,2,0,L|384:256,1,57.5
273,243,75211,2,0,L|197:237,1,57.5
104,230,75511,2,0,L|101:162,1,57.5
404,124,75811,2,0,P|441:155|423:231,1,115
321,225,76261,2,0,L|236:225,3,57.5
133,220,77011,6,0,L|122:148,1,57.5
247,145,77311,2,0,P|275:85|245:32,1,115
152,40,77611,1,0,0:0:0:0:
38,40,77836,5,0,0:0:0:0:
26,96,77911,1,0,0:0:0:0:
32,152,77986,1,0,0:0:0:0:
57,204,78061,1,0,0:0:0:0:
96,246,78136,1,0,0:0:0:0:
147,272,78211,1,0,0:0:0:0:
203,281,78286,1,0,0:0:0:0:
260,272,78361,1,0,0:0:0:0:
306,256,78436,1,0,0:0:0:0:
34,232,78511,5,4,0:0:0:0:
176,228,79111,2,0,L|268:228,2,76.6666666666667
74,228,79411,2,0,L|160:227,2,76.6666666666667
439,224,79711,6,0,P|463:161|405:73,1,153.333333333333
181,82,80011,2,0,P|156:120|202:216,1,153.333333333333
451,196,80311,2,0,P|469:144|391:66,1,153.333333333333
164,51,80611,2,0,P|126:110|178:185,1,153.333333333333
433,182,80911,6,0,P|458:136|452:106,1,76.6666666666667
135,202,81211,1,0,0:0:0:0:
120,172,81311,1,0,0:0:0:0:
107,136,81411,1,0,0:0:0:0:
181,93,81511,2,0,L|229:93,2,38.3333333333333
95,96,81811,5,0,0:0:0:0:
88,133,81911,1,0,0:0:0:0:
81,171,82011,1,0,0:0:0:0:
406,179,82111,6,0,L|421:272,1,76.6666666666667
313,263,82311,1,0,0:0:0:0:
199,265,82411,2,0,L|112:264,1,76.6666666666667
32,264,82611,1,0,0:0:0:0:
345,263,82711,6,0,L|430:261,2,76.6666666666667
245,264,83011,2,0,L|159:264,2,76.6666666666667
465,268,83311,5,2,0:0:0:0:
465,268,83611,5,0,0:0:0:0:
114,282,83761,1,0,0:0:0:0:
99,247,83811,1,0,0:0:0:0:
108,210,83861,1,0,0:0:0:0:
135,189,83911,6,0,P|180:177|170:54,1,191.666666666667
86,43,84511,6,0,L|-3:43,2,76.6666666666667
358,46,84811,2,0,P|386:147|345:194,1,153.333333333333
267,177,85111,2,0,L|362:176,2,76.6666666666667
66,202,85411,6,0,P|49:149|85:44,1,153.333333333333
355,73,85711,2,0,L|438:72,2,76.6666666666667
259,72,86011,1,0,0:0:0:0:
253,148,86111,1,0,0:0:0:0:
247,224,86211,1,0,0:0:0:0:
338,225,86311,6,0,L|420:224,2,76.6666666666667
239,227,86611,2,0,L|339:227,2,76.6666666666667
22,233,86911,5,0,0:0:0:0:
410,235,87211,1,0,0:0:0:0:
454,175,87311,1,0,0:0:0:0:
447,100,87411,1,0,0:0:0:0:
392,50,87511,1,0,0:0:0:0:
76,106,87811,5,0,0:0:0:0:
152,106,87911,1,0,0:0:0:0:
229,106,88011,1,0,0:0:0:0:
152,106,88111,2,0,L|131:204,1,76.6666666666667
232,184,88311,1,0,0:0:0:0:
308,184,88411,1,0,0:0:0:0:
385,184,88511,1,0,0:0:0:0:
308,184,88611,1,0,0:0:0:0:
61,236,88711,6,0,P|22:161|97:75,1,153.333333333333,2|0,0:0|0:0,0:0:0:0:
330,83,89011,1,0,0:0:0:0:
253,83,89111,1,0,0:0:0:0:
176,83,89211,1,0,0:0:0:0:
467,82,89311,6,0,L|478:204,1,91.9999971923829
187,188,89511,2,0,L|76:123,2,91.9999971923829
451,193,89811,1,2,0:0:0:0:
191,217,89911,6,0,P|165:155|250:88,1,183.999994384766
467,86,90211,2,0,L|483:191,1,91.9999971923829
185,204,90411,1,2,0:0:0:0:
425,197,90511,5,10,0:0:0:0:
133,201,90711,2,0,L|58:117,2,91.9999971923829
369,204,91011,1,2,0:0:0:0:
85,206,91111,1,0,0:0:0:0:
176,204,91211,1,0,0:0:0:0:
268,203,91311,1,0,0:0:0:0:
176,205,91411,6,0,L|69:206,2,91.9999971923829
454,211,91711,2,0,L|466:111,1,91.9999971923829
221,121,91911,1,2,0:0:0:0:
432,119,92011,1,10,0:0:0:0:
175,122,92111,6,0,L|157:232,1,91.9999971923829
389,211,92311,2,0,L|500:211,2,91.9999971923829
137,217,92611,2,0,L|118:112,1,91.9999971923829
389,99,92811,1,2,0:0:0:0:
73,136,92911,6,0,L|163:70,1,91.9999971923829
401,206,93111,2,0,L|423:82,1,91.9999971923829
125,173,93311,2,0,L|101:56,1,91.9999971923829
383,146,93511,2,0,L|505:129,1,91.9999971923829
145,149,93711,2,0,L|22:132,1,91.9999971923829
373,160,93911,6,0,P|413:108|387:62,1,91.9999971923829
115,252,94111,2,0,P|91:180|183:71,1,207.000000789642
366,83,94411,2,0,L|448:-13,2,103.500000394821
124,101,94711,2,0,L|38:7,2,103.500000394821
445,93,95011,1,0,0:0:0:0:
341,94,95111,1,0,0:0:0:0:
238,96,95211,1,0,0:0:0:0:
341,94,95311,5,12,0:0:0:0:
60,98,95411,6,0,L|169:4,2,103.500000394821
354,139,95711,2,0,L|433:45,2,103.500000394821
147,154,96011,2,0,L|55:74,2,103.500000394821
394,162,96311,1,0,0:0:0:0:
168,164,96411,1,8,0:0:0:0:
394,162,96511,6,0,L|485:84,2,103.500000394821
159,166,96811,2,0,L|266:68,2,103.500000394821
488,159,97111,5,0,0:0:0:0:
384,160,97211,1,0,0:0:0:0:
281,161,97311,1,0,0:0:0:0:
384,160,97411,6,0,L|251:160,2,103.500000394821
45,170,97711,2,0,L|148:85,2,103.500000394821
375,164,98011,2,0,L|420:28,1,103.500000394821
298,47,98211,1,0,0:0:0:0:
42,49,98311,6,0,L|148:130,2,103.500000394821
363,50,98611,2,0,L|374:165,1,103.500000394821
166,161,98761,2,0,L|149:228,2,51.7500001974106
454,218,98911,1,0,0:0:0:0:
350,218,99011,1,0,0:0:0:0:
247,218,99111,1,0,0:0:0:0:
350,218,99211,5,2,0:0:0:0:
71,219,99311,1,2,0:0:0:0:
379,217,99511,2,0,L|464:151,2,103.500000394821
157,223,99811,2,0,L|253:134,2,103.500000394821
474,218,100111,6,0,L|373:149,2,103.500000394821
89,219,100411,1,0,0:0:0:0:
192,216,100511,1,0,0:0:0:0:
295,214,100611,1,0,0:0:0:0:
37,216,100711,6,0,L|146:132,2,103.500000394821
368,213,101011,2,0,L|257:134,2,103.500000394821
46,221,101311,2,0,L|144:141,2,103.500000394821
320,214,101611,1,2,0:0:0:0:
81,218,101711,6,0,L|180:130,3,103.500000394821
397,154,102111,1,0,0:0:0:0:
80,63,102211,2,0,L|176:135,2,103.500000394821
473,106,102511,2,0,L|388:105,2,57.500002193451
373,106,102811,2,0,L|290:106,2,57.500002193451
138,104,103111,6,0,L|207:104,2,57.500002193451
48,106,103411,2,0,L|127:105,2,57.500002193451
417,110,103711,6,0,L|494:110,2,57.500002193451
85,110,104011,2,0,P|74:154|128:213,1,115.000004386902
385,215,104311,2,0,L|405:137,1,57.500002193451
62,147,104511,1,0,0:0:0:0:
259,148,104611,1,0,0:0:0:0:
458,152,104711,1,0,0:0:0:0:
89,267,104911,6,0,P|58:114|91:71,1,183.999994384766
302,100,105211,2,0,P|307:157|202:221,1,183.999994384766
33,229,105511,2,0,L|126:159,2,91.9999971923829
375,232,105811,6,0,P|415:177|339:74,1,183.999994384766
70,79,106111,2,0,L|170:3,2,115.000004386902
418,67,106411,6,0,P|437:123|382:182,1,115.000004386902
170,180,106611,1,2,0:0:0:0:
387,177,106711,2,0,L|476:97,2,115.000004386902
166,184,107011,2,0,L|261:73,2,115.000004386902
495,177,107311,6,0,L|376:82,2,115.000004386902
105,177,107611,2,0,L|220:89,2,115.000004386902
477,170,107911,6,0,L|499:106,1,57.500002193451
336,75,108011,1,0,0:0:0:0:
196,74,108061,1,0,0:0:0:0:
56,73,108111,2,0,L|50:15,1,57.500002193451
196,74,108211,1,0,0:0:0:0:
336,75,108261,1,0,0:0:0:0:
478,77,108311,2,0,L|490:2,1,57.500002193451
216,57,108411,5,2,0:0:0:0:
479,62,108511,1,4,0:0:0:0:
