osu file format v14

[General]
AudioFilename: audio.mp3
AudioLeadIn: 0
PreviewTime: 40007
Countdown: 0
SampleSet: Normal
StackLeniency: 1
Mode: 1
LetterboxInBreaks: 0
WidescreenStoryboard: 1

[Editor]
DistanceSpacing: 1.2
BeatDivisor: 4
GridSize: 32
TimelineZoom: 2

[Metadata]
Title:Windy Fairy
TitleUnicode:Windy Fairy
Artist:DJ TOTTO
ArtistUnicode:DJ TOTTO
Creator:Vulkin
Version:Oni
Source:jubeat saucer
Tags:reflec beat colette spring konami bemani DanceDanceRevolution ddr _DUSK_
BeatmapID:1466306
BeatmapSetID:692946

[Difficulty]
HPDrainRate:6
CircleSize:7
OverallDifficulty:6
ApproachRate:10
SliderMultiplier:1.4
SliderTickRate:1

[Events]
//Background and Video events
0,0,"Blind.Astronaut.full.1113332-(1366x768 edit).jpg",0,50
//Break Periods
//Storyboard Layer 0 (Background)
//Storyboard Layer 1 (Fail)
//Storyboard Layer 2 (Pass)
//Storyboard Layer 3 (Foreground)
//Storyboard Sound Samples

[TimingPoints]
8,333.333333333333,3,1,0,100,1,0
8,-125,3,1,0,100,0,0
7674,-121.951219512195,3,1,0,100,0,0
7757,-119.047619047619,3,1,0,100,0,0
7841,-116.279069767442,3,1,0,100,0,0
7924,-113.636363636364,3,1,0,100,0,0
8007,-111.111111111111,3,1,0,100,0,0
15341,-108.695652173913,3,1,0,100,0,0
15424,-106.382978723404,3,1,0,100,0,0
15507,-104.166666666667,3,1,0,100,0,0
15591,-102.040816326531,3,1,0,100,0,0
15674,-100,3,1,0,100,0,0
39341,-98.0392156862745,3,1,0,100,0,0
39424,-96.1538461538461,3,1,0,100,0,0
39507,-94.3396226415094,3,1,0,100,0,0
39591,-92.5925925925926,3,1,0,100,0,0
39674,-90.9090909090909,3,1,0,100,0,0
40007,-90.9090909090909,3,1,0,100,0,1
55341,-95.2380952380952,3,1,0,100,0,1
55507,-100,3,1,0,100,0,1
55674,-102.040816326531,3,1,0,100,0,1
55757,-104.166666666667,3,1,0,100,0,1
55841,-106.382978723404,3,1,0,100,0,1
55924,-108.695652173913,3,1,0,100,0,1
56007,-111.111111111111,3,1,0,100,0,0
67841,-105.263157894737,3,1,0,100,0,0
68007,-100,3,1,0,100,0,0
75674,-98.0392156862745,3,1,0,100,0,0
75757,-96.1538461538461,3,1,0,100,0,0
75841,-94.3396226415094,3,1,0,100,0,0
75924,-92.5925925925926,3,1,0,100,0,0
76007,-90.9090909090909,3,1,0,100,0,1
91341,-95.2380952380952,3,1,0,100,0,1
91507,-100,3,1,0,100,0,1
91674,-102.040816326531,3,1,0,100,0,1
91757,-104.166666666667,3,1,0,100,0,1
91841,-106.382978723404,3,1,0,100,0,1
91924,-108.695652173913,3,1,0,100,0,1
92007,-111.111111111111,3,1,0,100,0,0
99341,-105.263157894737,3,1,0,100,0,0
99507,-100,3,1,0,100,0,0
99674,-98.0392156862745,3,1,0,100,0,0
99757,-96.1538461538461,3,1,0,100,0,0
99841,-94.3396226415094,3,1,0,100,0,0
99924,-92.5925925925926,3,1,0,100,0,0
100007,-90.9090909090909,3,1,0,100,0,1
105341,-92.5925925925926,3,1,0,100,0,1
105507,-94.3396226415094,3,1,0,100,0,1
105674,-96.1538461538461,3,1,0,100,0,1
105841,-98.0392156862745,3,1,0,100,0,1
106007,-100,3,1,0,100,0,0
107674,-95.2380952380952,3,1,0,100,0,0
108007,-90.9090909090909,3,1,0,100,0,1
110841,-92.5925925925926,3,1,0,100,0,1
111007,-94.3396226415094,3,1,0,100,0,1
111341,-96.1538461538461,3,1,0,100,0,1
111674,-98.0392156862745,3,1,0,100,0,1
112007,-100,3,1,0,100,0,0

[HitObjects]
256,192,8,5,8,0:0:0:0:
256,192,341,1,0,0:0:0:0:
256,192,507,1,8,0:0:0:0:
256,192,674,1,0,0:0:0:0:
256,192,841,1,0,0:0:0:0:
256,192,1007,1,8,0:0:0:0:
256,192,1341,1,0,0:0:0:0:
256,192,1674,1,0,0:0:0:0:
256,192,2007,1,8,0:0:0:0:
256,192,2341,1,0,0:0:0:0:
256,192,2507,1,8,0:0:0:0:
256,192,2674,1,8,0:0:0:0:
256,192,2841,1,0,0:0:0:0:
256,192,3007,1,8,0:0:0:0:
256,192,3174,1,0,0:0:0:0:
256,192,3341,1,8,0:0:0:0:
256,192,3507,1,0,0:0:0:0:
256,192,3674,1,0,0:0:0:0:
256,192,4007,1,8,0:0:0:0:
256,192,4341,1,0,0:0:0:0:
256,192,4507,1,8,0:0:0:0:
256,192,4674,1,0,0:0:0:0:
256,192,4841,1,0,0:0:0:0:
256,192,5007,1,8,0:0:0:0:
256,192,5341,1,0,0:0:0:0:
256,192,5674,1,8,0:0:0:0:
256,192,6007,1,12,0:0:0:0:
256,192,7674,1,0,0:0:0:0:
256,192,7757,1,8,0:0:0:0:
256,192,7841,1,0,0:0:0:0:
256,192,7924,1,0,0:0:0:0:
256,192,8007,1,8,0:0:0:0:
256,192,8174,1,8,0:0:0:0:
256,192,8257,1,8,0:0:0:0:
256,192,8341,1,8,0:0:0:0:
256,192,8507,1,8,0:0:0:0:
256,192,8674,1,0,0:0:0:0:
256,192,8841,1,8,0:0:0:0:
256,192,9007,1,0,0:0:0:0:
256,192,9341,1,0,0:0:0:0:
256,192,9674,1,8,0:0:0:0:
256,192,9841,1,0,0:0:0:0:
256,192,10007,1,12,0:0:0:0:
256,192,10341,1,0,0:0:0:0:
256,192,10507,1,0,0:0:0:0:
256,192,10674,1,8,0:0:0:0:
256,192,10841,1,0,0:0:0:0:
256,192,11007,1,8,0:0:0:0:
256,192,11174,1,8,0:0:0:0:
256,192,11257,1,8,0:0:0:0:
256,192,11341,1,0,0:0:0:0:
256,192,11507,1,12,0:0:0:0:
256,192,11841,1,0,0:0:0:0:
256,192,12007,1,12,0:0:0:0:
256,192,12174,1,8,0:0:0:0:
256,192,12257,1,8,0:0:0:0:
256,192,12341,1,0,0:0:0:0:
256,192,12507,1,8,0:0:0:0:
256,192,12674,1,0,0:0:0:0:
256,192,12841,1,8,0:0:0:0:
256,192,13007,1,4,0:0:0:0:
256,192,13341,1,0,0:0:0:0:
256,192,13674,1,8,0:0:0:0:
256,192,13841,1,0,0:0:0:0:
256,192,14007,1,12,0:0:0:0:
256,192,14174,1,0,0:0:0:0:
256,192,14257,1,0,0:0:0:0:
256,192,14341,1,0,0:0:0:0:
256,192,14507,1,12,0:0:0:0:
256,192,14674,1,0,0:0:0:0:
256,192,14757,1,0,0:0:0:0:
256,192,14841,1,0,0:0:0:0:
256,192,15007,1,12,0:0:0:0:
256,192,15174,1,0,0:0:0:0:
256,192,15341,1,8,0:0:0:0:
256,192,15424,1,8,0:0:0:0:
256,192,15507,1,0,0:0:0:0:
256,192,15591,1,0,0:0:0:0:
256,192,15674,1,8,0:0:0:0:
256,192,15841,1,0,0:0:0:0:
256,192,16007,1,12,0:0:0:0:
256,192,16174,1,8,0:0:0:0:
256,192,16257,1,8,0:0:0:0:
256,192,16341,1,8,0:0:0:0:
256,192,16507,1,8,0:0:0:0:
256,192,16674,1,0,0:0:0:0:
256,192,16841,1,8,0:0:0:0:
256,192,17007,1,0,0:0:0:0:
256,192,17341,1,0,0:0:0:0:
256,192,17674,1,8,0:0:0:0:
256,192,17841,1,0,0:0:0:0:
256,192,18007,1,8,0:0:0:0:
256,192,18341,1,0,0:0:0:0:
256,192,18507,1,0,0:0:0:0:
256,192,18674,1,8,0:0:0:0:
256,192,18841,1,0,0:0:0:0:
256,192,19007,1,8,0:0:0:0:
256,192,19174,1,8,0:0:0:0:
256,192,19257,1,8,0:0:0:0:
256,192,19341,1,0,0:0:0:0:
256,192,19507,1,8,0:0:0:0:
256,192,19674,1,0,0:0:0:0:
256,192,20007,1,12,0:0:0:0:
256,192,20174,1,8,0:0:0:0:
256,192,20257,1,8,0:0:0:0:
256,192,20341,1,0,0:0:0:0:
256,192,20507,1,8,0:0:0:0:
256,192,20674,1,0,0:0:0:0:
256,192,20841,1,8,0:0:0:0:
256,192,21007,1,4,0:0:0:0:
256,192,21174,1,8,0:0:0:0:
256,192,21257,1,0,0:0:0:0:
256,192,21341,1,8,0:0:0:0:
256,192,21507,1,0,0:0:0:0:
256,192,21674,1,8,0:0:0:0:
256,192,21757,1,8,0:0:0:0:
256,192,21841,1,0,0:0:0:0:
256,192,21924,1,0,0:0:0:0:
256,192,22007,1,12,0:0:0:0:
256,192,22341,1,0,0:0:0:0:
256,192,22507,1,12,0:0:0:0:
256,192,22674,1,0,0:0:0:0:
256,192,22841,1,0,0:0:0:0:
256,192,23007,1,12,0:0:0:0:
256,192,23174,1,0,0:0:0:0:
256,192,23257,1,0,0:0:0:0:
256,192,23341,1,8,0:0:0:0:
256,192,23424,1,0,0:0:0:0:
256,192,23507,1,8,0:0:0:0:
256,192,23674,1,8,0:0:0:0:
256,192,23841,1,0,0:0:0:0:
256,192,24007,1,12,0:0:0:0:
256,192,24341,1,8,0:0:0:0:
256,192,24507,1,8,0:0:0:0:
256,192,24591,1,8,0:0:0:0:
256,192,24674,1,0,0:0:0:0:
256,192,24841,1,8,0:0:0:0:
256,192,25007,1,0,0:0:0:0:
256,192,25341,1,8,0:0:0:0:
256,192,25507,1,0,0:0:0:0:
256,192,25674,1,8,0:0:0:0:
256,192,25841,1,8,0:0:0:0:
256,192,26007,1,0,0:0:0:0:
256,192,26341,1,0,0:0:0:0:
256,192,26507,1,0,0:0:0:0:
256,192,26674,1,8,0:0:0:0:
256,192,26841,1,8,0:0:0:0:
256,192,27007,1,0,0:0:0:0:
256,192,27174,1,8,0:0:0:0:
256,192,27257,1,0,0:0:0:0:
256,192,27341,1,8,0:0:0:0:
256,192,27507,1,8,0:0:0:0:
256,192,27674,1,0,0:0:0:0:
256,192,27841,1,8,0:0:0:0:
256,192,28007,1,0,0:0:0:0:
256,192,28341,1,0,0:0:0:0:
256,192,28507,1,8,0:0:0:0:
256,192,28674,1,8,0:0:0:0:
256,192,28841,1,0,0:0:0:0:
256,192,29007,1,8,0:0:0:0:
256,192,29341,1,8,0:0:0:0:
256,192,29507,1,8,0:0:0:0:
256,192,29674,1,0,0:0:0:0:
256,192,30007,1,0,0:0:0:0:
256,192,30174,1,8,0:0:0:0:
256,192,30341,1,0,0:0:0:0:
256,192,30507,1,0,0:0:0:0:
256,192,30674,1,8,0:0:0:0:
256,192,30841,1,0,0:0:0:0:
256,192,31007,1,0,0:0:0:0:
256,192,31174,1,8,0:0:0:0:
256,192,31341,1,8,0:0:0:0:
256,192,31507,1,0,0:0:0:0:
256,192,31674,1,8,0:0:0:0:
256,192,31841,1,0,0:0:0:0:
256,192,32007,1,12,0:0:0:0:
256,192,32341,1,8,0:0:0:0:
256,192,32507,1,8,0:0:0:0:
256,192,32591,1,8,0:0:0:0:
256,192,32674,1,0,0:0:0:0:
256,192,32841,1,8,0:0:0:0:
256,192,33007,1,0,0:0:0:0:
256,192,33341,1,8,0:0:0:0:
256,192,33507,1,0,0:0:0:0:
256,192,33674,1,8,0:0:0:0:
256,192,33841,1,8,0:0:0:0:
256,192,34007,1,0,0:0:0:0:
256,192,34341,1,0,0:0:0:0:
256,192,34507,1,0,0:0:0:0:
256,192,34674,1,8,0:0:0:0:
256,192,34841,1,8,0:0:0:0:
256,192,35007,1,0,0:0:0:0:
256,192,35174,1,8,0:0:0:0:
256,192,35257,1,8,0:0:0:0:
256,192,35341,1,0,0:0:0:0:
256,192,35507,1,8,0:0:0:0:
256,192,35674,1,8,0:0:0:0:
256,192,35841,1,0,0:0:0:0:
256,192,36007,1,8,0:0:0:0:
256,192,36341,1,8,0:0:0:0:
256,192,36507,1,0,0:0:0:0:
256,192,36674,1,0,0:0:0:0:
256,192,36841,1,8,0:0:0:0:
256,192,37007,1,8,0:0:0:0:
256,192,37341,1,0,0:0:0:0:
256,192,37507,1,0,0:0:0:0:
256,192,37674,1,8,0:0:0:0:
256,192,38007,1,8,0:0:0:0:
256,192,38174,1,8,0:0:0:0:
256,192,38341,1,0,0:0:0:0:
256,192,38507,1,8,0:0:0:0:
256,192,38674,1,0,0:0:0:0:
256,192,38841,1,0,0:0:0:0:
256,192,39007,1,0,0:0:0:0:
256,192,39174,1,8,0:0:0:0:
256,192,39341,1,8,0:0:0:0:
256,192,39424,1,8,0:0:0:0:
256,192,39507,1,0,0:0:0:0:
256,192,39591,1,8,0:0:0:0:
256,192,39674,1,0,0:0:0:0:
256,192,39841,1,0,0:0:0:0:
256,192,40007,1,12,0:0:0:0:
256,192,40341,1,0,0:0:0:0:
256,192,40507,1,8,0:0:0:0:
256,192,40591,1,8,0:0:0:0:
256,192,40674,1,0,0:0:0:0:
256,192,40841,1,8,0:0:0:0:
256,192,41007,1,0,0:0:0:0:
256,192,41341,1,8,0:0:0:0:
256,192,41507,1,8,0:0:0:0:
256,192,41591,1,0,0:0:0:0:
256,192,41674,1,8,0:0:0:0:
256,192,41757,1,8,0:0:0:0:
256,192,41841,1,0,0:0:0:0:
256,192,42007,1,8,0:0:0:0:
256,192,42341,1,0,0:0:0:0:
256,192,42507,1,8,0:0:0:0:
256,192,42591,1,8,0:0:0:0:
256,192,42674,1,8,0:0:0:0:
256,192,42841,1,8,0:0:0:0:
256,192,43007,1,0,0:0:0:0:
256,192,43174,1,8,0:0:0:0:
256,192,43257,1,0,0:0:0:0:
256,192,43341,1,8,0:0:0:0:
256,192,43424,1,8,0:0:0:0:
256,192,43507,1,0,0:0:0:0:
256,192,43674,1,8,0:0:0:0:
256,192,43841,1,8,0:0:0:0:
256,192,44007,1,0,0:0:0:0:
256,192,44341,1,8,0:0:0:0:
256,192,44507,1,0,0:0:0:0:
256,192,44591,1,0,0:0:0:0:
256,192,44674,1,8,0:0:0:0:
256,192,44841,1,8,0:0:0:0:
256,192,45007,1,8,0:0:0:0:
256,192,45341,1,0,0:0:0:0:
256,192,45507,1,8,0:0:0:0:
256,192,45591,1,8,0:0:0:0:
256,192,45674,1,8,0:0:0:0:
256,192,45841,1,0,0:0:0:0:
256,192,46007,1,8,0:0:0:0:
256,192,46174,1,0,0:0:0:0:
256,192,46257,1,0,0:0:0:0:
256,192,46341,1,0,0:0:0:0:
256,192,46507,1,8,0:0:0:0:
256,192,46674,1,8,0:0:0:0:
256,192,46841,1,0,0:0:0:0:
256,192,47007,1,8,0:0:0:0:
256,192,47174,1,8,0:0:0:0:
256,192,47257,1,0,0:0:0:0:
256,192,47341,1,8,0:0:0:0:
256,192,47424,1,8,0:0:0:0:
256,192,47507,1,0,0:0:0:0:
256,192,47674,1,8,0:0:0:0:
256,192,47841,1,0,0:0:0:0:
256,192,48007,1,12,0:0:0:0:
256,192,48341,1,0,0:0:0:0:
256,192,48507,1,8,0:0:0:0:
256,192,48591,1,8,0:0:0:0:
256,192,48674,1,0,0:0:0:0:
256,192,48841,1,8,0:0:0:0:
256,192,49007,1,0,0:0:0:0:
256,192,49341,1,8,0:0:0:0:
256,192,49507,1,0,0:0:0:0:
256,192,49674,1,8,0:0:0:0:
256,192,49841,1,8,0:0:0:0:
256,192,50007,1,0,0:0:0:0:
256,192,50341,1,0,0:0:0:0:
256,192,50507,1,8,0:0:0:0:
256,192,50591,1,0,0:0:0:0:
256,192,50674,1,8,0:0:0:0:
256,192,50841,1,8,0:0:0:0:
256,192,51007,1,0,0:0:0:0:
256,192,51174,1,8,0:0:0:0:
256,192,51257,1,0,0:0:0:0:
256,192,51341,1,8,0:0:0:0:
256,192,51424,1,8,0:0:0:0:
256,192,51507,1,0,0:0:0:0:
256,192,51674,1,8,0:0:0:0:
256,192,51841,1,0,0:0:0:0:
256,192,52007,1,12,0:0:0:0:
256,192,52341,1,0,0:0:0:0:
256,192,52507,1,0,0:0:0:0:
256,192,52591,1,0,0:0:0:0:
256,192,52674,1,8,0:0:0:0:
256,192,52841,1,0,0:0:0:0:
256,192,53007,1,12,0:0:0:0:
256,192,53341,1,0,0:0:0:0:
256,192,53674,1,8,0:0:0:0:
256,192,54007,1,12,0:0:0:0:
256,192,54174,1,8,0:0:0:0:
256,192,54341,1,0,0:0:0:0:
256,192,54507,1,8,0:0:0:0:
256,192,54674,1,0,0:0:0:0:
256,192,54841,1,0,0:0:0:0:
256,192,55007,1,12,0:0:0:0:
256,192,55174,1,0,0:0:0:0:
256,192,55341,1,0,0:0:0:0:
256,192,55507,1,8,0:0:0:0:
256,192,55674,1,0,0:0:0:0:
256,192,55757,1,0,0:0:0:0:
256,192,55841,1,0,0:0:0:0:
256,192,55924,1,0,0:0:0:0:
256,192,56007,1,8,0:0:0:0:
256,192,56341,1,0,0:0:0:0:
256,192,56674,1,8,0:0:0:0:
256,192,56841,1,0,0:0:0:0:
256,192,57007,1,8,0:0:0:0:
256,192,57341,1,0,0:0:0:0:
256,192,57674,1,8,0:0:0:0:
256,192,57841,1,0,0:0:0:0:
256,192,58007,1,8,0:0:0:0:
256,192,58341,1,0,0:0:0:0:
256,192,58507,1,8,0:0:0:0:
256,192,58674,1,8,0:0:0:0:
256,192,58841,1,0,0:0:0:0:
256,192,59007,1,8,0:0:0:0:
256,192,59174,1,0,0:0:0:0:
256,192,59341,1,8,0:0:0:0:
256,192,59452,1,8,0:0:0:0:
256,192,59563,1,8,0:0:0:0:
256,192,59674,1,0,0:0:0:0:
256,192,59841,1,0,0:0:0:0:
256,192,60007,1,8,0:0:0:0:
256,192,60341,1,0,0:0:0:0:
256,192,60674,1,8,0:0:0:0:
256,192,60841,1,0,0:0:0:0:
256,192,61007,1,8,0:0:0:0:
256,192,61341,1,0,0:0:0:0:
256,192,61674,1,8,0:0:0:0:
256,192,61841,1,0,0:0:0:0:
256,192,62007,1,8,0:0:0:0:
256,192,62341,1,0,0:0:0:0:
256,192,62507,1,8,0:0:0:0:
256,192,62674,1,8,0:0:0:0:
256,192,62841,1,0,0:0:0:0:
256,192,63007,1,8,0:0:0:0:
256,192,63341,1,8,0:0:0:0:
256,192,63452,1,0,0:0:0:0:
256,192,63563,1,0,0:0:0:0:
256,192,63674,1,8,0:0:0:0:
256,192,63757,1,8,0:0:0:0:
256,192,63841,1,0,0:0:0:0:
256,192,64007,1,12,0:0:0:0:
256,192,64341,1,0,0:0:0:0:
256,192,64674,1,8,0:0:0:0:
256,192,64841,1,0,0:0:0:0:
256,192,65007,1,8,0:0:0:0:
256,192,65341,1,0,0:0:0:0:
256,192,65674,1,8,0:0:0:0:
256,192,65841,1,0,0:0:0:0:
256,192,66007,1,8,0:0:0:0:
256,192,66341,1,0,0:0:0:0:
256,192,66507,1,8,0:0:0:0:
256,192,66674,1,8,0:0:0:0:
256,192,66841,1,0,0:0:0:0:
256,192,67007,1,8,0:0:0:0:
256,192,67174,1,0,0:0:0:0:
256,192,67341,1,8,0:0:0:0:
256,192,67452,1,8,0:0:0:0:
256,192,67563,1,8,0:0:0:0:
256,192,67674,1,0,0:0:0:0:
256,192,67841,1,0,0:0:0:0:
256,192,68007,1,12,0:0:0:0:
256,192,68174,1,0,0:0:0:0:
256,192,68341,1,8,0:0:0:0:
256,192,68452,1,0,0:0:0:0:
256,192,68563,1,0,0:0:0:0:
256,192,68674,1,8,0:0:0:0:
256,192,68841,1,8,0:0:0:0:
256,192,69007,1,4,0:0:0:0:
256,192,69341,1,0,0:0:0:0:
256,192,69507,1,0,0:0:0:0:
256,192,69674,1,8,0:0:0:0:
256,192,69841,1,0,0:0:0:0:
256,192,70007,1,12,0:0:0:0:
256,192,70174,1,0,0:0:0:0:
256,192,70341,1,8,0:0:0:0:
256,192,70452,1,8,0:0:0:0:
256,192,70563,1,0,0:0:0:0:
256,192,70674,1,8,0:0:0:0:
256,192,70841,1,8,0:0:0:0:
256,192,71007,1,4,0:0:0:0:
256,192,71174,1,8,0:0:0:0:
256,192,71341,1,0,0:0:0:0:
256,192,71507,1,8,0:0:0:0:
256,192,71674,1,8,0:0:0:0:
256,192,72007,1,12,0:0:0:0:
256,192,72174,1,0,0:0:0:0:
256,192,72341,1,8,0:0:0:0:
256,192,72452,1,8,0:0:0:0:
256,192,72563,1,8,0:0:0:0:
256,192,72674,1,0,0:0:0:0:
256,192,72841,1,8,0:0:0:0:
256,192,73007,1,4,0:0:0:0:
256,192,73174,1,8,0:0:0:0:
256,192,73341,1,0,0:0:0:0:
256,192,73452,1,0,0:0:0:0:
256,192,73563,1,0,0:0:0:0:
256,192,73674,1,8,0:0:0:0:
256,192,73841,1,8,0:0:0:0:
256,192,74007,1,0,0:0:0:0:
256,192,74841,1,8,0:0:0:0:
256,192,74924,1,8,0:0:0:0:
256,192,75007,1,8,0:0:0:0:
256,192,75341,1,0,0:0:0:0:
256,192,75674,1,8,0:0:0:0:
256,192,75757,1,0,0:0:0:0:
256,192,75841,1,8,0:0:0:0:
256,192,75924,1,0,0:0:0:0:
256,192,76007,1,12,0:0:0:0:
256,192,76174,1,0,0:0:0:0:
256,192,76341,1,8,0:0:0:0:
256,192,76424,1,0,0:0:0:0:
256,192,76507,1,8,0:0:0:0:
256,192,76591,1,8,0:0:0:0:
256,192,76674,1,8,0:0:0:0:
256,192,76841,1,0,0:0:0:0:
256,192,77007,1,8,0:0:0:0:
256,192,77174,1,8,0:0:0:0:
256,192,77341,1,0,0:0:0:0:
256,192,77507,1,8,0:0:0:0:
256,192,77674,1,0,0:0:0:0:
256,192,78007,1,12,0:0:0:0:
256,192,78174,1,0,0:0:0:0:
256,192,78341,1,8,0:0:0:0:
256,192,78424,1,0,0:0:0:0:
256,192,78507,1,8,0:0:0:0:
256,192,78591,1,8,0:0:0:0:
256,192,78674,1,0,0:0:0:0:
256,192,78841,1,8,0:0:0:0:
256,192,79007,1,0,0:0:0:0:
256,192,79174,1,0,0:0:0:0:
256,192,79341,1,8,0:0:0:0:
256,192,79507,1,8,0:0:0:0:
256,192,79591,1,8,0:0:0:0:
256,192,79674,1,0,0:0:0:0:
256,192,79841,1,0,0:0:0:0:
256,192,80007,1,8,0:0:0:0:
256,192,80091,1,0,0:0:0:0:
256,192,80174,1,8,0:0:0:0:
256,192,80257,1,8,0:0:0:0:
256,192,80341,1,8,0:0:0:0:
256,192,80507,1,0,0:0:0:0:
256,192,80674,1,8,0:0:0:0:
256,192,80841,1,0,0:0:0:0:
256,192,81007,1,8,0:0:0:0:
256,192,81091,1,8,0:0:0:0:
256,192,81174,1,8,0:0:0:0:
256,192,81257,1,0,0:0:0:0:
256,192,81341,1,8,0:0:0:0:
256,192,81507,1,0,0:0:0:0:
256,192,81674,1,8,0:0:0:0:
256,192,81841,1,0,0:0:0:0:
256,192,82007,1,12,0:0:0:0:
256,192,82341,1,0,0:0:0:0:
256,192,82507,1,8,0:0:0:0:
256,192,82674,1,0,0:0:0:0:
256,192,82841,1,0,0:0:0:0:
256,192,83007,1,12,0:0:0:0:
256,192,83174,1,8,0:0:0:0:
256,192,83257,1,0,0:0:0:0:
256,192,83341,1,8,0:0:0:0:
256,192,83424,1,8,0:0:0:0:
256,192,83507,1,0,0:0:0:0:
256,192,83674,1,8,0:0:0:0:
256,192,83841,1,0,0:0:0:0:
256,192,84007,1,12,0:0:0:0:
256,192,84341,1,0,0:0:0:0:
256,192,84507,1,8,0:0:0:0:
256,192,84591,1,8,0:0:0:0:
256,192,84674,1,8,0:0:0:0:
256,192,84841,1,0,0:0:0:0:
256,192,85007,1,8,0:0:0:0:
256,192,85174,1,0,0:0:0:0:
256,192,85341,1,0,0:0:0:0:
256,192,85507,1,8,0:0:0:0:
256,192,85674,1,0,0:0:0:0:
256,192,85757,1,0,0:0:0:0:
256,192,85841,1,0,0:0:0:0:
256,192,86007,1,12,0:0:0:0:
256,192,86341,1,8,0:0:0:0:
256,192,86507,1,8,0:0:0:0:
256,192,86591,1,8,0:0:0:0:
256,192,86674,1,0,0:0:0:0:
256,192,86757,1,0,0:0:0:0:
256,192,86841,1,8,0:0:0:0:
256,192,87007,1,8,0:0:0:0:
256,192,87174,1,0,0:0:0:0:
256,192,87341,1,12,0:0:0:0:
256,192,87507,1,0,0:0:0:0:
256,192,87674,1,12,0:0:0:0:
256,192,87841,1,0,0:0:0:0:
256,192,88007,1,12,0:0:0:0:
256,192,88341,1,8,0:0:0:0:
256,192,88507,1,0,0:0:0:0:
256,192,88591,1,0,0:0:0:0:
256,192,88674,1,8,0:0:0:0:
256,192,88841,1,0,0:0:0:0:
256,192,89007,1,12,0:0:0:0:
256,192,89174,1,0,0:0:0:0:
256,192,89341,1,0,0:0:0:0:
256,192,89507,1,8,0:0:0:0:
256,192,89674,1,8,0:0:0:0:
256,192,89841,1,0,0:0:0:0:
256,192,90007,1,12,0:0:0:0:
256,192,90341,1,0,0:0:0:0:
256,192,90507,1,0,0:0:0:0:
256,192,90674,1,8,0:0:0:0:
256,192,90841,1,0,0:0:0:0:
256,192,91007,1,12,0:0:0:0:
256,192,91174,1,0,0:0:0:0:
256,192,91341,1,8,0:0:0:0:
256,192,91507,1,8,0:0:0:0:
256,192,91674,1,0,0:0:0:0:
256,192,91757,1,8,0:0:0:0:
256,192,91841,1,0,0:0:0:0:
256,192,91924,1,0,0:0:0:0:
256,192,92007,1,8,0:0:0:0:
256,192,92341,1,0,0:0:0:0:
256,192,92507,1,8,0:0:0:0:
256,192,92674,1,0,0:0:0:0:
256,192,92841,1,8,0:0:0:0:
256,192,93007,1,8,0:0:0:0:
256,192,93341,1,0,0:0:0:0:
256,192,93674,1,0,0:0:0:0:
256,192,94007,1,8,0:0:0:0:
256,192,94341,1,0,0:0:0:0:
256,192,94507,1,8,0:0:0:0:
256,192,94674,1,0,0:0:0:0:
256,192,94841,1,8,0:0:0:0:
256,192,95007,1,0,0:0:0:0:
256,192,95341,1,8,0:0:0:0:
256,192,95507,1,8,0:0:0:0:
256,192,95674,1,8,0:0:0:0:
256,192,95841,1,0,0:0:0:0:
256,192,96007,1,8,0:0:0:0:
256,192,96091,1,8,0:0:0:0:
256,192,96174,1,0,0:0:0:0:
256,192,96257,1,0,0:0:0:0:
256,192,96341,1,8,0:0:0:0:
256,192,96507,1,8,0:0:0:0:
256,192,96674,1,0,0:0:0:0:
256,192,96841,1,0,0:0:0:0:
256,192,97007,1,8,0:0:0:0:
256,192,97091,1,8,0:0:0:0:
256,192,97174,1,8,0:0:0:0:
256,192,97257,1,0,0:0:0:0:
256,192,97341,1,8,0:0:0:0:
256,192,97507,1,0,0:0:0:0:
256,192,97674,1,8,0:0:0:0:
256,192,97841,1,0,0:0:0:0:
256,192,98007,1,12,0:0:0:0:
256,192,98174,1,0,0:0:0:0:
256,192,98341,1,0,0:0:0:0:
256,192,98507,1,12,0:0:0:0:
256,192,98674,1,0,0:0:0:0:
256,192,98841,1,0,0:0:0:0:
256,192,99007,1,12,0:0:0:0:
256,192,99341,1,0,0:0:0:0:
256,192,99507,1,12,0:0:0:0:
256,192,99674,1,0,0:0:0:0:
256,192,99757,1,0,0:0:0:0:
256,192,99841,1,0,0:0:0:0:
256,192,99924,1,0,0:0:0:0:
256,192,100007,1,12,0:0:0:0:
256,192,100341,1,8,0:0:0:0:
256,192,100507,1,0,0:0:0:0:
256,192,100591,1,0,0:0:0:0:
256,192,100674,1,8,0:0:0:0:
256,192,100757,1,8,0:0:0:0:
256,192,100841,1,0,0:0:0:0:
256,192,101007,1,8,0:0:0:0:
256,192,101174,1,8,0:0:0:0:
256,192,101341,1,0,0:0:0:0:
256,192,101507,1,8,0:0:0:0:
256,192,101674,1,0,0:0:0:0:
256,192,101841,1,0,0:0:0:0:
256,192,102007,1,12,0:0:0:0:
256,192,102341,1,8,0:0:0:0:
256,192,102507,1,8,0:0:0:0:
256,192,102591,1,0,0:0:0:0:
256,192,102674,1,8,0:0:0:0:
256,192,102757,1,8,0:0:0:0:
256,192,102841,1,0,0:0:0:0:
256,192,103007,1,12,0:0:0:0:
256,192,103174,1,0,0:0:0:0:
256,192,103341,1,12,0:0:0:0:
256,192,103507,1,8,0:0:0:0:
256,192,103674,1,4,0:0:0:0:
256,192,104007,1,12,0:0:0:0:
256,192,104174,1,0,0:0:0:0:
256,192,104341,1,8,0:0:0:0:
256,192,104424,1,0,0:0:0:0:
256,192,104507,1,8,0:0:0:0:
256,192,104591,1,8,0:0:0:0:
256,192,104674,1,0,0:0:0:0:
256,192,104841,1,0,0:0:0:0:
256,192,105007,1,12,0:0:0:0:
256,192,105174,1,0,0:0:0:0:
256,192,105341,1,8,0:0:0:0:
256,192,105507,1,0,0:0:0:0:
256,192,105674,1,8,0:0:0:0:
256,192,105841,1,8,0:0:0:0:
256,192,106007,1,0,0:0:0:0:
256,192,106341,1,0,0:0:0:0:
256,192,106507,1,0,0:0:0:0:
256,192,106674,1,8,0:0:0:0:
256,192,106841,1,0,0:0:0:0:
256,192,107007,1,8,0:0:0:0:
256,192,107341,1,8,0:0:0:0:
256,192,107674,1,0,0:0:0:0:
256,192,108007,1,8,0:0:0:0:
256,192,108091,1,8,0:0:0:0:
256,192,108174,1,0,0:0:0:0:
256,192,108257,1,0,0:0:0:0:
256,192,108341,1,8,0:0:0:0:
256,192,108507,1,0,0:0:0:0:
256,192,108674,1,8,0:0:0:0:
256,192,108841,1,0,0:0:0:0:
256,192,109007,1,8,0:0:0:0:
256,192,109091,1,8,0:0:0:0:
256,192,109174,1,8,0:0:0:0:
256,192,109257,1,8,0:0:0:0:
256,192,109341,1,0,0:0:0:0:
256,192,109507,1,8,0:0:0:0:
256,192,109674,1,8,0:0:0:0:
256,192,109841,1,0,0:0:0:0:
256,192,110007,1,12,0:0:0:0:
256,192,110341,1,0,0:0:0:0:
256,192,110507,1,12,0:0:0:0:
256,192,110841,1,0,0:0:0:0:
256,192,111007,1,12,0:0:0:0:
256,192,111341,1,4,0:0:0:0:
256,192,111674,1,4,0:0:0:0:
256,192,112007,1,12,0:0:0:0:
