osu file format v14

[General]
AudioFilename: audio.mp3
AudioLeadIn: 0
PreviewTime: 75682
Countdown: 0
SampleSet: Soft
StackLeniency: 0.2
Mode: 0
LetterboxInBreaks: 0
WidescreenStoryboard: 0

[Editor]
Bookmarks: 8007,16007,24007,40007,56007,68007,76007,92007,98007,112007
DistanceSpacing: 0.4
BeatDivisor: 4
GridSize: 4
TimelineZoom: 2.2

[Metadata]
Title:Windy Fairy
TitleUnicode:Windy Fairy
Artist:DJ TOTTO
ArtistUnicode:DJ TOTTO
Creator:Syph
Version:Meg's Insane
Source:REFLEC BEAT colette
Tags:jubeat saucer konami bemani -spring- Anxient Yuii- Akitoshi Corinn Enon Meg iMage-- val0108
BeatmapID:1321377
BeatmapSetID:613726

[Difficulty]
HPDrainRate:6
CircleSize:4
OverallDifficulty:7
ApproachRate:9
SliderMultiplier:1.65
SliderTickRate:1

[Events]
//Background and Video events
0,0,"BG.jpg",0,0
//Break Periods
2,92207,97407
//Storyboard Layer 0 (Background)
//Storyboard Layer 1 (Fail)
//Storyboard Layer 2 (Pass)
//Storyboard Layer 3 (Foreground)
//Storyboard Sound Samples

[TimingPoints]
8,333.333333333333,3,2,0,55,1,0
8,-200,3,2,0,55,0,0
7591,-200,3,2,0,5,0,0
7674,-200,3,2,0,55,0,0
8007,-133.333333333333,3,2,0,65,0,0
16007,-100,3,2,0,65,0,0
19924,-100,3,2,0,5,0,0
20007,-100,3,2,0,65,0,0
24007,-125,3,2,0,60,0,0
40007,-100,3,2,0,80,0,0
56007,-133.333333333333,3,2,0,60,0,0
68007,-133.333333333333,3,2,0,65,0,0
74841,-133.333333333333,3,2,0,55,0,0
75674,-83.3333333333333,3,2,0,65,0,0
76007,-90.9090909090909,3,2,0,80,0,0
92007,-90.9090909090909,3,2,0,60,0,0
98007,-111.111111111111,3,2,0,60,0,0
98507,-111.111111111111,3,2,0,62,0,0
99007,-111.111111111111,3,2,0,65,0,0
100007,-111.111111111111,3,2,0,70,0,0
100341,-90.9090909090908,3,2,0,70,0,0
106007,-133.333333333333,3,2,0,40,0,0
108007,-90.9090909090909,3,2,0,75,0,0
110424,-90.9090909090909,3,2,0,5,0,0
110507,-90.9090909090909,3,2,0,85,0,0
110924,-90.9090909090909,3,2,0,5,0,0
111007,-90.9090909090909,3,2,0,85,0,0
111257,-90.9090909090909,3,2,0,5,0,0
111340,-90.9090909090909,3,2,0,85,0,0
111591,-90.9090909090909,3,2,0,5,0,0
111674,-90.9090909090909,3,2,0,70,0,0
112007,-90.9090909090909,3,2,0,70,0,0
116007,-90.9090909090909,3,2,0,5,0,0

[Colours]
Combo1 : 255,166,190
Combo2 : 255,242,149
Combo3 : 248,185,253
Combo4 : 187,234,251

[HitObjects]
146,114,8,6,0,L|139:196,1,82.5,2|0,0:0|0:0,0:0:0:0:
150,290,507,2,0,P|129:290|109:285,2,41.25,0|2|0,0:0|0:0|0:0,0:0:0:0:
234,334,1007,2,0,P|273:321|314:316,2,82.5,2|0|2,0:0|0:0|0:0,0:0:0:0:
424,344,2007,5,2,0:0:0:0:
456,255,2174,2,0,P|453:214|433:178,1,82.5,0|0,0:0|0:0,0:0:0:0:
436,83,2674,2,0,P|416:86|397:93,1,41.25,2|0,0:0|0:0,0:0:0:0:
328,159,3007,2,0,P|290:142|251:127,2,82.5,2|0|2,0:0|0:0|0:0,0:0:0:0:
270,340,4007,6,0,P|256:302|256:261,1,82.5,2|0,0:0|0:0,0:0:0:0:
348,285,4507,2,0,L|388:291,2,41.25,0|2|0,0:0|0:0|0:0,0:0:0:0:
178,316,5007,1,2,0:0:0:0:
178,316,5674,1,2,0:0:0:0:
257,144,6007,1,2,0:0:0:0:
256,192,6091,12,2,7674,0:0:0:0:
256,192,8007,5,12,0:3:0:0:
171,89,8174,1,0,0:0:0:0:
171,89,8257,1,0,0:0:0:0:
171,89,8341,2,0,L|109:96,1,61.875002360344,2|0,0:0|0:0,0:0:0:0:
43,224,8674,2,0,L|104:216,1,61.875002360344,0|0,0:0|0:0,0:0:0:0:
255,191,9007,6,0,P|313:258|278:339,1,185.625007081032,2|0,0:0|0:0,0:0:0:0:
172,290,9674,2,0,P|201:279|231:271,1,61.875002360344,0|0,0:0|0:0,0:0:0:0:
400,355,10007,6,0,P|399:308|399:262,1,92.812503540516,6|0,0:0|0:0,0:0:0:0:
442,236,10341,2,0,P|412:227|383:216,1,61.875002360344,0|0,0:0|0:0,0:0:0:0:
255,191,10674,2,0,P|246:161|242:130,1,61.875002360344,0|0,0:0|0:0,0:0:0:0:
371,47,11007,6,0,P|366:78|358:108,1,61.875002360344,2|0,1:2|0:0,0:0:0:0:
358,108,11257,1,0,0:0:0:0:
358,108,11341,1,2,0:0:0:0:
193,67,11507,1,4,1:2:0:0:
322,226,11674,2,0,P|352:218|382:215,1,61.875002360344,0|0,0:0|1:0,0:0:0:0:
474,311,12007,5,6,1:2:0:0:
296,364,12174,1,0,0:0:0:0:
296,364,12257,1,0,0:0:0:0:
296,364,12341,2,0,L|289:302,1,61.875002360344,2|0,0:0|0:0,0:0:0:0:
176,201,12674,2,0,L|169:262,1,61.875002360344,0|0,0:0|0:0,0:0:0:0:
55,363,13007,6,0,L|36:178,1,185.625007081032,4|0,1:2|0:0,0:0:0:0:
79,42,13674,2,0,P|103:63|118:90,1,61.875002360344,0|0,0:0|0:0,0:0:0:0:
176,201,14007,2,0,P|220:187|266:180,2,92.812503540516,6|2|8,1:2|0:0|3:0,0:0:0:0:
96,299,14674,2,0,P|82:292|68:285,2,30.937501180172,2|0|8,0:0|0:0|3:0,0:0:0:0:
190,371,15007,6,0,P|199:341|212:313,1,61.875002360344,2|8,0:0|3:0,0:0:0:0:
268,195,15341,1,2,3:0:0:0:
347,317,15507,1,0,3:0:0:0:
347,317,15591,1,0,3:0:0:0:
347,317,15674,2,0,L|377:311,1,30.937501180172,0|0,1:0|1:0,0:0:0:0:
477,262,15841,2,0,L|446:256,1,30.937501180172,0|0,1:0|1:0,0:0:0:0:
347,207,16007,6,0,L|341:124,1,82.5,0|2,1:0|0:0,0:0:0:0:
349,107,16257,1,0,0:0:0:0:
358,90,16341,2,0,P|399:90|438:101,1,82.5,8|0,3:0|0:0,0:0:0:0:
477,262,16674,1,8,3:0:0:0:
477,262,16841,1,0,0:0:0:0:
364,348,17007,6,0,P|320:281|346:206,1,165,12|8,3:0|3:0,0:0:0:0:
438,101,17507,1,0,0:0:0:0:
248,159,17674,2,0,P|206:154|166:148,1,82.5,8|0,3:0|3:0,0:0:0:0:
367,14,18007,6,0,L|350:136,1,123.75,12|2,3:0|0:0,0:0:0:0:
334,124,18341,2,0,L|345:205,1,82.5,8|0,3:0|0:0,0:0:0:0:
166,148,18674,2,0,L|177:66,1,82.5,8|0,3:0|0:0,0:0:0:0:
274,279,19007,2,0,P|233:285|192:279,1,82.5,12|0,3:0|0:0,0:0:0:0:
175,272,19257,1,2,0:0:0:0:
157,264,19341,2,0,P|116:258|75:264,1,82.5,8|0,3:0|0:0,0:0:0:0:
262,360,19674,2,0,L|273:278,1,82.5,8|0,3:0|0:0,0:0:0:0:
334,124,20007,5,6,1:2:0:0:
395,262,20174,1,8,3:0:0:0:
395,262,20257,1,2,0:0:0:0:
395,262,20341,2,0,P|435:267|476:261,1,82.5,2|0,3:0|3:0,0:0:0:0:
420,61,20674,2,0,L|432:143,1,82.5,8|0,3:0|3:0,0:0:0:0:
212,209,21007,5,12,3:0:0:0:
334,124,21174,1,0,3:0:0:0:
346,272,21341,1,8,3:0:0:0:
334,124,21507,1,0,3:0:0:0:
212,209,21674,2,0,L|130:196,1,82.5,12|0,3:0|3:0,0:0:0:0:
245,359,22007,6,0,B|295:336|295:336|347:357|347:357|398:338,1,165,6|8,0:0|3:0,0:0:0:0:
431,142,22507,1,6,0:0:0:0:
346,272,22674,2,0,L|334:190,1,82.5,8|2,0:3|0:0,0:0:0:0:
328,149,22924,1,2,0:0:0:0:
322,108,23007,6,0,L|316:67,3,41.25,12|2|2|2,3:0|0:0|0:0|0:0,0:0:0:0:
218,148,23341,2,0,L|209:205,2,55,12|0|0,3:0|0:0|0:0,0:0:0:0:
143,63,23674,2,0,P|82:57|32:91,1,123.75,2|0,0:0|0:0,0:0:0:0:
21,111,24007,6,0,P|36:174|32:240,1,132,6|0,0:0|0:0,0:0:0:0:
191,343,24507,1,2,0:0:0:0:
141,245,24674,1,8,3:0:0:0:
82,338,24841,1,0,0:0:0:0:
191,343,25007,6,0,P|222:334|255:328,1,66,2|0,0:0|0:0,0:0:0:0:
352,257,25341,2,0,P|320:247|287:241,1,66,2|0,0:0|0:0,0:0:0:0:
105,186,25674,2,0,P|136:176|169:170,1,66,2|0,3:0|0:0,0:0:0:0:
288,41,26007,2,0,L|293:106,1,66,2|0,0:0|0:0,0:0:0:0:
265,291,26341,5,2,0:0:0:0:
352,257,26507,1,2,0:0:0:0:
294,107,26674,5,2,0:0:0:0:
279,199,26841,1,2,0:0:0:0:
439,223,27007,5,2,0:0:0:0:
366,164,27174,1,2,0:0:0:0:
366,164,27257,1,2,0:0:0:0:
366,164,27341,5,0,0:0:0:0:
352,257,27507,1,2,0:0:0:0:
294,107,27674,5,8,3:0:0:0:
279,199,27841,1,2,0:0:0:0:
222,49,28007,6,0,P|277:16|341:26,1,132,2|0,0:0|0:0,0:0:0:0:
451,40,28507,1,2,0:0:0:0:
423,147,28674,2,0,P|417:179|415:212,1,66,8|2,3:0|0:0,0:0:0:0:
319,300,29007,2,0,P|384:292|450:293,2,132,10|8|10,0:0|3:0|0:0,0:0:0:0:
119,343,30007,5,10,0:0:0:0:
172,264,30174,1,2,0:0:0:0:
113,187,30341,1,8,3:0:0:0:
23,220,30507,1,2,0:0:0:0:
26,317,30674,1,8,3:0:0:0:
26,317,31007,5,10,0:0:0:0:
119,343,31174,1,2,3:2:0:0:
172,264,31341,1,8,3:0:0:0:
263,289,31507,1,2,3:2:0:0:
316,210,31674,1,8,3:0:0:0:
316,210,32007,6,0,P|250:201|186:185,1,132,6|0,0:0|3:0,0:0:0:0:
0,97,32507,1,2,0:0:0:0:
87,156,32674,1,8,3:0:0:0:
95,51,32841,1,0,0:0:0:0:
64,175,33007,6,0,L|73:240,1,66,10|0,0:0|0:0,0:0:0:0:
156,336,33341,2,0,L|165:270,1,66,8|0,3:0|0:0,0:0:0:0:
206,108,33674,2,0,L|215:173,1,66,10|0,0:0|0:0,0:0:0:0:
339,301,34007,2,0,L|403:288,1,66,2|0,0:0|0:0,0:0:0:0:
470,108,34341,5,2,0:0:0:0:
449,201,34507,1,2,0:0:0:0:
377,87,34674,5,2,3:2:0:0:
356,180,34841,1,2,0:0:0:0:
284,66,35007,5,2,0:0:0:0:
263,159,35174,1,2,0:0:0:0:
257,182,35257,1,2,0:0:0:0:
252,205,35341,5,8,3:0:0:0:
170,138,35507,1,2,0:0:0:0:
109,298,35674,5,8,3:0:0:0:
214,304,35841,1,2,0:0:0:0:
79,194,36007,6,0,P|63:132|87:72,1,132,2|0,0:0|0:0,0:0:0:0:
202,33,36507,1,2,0:0:0:0:
324,33,36674,2,0,L|387:49,1,66,8|2,3:0|0:0,0:0:0:0:
220,152,37007,5,10,0:0:0:0:
220,152,37174,1,0,0:0:0:0:
292,218,37341,2,0,P|312:191|318:159,1,66,8|0,3:0|0:0,0:0:0:0:
147,85,37674,2,0,P|127:111|121:143,1,66,10|0,0:0|0:0,0:0:0:0:
81,330,38007,5,6,3:2:0:0:
153,277,38174,1,2,0:0:0:0:
241,256,38341,1,8,3:0:0:0:
329,272,38507,1,2,0:0:0:0:
405,321,38674,1,8,3:0:0:0:
405,321,39007,5,2,0:0:0:0:
325,361,39174,1,2,0:0:0:0:
329,272,39341,1,2,3:2:0:0:
422,321,39507,5,2,0:0:0:0:
315,375,39674,1,2,0:0:0:0:
322,256,39841,2,0,P|322:240|324:224,1,33,0|0,3:0|0:0,0:0:0:0:
465,132,40007,6,0,B|415:117|415:117|356:128|356:128|307:107,1,165,6|0,0:0|1:0,0:0:0:0:
168,60,40507,2,0,L|161:33,3,27.5,2|0|0|0,0:0|0:0|0:0|1:0,0:0:0:0:
196,203,40841,1,0,0:0:0:0:
307,106,41007,6,0,P|334:76|369:54,1,82.5,2|0,3:2|0:0,0:0:0:0:
272,230,41341,2,0,P|231:221|195:202,1,82.5,0|0,1:0|3:0,0:0:0:0:
397,198,41674,2,0,P|410:236|411:278,1,82.5,0|0,1:0|3:0,0:0:0:0:
369,53,42007,5,6,0:0:0:0:
369,53,42341,2,0,P|334:75|307:106,1,82.5,0|0,1:0|0:0,0:0:0:0:
410,278,42674,2,0,P|410:236|397:198,1,82.5,0|0,1:0|0:0,0:0:0:0:
195,202,43007,5,0,1:0:0:0:
279,285,43174,1,2,0:0:0:0:
279,285,43257,1,2,0:0:0:0:
279,285,43341,1,0,1:0:0:0:
117,344,43507,1,2,0:0:0:0:
146,174,43674,1,2,1:2:0:0:
190,292,43841,1,2,0:0:0:0:
273,115,44007,6,0,B|356:100|356:100|407:162,1,165,6|0,0:0|1:0,0:0:0:0:
475,54,44507,1,2,0:0:0:0:
508,205,44674,2,0,P|490:241|479:281,1,82.5,0|2,1:0|0:0,0:0:0:0:
278,345,45007,6,0,P|318:336|359:330,1,82.5,6|0,0:0|0:0,0:0:0:0:
139,256,45341,2,0,P|179:247|220:241,1,82.5,0|0,1:0|3:0,0:0:0:0:
0,167,45674,2,0,P|40:158|81:152,1,82.5,0|0,1:0|3:0,0:0:0:0:
281,101,46007,5,0,1:0:0:0:
281,196,46174,1,2,0:0:0:0:
372,72,46341,1,0,1:0:0:0:
372,226,46507,1,2,0:0:0:0:
463,43,46674,1,0,1:0:0:0:
281,291,47007,5,0,1:0:0:0:
281,196,47174,1,2,0:0:0:0:
190,321,47341,1,0,1:0:0:0:
190,167,47507,1,2,0:0:0:0:
99,351,47674,1,0,1:0:0:0:
281,291,47841,1,0,1:0:0:0:
99,138,48007,6,0,B|116:30|116:30|158:66,1,165,6|0,0:0|1:0,0:0:0:0:
346,81,48507,2,0,L|371:71,3,27.5,2|0|0|0,0:0|0:0|0:0|1:0,0:0:0:0:
190,167,48841,1,2,0:0:0:0:
359,239,49007,6,0,B|378:294|358:358|358:358|315:370,2,165,2|0|6,1:2|1:0|1:2,0:0:0:0:
232,277,49841,1,0,3:0:0:0:
448,210,50007,6,0,P|414:159|355:144,1,123.75,6|0,0:0|0:0,0:0:0:0:
310,155,50341,2,0,P|321:116|326:75,1,82.5,0|0,1:0|0:0,0:0:0:0:
152,253,50674,2,0,P|157:293|168:333,1,82.5,0|0,1:0|0:0,0:0:0:0:
359,239,51007,5,0,1:0:0:0:
271,156,51174,1,2,0:0:0:0:
271,156,51257,1,2,0:0:0:0:
271,156,51341,1,0,1:0:0:0:
442,60,51507,1,2,0:0:0:0:
359,239,51674,1,6,1:2:0:0:
322,46,51841,1,2,3:2:0:0:
465,180,52007,6,0,P|455:261|457:344,1,165,6|0,1:2|0:0,0:0:0:0:
248,323,52507,1,2,0:0:0:0:
359,239,52674,1,2,1:2:0:0:
188,197,52841,1,2,0:0:0:0:
274,342,53007,6,0,P|280:301|280:260,1,82.5,6|0,0:0|0:0,0:0:0:0:
323,134,53341,2,0,P|358:154|398:166,1,82.5,2|0,1:2|3:0,0:0:0:0:
215,43,53674,2,0,P|179:63|139:75,1,82.5,2|0,1:2|3:0,0:0:0:0:
69,222,54007,5,2,1:0:0:0:
160,252,54174,1,2,3:2:0:0:
141,159,54341,1,0,1:0:0:0:
69,222,54507,1,2,3:2:0:0:
160,252,54674,2,0,L|241:241,1,82.5,2|0,1:0|0:0,0:0:0:0:
382,264,55007,5,2,1:0:0:0:
401,171,55174,1,2,1:2:0:0:
472,233,55341,1,0,1:0:0:0:
453,326,55507,1,2,1:2:0:0:
363,357,55674,1,0,1:0:0:0:
342,354,55757,1,0,1:0:0:0:
322,351,55841,1,0,1:0:0:0:
301,349,55924,1,0,1:0:0:0:
281,346,56007,6,0,B|194:331|194:331|109:353|109:353|141:289,1,247.500009441376,6|2,0:0|3:0,0:0:0:0:
77,68,57007,6,0,L|48:123,1,61.875002360344,0|0,1:0|0:0,0:0:0:0:
175,175,57341,2,0,L|141:123,1,61.875002360344,0|0,0:0|0:0,0:0:0:0:
33,206,57674,2,0,L|63:204,3,30.937501180172,2|0|0|0,0:0|0:0|0:0|0:0,0:0:0:0:
93,202,58007,6,0,P|85:232|83:263,1,61.875002360344,8|0,3:0|0:0,0:0:0:0:
173,356,58341,2,0,P|180:326|183:295,1,61.875002360344,2|0,0:0|3:0,0:0:0:0:
259,164,58674,2,0,P|251:193|248:224,1,61.875002360344,2|0,0:0|0:0,0:0:0:0:
338,317,59007,2,0,P|345:287|348:256,1,61.875002360344,2|0,1:2|0:0,0:0:0:0:
424,125,59341,6,0,L|459:103,2,41.2500015735627,2|2|2,3:2|0:0|0:0,0:0:0:0:
312,184,59674,2,0,P|285:168|255:163,1,61.875002360344,0|0,1:0|0:0,0:0:0:0:
85,266,60007,6,0,B|44:137|156:164|96:29,1,247.500009441376,6|2,0:0|3:0,0:0:0:0:
181,214,61007,6,0,P|210:223|238:236,1,61.875002360344,2|0,1:2|0:0,0:0:0:0:
339,200,61341,2,0,P|353:227|363:256,1,61.875002360344,0|0,0:0|0:0,0:0:0:0:
460,301,61674,2,0,P|450:330|437:358,1,61.875002360344,2|0,0:0|3:0,0:0:0:0:
492,200,62007,6,0,L|486:138,1,61.875002360344,6|2,1:2|3:2,0:0:0:0:
333,138,62341,2,0,L|338:199,1,61.875002360344,2|2,0:0|1:2,0:0:0:0:
410,81,62674,2,0,L|404:19,1,61.875002360344,2|2,0:0|1:2,0:0:0:0:
251,19,63007,2,0,L|256:80,1,61.875002360344,0|2,1:0|0:0,0:0:0:0:
183,202,63341,6,0,L|142:196,2,41.2500015735627,2|2|2,1:2|0:0|0:0,0:0:0:0:
285,293,63674,2,0,L|315:288,2,30.937501180172,0|0|0,1:0|0:0|3:0,0:0:0:0:
65,361,64007,6,0,B|59:317|39:282|39:282|113:319|198:286,1,247.500009441376,6|2,0:0|3:0,0:0:0:0:
291,65,65007,2,0,P|274:125|277:186,2,123.750004720688,0|0|2,1:0|0:0|0:0,0:0:0:0:
381,40,65841,1,0,0:0:0:0:
381,40,66007,6,0,P|409:54|438:64,1,61.875002360344,8|0,3:0|0:0,0:0:0:0:
512,141,66341,2,0,P|482:151|455:164,1,61.875002360344,2|0,0:0|3:0,0:0:0:0:
381,242,66674,2,0,P|408:255|437:265,1,61.875002360344,2|0,3:2|0:0,0:0:0:0:
512,343,67007,2,0,P|482:353|455:366,1,61.875002360344,2|0,0:0|0:0,0:0:0:0:
281,254,67341,6,0,P|278:233|279:212,2,41.2500015735627,2|2|2,0:0|0:0|0:0,0:0:0:0:
202,359,67674,2,0,P|175:342|148:327,1,61.875002360344,8|0,3:0|3:0,0:0:0:0:
44,173,68007,6,0,L|35:213,2,41.2500015735627,6|2|2,1:2|0:0|0:0,0:0:0:0:
155,124,68341,2,0,L|163:83,2,41.2500015735627,2|0|2,1:2|0:0|0:0,0:0:0:0:
124,204,68674,2,0,L|164:212,2,41.2500015735627,2|2|0,1:2|0:0|0:0,0:0:0:0:
75,93,69007,2,0,L|34:84,2,41.2500015735627,6|0|0,0:0|0:0|0:0,0:0:0:0:
236,160,69341,6,0,L|248:99,1,61.875002360344,0|2,1:0|3:2,0:0:0:0:
301,295,69674,2,0,L|313:234,1,61.875002360344,2|0,1:2|3:0,0:0:0:0:
411,51,70007,6,0,P|430:45|451:42,2,41.2500015735627,6|2|2,1:2|0:0|0:0,0:0:0:0:
326,154,70341,2,0,P|345:159|366:162,2,41.2500015735627,2|2|2,1:2|0:0|0:0,0:0:0:0:
241,51,70674,2,0,P|260:45|281:42,2,41.2500015735627,2|2|0,1:2|0:0|0:0,0:0:0:0:
156,154,71007,2,0,P|175:159|196:162,2,41.2500015735627,6|0|0,1:2|0:0|0:0,0:0:0:0:
70,51,71341,6,0,P|101:43|131:41,1,61.875002360344,2|2,1:2|1:2,0:0:0:0:
295,63,71674,2,0,P|264:70|234:72,1,61.875002360344,2|2,1:2|0:0,0:0:0:0:
100,211,72007,6,0,L|79:175,2,41.2500015735627,6|2|2,1:2|0:0|0:0,0:0:0:0:
216,198,72341,2,0,L|195:162,2,41.2500015735627,2|2|2,1:2|0:0|0:0,0:0:0:0:
332,185,72674,2,0,L|311:149,2,41.2500015735627,2|2|0,1:2|0:0|0:0,0:0:0:0:
370,313,73007,6,0,L|390:277,2,41.2500015735627,6|0|2,1:2|0:0|0:0,0:0:0:0:
254,300,73341,2,0,L|274:264,2,41.2500015735627,2|2|0,1:2|0:0|0:0,0:0:0:0:
138,287,73674,2,0,L|158:251,2,41.2500015735627,2|0|0,1:2|0:0|0:0,0:0:0:0:
22,274,74007,5,6,0:0:0:0:
22,274,74841,2,0,L|37:247,2,30.937501180172,2|2|2,0:0|0:0|0:0,0:0:0:0:
162,64,75674,6,0,P|185:72|209:78,1,49.4999984893799,2|2,3:0|0:0,0:0:0:0:
292,145,75841,2,0,P|268:151|244:159,1,49.4999984893799,2|2,3:0|0:0,0:0:0:0:
126,178,76007,6,0,L|117:268,1,90.7500027694703,6|0,0:0|0:0,0:0:0:0:
265,356,76341,2,0,L|256:265,1,90.7500027694703,0|2,1:0|0:0,0:0:0:0:
256,265,76591,1,2,0:0:0:0:
256,265,76674,1,0,1:0:0:0:
108,358,76841,1,0,0:0:0:0:
243,159,77007,6,0,P|327:186|363:266,1,181.500005538941,6|0,0:0|1:0,0:0:0:0:
422,131,77507,1,0,3:0:0:0:
256,265,77674,2,0,P|213:248|169:238,1,90.7500027694703,0|0,1:0|0:0,0:0:0:0:
36,64,78007,5,6,0:0:0:0:
70,212,78174,1,0,0:0:0:0:
182,109,78341,1,0,1:0:0:0:
95,128,78507,1,2,0:0:0:0:
95,128,78591,1,2,0:0:0:0:
95,128,78674,1,0,1:0:0:0:
269,90,78841,1,2,3:2:0:0:
169,238,79007,6,0,B|159:195|159:195|170:149,2,90.7500027694703,6|0|2,0:0|0:0|1:2,0:0:0:0:
261,348,79507,1,0,3:0:0:0:
51,296,79674,1,2,1:2:0:0:
245,194,79841,1,0,1:0:0:0:
363,296,80007,5,6,1:2:0:0:
395,306,80091,1,2,0:0:0:0:
428,301,80174,1,2,3:2:0:0:
457,284,80257,1,2,0:0:0:0:
476,256,80341,2,0,L|468:166,1,90.7500027694703,2|2,1:2|3:2,0:0:0:0:
355,61,80674,1,2,1:2:0:0:
219,137,80841,1,2,0:0:0:0:
351,294,81007,5,6,1:2:0:0:
389,306,81091,1,2,0:0:0:0:
428,301,81174,1,2,3:2:0:0:
461,281,81257,1,2,0:0:0:0:
483,248,81341,2,0,L|474:157,1,90.7500027694703,2|2,1:2|3:2,0:0:0:0:
347,45,81674,1,6,1:2:0:0:
214,152,81841,1,2,3:2:0:0:
418,103,82007,6,0,L|239:71,1,181.500005538941,6|0,1:2|1:0,0:0:0:0:
187,241,82507,2,0,L|276:225,1,90.7500027694703,0|2,3:0|1:3,0:0:0:0:
79,159,82841,1,0,0:0:0:0:
158,326,83007,6,0,P|179:286|187:242,1,90.7500027694703,6|0,1:2|0:0,0:0:0:0:
108,75,83341,2,0,P|86:115|78:159,1,90.7500027694703,0|0,1:0|1:0,0:0:0:0:
276,224,83674,1,0,1:0:0:0:
158,326,83841,1,0,3:0:0:0:
354,353,84007,6,0,P|397:338|442:328,1,90.7500027694703,6|0,1:2|0:0,0:0:0:0:
457,119,84341,2,0,P|445:162|439:207,1,90.7500027694703,0|2,1:0|0:0,0:0:0:0:
439,207,84591,1,2,0:0:0:0:
439,207,84674,1,2,1:2:0:0:
336,109,84841,1,2,3:2:0:0:
498,261,85007,6,0,P|414:282|360:215,1,181.500005538941,6|0,1:2|1:0,0:0:0:0:
440,85,85507,1,0,3:0:0:0:
279,168,85674,2,0,L|189:150,1,90.7500027694703,0|0,1:0|3:0,0:0:0:0:
360,39,86007,6,0,B|329:138|396:113|360:215,1,181.500005538941,6|0,1:2|1:0,0:0:0:0:
264,306,86507,2,0,L|234:300,3,30.2500009231568,2|0|0|2,0:0|0:0|0:0|1:2,0:0:0:0:
450,214,86841,1,2,3:2:0:0:
359,347,87007,6,0,L|365:256,1,90.7500027694703,6|0,1:2|0:0,0:0:0:0:
203,117,87341,2,0,L|278:167,1,90.7500027694703,6|0,1:2|3:0,0:0:0:0:
480,96,87674,2,0,L|398:136,1,90.7500027694703,0|0,1:0|3:0,0:0:0:0:
264,306,88007,5,6,1:2:0:0:
278,167,88174,1,0,0:0:0:0:
391,248,88341,1,0,1:0:0:0:
319,85,88507,1,2,0:0:0:0:
319,85,88591,1,2,0:0:0:0:
319,85,88674,1,2,1:2:0:0:
485,197,88841,1,0,3:0:0:0:
278,167,89007,6,0,B|216:157|216:157|167:181|167:181|104:168,1,181.500005538941,6|0,1:2|1:0,0:0:0:0:
232,251,89507,1,2,0:0:0:0:
150,84,89674,1,2,1:2:0:0:
65,310,89841,1,2,3:2:0:0:
278,167,90007,6,0,L|189:148,1,90.7500027694703,6|0,1:2|0:0,0:0:0:0:
328,304,90341,1,0,1:0:0:0:
407,107,90507,2,0,L|413:197,1,90.7500027694703,0|0,3:0|1:0,0:0:0:0:
279,37,90841,1,0,3:0:0:0:
150,216,91007,6,0,P|110:139|167:75,1,181.500005538941,6|0,1:2|1:0,0:0:0:0:
338,226,91507,1,0,3:0:0:0:
199,333,91674,1,2,1:2:0:0:
154,325,91757,1,2,1:2:0:0:
109,317,91841,1,2,1:2:0:0:
64,309,91924,1,2,1:2:0:0:
20,302,92007,5,2,0:0:0:0:
315,145,98007,6,0,L|364:138,2,49.4999984893799,6|0|0,1:2|0:0|0:0,0:0:0:0:
184,163,98341,2,0,L|155:123,2,49.4999984893799,0|0|0,0:0|0:0|0:0,0:0:0:0:
266,266,98674,2,0,L|246:312,2,49.4999984893799,0|0|0,0:0|0:0|0:0,0:0:0:0:
244,116,99007,6,0,L|264:70,2,49.4999984893799,6|0|0,1:2|0:0|0:0,0:0:0:0:
326,219,99341,2,0,L|355:259,2,49.4999984893799,0|0|0,0:0|0:0|0:0,0:0:0:0:
196,238,99674,2,0,L|171:241,5,24.74999924469
249,206,100007,5,6,1:2:0:0:
249,206,100341,2,0,L|243:115,1,90.7500027694703,2|2,1:2|3:2,0:0:0:0:
442,219,100674,2,0,L|436:309,1,90.7500027694703,2|2,1:2|3:2,0:0:0:0:
223,376,101007,6,0,P|223:310|278:275,1,136.125004154205,2|0,1:2|0:0,0:0:0:0:
302,251,101341,2,0,P|258:245|216:228,1,90.7500027694703,0|0,1:0|0:0,0:0:0:0:
27,318,101674,2,0,P|69:301|114:296,1,90.7500027694703,0|0,1:0|3:0,0:0:0:0:
185,81,102007,5,6,1:2:0:0:
215,227,102174,1,2,0:0:0:0:
215,227,102257,1,0,0:0:0:0:
215,227,102341,1,2,1:2:0:0:
361,197,102508,1,2,3:2:0:0:
361,197,102591,1,0,0:0:0:0:
361,197,102675,1,6,1:2:0:0:
331,51,102841,1,0,3:0:0:0:
185,81,103007,6,0,P|140:75|95:64,1,90.7500027694703,6|0,1:2|0:0,0:0:0:0:
215,227,103341,2,0,P|259:216|304:210,1,90.7500027694703,6|0,1:2|3:0,0:0:0:0:
452,288,103674,1,2,1:2:0:0:
400,105,103841,1,0,3:0:0:0:
304,210,104007,5,6,1:2:0:0:
452,288,104174,2,0,L|457:258,3,30.2500009231568,2|0|0|2,0:0|0:0|0:0|1:2,0:0:0:0:
400,105,104507,1,0,3:0:0:0:
304,210,104674,1,2,1:2:0:0:
493,153,104841,1,0,3:0:0:0:
275,90,105007,6,0,P|187:113|97:104,1,181.500005538941,6|0,1:2|1:0,0:0:0:0:
135,316,105507,1,0,3:0:0:0:
225,186,105674,1,2,1:2:0:0:
135,316,105841,1,2,3:2:0:0:
30,196,106007,6,0,P|20:166|17:135,1,61.875002360344,0|0,3:0|0:0,0:0:0:0:
181,32,106341,2,0,P|178:62|168:92,1,61.875002360344,0|0,0:0|0:0,0:0:0:0:
109,221,106674,1,0,0:0:0:0:
225,186,106841,1,0,0:0:0:0:
301,279,107007,2,0,P|384:313|461:267,1,185.625007081032,0|0,0:0|0:0,0:0:0:0:
497,164,107674,2,0,L|483:72,1,92.812503540516,0|0,0:0|0:0,0:0:0:0:
495,43,108007,6,0,L|450:36,1,45.3750013847352,6|2,1:2|0:0,0:0:0:0:
394,96,108174,2,0,L|349:89,1,45.3750013847352,2|2,1:2|0:0,0:0:0:0:
293,149,108341,2,0,L|203:136,1,90.7500027694703,2|2,1:2|1:2,0:0:0:0:
47,167,108674,1,6,1:2:0:0:
219,54,108841,1,2,1:2:0:0:
230,259,109007,5,6,1:2:0:0:
123,95,109174,1,0,1:0:0:0:
112,289,109341,1,0,1:0:0:0:
234,136,109507,1,2,1:2:0:0:
46,186,109674,1,6,1:2:0:0:
230,259,109841,1,2,1:2:0:0:
230,259,109924,1,0,0:0:0:0:
230,259,110007,6,0,P|258:268|286:280,2,60.5000018463135,6|0|0,1:2|0:0|0:0,0:0:0:0:
179,160,110341,2,0,P|206:146|234:135,2,60.5000018463135,0|0|0,0:0|0:0|0:0,0:0:0:0:
72,126,110674,2,0,P|81:97|93:69,2,60.5000018463135,0|0|0,0:0|0:0|0:0,0:0:0:0:
75,268,111007,6,0,P|84:296|96:324,2,60.5000018463135,6|0|0,1:2|0:0|0:0,0:0:0:0:
182,234,111341,2,0,P|209:248|237:259,2,60.5000018463135,6|0|0,1:2|0:0|0:0,0:0:0:0:
233,135,111674,2,0,P|261:126|289:114,2,60.5000018463135,2|0|0,1:2|0:0|0:0,0:0:0:0:
93,69,112007,5,6,0:0:0:0:
256,192,112119,12,0,116007,0:0:0:0:
