osu file format v14

[General]
AudioFilename: audio.mp3
AudioLeadIn: 0
PreviewTime: 75682
Countdown: 0
SampleSet: Soft
StackLeniency: 0.2
Mode: 0
LetterboxInBreaks: 0
WidescreenStoryboard: 0

[Editor]
Bookmarks: 9007,31007
DistanceSpacing: 1.2
BeatDivisor: 4
GridSize: 32
TimelineZoom: 2.6

[Metadata]
Title:Windy Fairy
TitleUnicode:Windy Fairy
Artist:DJ TOTTO
ArtistUnicode:DJ TOTTO
Creator:Syph
Version:Anxient's Easy
Source:REFLEC BEAT colette
Tags:jubeat saucer konami bemani -spring- Anxient Yuii- Akitoshi Corinn Enon Meg iMage-- val0108
BeatmapID:1301169
BeatmapSetID:613726

[Difficulty]
HPDrainRate:2
CircleSize:3
OverallDifficulty:2
ApproachRate:3
SliderMultiplier:0.999999999999999
SliderTickRate:1

[Events]
//Background and Video events
0,0,"BG.jpg",0,0
//Break Periods
2,92207,96567
//Storyboard Layer 0 (Background)
//Storyboard Layer 1 (Fail)
//Storyboard Layer 2 (Pass)
//Storyboard Layer 3 (Foreground)
//Storyboard Sound Samples

[TimingPoints]
8,333.333333333333,3,2,0,45,1,0
3007,-100,3,2,0,55,0,0
4007,-100,3,2,0,50,0,0
6007,-100,3,2,0,55,0,0
6091,-100,3,2,0,45,0,0
7591,-100,3,2,0,5,0,0
7674,-100,3,2,0,55,0,0
8007,-100,3,2,0,65,0,0
19924,-100,3,2,0,5,0,0
20007,-100,3,2,0,65,0,0
24007,-100,3,2,0,60,0,0
40007,-100,3,2,0,80,0,0
56007,-100,3,2,0,60,0,0
68007,-100,3,2,0,65,0,0
74841,-100,3,2,0,55,0,0
75674,-100,3,2,0,65,0,0
76007,-100,3,2,0,80,0,1
92007,-100,3,2,0,60,0,0
98507,-100,3,2,0,62,0,0
99007,-100,3,2,0,65,0,0
100007,-100,3,2,0,70,0,1
106007,-100,3,2,0,40,0,0
108007,-100,3,2,0,75,0,1
110424,-100,3,2,0,5,0,1
110507,-100,3,2,0,85,0,1
110924,-100,3,2,0,5,0,1
111007,-100,3,2,0,85,0,1
111257,-100,3,2,0,5,0,1
111340,-100,3,2,0,85,0,1
111591,-100,3,2,0,5,0,1
111674,-100,3,2,0,70,0,1
112007,-100,3,2,0,70,0,0
116007,-100,3,2,0,5,0,0

[Colours]
Combo1 : 255,166,190
Combo2 : 255,242,149
Combo3 : 248,185,253
Combo4 : 187,234,251

[HitObjects]
104,101,8007,6,0,L|303:83,1,200,12|0,0:3|3:0,0:0:0:0:
423,72,9007,2,0,P|508:105|489:194,1,200,2|0,0:0|0:0,0:0:0:0:
393,267,10007,2,0,L|171:286,1,200,6|0,0:0|3:0,0:0:0:0:
161,168,11007,2,0,L|142:390,1,200,2|0,1:2|0:0,0:0:0:0:
37,310,12007,6,0,L|54:110,1,200,6|0,1:2|0:0,0:0:0:0:
151,38,13007,2,0,P|244:64|289:150,1,200,4|0,1:2|0:0,0:0:0:0:
230,255,14007,2,0,L|80:242,2,150,6|8|2,1:2|3:0|0:0,0:0:0:0:
297,357,15341,2,0,L|416:367,1,99.9999999999999,2|0,3:0|1:0,0:0:0:0:
474,274,16007,6,0,L|491:74,1,200,0|8,1:0|3:0,0:0:0:0:
386,14,17007,2,0,P|348:7|326:137,1,200,12|8,3:0|3:0,0:0:0:0:
237,222,18007,2,0,L|37:204,1,200,12|8,3:0|3:0,0:0:0:0:
69,320,19007,2,0,L|268:337,1,200,12|8,3:0|3:0,0:0:0:0:
352,252,20007,5,6,1:2:0:0:
465,210,20341,2,0,P|472:259|458:307,1,99.9999999999999,2|8,3:0|3:0,0:0:0:0:
352,252,21007,2,0,P|345:202|359:155,1,99.9999999999999,12|8,3:0|3:0,0:0:0:0:
463,96,21674,2,0,P|469:46|455:0,1,99.9999999999999,12|6,3:0|0:0,0:0:0:0:
256,192,22174,12,0,24007,0:0:0:0:
352,252,25007,6,0,L|152:234,1,200,2|2,0:0|3:0,0:0:0:0:
56,162,26007,2,0,P|41:71|130:47,1,200,2|2,0:0|0:0,0:0:0:0:
209,138,27007,2,0,L|409:156,1,200,2|8,0:0|3:0,0:0:0:0:
446,41,28007,6,0,L|464:241,1,200,2|8,0:0|3:0,0:0:0:0:
394,338,29007,2,0,P|354:349|259:238,1,200,10|10,0:0|0:0,0:0:0:0:
209,138,30007,2,0,L|109:146,2,99.9999999999999,10|8|8,0:0|3:0|3:0,0:0:0:0:
290,49,31007,2,0,L|389:57,2,99.9999999999999,10|8|8,0:0|3:0|3:0,0:0:0:0:
209,138,32007,6,0,L|9:156,1,200,6|8,0:0|3:0,0:0:0:0:
58,265,33007,2,0,L|258:247,1,200,10|10,0:0|0:0,0:0:0:0:
329,151,34007,2,0,P|369:140|464:251,1,200,2|2,0:0|3:2,0:0:0:0:
397,340,35007,2,0,L|197:358,1,200,2|8,0:0|3:0,0:0:0:0:
92,300,36007,6,0,L|110:100,1,200,2|8,3:2|3:0,0:0:0:0:
209,33,37007,2,0,P|249:22|344:133,1,200,10|10,0:0|0:0,0:0:0:0:
290,230,38007,5,6,3:2:0:0:
175,194,38341,2,0,L|75:203,1,99.9999999999999,8|8,3:0|3:0,0:0:0:0:
132,307,39007,2,0,L|32:316,2,99.9999999999999,2|2|2,0:0|3:2|0:0,0:0:0:0:
240,362,40007,6,0,L|440:344,1,200,6|0,0:0|1:0,0:0:0:0:
489,234,41007,2,0,P|447:148|352:143,1,200,2|0,3:2|1:0,0:0:0:0:
261,221,42007,2,0,P|233:174|239:113,2,99.9999999999999,6|0|0,0:0|1:0|1:0,0:0:0:0:
352,143,43007,1,0,1:0:0:0:
305,32,43341,2,0,P|263:5|213:4,1,99.9999999999999,0|2,1:0|1:2,0:0:0:0:
123,82,44007,6,0,L|105:282,1,200,6|0,0:0|1:0,0:0:0:0:
215,329,45007,2,0,L|233:129,1,200,6|0,0:0|1:0,0:0:0:0:
305,32,46007,2,0,P|346:5|396:4,1,99.9999999999999,0|0,1:0|1:0,0:0:0:0:
383,123,46674,1,0,1:0:0:0:
370,242,47007,2,0,P|411:268|461:269,2,99.9999999999999,0|0|0,1:0|1:0|1:0,0:0:0:0:
273,171,48007,6,0,L|255:371,1,200,6|0,0:0|1:0,0:0:0:0:
158,297,49007,2,0,P|62:292|21:206,1,200,2|6,1:2|1:2,0:0:0:0:
83,105,50007,2,0,P|178:109|219:195,1,200,6|0,0:0|1:0,0:0:0:0:
282,297,51007,2,0,L|482:315,1,200,0|6,1:0|1:2,0:0:0:0:
431,205,52007,6,0,L|413:5,1,200,6|2,1:2|1:2,0:0:0:0:
299,45,53007,2,0,L|317:245,1,200,6|2,0:0|1:2,0:0:0:0:
233,330,54007,2,0,L|133:339,2,99.9999999999999,2|0|2,1:0|1:0|1:0,0:0:0:0:
165,230,55007,2,0,L|65:239,2,99.9999999999999,2|0|0,1:0|1:0|1:0,0:0:0:0:
97,130,56007,6,0,L|297:112,1,200,6|2,0:0|3:0,0:0:0:0:
415,98,57007,2,0,P|479:168|447:258,1,200,0|2,1:0|0:0,0:0:0:0:
368,348,58007,1,8,3:0:0:0:
248,358,58341,2,0,L|148:367,1,99.9999999999999,2|2,0:0|0:0,0:0:0:0:
64,280,59007,2,0,P|39:237|39:187,2,99.9999999999999,2|2|0,1:2|3:2|1:0,0:0:0:0:
158,205,60007,6,0,L|358:187,1,200,6|2,0:0|3:0,0:0:0:0:
398,74,61007,2,0,L|198:92,1,200,2|2,1:2|0:0,0:0:0:0:
103,19,62007,2,0,L|3:10,2,99.9999999999999,6|2|2,1:2|0:0|0:0,0:0:0:0:
44,123,63007,2,0,L|26:323,1,200,0|0,1:0|1:0,0:0:0:0:
135,374,64007,6,0,P|179:367|192:229,1,200,6|2,0:0|3:0,0:0:0:0:
173,119,65007,2,0,L|373:137,1,200,0|2,1:0|0:0,0:0:0:0:
459,219,66007,1,8,3:0:0:0:
384,313,66341,2,0,P|426:337|476:337,2,99.9999999999999,2|2|2,0:0|3:2|0:0,0:0:0:0:
384,313,68007,6,0,L|184:295,1,200,6|2,1:2|1:2,0:0:0:0:
81,232,69007,2,0,P|53:192|154:99,1,200,6|2,0:0|1:2,0:0:0:0:
251,64,70007,2,0,L|233:264,1,200,6|2,1:2|1:2,0:0:0:0:
321,344,71007,1,6,1:2:0:0:
433,301,71341,2,0,P|446:258|427:190,1,99.9999999999999,2|2,1:2|1:2,0:0:0:0:
362,107,72007,6,0,P|226:126|232:262,2,300,6|6|6,1:2|1:2|0:0,0:0:0:0:
362,107,75674,5,2,3:0:0:0:
477,75,76007,2,0,L|459:275,1,200,6|0,0:0|1:0,0:0:0:0:
356,337,77007,2,0,P|316:341|254:209,1,200,6|0,0:0|1:0,0:0:0:0:
305,115,78007,2,0,L|105:97,1,200,6|0,0:0|1:0,0:0:0:0:
34,194,79007,1,6,0:0:0:0:
53,312,79341,2,0,P|105:293|141:243,1,99.9999999999999,2|2,1:2|1:2,0:0:0:0:
247,221,80007,6,0,P|299:240|335:290,2,99.9999999999999,6|2|2,1:2|1:2|1:2,0:0:0:0:
156,142,81007,2,0,P|141:95|152:47,2,99.9999999999999,6|2|6,1:2|1:2|1:2,0:0:0:0:
264,90,82007,2,0,L|472:108,1,200,6|2,1:2|1:3,0:0:0:0:
503,221,83007,2,0,L|303:203,1,200,6|0,1:2|1:0,0:0:0:0:
245,308,84007,6,0,L|45:326,1,200,6|2,1:2|1:2,0:0:0:0:
1,214,85007,2,0,P|-3:174|129:112,1,200,6|0,1:2|1:0,0:0:0:0:
184,205,86007,6,0,L|384:223,1,200,6|2,1:2|1:2,0:0:0:0:
451,123,87007,2,0,P|455:83|323:21,1,200,6|0,1:2|1:0,0:0:0:0:
233,78,88007,6,0,L|215:278,1,200,6|2,1:2|1:2,0:0:0:0:
98,304,89007,2,0,L|116:104,1,200,6|2,1:2|1:2,0:0:0:0:
233,78,90007,2,0,P|309:131|280:220,1,200,6|0,1:2|1:0,0:0:0:0:
212,319,91007,2,0,L|412:337,1,200,6|2,1:2|1:2,0:0:0:0:
478,237,92007,5,2,0:0:0:0:
454,196,98007,6,0,L|294:181,1,150,6|4,1:2|1:2,0:0:0:0:
214,338,99007,2,0,L|54:352,2,150,6|6|6,1:2|1:2|1:2,0:0:0:0:
281,238,100341,2,0,P|297:146|213:104,1,200,2|2,1:2|1:2,0:0:0:0:
98,137,101341,2,0,P|76:181|79:231,1,99.9999999999999,0|0,1:0|1:0,0:3:0:0:
64,351,102007,6,0,L|184:340,1,99.9999999999999,6|2,1:2|1:2,0:0:0:0:
253,262,102674,2,0,L|352:270,1,99.9999999999999,6|6,1:2|1:2,0:0:0:0:
469,298,103341,2,0,P|471:248|450:203,1,99.9999999999999,6|2,1:2|1:2,0:3:0:0:
365,118,104007,6,0,L|165:100,1,200,6|2,1:2|1:2,0:0:0:0:
129,214,105007,2,0,L|329:232,1,200,6|2,1:2|1:2,0:0:0:0:
363,344,106007,5,0,3:0:0:0:
92,213,107007,1,0,0:0:0:0:
341,43,108007,6,0,L|141:25,1,200,6|6,1:2|1:2,0:0:0:0:
61,114,109007,2,0,L|261:132,1,200,6|6,1:2|1:2,0:0:0:0:
361,196,110007,6,0,P|387:225|336:325,1,150,6|6,1:2|1:2,0:0:0:0:
185,383,111007,2,0,P|166:340|174:266,2,99.9999999999999,6|6|2,1:2|1:2|1:2,0:0:0:0:
256,192,112007,12,0,116007,0:0:0:0:
