osu file format v14

[General]
AudioFilename: audio.mp3
AudioLeadIn: 0
PreviewTime: 75682
Countdown: 0
SampleSet: Soft
StackLeniency: 0.4
Mode: 0
LetterboxInBreaks: 0
WidescreenStoryboard: 0

[Editor]
Bookmarks: 8,68007
DistanceSpacing: 1.4
BeatDivisor: 4
GridSize: 4
TimelineZoom: 2.6

[Metadata]
Title:Windy Fairy
TitleUnicode:Windy Fairy
Artist:DJ TOTTO
ArtistUnicode:DJ TOTTO
Creator:Syph
Version:Collab Normal
Source:REFLEC BEAT colette
Tags:jubeat saucer konami bemani -spring- Anxient Yuii- Akitoshi Corinn Enon Meg iMage-- val0108
BeatmapID:1439002
BeatmapSetID:613726

[Difficulty]
HPDrainRate:4
CircleSize:3.2
OverallDifficulty:4
ApproachRate:5.3
SliderMultiplier:1.15
SliderTickRate:1

[Events]
//Background and Video events
0,0,"BG.jpg",0,0
//Break Periods
2,91873,96853
2,106040,106853
//Storyboard Layer 0 (Background)
//Storyboard Layer 1 (Fail)
//Storyboard Layer 2 (Pass)
//Storyboard Layer 3 (Foreground)
//Storyboard Sound Samples

[TimingPoints]
8,333.333333333333,3,2,0,55,1,0
7591,-100,3,2,0,5,0,0
7674,-100,3,2,0,55,0,0
8007,-100,3,2,0,65,0,0
19924,-100,3,2,0,5,0,0
20007,-100,3,2,0,65,0,0
24007,-100,3,2,0,60,0,0
40007,-100,3,2,0,80,0,0
56007,-100,3,2,0,60,0,0
68007,-100,3,2,0,65,0,0
74841,-100,3,2,0,55,0,0
74924,-100,3,2,0,55,0,0
75091,-100,3,2,0,55,0,0
75674,-100,3,2,0,65,0,0
76007,-100,3,2,0,80,0,1
92007,-100,3,2,0,60,0,0
98507,-100,3,2,0,62,0,0
99007,-100,3,2,0,65,0,0
100007,-100,3,2,0,70,0,1
106007,-100,3,2,0,40,0,0
108007,-100,3,2,0,75,0,1
110424,-100,3,2,0,5,0,1
110507,-100,3,2,0,85,0,1
110924,-100,3,2,0,5,0,1
111007,-100,3,2,0,85,0,1
111257,-100,3,2,0,5,0,1
111340,-100,3,2,0,85,0,1
111591,-100,3,2,0,5,0,1
111674,-100,3,2,0,70,0,1
112007,-100,3,2,0,70,0,0
113007,-100,3,2,0,70,0,0
114007,-100,3,2,0,70,0,0
115007,-100,3,2,0,70,0,0
115841,-100,3,2,0,70,0,0
116007,-100,3,2,0,5,0,0

[Colours]
Combo1 : 255,166,190
Combo2 : 255,242,149
Combo3 : 248,185,253
Combo4 : 187,234,251

[HitObjects]
3,204,8,6,0,P|51:187|137:263,1,172.5,2|0,0:0|0:0,0:0:0:0:
175,327,674,2,0,P|203:333|232:327,1,57.5,2|0,0:0|0:0,0:0:0:0:
310,314,1007,1,2,0:0:0:0:
462,30,1674,1,2,0:0:0:0:
462,30,2007,6,0,P|414:13|328:89,1,172.5,2|0,0:0|0:0,0:0:0:0:
290,153,2674,2,0,P|262:159|233:152,1,57.5,2|0,0:0|0:0,0:0:0:0:
155,133,3007,6,0,L|142:261,2,115,2|0|2,0:0|0:0|0:0,0:0:0:0:
22,41,4007,1,2,0:0:0:0:
4,281,4507,2,0,L|0:345,2,57.5,0|2|0,0:0|0:0|0:0,0:0:0:0:
8,200,5007,5,2,0:0:0:0:
312,304,5674,1,2,0:0:0:0:
312,304,6007,1,2,0:0:0:0:
312,304,8007,6,0,P|308:260|463:219,1,230,12|0,0:3|3:0,0:0:0:0:
393,358,9007,2,0,L|219:348,1,172.5,2|0,0:0|0:0,0:0:0:0:
152,305,9674,1,0,0:0:0:0:
289,221,10007,6,0,P|256:249|131:148,1,230,6|0,0:0|3:0,0:0:0:0:
171,7,11007,2,0,L|361:-1,1,172.5,2|4,1:2|1:2,0:0:0:0:
405,150,11841,1,0,1:0:0:0:
405,150,12007,6,0,P|433:183|332:308,1,230,6|0,1:2|0:0,0:0:0:0:
236,191,13007,2,0,L|216:368,1,172.5,4|0,1:2|0:0,0:0:0:0:
295,378,13674,1,0,0:0:0:0:
434,297,14007,6,0,L|536:309,2,86.25,6|2|8,1:2|0:0|3:0,0:0:0:0:
356,272,14674,2,0,L|365:213,1,57.5,2|8,0:0|3:0,0:0:0:0:
290,182,15007,2,0,L|271:318,2,115,2|2|0,0:0|3:0|1:0,0:0:0:0:
345,30,16007,6,0,L|361:165,1,115,0|8,1:0|3:0,0:0:0:0:
221,228,16674,2,0,P|186:230|159:223,1,57.5,8|0,3:0|0:0,0:0:0:0:
168,144,17007,2,0,L|191:328,1,172.5,12|0,3:0|0:0,0:0:0:0:
124,362,17674,2,0,L|51:355,1,57.5,8|0,3:0|3:0,0:0:0:0:
19,290,18007,6,0,P|-4:232|17:177,2,115,12|8|8,3:0|3:0|3:0,0:0:0:0:
84,235,18841,1,0,0:0:0:0:
84,235,19007,2,0,L|162:229,1,57.5,12|0,3:0|0:0,0:0:0:0:
176,151,19341,2,0,L|50:143,1,115,8|8,3:0|3:0,0:0:0:0:
203,68,20007,5,6,1:2:0:0:
203,68,20174,2,0,L|195:192,1,115,8|0,3:0|3:0,0:0:0:0:
274,167,20674,2,0,L|269:227,1,57.5,8|0,3:0|3:0,0:0:0:0:
223,290,21007,2,0,P|261:305|313:293,2,86.25,12|0|0,3:0|0:0|3:0,0:0:0:0:
148,258,21674,2,0,L|143:318,1,57.5,12|0,3:0|3:0,0:0:0:0:
199,372,22007,6,0,P|246:376|335:290,1,172.5,6|6,0:0|0:0,0:0:0:0:
351,136,22841,1,2,0:0:0:0:
351,136,23007,2,0,P|334:224|226:188,1,230,12|2,3:0|0:0,0:0:0:0:
89,272,24007,6,0,L|84:145,1,115,6|0,0:0|0:0,0:0:0:0:
53,80,24507,2,0,P|81:74|110:80,2,57.5,2|8|0,0:0|3:0|0:0,0:0:0:0:
3,143,25007,2,0,L|-1:25,2,115,2|2|2,0:0|0:0|3:0,0:0:0:0:
98,272,26007,6,0,P|136:282|218:268,2,115,2|2|2,0:0|0:0|0:0,0:0:0:0:
87,111,27007,1,2,0:0:0:0:
87,111,27174,2,0,P|58:107|30:112,2,57.5,2|0|2,0:0|0:0|0:0,0:0:0:0:
130,180,27674,2,0,P|159:185|193:180,1,57.5,8|2,3:0|0:0,0:0:0:0:
248,131,28007,6,0,L|232:256,1,115,2|0,0:0|0:0,0:0:0:0:
291,308,28507,1,2,0:0:0:0:
291,308,28674,2,0,P|320:313|354:308,1,57.5,8|2,3:0|0:0,0:0:0:0:
405,255,29007,2,0,L|419:140,2,115,10|8|10,0:0|3:0|0:0,0:0:0:0:
266,337,30007,6,0,L|278:262,2,57.5,10|2|8,0:0|0:0|3:0,0:0:0:0:
188,360,30507,1,2,0:0:0:0:
188,360,30674,1,8,3:0:0:0:
59,263,31007,2,0,L|-16:275,2,57.5,10|2|8,0:0|3:2|3:0,0:0:0:0:
82,185,31507,1,2,3:2:0:0:
82,185,31674,2,0,L|157:197,1,57.5,8|0,3:0|3:0,0:0:0:0:
203,241,32007,6,0,P|218:205|192:134,1,115,6|0,0:0|3:0,0:0:0:0:
120,103,32507,2,0,P|115:74|124:43,1,57.5,2|8,0:0|3:0,0:0:0:0:
192,6,32841,1,0,0:0:0:0:
192,6,33007,2,0,L|324:6,2,115,10|8|10,0:0|3:0|0:0,0:0:0:0:
83,125,34007,6,0,P|66:170|84:233,1,115,2|2,0:0|0:0,0:0:0:0:
154,282,34507,1,2,0:0:0:0:
154,282,34674,2,0,P|197:290|217:284,1,57.5,2|2,3:2|0:0,0:0:0:0:
281,246,35007,1,2,0:0:0:0:
281,246,35174,2,0,P|326:235|409:256,1,115,2|2,0:0|0:0,0:0:0:0:
453,300,35674,1,8,3:0:0:0:
510,149,36007,6,0,P|521:102|506:27,1,115,2|0,0:0|0:0,0:0:0:0:
436,3,36507,2,0,P|398:-1|375:8,2,57.5,2|8|2,0:0|3:0|0:0,0:0:0:0:
413,81,37007,2,0,L|275:88,2,115,10|8|10,0:0|3:0|0:0,0:0:0:0:
499,217,38007,6,0,L|494:288,3,57.5,6|2|8|2,3:2|0:0|3:0|0:0,0:0:0:0:
488,355,38674,1,8,3:0:0:0:
341,288,39007,2,0,L|270:283,3,57.5,2|2|2|2,0:0|0:0|3:2|0:0,0:0:0:0:
203,277,39674,1,2,0:0:0:0:
90,161,40007,6,0,P|77:114|96:47,1,115,6|0,0:0|1:0,0:0:0:0:
162,9,40507,1,2,0:0:0:0:
162,9,40674,2,0,P|201:4|230:12,1,57.5,0|0,1:0|0:0,0:0:0:0:
276,63,41007,2,0,L|412:52,2,115,2|0|0,3:2|1:0|1:0,0:0:0:0:
184,195,42007,6,0,P|129:210|70:192,3,115,6|0|0|0,0:0|1:0|1:0|1:0,0:0:0:0:
20,133,43174,1,2,0:0:0:0:
20,133,43341,2,0,P|16:102|22:75,1,57.5,0|2,1:0|0:0,0:0:0:0:
83,24,43674,2,0,P|114:20|141:26,1,57.5,2|2,1:2|0:0,0:0:0:0:
201,76,44007,6,0,P|212:110|198:190,1,115,6|0,0:0|1:0,0:0:0:0:
130,228,44507,2,0,P|122:262|125:294,2,57.5,2|0|2,0:0|1:0|0:0,0:0:0:0:
100,153,45007,2,0,P|63:142|42:145,1,57.5,6|0,0:0|0:0,0:0:0:0:
5,215,45341,1,0,1:0:0:0:
108,338,45674,2,0,P|148:342|175:336,1,57.5,0|0,1:0|3:0,0:0:0:0:
232,295,46007,6,0,L|224:357,3,57.5,0|2|0|2,1:0|0:0|1:0|0:0,0:0:0:0:
299,383,46674,1,0,1:0:0:0:
405,262,47007,2,0,L|343:270,3,57.5,0|2|0|2,1:0|0:0|1:0|0:0,0:0:0:0:
277,229,47674,1,0,1:0:0:0:
203,270,47841,1,0,1:0:0:0:
203,270,48007,6,0,P|183:223|217:103,1,172.5,6|2,0:0|0:0,0:0:0:0:
271,53,48674,2,0,P|304:48|332:58,1,57.5,0|2,1:0|0:0,0:0:0:0:
372,121,49007,2,0,L|388:-9,2,115,2|0|6,1:2|1:0|1:2,0:0:0:0:
279,253,50007,6,0,P|231:263|159:244,3,115,6|0|0|0,0:0|1:0|1:0|1:0,0:0:0:0:
105,197,51174,1,2,0:0:0:0:
105,197,51341,2,0,P|98:165|106:133,1,57.5,0|2,1:0|0:0,0:0:0:0:
157,81,51674,1,6,1:2:0:0:
237,72,51841,1,2,3:2:0:0:
237,72,52007,6,0,P|274:70|359:106,1,115,6|0,1:2|0:0,0:0:0:0:
414,138,52507,2,0,P|426:106|423:77,2,57.5,2|2|2,0:0|1:2|0:0,0:0:0:0:
349,186,53007,2,0,P|339:230|353:312,2,115,6|2|2,0:0|1:2|1:2,0:0:0:0:
469,78,54007,6,0,P|474:40|466:14,3,57.5,2|2|0|2,1:0|3:2|1:0|3:2,0:0:0:0:
390,4,54674,1,2,1:0:0:0:
257,95,55007,2,0,P|252:133|260:159,3,57.5,2|2|0|2,1:0|1:2|1:0|1:2,0:0:0:0:
336,168,55674,1,0,1:0:0:0:
422,303,56007,6,0,P|387:319|192:285,1,230,6|2,0:0|3:0,0:0:0:0:
82,188,57007,2,0,P|117:172|312:206,1,230,0|2,1:0|0:0,0:0:0:0:
441,274,58007,6,0,L|433:345,2,57.5,8|0|2,3:0|0:0|0:0,0:0:0:0:
375,227,58507,1,0,3:0:0:0:
375,227,58674,2,0,L|381:169,1,57.5,2|0,0:0|0:0,0:0:0:0:
391,89,59007,1,2,1:2:0:0:
245,19,59341,2,0,P|188:9|123:28,1,115,2|0,3:2|1:0,0:0:0:0:
83,177,60007,6,0,P|72:220|182:185,1,230,6|2,0:0|3:0,0:0:0:0:
305,92,61007,2,0,P|344:88|464:232,1,230,2|2,1:2|0:0,0:0:0:0:
358,333,62007,6,0,P|320:339|297:333,1,57.5,6|2,1:2|3:2,0:0:0:0:
256,267,62341,2,0,P|218:261|195:267,1,57.5,2|2,0:0|1:2,0:0:0:0:
152,330,62674,2,0,P|114:336|91:330,1,57.5,2|2,0:0|1:2,0:0:0:0:
31,282,63007,1,0,1:0:0:0:
150,173,63341,2,0,P|161:126|151:60,1,115,2|0,1:2|1:0,0:0:0:0:
303,9,64007,6,0,P|280:91|322:237,1,230,6|2,0:0|3:0,0:0:0:0:
463,293,65007,2,0,P|486:211|444:65,1,230,0|2,1:0|0:0,0:0:0:0:
294,30,66007,6,0,P|288:68|294:91,1,57.5,8|0,3:0|0:0,0:0:0:0:
360,132,66341,2,0,P|366:170|360:193,1,57.5,2|0,0:0|3:0,0:0:0:0:
297,236,66674,2,0,P|291:274|297:297,1,57.5,2|0,3:2|0:0,0:0:0:0:
345,357,67007,1,2,0:0:0:0:
471,256,67341,2,0,P|478:208|470:137,1,115,2|8,0:0|3:0,0:0:0:0:
417,81,67841,1,0,3:0:0:0:
372,148,68007,6,0,P|312:176|244:176,2,115,6|2|2,1:2|1:2|1:2,0:0:0:0:
276,20,69007,1,6,0:0:0:0:
128,92,69341,2,0,B|100:84|100:84|48:84,2,57.5,0|2|2,1:0|3:2|1:2,0:0:0:0:
264,179,70007,2,0,P|324:151|392:151,2,115,6|2|2,1:2|1:2|1:2,0:0:0:0:
172,308,71007,2,0,P|140:304|108:292,1,57.5,6|2,1:2|0:0,0:0:0:0:
48,248,71341,2,0,B|36:272|36:272|36:316,2,57.5,2|2|2,1:2|1:2|1:2,0:0:0:0:
156,132,72007,6,0,P|133:69|85:21,2,115,6|2|2,1:2|1:2|1:2,0:0:0:0:
276,240,73007,2,0,P|336:268|404:268,2,115,6|2|2,1:2|1:2|1:2,0:0:0:0:
256,192,74007,12,6,75007,0:0:0:0:
140,52,76007,6,0,B|108:84|108:84|108:172,1,115,6|0,0:0|1:0,0:0:0:0:
192,172,76507,1,2,0:0:0:0:
192,172,76674,2,0,P|244:176|304:212,1,115,0|6,1:0|0:0,0:0:0:0:
196,328,77341,2,0,P|164:320|128:324,2,57.5,0|0|0,1:0|3:0|1:0,0:0:0:0:
352,380,78007,6,0,B|384:348|384:348|384:260,1,115,6|0,0:0|1:0,0:0:0:0:
328,216,78507,2,0,P|308:244|304:284,2,57.5,2|0|2,0:0|1:0|3:2,0:0:0:0:
388,160,79007,1,6,0:0:0:0:
312,16,79341,2,0,P|252:20|200:48,1,115,2|2,1:2|1:2,0:0:0:0:
84,148,80007,6,0,B|56:140|56:140|8:140,2,57.5,6|2|2,1:2|3:2|1:2,0:0:0:0:
212,248,80674,2,0,L|284:248,1,57.5,2|2,1:2|0:0,0:0:0:0:
332,300,81007,2,0,B|339:328|339:328|339:376,2,57.5,6|2|2,1:2|3:2|1:2,0:0:0:0:
448,192,81674,2,0,L|448:120,1,57.5,6|2,1:2|3:2,0:0:0:0:
504,76,82007,6,0,P|396:72|364:176,1,230,6|2,1:2|1:3,0:0:0:0:
324,328,83007,2,0,P|216:332|184:228,1,230,6|0,1:2|1:0,0:0:0:0:
252,84,84007,6,0,B|232:56|232:56|132:56,1,115,6|0,1:2|1:0,0:0:0:0:
88,104,84507,2,0,P|44:108|16:104,2,57.5,2|2|2,0:0|1:2|3:2,0:0:0:0:
152,152,85007,2,0,P|168:208|156:268,1,115,6|0,1:2|1:0,0:0:0:0:
48,380,85674,1,0,1:0:0:0:
208,360,86007,6,0,B|240:344|240:344|332:344,1,115,6|0,1:2|1:0,0:0:0:0:
392,312,86507,2,0,P|400:344|392:376,2,57.5,2|2|2,0:0|1:2|3:2,0:0:0:0:
336,252,87007,1,6,1:2:0:0:
459,146,87341,1,6,1:2:0:0:
307,90,87674,1,0,1:0:0:0:
184,196,88007,6,0,B|120:176|120:176|100:132,1,115,6|0,1:2|1:0,0:0:0:0:
36,84,88507,1,2,0:0:0:0:
20,164,88674,2,0,P|28:204|20:244,1,57.5,2|0,1:2|3:0,0:0:0:0:
40,300,89007,2,0,B|84:284|84:284|224:284,1,172.5,6|2,1:2|0:0,0:0:0:0:
272,336,89674,1,2,1:2:0:0:
424,275,90007,6,0,P|329:191|426:110,1,287.5,6|0,1:2|3:0,0:0:0:0:
444,192,91007,2,0,L|196:192,1,230,6|2,1:2|1:2,0:0:0:0:
214,192,98007,6,0,P|124:212|24:176,1,172.5,6|4,1:2|1:2,0:0:0:0:
256,320,99007,2,0,P|346:300|446:336,1,172.5,6|6,1:2|1:2,0:0:0:0:
496,92,100007,6,0,P|464:96|412:84,1,57.5,6|2,1:2|0:0,0:0:0:0:
384,32,100341,2,0,B|344:16|344:16|260:16,1,115,2|2,1:2|1:2,0:0:0:0:
152,124,101007,2,0,P|104:88|80:16,2,115,2|0|0,1:2|1:0|1:0,0:0:0:0:
304,172,102007,6,0,P|308:204|296:256,1,57.5,6|2,1:2|0:0,0:0:0:0:
240,276,102341,2,0,P|236:308|248:360,1,57.5,2|2,1:2|3:2,0:0:0:0:
308,376,102674,2,0,B|344:356|344:356|436:356,1,115,6|6,1:2|1:2,0:0:0:0:
464,200,103341,1,6,1:2:0:0:
304,172,103674,1,2,1:2:0:0:
144,144,104007,6,0,L|144:212,1,57.5,6|2,1:2|0:0,0:0:0:0:
92,264,104341,2,0,B|60:240|60:240|60:144,1,115,2|2,1:2|1:2,0:0:0:0:
164,40,105007,2,0,B|224:28|224:28|304:44,1,115,6|0,1:2|1:0,0:0:0:0:
332,100,105507,2,0,P|368:104|416:88,2,57.5,0|2|2,3:0|1:2|3:2,0:0:0:0:
332,100,108007,6,0,P|324:132|332:176,1,57.5,6|2,1:2|1:2,0:0:0:0:
392,204,108341,2,0,P|400:236|392:280,1,57.5,2|2,1:2|1:2,0:0:0:0:
336,312,108674,1,6,1:2:0:0:
176,280,109007,2,0,P|120:260|24:296,1,115,6|0,1:2|1:0,0:0:0:0:
12,120,109674,1,6,1:2:0:0:
160,52,110007,6,0,P|140:32|108:20,2,57.5,6|0|0,1:2|0:0|0:0,0:0:0:0:
228,100,110507,2,0,P|256:100|287:114,2,57.5,6|0|0,1:2|0:0|0:0,0:0:0:0:
176,165,111007,2,0,L|176:305,1,115,6|6,1:2|1:2,0:0:0:0:
312,368,111674,1,2,1:2:0:0:
256,192,112007,12,0,116007,0:0:0:0:
