osu file format v14

[General]
AudioFilename: audio.mp3
AudioLeadIn: 0
PreviewTime: 11689
Countdown: 0
SampleSet: Soft
StackLeniency: 0.7
Mode: 2
LetterboxInBreaks: 0
WidescreenStoryboard: 0

[Editor]
Bookmarks: 43984,59431,60103,64133,65476,69954,70849,91670,92342
DistanceSpacing: 1.8
BeatDivisor: 2
GridSize: 4
TimelineZoom: 1.6

[Metadata]
Title:Shoujo Alice to Hakoniwa Gensou Concerto
TitleUnicode:少女アリスと箱庭幻想コンチェルト
Artist:DJ TOTTO
ArtistUnicode:DJ TOTTO
Creator:F D Flourite
Version:Alice
Source:
Tags:Pending Cup 2018 pdc2018 hey_lululu hey lululu
BeatmapID:1740450
BeatmapSetID:830717

[Difficulty]
HPDrainRate:5
CircleSize:4.5
OverallDifficulty:9
ApproachRate:9
SliderMultiplier:1.6
SliderTickRate:1

[Events]
//Background and Video events
0,0,"BG.jpg",0,0
//Break Periods
//Storyboard Layer 0 (Background)
//Storyboard Layer 1 (Fail)
//Storyboard Layer 2 (Pass)
//Storyboard Layer 3 (Foreground)
//Storyboard Sound Samples

[TimingPoints]
999,223.880597014925,3,2,9,80,1,0
11745,-100,3,2,9,60,0,0
20476,-80,3,2,9,60,0,0
20644,-100,3,2,9,5,0,0
20700,-100,3,2,9,60,0,0
33237,-100,3,2,9,75,0,0
54730,-83.3333333333333,3,2,9,80,0,1
76222,-100,3,2,9,70,0,0
84282,-100,3,2,9,60,0,0
85625,-100,3,2,9,75,0,0
86297,-83.3333333333333,3,2,9,80,0,0
86969,-83.3333333333333,3,2,9,80,0,1
100401,-100,3,2,9,60,0,0
105775,-83.3333333333333,3,2,9,90,0,1
116521,-100,3,2,9,30,0,0

[Colours]
Combo1 : 148,227,117
Combo2 : 241,238,114

[HitObjects]
129,178,999,6,0,L|254:73,2,160,2|2|2,0:0|0:0|0:0,0:0:0:0:
292,182,1670,2,0,P|400:233|266:316,1,320,2|2,0:0|0:0,0:0:0:0:
200,304,2230,1,2,0:0:0:0:
112,288,2342,6,0,P|64:224|136:196,1,160,2|2,0:0|0:0,0:0:0:0:
184,164,2678,1,0,0:0:0:0:
252,128,2790,1,2,0:0:0:0:
180,84,2901,1,0,0:0:0:0:
260,84,3013,1,2,0:0:0:0:
125,145,3237,1,2,0:0:0:0:
103,193,3311,1,2,0:0:0:0:
104,245,3386,1,2,0:0:0:0:
128,292,3460,1,0,0:0:0:0:
432,176,3685,5,2,0:0:0:0:
364,176,3796,1,0,0:0:0:0:
328,112,3908,1,0,0:0:0:0:
368,48,4020,1,0,0:0:0:0:
432,50,4132,1,2,0:0:0:0:
248,104,4357,2,0,P|224:160|300:236,1,160,2|0,0:0|0:0,0:0:0:0:
344,256,4693,1,0,0:0:0:0:
264,272,4804,1,0,0:0:0:0:
184,288,4916,1,0,0:0:0:0:
424,304,5028,6,0,L|464:380,1,79.9999999999999,2|0,0:0|0:0,0:0:0:0:
256,312,5252,2,0,L|256:224,1,79.9999999999999,2|0,0:0|0:0,0:0:0:0:
88,304,5476,2,0,L|48:380,1,79.9999999999999,2|0,0:0|0:0,0:0:0:0:
256,232,5700,2,0,L|340:232,1,79.9999999999999,2|0,0:0|0:0,0:0:0:0:
160,176,5924,2,0,L|72:176,1,79.9999999999999,2|0,0:0|0:0,0:0:0:0:
180,120,6148,1,2,0:0:0:0:
280,68,6260,1,0,0:0:0:0:
56,84,6372,6,0,L|52:264,1,160,12|0,0:0|0:0,0:0:0:0:
256,288,6819,1,0,0:0:0:0:
464,192,7043,2,0,L|304:192,1,160,8|0,0:0|0:0,0:0:0:0:
264,160,7342,1,0,0:0:0:0:
268,112,7416,1,0,0:0:0:0:
308,80,7491,2,0,L|400:80,1,79.9999999999999,2|2,0:0|0:0,0:0:0:0:
160,208,7715,6,0,L|352:208,1,160,8|0,0:0|0:0,0:0:0:0:
224,260,8051,1,0,0:0:0:0:
304,260,8163,1,0,0:0:0:0:
208,328,8275,1,0,0:0:0:0:
384,328,8387,2,0,P|428:268|364:212,1,160,8|2,0:0|0:0,0:0:0:0:
324,184,8666,1,0,0:0:0:0:
264,176,8722,1,0,0:0:0:0:
472,80,8834,1,8,0:0:0:0:
104,208,9058,6,0,L|196:208,1,79.9999999999999,12|0,0:0|0:0,0:0:0:0:
100,104,9282,1,0,0:0:0:0:
188,100,9394,1,0,0:0:0:0:
96,48,9506,1,0,0:0:0:0:
424,312,9730,2,0,P|436:260|332:208,1,160,8|0,0:0|0:0,0:0:0:0:
404,172,10028,1,0,0:0:0:0:
472,156,10103,1,0,0:0:0:0:
384,124,10178,1,2,0:0:0:0:
280,92,10290,1,0,0:0:0:0:
84,88,10401,5,10,0:0:0:0:
188,84,10513,1,0,0:0:0:0:
316,100,10625,1,2,0:0:0:0:
212,108,10737,1,0,0:0:0:0:
68,160,10849,1,10,0:0:0:0:
172,152,10961,1,0,0:0:0:0:
428,184,11073,2,0,L|344:184,1,79.9999999999999,10|0,0:0|0:0,0:0:0:0:
436,224,11297,2,0,L|352:256,1,79.9999999999999,0|0,0:0|0:0,0:0:0:0:
456,256,11521,2,0,L|384:316,1,79.9999999999999,0|0,0:0|0:0,0:0:0:0:
176,292,11745,6,0,L|44:184,2,160,8|0|0,0:0|0:0|0:0,0:0:0:0:
336,308,12416,2,0,P|440:248|316:144,1,320,2|2,0:0|0:0,0:0:0:0:
248,132,12976,1,2,0:0:0:0:
168,136,13088,6,0,L|144:300,1,160,8|0,0:0|0:0,0:0:0:0:
216,292,13424,1,8,0:0:0:0:
128,348,13536,1,0,0:0:0:0:
196,348,13648,1,0,0:0:0:0:
264,344,13760,1,2,0:0:0:0:
272,304,13816,1,2,0:0:0:0:
276,264,13872,1,2,0:0:0:0:
280,228,13928,1,2,0:0:0:0:
212,164,13984,1,2,0:0:0:0:
176,164,14058,1,2,0:0:0:0:
212,164,14133,1,2,0:0:0:0:
292,148,14207,1,0,0:0:0:0:
112,64,14431,5,8,0:0:0:0:
42,99,14542,1,8,0:0:0:0:
16,172,14654,1,0,0:0:0:0:
48,243,14766,1,8,0:0:0:0:
120,272,14878,1,0,0:0:0:0:
280,280,15103,2,0,L|412:152,1,160,2|0,0:0|0:0,0:0:0:0:
328,120,15439,1,0,0:0:0:0:
400,108,15551,1,2,0:0:0:0:
324,68,15663,1,2,0:0:0:0:
92,148,15775,6,0,L|80:232,1,80,10|0,0:0|0:0,0:0:0:0:
192,244,15998,2,0,L|192:336,1,80,2|8,0:0|0:0,0:0:0:0:
312,272,16222,2,0,L|336:368,1,80,2|0,0:0|0:0,0:0:0:0:
92,148,16446,1,2,0:0:0:0:
192,244,16670,1,2,0:0:0:0:
312,272,16894,1,2,0:0:0:0:
96,248,17118,5,8,0:0:0:0:
66,197,17229,1,8,0:0:0:0:
68,137,17341,1,0,0:0:0:0:
103,90,17453,1,8,0:0:0:0:
158,69,17565,1,0,0:0:0:0:
328,184,17790,2,0,L|252:224,2,80,10|0|0,0:0|0:0|0:0,0:0:0:0:
152,200,18237,2,0,L|144:280,1,80,2|2,0:0|0:0,0:0:0:0:
320,288,18461,6,0,L|488:288,1,160,10|2,0:0|0:0,0:0:0:0:
416,268,18797,1,8,0:0:0:0:
288,164,18909,1,2,0:0:0:0:
224,192,19021,1,0,0:0:0:0:
464,32,19133,1,2,0:0:0:0:
472,56,19188,1,2,0:0:0:0:
464,81,19244,1,2,0:0:0:0:
442,95,19300,1,2,0:0:0:0:
268,56,19357,1,2,0:0:0:0:
252,56,19413,1,0,0:0:0:0:
268,56,19469,1,0,0:0:0:0:
340,56,19581,1,0,0:0:0:0:
116,236,19804,6,0,L|104:152,1,80,8|8,0:0|0:0,0:0:0:0:
236,152,20028,2,0,L|140:152,1,80,0|8,0:0|0:0,0:0:0:0:
280,188,20252,2,0,L|272:276,1,80,0|0,0:0|0:0,0:0:0:0:
56,236,20476,2,0,P|44:304|120:332,1,150,2|0,0:0|0:0,0:0:0:0:
296,340,20700,2,0,L|380:320,1,80,8|8,0:0|0:0,0:0:0:0:
288,224,20924,2,0,L|380:216,1,80,2|2,0:0|0:0,0:0:0:0:
104,68,21148,5,10,0:0:0:0:
120,156,21260,1,0,0:0:0:0:
256,136,21372,1,2,0:0:0:0:
240,224,21484,1,8,0:0:0:0:
376,72,21596,1,2,0:0:0:0:
392,164,21707,1,0,0:0:0:0:
176,272,21819,5,0,0:0:0:0:
64,268,21931,1,0,0:0:0:0:
176,272,22043,1,0,0:0:0:0:
288,280,22155,1,0,0:0:0:0:
172,188,22267,1,0,0:0:0:0:
296,192,22379,1,0,0:0:0:0:
124,88,22491,5,8,0:0:0:0:
88,156,22602,1,8,0:0:0:0:
116,228,22714,1,0,0:0:0:0:
216,276,22827,1,0,0:0:0:0:
44,292,22939,2,0,L|60:188,1,80,0|0,0:0|0:0,0:0:0:0:
280,292,23163,2,0,L|460:280,1,160,2|0,0:0|0:0,0:0:0:0:
276,148,23610,2,0,L|212:88,1,80,2|2,0:0|0:0,0:0:0:0:
408,224,23834,6,0,P|456:132|400:88,1,160,10|2,0:0|0:0,0:0:0:0:
364,48,24170,1,8,0:0:0:0:
228,128,24282,1,2,0:0:0:0:
292,168,24394,1,0,0:0:0:0:
468,212,24506,1,2,0:0:0:0:
468,238,24561,1,2,0:0:0:0:
469,265,24617,1,2,0:0:0:0:
470,291,24673,1,2,0:0:0:0:
336,236,24730,1,2,0:0:0:0:
304,268,24785,1,0,0:0:0:0:
300,308,24841,1,0,0:0:0:0:
472,352,24954,1,8,0:0:0:0:
144,312,25178,6,0,L|64:276,1,80,8|8,0:0|0:0,0:0:0:0:
188,220,25401,2,0,L|280:200,1,80,0|8,0:0|0:0,0:0:0:0:
148,116,25625,1,0,0:0:0:0:
456,144,25849,2,0,P|472:56|388:44,1,160,2|0,0:0|0:0,0:0:0:0:
340,20,26185,1,0,0:0:0:0:
244,24,26297,1,10,0:0:0:0:
340,20,26409,1,2,0:0:0:0:
140,176,26521,5,10,0:0:0:0:
44,176,26633,1,0,0:0:0:0:
164,160,26745,1,2,0:0:0:0:
284,144,26857,1,8,0:0:0:0:
156,112,26969,1,2,0:0:0:0:
28,84,27081,1,0,0:0:0:0:
148,176,27193,1,2,0:0:0:0:
340,228,27416,1,2,0:0:0:0:
132,292,27640,1,10,0:0:0:0:
456,248,27864,6,0,L|452:164,1,80,8|8,0:0|0:0,0:0:0:0:
330,128,28088,2,0,L|258:168,1,80,0|8,0:0|0:0,0:0:0:0:
145,187,28312,2,0,L|141:267,1,80,0|0,0:0|0:0,0:0:0:0:
356,268,28536,2,0,L|436:296,1,80,8|0,0:0|0:0,0:0:0:0:
302,283,28760,2,0,L|226:315,1,80,0|8,0:0|0:0,0:0:0:0:
356,268,28984,2,0,L|436:296,1,80,2|10,0:0|0:0,0:0:0:0:
80,248,29207,6,0,L|92:144,1,80,10|0,0:0|0:0,0:0:0:0:
227,175,29431,2,0,L|219:87,1,80,2|8,0:0|0:0,0:0:0:0:
88,104,29655,2,0,L|100:16,1,80,2|0,0:0|0:0,0:0:0:0:
284,248,29879,2,0,L|372:228,1,80,0|0,0:0|0:0,0:0:0:0:
489,223,30103,2,0,L|389:199,1,80,0|2,0:0|0:0,0:0:0:0:
284,248,30327,2,0,L|372:228,1,80,2|0,0:0|0:0,0:0:0:0:
144,300,30551,6,0,L|48:300,1,80,8|8,0:0|0:0,0:0:0:0:
144,196,30775,2,0,L|64:196,1,80,0|8,0:0|0:0,0:0:0:0:
144,88,30999,2,0,L|48:88,1,80,8|0,0:0|0:0,0:0:0:0:
392,284,31222,2,0,P|408:196|304:188,1,160,2|2,0:0|0:0,0:0:0:0:
260,152,31558,1,8,0:0:0:0:
360,112,31670,1,8,0:0:0:0:
460,72,31782,1,0,0:0:0:0:
184,80,31894,6,0,P|156:156|212:236,1,160,8|0,0:0|0:0,0:0:0:0:
284,248,32230,1,8,0:0:0:0:
176,308,32342,1,0,0:0:0:0:
292,328,32454,1,0,0:0:0:0:
48,284,32566,1,2,0:0:0:0:
364,252,32790,1,2,0:0:0:0:
48,212,33013,1,2,0:0:0:0:
388,344,33237,5,12,0:0:0:0:
433,222,33348,1,0,0:0:0:0:
382,101,33460,1,0,0:0:0:0:
272,56,33572,1,0,0:0:0:0:
392,56,33685,2,0,L|480:56,1,80,0|0,0:0|0:0,0:0:0:0:
168,40,33909,1,8,0:0:0:0:
89,135,34020,1,0,0:0:0:0:
104,258,34132,1,0,0:0:0:0:
201,333,34244,1,0,0:0:0:0:
320,312,34357,2,0,L|312:220,1,80,2|2,0:0|0:0,0:0:0:0:
104,140,34581,6,0,L|268:88,1,160,10|2,0:0|0:0,0:0:0:0:
168,48,34916,1,0,0:0:0:0:
256,91,35028,2,0,L|260:176,1,80,2|0,0:0|0:0,0:0:0:0:
88,224,35252,2,0,P|80:312|144:336,1,160,10|2,0:0|0:0,0:0:0:0:
312,272,35588,2,0,L|232:316,2,80,0|2|0,0:0|0:0|0:0,0:0:0:0:
488,144,35924,6,0,L|316:144,1,160,10|2,0:0|0:0,0:0:0:0:
456,208,36260,1,0,0:0:0:0:
476,288,36372,1,2,0:0:0:0:
296,24,36596,1,8,0:0:0:0:
232,76,36707,1,0,0:0:0:0:
336,152,36819,1,0,0:0:0:0:
241,229,36931,1,0,0:0:0:0:
308,274,37043,1,2,0:0:0:0:
80,216,37267,6,0,L|164:204,1,80,8|0,0:0|0:0,0:0:0:0:
288,180,37491,2,0,L|388:164,1,80,0|0,0:0|0:0,0:0:0:0:
160,108,37715,2,0,L|72:108,1,80,2|0,0:0|0:0,0:0:0:0:
196,112,37939,2,0,L|196:200,1,80,8|0,0:0|0:0,0:0:0:0:
328,200,38163,1,2,0:0:0:0:
328,240,38218,1,2,0:0:0:0:
328,280,38274,1,2,0:0:0:0:
196,288,38387,1,2,0:0:0:0:
440,48,38610,6,0,L|448:148,1,80,8|0,0:0|0:0,0:0:0:0:
340,136,38834,2,0,L|332:224,1,80,0|0,0:0|0:0,0:0:0:0:
226,205,39058,2,0,L|202:290,1,80,0|0,0:0|0:0,0:0:0:0:
384,284,39282,2,0,L|476:276,1,80,8|0,0:0|0:0,0:0:0:0:
364,192,39506,2,0,L|453:168,1,80,0|0,0:0|0:0,0:0:0:0:
328,104,39730,2,0,L|411:65,1,80,2|2,0:0|0:0,0:0:0:0:
188,64,39954,6,0,L|100:111,1,80,10|0,0:0|0:0,0:0:0:0:
188,188,40178,1,2,0:0:0:0:
92,224,40290,2,0,L|196:224,1,80,0|2,0:0|0:0,0:0:0:0:
252,224,40513,1,0,0:0:0:0:
80,300,40625,2,0,P|36:220|76:172,1,160,10|2,0:0|0:0,0:0:0:0:
184,148,40961,2,0,L|136:64,1,80,0|2,0:0|0:0,0:0:0:0:
84,20,41185,1,0,0:0:0:0:
308,232,41297,5,8,0:0:0:0:
366,189,41409,1,0,0:0:0:0:
344,121,41521,1,0,0:0:0:0:
272,121,41633,1,0,0:0:0:0:
249,189,41745,1,2,0:0:0:0:
308,293,41969,1,8,0:0:0:0:
424,207,42081,1,0,0:0:0:0:
380,71,42193,1,0,0:0:0:0:
236,71,42305,1,0,0:0:0:0:
190,207,42417,1,2,0:0:0:0:
428,296,42640,6,0,L|456:212,1,80,10|0,0:0|0:0,0:0:0:0:
256,284,42864,2,0,L|256:200,1,80,2|0,0:0|0:0,0:0:0:0:
84,296,43088,2,0,L|56:212,1,80,2|0,0:0|0:0,0:0:0:0:
256,132,43312,2,0,L|344:132,1,80,8|0,0:0|0:0,0:0:0:0:
120,48,43536,1,2,0:0:0:0:
100,82,43591,1,2,0:0:0:0:
96,121,43647,1,2,0:0:0:0:
164,196,43760,1,2,0:0:0:0:
472,96,43984,6,0,L|388:96,1,80,12|0,0:0|0:0,0:0:0:0:
292,168,44207,2,0,L|376:168,1,80,0|0,0:0|0:0,0:0:0:0:
272,248,44431,2,0,L|192:248,1,80,0|0,0:0|0:0,0:0:0:0:
420,272,44655,2,0,L|324:272,1,80,8|0,0:0|0:0,0:0:0:0:
240,176,44879,2,0,L|248:96,1,80,0|0,0:0|0:0,0:0:0:0:
348,76,45103,2,0,L|432:76,1,80,2|2,0:0|0:0,0:0:0:0:
124,160,45327,6,0,L|316:160,1,160,10|2,0:0|0:0,0:0:0:0:
184,208,45663,2,0,L|184:304,1,80,0|2,0:0|0:0,0:0:0:0:
276,312,45887,1,0,0:0:0:0:
92,308,45998,2,0,P|48:248|128:188,1,160,10|2,0:0|0:0,0:0:0:0:
184,160,46334,1,0,0:0:0:0:
92,124,46446,1,2,0:0:0:0:
452,312,46670,6,0,L|452:228,1,80,10|0,0:0|0:0,0:0:0:0:
368,212,46894,2,0,L|288:212,2,80,2|0|2,0:0|0:0|0:0,0:0:0:0:
60,312,47342,2,0,L|60:228,1,80,8|0,0:0|0:0,0:0:0:0:
164,180,47566,1,0,0:0:0:0:
264,176,47678,1,0,0:0:0:0:
164,180,47790,1,2,0:0:0:0:
460,308,48013,6,0,L|460:224,1,80,8|0,0:0|0:0,0:0:0:0:
344,204,48237,1,0,0:0:0:0:
228,176,48349,1,0,0:0:0:0:
344,112,48461,1,2,0:0:0:0:
460,72,48573,1,0,0:0:0:0:
144,236,48685,2,0,P|120:164|200:88,1,160,8|2,0:0|0:0,0:0:0:0:
220,72,48965,1,2,0:0:0:0:
276,48,49021,1,2,0:0:0:0:
196,40,49133,2,0,L|104:32,1,80,2|0,0:0|0:0,0:0:0:0:
440,152,49357,6,0,L|444:236,1,80,8|0,0:0|0:0,0:0:0:0:
320,272,49581,2,0,L|236:280,1,80,0|0,0:0|0:0,0:0:0:0:
364,160,49804,2,0,L|368:56,1,80,0|0,0:0|0:0,0:0:0:0:
140,132,50028,2,0,L|48:144,1,80,8|0,0:0|0:0,0:0:0:0:
188,292,50252,2,0,L|280:296,1,80,0|0,0:0|0:0,0:0:0:0:
144,228,50476,2,0,L|52:240,1,80,2|2,0:0|0:0,0:0:0:0:
384,336,50700,5,8,0:0:0:0:
444,251,50811,1,0,0:0:0:0:
429,148,50923,1,8,0:0:0:0:
347,85,51035,1,0,0:0:0:0:
436,68,51148,2,0,L|332:68,1,80,8|0,0:0|0:0,0:0:0:0:
100,224,51372,2,0,P|72:152|148:88,1,160,8|8,0:0|0:0,0:0:0:0:
220,72,51707,1,0,0:0:0:0:
320,52,51819,1,8,0:0:0:0:
420,32,51931,2,0,L|464:24,1,40,0|0,0:0|0:0,0:0:0:0:
172,320,52043,6,0,B|80:260|64:192|120:164|196:140|292:104|224:52|236:60,1,320,8|0,0:0|0:0,0:0:0:0:
216,56,52547,1,0,0:0:0:0:
184,40,52603,1,0,0:0:0:0:
148,44,52659,1,0,0:0:0:0:
288,236,52715,6,0,P|396:200|352:20,1,320,8|0,0:0|0:0,0:0:0:0:
316,40,53219,1,0,0:0:0:0:
368,56,53275,1,0,0:0:0:0:
316,56,53331,1,0,0:0:0:0:
108,108,53387,6,0,P|56:172|116:236,1,160,10|10,0:0|0:0,0:0:0:0:
172,252,53722,1,0,0:0:0:0:
340,252,53834,2,0,L|424:252,1,80,10|0,0:0|0:0,0:0:0:0:
136,272,54058,6,0,L|44:272,1,80,10|8,0:0|0:0,0:0:0:0:
256,176,54282,2,0,L|168:176,1,80,10|8,0:0|0:0,0:0:0:0:
376,80,54506,2,0,L|288:80,1,80,10|8,0:0|0:0,0:0:0:0:
88,60,54730,6,0,P|44:140|124:216,1,191.999994140625,6|2,0:3|0:0,0:0:0:0:
220,228,55066,1,0,0:0:0:0:
96,304,55178,1,10,0:0:0:0:
216,320,55290,1,0,0:0:0:0:
388,336,55401,2,0,P|432:288|360:192,1,191.999994140625,10|2,0:0|0:0,0:0:0:0:
244,152,55737,1,0,0:0:0:0:
356,116,55849,1,10,0:0:0:0:
468,76,55961,1,0,0:0:0:0:
236,72,56073,6,0,L|64:176,1,191.999994140625,10|2,0:0|0:0,0:0:0:0:
288,200,56521,2,0,L|192:200,1,95.9999970703126,10|0,0:0|0:0,0:0:0:0:
372,300,56745,2,0,L|472:300,1,95.9999970703126,10|0,0:0|0:0,0:0:0:0:
272,200,56969,2,0,L|372:200,1,95.9999970703126,2|0,0:0|0:0,0:0:0:0:
172,100,57193,2,0,L|272:100,1,95.9999970703126,10|0,0:0|0:0,0:0:0:0:
84,44,57416,6,0,P|48:104|96:220,1,191.999994140625,10|2,0:0|0:0,0:0:0:0:
188,212,57752,1,8,0:0:0:0:
264,284,57864,1,10,0:0:0:0:
188,352,57976,1,0,0:0:0:0:
380,240,58088,2,0,L|388:36,1,191.999994140625,2|2,0:0|0:0,0:0:0:0:
268,84,58424,1,0,0:0:0:0:
392,160,58536,1,10,0:0:0:0:
276,188,58648,1,0,0:0:0:0:
472,268,58760,6,0,L|280:324,1,191.999994140625,10|2,0:0|0:0,0:0:0:0:
364,240,59096,1,0,0:0:0:0:
260,180,59207,2,0,L|364:180,1,95.9999970703126,10|0,0:0|0:0,0:0:0:0:
136,88,59431,6,0,L|240:88,1,95.9999970703126,10|0,0:0|0:0,0:0:0:0:
364,112,59655,2,0,L|244:112,1,95.9999970703126,2|0,0:0|0:0,0:0:0:0:
136,88,59879,2,0,L|256:88,1,95.9999970703126,2|0,0:0|0:0,0:0:0:0:
436,128,60103,6,0,P|472:204|388:264,1,191.999994140625,6|2,0:0|0:0,0:0:0:0:
284,244,60439,1,0,0:0:0:0:
408,136,60551,1,10,0:0:0:0:
292,120,60663,1,0,0:0:0:0:
88,104,60775,2,0,L|236:240,1,191.999994140625,10|2,0:0|0:0,0:0:0:0:
112,276,61110,1,0,0:0:0:0:
236,304,61222,1,10,0:0:0:0:
360,332,61334,1,0,0:0:0:0:
136,316,61446,6,0,P|72:256|160:224,1,191.999994140625,10|2,0:0|0:0,0:0:0:0:
336,240,61894,2,0,L|364:144,1,95.9999970703126,2|0,0:0|0:0,0:0:0:0:
160,168,62118,2,0,L|92:168,2,63.9999980468751,2|0|0,0:0|0:0|0:0,0:0:0:0:
308,168,62342,2,0,L|372:168,2,63.9999980468751,2|0|0,0:0|0:0|0:0,0:0:0:0:
96,88,62566,2,0,L|176:28,1,95.9999970703126,2|8,0:0|0:0,0:0:0:0:
392,192,62790,5,10,0:0:0:0:
456,212,63013,1,2,0:0:0:0:
490,243,63068,1,2,0:0:0:0:
482,289,63124,1,10,0:0:0:0:
440,308,63180,1,2,0:0:0:0:
140,296,63237,1,2,0:0:0:0:
76,280,63461,5,2,0:0:0:0:
42,248,63516,1,2,0:0:0:0:
45,202,63572,1,2,0:0:0:0:
82,174,63628,1,2,0:0:0:0:
344,140,63685,1,2,0:0:0:0:
408,168,63909,1,10,0:0:0:0:
432,208,63964,1,2,0:0:0:0:
418,252,64020,1,2,0:0:0:0:
376,271,64076,1,2,0:0:0:0:
104,304,64133,6,0,L|112:208,1,95.9999970703126,14|0,0:0|0:0,0:0:0:0:
240,184,64357,2,0,L|352:180,1,95.9999970703126,2|0,0:0|0:0,0:0:0:0:
464,128,64581,2,0,L|352:124,1,95.9999970703126,10|0,0:0|0:0,0:0:0:0:
184,88,64804,5,14,0:0:0:0:
308,56,64916,1,8,0:0:0:0:
200,176,65028,1,10,0:0:0:0:
324,144,65140,1,8,0:0:0:0:
216,264,65252,1,10,0:0:0:0:
340,232,65364,1,0,0:0:0:0:
92,304,65476,6,0,L|84:200,1,95.9999970703126,14|0,0:0|0:0,0:0:0:0:
256,232,65700,2,0,L|348:188,1,95.9999970703126,10|0,0:0|0:0,0:0:0:0:
224,128,65924,2,0,L|212:28,1,95.9999970703126,10|0,0:0|0:0,0:0:0:0:
456,232,66148,2,0,L|436:136,1,95.9999970703126,10|0,0:0|0:0,0:0:0:0:
320,104,66372,2,0,L|220:96,1,95.9999970703126,10|0,0:0|0:0,0:0:0:0:
48,264,66596,2,0,L|152:236,1,95.9999970703126,10|0,0:0|0:0,0:0:0:0:
420,128,66819,6,0,L|412:232,1,95.9999970703126,10|0,0:0|0:0,0:0:0:0:
224,204,67043,2,0,L|232:308,1,95.9999970703126,10|0,0:0|0:0,0:0:0:0:
400,308,67267,2,0,L|308:344,1,95.9999970703126,10|0,0:0|0:0,0:0:0:0:
112,308,67491,2,0,L|204:344,1,95.9999970703126,10|0,0:0|0:0,0:0:0:0:
92,128,67715,2,0,L|100:232,1,95.9999970703126,10|0,0:0|0:0,0:0:0:0:
288,204,67939,2,0,L|280:308,1,95.9999970703126,10|0,0:0|0:0,0:0:0:0:
56,260,68163,6,0,L|168:240,1,95.9999970703126,10|8,0:0|0:0,0:0:0:0:
344,204,68387,2,0,L|448:204,3,95.9999970703126,2|8|10|0,0:0|0:0|0:0|0:0,0:0:0:0:
72,100,68834,1,2,0:0:0:0:
180,104,69058,1,2,0:0:0:0:
72,100,69170,1,8,0:0:0:0:
180,104,69282,1,10,0:0:0:0:
72,100,69394,1,0,0:0:0:0:
384,192,69506,6,0,L|484:192,1,95.9999970703126,2|0,0:0|0:0,0:0:0:0:
208,260,69730,2,0,L|324:260,1,95.9999970703126,2|0,0:0|0:0,0:0:0:0:
32,328,69954,2,0,L|132:328,1,95.9999970703126,2|0,0:0|0:0,0:0:0:0:
304,168,70178,5,2,0:0:0:0:
184,184,70290,1,8,0:0:0:0:
308,84,70401,1,10,0:0:0:0:
188,96,70513,1,0,0:0:0:0:
312,28,70625,1,10,0:0:0:0:
192,44,70737,1,0,0:0:0:0:
416,272,70849,6,0,P|464:208|396:124,1,191.999994140625,6|2,0:0|0:0,0:0:0:0:
236,96,71185,1,0,0:0:0:0:
336,148,71297,1,10,0:0:0:0:
236,184,71409,1,0,0:0:0:0:
456,44,71521,2,0,L|312:176,1,191.999994140625,10|2,0:0|0:0,0:0:0:0:
136,128,71969,2,0,L|152:236,1,95.9999970703126,10|0,0:0|0:0,0:0:0:0:
324,200,72193,6,0,P|348:132|252:76,1,191.999994140625,10|2,0:0|0:0,0:0:0:0:
68,96,72528,1,0,0:0:0:0:
88,196,72640,1,10,0:0:0:0:
428,216,72864,2,0,L|416:316,1,95.9999970703126,10|0,0:0|0:0,0:0:0:0:
304,324,73088,1,2,0:0:0:0:
416,328,73200,1,0,0:0:0:0:
184,320,73312,1,10,0:0:0:0:
364,216,73536,5,10,0:0:0:0:
432,168,73648,1,0,0:0:0:0:
352,112,73760,1,10,0:0:0:0:
440,72,73872,1,8,0:0:0:0:
340,16,73984,1,2,0:0:0:0:
148,216,74207,1,10,0:0:0:0:
80,168,74319,1,0,0:0:0:0:
160,112,74431,1,2,0:0:0:0:
72,72,74543,1,0,0:0:0:0:
172,16,74655,1,10,0:0:0:0:
468,224,74879,6,0,L|368:224,1,95.9999970703126,12|8,0:0|0:0,0:0:0:0:
236,144,75103,2,0,L|340:144,1,95.9999970703126,8|8,0:0|0:0,0:0:0:0:
468,76,75327,2,0,L|368:76,1,95.9999970703126,8|8,0:0|0:0,0:0:0:0:
84,116,75551,5,0,0:0:0:0:
256,184,75663,1,0,0:0:0:0:
84,220,75775,1,0,0:0:0:0:
256,268,75887,1,0,0:0:0:0:
84,316,75998,1,0,0:0:0:0:
256,348,76110,1,0,0:0:0:0:
440,324,76222,6,0,P|472:256|400:204,1,160,8|0,0:0|0:0,0:0:0:0:
352,184,76558,1,0,0:0:0:0:
280,172,76670,1,2,0:0:0:0:
356,136,76782,1,2,0:0:0:0:
176,136,76894,1,8,0:0:0:0:
320,272,77118,2,0,L|328:192,1,80,2|2,0:0|0:0,0:0:0:0:
232,192,77342,2,0,L|244:104,1,80,2|2,0:0|0:0,0:0:0:0:
424,56,77566,6,0,L|272:132,1,160,8|0,0:0|0:0,0:0:0:0:
356,184,77901,1,0,0:0:0:0:
280,216,78013,1,2,0:0:0:0:
360,268,78125,1,2,0:0:0:0:
124,284,78237,1,10,0:0:0:0:
248,236,78461,1,2,0:0:0:0:
288,170,78572,1,0,0:0:0:0:
259,98,78684,1,2,0:0:0:0:
185,79,78796,1,0,0:0:0:0:
356,112,78909,6,0,L|496:196,1,160,8|2,0:0|0:0,0:0:0:0:
412,248,79245,1,2,0:0:0:0:
332,296,79357,1,2,0:0:0:0:
416,320,79469,1,2,0:0:0:0:
184,240,79581,2,0,L|20:228,1,160,8|0,0:0|0:0,0:0:0:0:
116,176,79916,1,0,0:0:0:0:
208,136,80028,1,2,0:0:0:0:
300,96,80140,1,2,0:0:0:0:
92,80,80252,6,0,P|48:136|104:204,1,160,8|0,0:0|0:0,0:0:0:0:
168,220,80588,1,0,0:0:0:0:
372,260,80700,2,0,L|364:344,1,80,2|0,0:0|0:0,0:0:0:0:
176,288,80924,2,0,L|256:256,1,80,10|0,0:0|0:0,0:0:0:0:
380,172,81148,2,0,L|468:144,1,80,2|0,0:0|0:0,0:0:0:0:
256,136,81372,2,0,L|160:112,1,80,2|0,0:0|0:0,0:0:0:0:
408,256,81596,6,0,P|456:192|404:108,1,160,8|0,0:0|0:0,0:0:0:0:
372,68,81931,1,0,0:0:0:0:
292,36,82043,2,0,L|388:32,1,80,2|2,0:0|0:0,0:0:0:0:
176,196,82267,2,0,P|180:128|264:100,1,160,8|2,0:0|0:0,0:0:0:0:
340,128,82603,1,2,0:0:0:0:
256,184,82715,2,0,L|264:272,1,80,2|2,0:0|0:0,0:0:0:0:
440,204,82939,6,0,P|480:264|416:324,1,160,8|0,0:0|0:0,0:0:0:0:
350,322,83275,1,0,0:0:0:0:
440,204,83387,2,0,L|352:204,1,80,2|2,0:0|0:0,0:0:0:0:
148,240,83610,5,8,0:0:0:0:
136,189,83684,1,0,0:0:0:0:
164,144,83759,1,0,0:0:0:0:
380,216,83834,1,0,0:0:0:0:
407,172,83908,1,0,0:0:0:0:
393,122,83983,1,0,0:0:0:0:
224,272,84058,2,0,L|320:272,1,80,2|2,0:0|0:0,0:0:0:0:
124,128,84282,5,8,0:0:0:0:
48,176,84506,1,2,0:0:0:0:
26,208,84561,1,2,0:0:0:0:
28,248,84617,1,2,0:0:0:0:
53,278,84673,1,2,0:0:0:0:
260,176,84730,1,2,0:0:0:0:
336,188,84954,5,2,0:0:0:0:
363,215,85009,1,2,0:0:0:0:
366,254,85065,1,2,0:0:0:0:
342,285,85121,1,2,0:0:0:0:
176,304,85178,1,2,0:0:0:0:
96,272,85401,1,2,0:0:0:0:
74,239,85456,1,2,0:0:0:0:
75,200,85512,1,2,0:0:0:0:
100,169,85568,1,2,0:0:0:0:
328,140,85625,6,0,L|436:140,1,80,12|8,0:0|0:0,0:0:0:0:
180,200,85849,2,0,L|88:200,1,80,8|8,0:0|0:0,0:0:0:0:
344,268,86073,2,0,L|432:268,1,80,8|8,0:0|0:0,0:0:0:0:
176,76,86297,5,12,0:0:0:0:
304,100,86409,1,8,0:0:0:0:
188,164,86521,1,8,0:0:0:0:
316,184,86633,1,8,0:0:0:0:
200,256,86745,1,8,0:0:0:0:
328,280,86857,1,0,0:0:0:0:
108,312,86969,6,0,L|116:216,1,95.9999970703126,14|0,0:0|0:0,0:0:0:0:
300,216,87193,2,0,L|292:108,1,95.9999970703126,10|0,0:0|0:0,0:0:0:0:
120,128,87416,2,0,L|128:28,1,95.9999970703126,10|0,0:0|0:0,0:0:0:0:
336,200,87640,6,0,L|444:180,1,95.9999970703126,10|0,0:0|0:0,0:0:0:0:
248,144,87864,2,0,L|140:124,1,95.9999970703126,10|0,0:0|0:0,0:0:0:0:
328,108,88088,2,0,L|436:88,1,95.9999970703126,10|0,0:0|0:0,0:0:0:0:
100,304,88312,6,0,L|120:204,1,95.9999970703126,10|0,0:0|0:0,0:0:0:0:
292,192,88536,2,0,L|312:96,1,95.9999970703126,10|0,0:0|0:0,0:0:0:0:
136,68,88760,2,0,L|32:68,1,95.9999970703126,10|0,0:0|0:0,0:0:0:0:
328,296,88984,6,0,L|416:256,1,95.9999970703126,10|0,0:0|0:0,0:0:0:0:
144,192,89207,2,0,L|252:144,1,95.9999970703126,10|0,0:0|0:0,0:0:0:0:
440,152,89431,2,0,L|424:48,1,95.9999970703126,10|0,0:0|0:0,0:0:0:0:
172,104,89655,6,0,L|272:128,1,95.9999970703126,10|8,0:0|0:0,0:0:0:0:
160,212,89879,2,0,L|64:248,3,95.9999970703126,2|8|10|0,0:0|0:0|0:0|0:0,0:0:0:0:
300,264,90327,6,0,L|408:264,1,95.9999970703126,2|0,0:0|0:0,0:0:0:0:
192,88,90551,1,2,0:0:0:0:
304,120,90663,1,8,0:0:0:0:
188,172,90775,1,10,0:0:0:0:
300,200,90887,1,0,0:0:0:0:
120,248,90998,6,0,L|24:248,1,95.9999970703126,10|0,0:0|0:0,0:0:0:0:
304,308,91222,2,0,L|200:308,1,95.9999970703126,2|8,0:0|0:0,0:0:0:0:
488,252,91446,2,0,L|384:252,1,95.9999970703126,2|0,0:0|0:0,0:0:0:0:
164,128,91670,5,10,0:0:0:0:
284,156,91782,1,8,0:0:0:0:
172,216,91894,1,10,0:0:0:0:
296,228,92006,1,8,0:0:0:0:
180,300,92118,1,2,0:0:0:0:
308,300,92230,1,0,0:0:0:0:
84,196,92342,6,0,P|76:92|160:76,1,191.999994140625,14|10,0:0|0:0,0:0:0:0:
264,116,92678,2,0,L|364:116,2,95.9999970703126,0|10|0,0:0|0:0|0:0,0:0:0:0:
84,232,93013,2,0,L|232:104,1,191.999994140625,10|10,0:0|0:0,0:0:0:0:
108,104,93349,2,0,L|76:8,1,95.9999970703126,0|10,0:0|0:0,0:0:0:0:
380,292,93685,6,0,L|488:288,1,95.9999970703126,14|0,0:0|0:0,0:0:0:0:
300,192,93909,1,10,0:0:0:0:
276,118,94020,1,0,0:0:0:0:
317,52,94132,1,10,0:0:0:0:
394,43,94244,1,0,0:0:0:0:
184,128,94357,5,14,0:0:0:0:
72,148,94469,1,8,0:0:0:0:
180,208,94581,1,10,0:0:0:0:
68,220,94693,1,8,0:0:0:0:
176,284,94804,1,10,0:0:0:0:
64,292,94916,1,8,0:0:0:0:
440,328,95028,6,0,L|472:216,1,95.9999970703126,14|0,0:0|0:0,0:0:0:0:
364,236,95252,2,0,L|392:136,1,95.9999970703126,10|0,0:0|0:0,0:0:0:0:
288,152,95476,2,0,L|320:44,1,95.9999970703126,2|0,0:0|0:0,0:0:0:0:
112,32,95700,5,10,0:0:0:0:
284,32,95812,1,0,0:0:0:0:
88,168,95924,1,2,0:0:0:0:
260,168,96036,1,0,0:0:0:0:
64,324,96148,1,10,0:0:0:0:
236,324,96260,1,0,0:0:0:0:
436,352,96372,6,0,L|460:256,1,95.9999970703126,14|0,0:0|0:0,0:0:0:0:
352,284,96596,2,0,L|350:185,1,95.9999970703126,2|8,0:0|0:0,0:0:0:0:
253,240,96819,2,0,L|225:144,1,95.9999970703126,2|0,0:0|0:0,0:0:0:0:
400,52,97043,5,2,0:0:0:0:
216,88,97155,1,0,0:0:0:0:
396,168,97267,1,2,0:0:0:0:
224,184,97379,1,0,0:0:0:0:
408,276,97491,1,2,0:0:0:0:
212,280,97603,1,0,0:0:0:0:
436,208,97715,6,0,L|428:108,1,95.9999970703126,14|8,0:0|0:0,0:0:0:0:
172,156,97939,2,0,L|292:156,1,95.9999970703126,2|8,0:0|0:0,0:0:0:0:
388,236,98163,2,0,L|280:236,1,95.9999970703126,10|0,0:0|0:0,0:0:0:0:
60,88,98387,6,0,L|172:88,1,95.9999970703126,2|0,0:0|0:0,0:0:0:0:
348,104,98610,2,0,L|452:104,1,95.9999970703126,2|0,0:0|0:0,0:0:0:0:
216,192,98834,2,0,L|120:248,1,95.9999970703126,10|0,0:0|0:0,0:0:0:0:
440,316,99058,6,0,L|452:216,1,95.9999970703126,14|8,0:0|0:0,0:0:0:0:
180,208,99282,2,0,L|276:216,1,95.9999970703126,10|8,0:0|0:0,0:0:0:0:
464,68,99506,2,0,L|360:76,1,95.9999970703126,10|8,0:0|0:0,0:0:0:0:
92,292,99730,5,14,0:0:0:0:
264,196,99842,1,8,0:0:0:0:
92,292,99954,1,10,0:0:0:0:
264,196,100066,1,8,0:0:0:0:
92,292,100178,1,10,0:0:0:0:
256,312,100401,6,0,L|400:232,2,160,10|0|0,0:0|0:0|0:0,0:0:0:0:
128,284,101073,2,0,P|24:208|132:100,1,320,0|0,0:0|0:0,0:0:0:0:
212,116,101633,1,0,0:0:0:0:
292,132,101745,6,0,L|320:304,1,160,0|0,0:0|0:0,0:0:0:0:
248,336,102081,1,0,0:0:0:0:
332,344,102193,2,0,L|412:344,1,80,0|0,0:0|0:0,0:0:0:0:
312,268,102416,1,0,0:0:0:0:
408,208,102640,1,0,0:0:0:0:
424,158,102714,1,0,0:0:0:0:
410,107,102789,1,0,0:0:0:0:
370,73,102863,1,0,0:0:0:0:
200,64,103088,5,0,0:0:0:0:
147,91,103199,1,0,0:0:0:0:
127,146,103311,1,0,0:0:0:0:
149,200,103423,1,0,0:0:0:0:
202,225,103535,1,0,0:0:0:0:
384,232,103760,2,0,L|204:312,1,160,0|0,0:0|0:0,0:0:0:0:
304,332,104096,1,0,0:0:0:0:
216,288,104207,2,0,L|228:200,1,80,0|0,0:0|0:0,0:0:0:0:
356,176,104431,6,0,L|448:176,1,80,0|0,0:0|0:0,0:0:0:0:
316,96,104655,2,0,L|224:96,1,80,0|0,0:0|0:0,0:0:0:0:
360,24,104879,2,0,L|452:24,1,80,0|0,0:0|0:0,0:0:0:0:
196,56,105103,2,0,P|152:152|204:184,1,160,0|0,0:0|0:0,0:0:0:0:
292,200,105439,1,0,0:0:0:0:
172,268,105551,1,0,0:0:0:0:
300,280,105663,1,0,0:0:0:0:
72,276,105775,6,0,L|64:176,1,95.9999970703126,4|0,3:0|0:0,0:0:0:0:
240,160,105998,1,2,0:0:0:0:
144,104,106110,1,0,0:0:0:0:
328,100,106222,2,0,L|432:100,1,95.9999970703126,2|0,0:0|0:0,0:0:0:0:
144,232,106446,6,0,L|152:336,1,95.9999970703126,10|0,0:0|0:0,0:0:0:0:
392,320,106670,2,0,L|296:320,1,95.9999970703126,2|0,0:0|0:0,0:0:0:0:
108,148,106894,2,0,L|212:148,1,95.9999970703126,10|0,0:0|0:0,0:0:0:0:
392,104,107118,6,0,L|376:216,1,95.9999970703126,14|0,0:0|0:0,0:0:0:0:
168,160,107342,2,0,L|268:160,1,95.9999970703126,2|0,0:0|0:0,0:0:0:0:
168,240,107566,2,0,L|268:240,1,95.9999970703126,2|0,0:0|0:0,0:0:0:0:
444,88,107790,5,14,0:0:0:0:
272,88,107901,1,8,0:0:0:0:
456,168,108013,1,10,0:0:0:0:
264,168,108125,1,0,0:0:0:0:
448,244,108237,1,10,0:0:0:0:
276,244,108349,1,0,0:0:0:0:
64,132,108461,6,0,L|168:132,1,95.9999970703126,14|0,0:0|0:0,0:0:0:0:
336,152,108685,1,2,0:0:0:0:
232,220,108797,1,0,0:0:0:0:
452,252,108909,2,0,L|464:144,1,95.9999970703126,2|0,0:0|0:0,0:0:0:0:
224,60,109133,6,0,L|124:60,1,95.9999970703126,10|0,0:0|0:0,0:0:0:0:
344,224,109357,1,2,0:0:0:0:
448,200,109469,1,0,0:0:0:0:
244,172,109581,2,0,L|352:172,1,95.9999970703126,10|0,0:0|0:0,0:0:0:0:
80,208,109804,6,0,L|72:312,1,95.9999970703126,14|0,0:0|0:0,0:0:0:0:
276,328,110028,1,2,0:0:0:0:
164,300,110140,1,0,0:0:0:0:
284,236,110252,1,2,0:0:0:0:
172,204,110364,1,0,0:0:0:0:
416,232,110476,5,14,0:0:0:0:
224,232,110588,1,0,0:0:0:0:
396,136,110700,1,10,0:0:0:0:
204,140,110812,1,0,0:0:0:0:
376,52,110924,1,10,0:0:0:0:
184,56,111036,1,0,0:0:0:0:
448,104,111148,6,0,L|352:104,1,95.9999970703126,14|0,0:0|0:0,0:0:0:0:
140,108,111372,1,2,0:0:0:0:
244,108,111484,1,0,0:0:0:0:
56,200,111596,2,0,L|156:200,1,95.9999970703126,2|0,0:0|0:0,0:0:0:0:
360,228,111819,6,0,L|472:228,1,95.9999970703126,10|0,0:0|0:0,0:0:0:0:
228,160,112043,1,2,0:0:0:0:
124,160,112155,1,0,0:0:0:0:
324,56,112267,2,0,L|424:56,1,95.9999970703126,10|0,0:0|0:0,0:0:0:0:
176,208,112491,6,0,L|168:304,1,95.9999970703126,14|0,0:0|0:0,0:0:0:0:
380,300,112715,2,0,L|276:300,1,95.9999970703126,10|8,0:0|0:0,0:0:0:0:
404,236,112939,2,0,L|412:140,1,95.9999970703126,2|0,0:0|0:0,0:0:0:0:
112,236,113163,6,0,L|40:152,1,95.9999970703126,14|0,0:0|0:0,0:0:0:0:
232,164,113387,2,0,L|308:88,1,95.9999970703126,10|0,0:0|0:0,0:0:0:0:
124,44,113610,1,10,0:0:0:0:
404,300,113834,5,14,0:0:0:0:
376,280,113946,1,8,0:0:0:0:
412,248,114058,1,2,0:0:0:0:
368,232,114170,1,8,0:0:0:0:
420,200,114282,1,2,0:0:0:0:
360,188,114394,1,0,0:0:0:0:
136,320,114506,5,2,0:0:0:0:
204,292,114618,1,0,0:0:0:0:
132,272,114730,1,2,0:0:0:0:
208,248,114842,1,0,0:0:0:0:
128,224,114954,1,10,0:0:0:0:
212,200,115066,1,0,0:0:0:0:
420,308,115178,5,10,0:0:0:0:
304,304,115290,1,0,0:0:0:0:
428,216,115401,1,2,0:0:0:0:
312,208,115513,1,0,0:0:0:0:
436,124,115625,1,2,0:0:0:0:
320,116,115737,1,0,0:0:0:0:
64,296,115849,5,10,0:0:0:0:
300,252,115961,1,10,0:0:0:0:
72,180,116073,1,10,0:0:0:0:
308,152,116185,1,10,0:0:0:0:
80,64,116297,1,10,0:0:0:0:
316,44,116409,1,14,0:1:0:0:
