osu file format v14

[General]
AudioFilename: audio.mp3
AudioLeadIn: 0
PreviewTime: 72674
Countdown: 1
SampleSet: None
StackLeniency: 0.7
Mode: 0
LetterboxInBreaks: 0
WidescreenStoryboard: 1

[Editor]
Bookmarks: 15674,84862
DistanceSpacing: 0.6
BeatDivisor: 4
GridSize: 4
TimelineZoom: 3.399998

[Metadata]
Title:Gravigazer
TitleUnicode:Gravigazer
Artist:DJ TOTTO
ArtistUnicode:DJ TOTTO
Creator:ignorethis
Version:Another
Source:beatmania IIDX
Tags:22 pendual progressive schranz
BeatmapID:1019172
BeatmapSetID:473929

[Difficulty]
HPDrainRate:5
CircleSize:4
OverallDifficulty:7
ApproachRate:9
SliderMultiplier:1.6
SliderTickRate:1

[Events]
//Background and Video events
0,0,"bg.jpg",0,0
//Break Periods
//Storyboard Layer 0 (Background)
//Storyboard Layer 1 (Fail)
//Storyboard Layer 2 (Pass)
//Storyboard Layer 3 (Foreground)
//Storyboard Sound Samples

[TimingPoints]
862,375,4,1,0,40,1,0
955,-100,4,1,0,10,0,0
6393,-100,4,1,0,40,0,0
12299,-100,4,1,0,5,0,0
12487,-66.6666666666667,4,1,0,40,0,0
12862,-100,4,1,0,40,0,0
18112,-66.6666666666667,4,1,0,40,0,0
18862,-100,4,1,0,40,0,0
22237,-66.6666666666667,4,1,0,40,0,0
23362,-100,4,1,0,40,0,0
24487,-66.6666666666667,4,1,0,40,0,0
24862,-100,4,1,0,40,0,0
30205,-66.6666666666667,4,1,0,40,0,0
30862,-100,4,1,0,40,0,0
35362,-50,4,1,0,40,0,0
35737,-200,4,1,0,40,0,0
36112,-50,4,1,0,40,0,0
36862,-100,4,1,0,40,0,0
41737,-50,4,1,0,40,0,0
42112,-100,4,1,0,40,0,0
43987,-50,4,1,0,40,0,0
44362,-100,4,1,0,40,0,0
45862,-66.6666666666667,4,1,0,40,0,0
48862,-200,4,1,0,40,0,0
60862,-133.333333333333,4,1,0,40,0,0
62362,-111.111111111111,4,1,0,40,0,0
63862,-95.2380952380952,4,1,0,40,0,0
65362,-83.3333333333333,4,1,0,40,0,0
66862,-66.6666666666667,4,1,0,40,0,0
72862,-50,4,1,0,40,0,1
95737,-133.333333333333,4,1,0,40,0,1
96862,-100,4,1,0,40,0,0
102112,-100,4,2,0,40,0,0
102862,-100,4,1,0,40,0,0

[Colours]
Combo1 : 255,0,0
Combo2 : 0,64,128
Combo3 : 128,0,128
Combo4 : 192,192,192

[HitObjects]
256,192,862,5,4,0:0:0:0:
256,192,955,12,0,3862,0:0:0:0:
78,56,6487,6,0,P|59:134|81:220,1,160
191,262,7049,1,0,0:0:0:0:
262,164,7237,2,0,P|257:131|256:67,1,80
376,25,7612,1,0,0:0:0:0:
376,25,7799,1,0,0:0:0:0:
480,127,7987,2,0,P|484:174|482:220,1,80
393,346,8362,5,0,0:0:0:0:
369,340,8455,1,0,0:0:0:0:
345,334,8549,1,0,0:0:0:0:
321,328,8643,1,0,0:0:0:0:
297,321,8737,2,0,P|250:322|190:325,1,80
70,305,9112,1,0,0:0:0:0:
183,195,9299,1,0,0:0:0:0:
27,178,9487,2,0,P|27:130|35:84,1,80
245,27,9862,21,0,0:0:0:0:
259,51,9955,2,0,P|254:102|254:138,1,80
263,151,10237,2,0,P|317:152|362:160,1,80
456,236,10612,1,0,0:0:0:0:
456,236,10705,1,0,0:0:0:0:
456,236,10799,1,0,0:0:0:0:
323,353,10987,1,0,0:0:0:0:
323,353,11080,1,0,0:0:0:0:
323,353,11174,2,0,L|274:363,3,26.6666666666667
256,192,11455,12,0,12487,0:0:0:0:
373,49,12862,6,0,P|381:92|386:139,1,80
280,317,13237,2,0,P|272:274|267:227,1,80
177,45,13612,1,0,0:0:0:0:
177,45,13799,1,0,0:0:0:0:
61,179,13987,2,0,P|59:233|56:276,1,80
183,344,14362,1,0,0:0:0:0:
183,344,14455,1,0,0:0:0:0:
267,237,14643,1,0,0:0:0:0:
267,237,14737,2,0,P|321:241|363:252,1,80
468,148,15112,1,0,0:0:0:0:
468,148,15205,1,0,0:0:0:0:
362,49,15393,1,0,0:0:0:0:
362,49,15487,2,0,P|331:50|302:50,1,40
204,53,15674,2,0,P|235:52|264:52,1,40
286,123,15862,5,0,0:0:0:0:
286,123,15955,1,0,0:0:0:0:
97,209,16143,1,0,0:0:0:0:
97,209,16237,2,0,P|88:159|95:114,1,80
256,245,16612,1,0,0:0:0:0:
256,245,16705,1,0,0:0:0:0:
423,175,16893,1,0,0:0:0:0:
423,175,16987,2,0,P|430:217|435:269,1,80
327,323,17362,6,0,P|294:319|270:318,1,40
171,339,17549,2,0,P|204:343|228:344,1,40
227,266,17737,2,0,P|228:245|229:224,2,40
