osu file format v14

[General]
AudioFilename: audio.mp3
AudioLeadIn: 0
PreviewTime: 170845
Countdown: 0
SampleSet: Soft
StackLeniency: 0.2
Mode: 0
LetterboxInBreaks: 0
WidescreenStoryboard: 1

[Editor]
DistanceSpacing: 0.9
BeatDivisor: 8
GridSize: 32
TimelineZoom: 3.714002

[Metadata]
Title:DORNWALD ~Der Junge im Kaefig~
TitleUnicode:DORNWALD ~Der Junge im Käfig~
Artist:DJ TOTTO
ArtistUnicode:DJ TOTTO
Creator:Azer
Version:BMD's Extreme
Source:beatmania IIDX 24 SINOBUZ
Tags:bemani konami barkingmaddog bmd video game electronic archaic tale ep1
BeatmapID:2259800
BeatmapSetID:857638

[Difficulty]
HPDrainRate:4
CircleSize:4.2
OverallDifficulty:8.6
ApproachRate:9.4
SliderMultiplier:1.6
SliderTickRate:1

[Events]
//Background and Video events
0,0,"background.jpg",0,0
//Break Periods
//Storyboard Layer 0 (Background)
//Storyboard Layer 1 (Fail)
//Storyboard Layer 2 (Pass)
//Storyboard Layer 3 (Foreground)
//Storyboard Layer 4 (Overlay)
//Storyboard Sound Samples

[TimingPoints]
1000,468.75,4,3,5,50,1,0
1470,483.870967741935,4,3,6,50,1,0
1954,645.16129032258,4,3,7,80,1,0
2030,566.037735849056,4,3,8,80,1,0
2030,-200,4,3,8,80,0,0
2598,431.654676258993,4,3,8,60,1,0
3030,434.782608695652,4,3,9,80,1,0
3465,428.571428571429,4,3,10,70,1,0
3860,500,4,3,11,60,1,0
3894,431.654676258993,4,3,10,80,1,0
4760,428.571428571429,4,3,12,80,1,0
5190,431.654676258993,4,3,13,50,1,0
5557,428.571428571429,4,3,14,50,1,0
5621,428.571428571429,4,3,12,50,1,0
6479,437.956204379562,4,3,15,50,1,0
6919,454.545454545455,4,3,16,60,1,0
7326,454.545454545455,4,3,5,70,1,0
7373,472.44094488189,4,3,17,90,1,0
7847,517.241379310345,4,3,18,40,1,0
8368,540.54054054054,4,3,19,90,1,0
8368,-133.333333333333,4,3,19,90,0,0
8503,-100,4,3,1,5,0,0
9370,540.540540540541,4,3,20,50,1,0
9451,566.037735849056,4,3,21,70,1,0
9451,-400,4,3,21,70,0,0
10017,-100,4,3,22,30,0,0
10430,428.571428571429,4,3,23,90,1,0
10430,-333.333333333333,4,3,23,90,0,0
10858,-100,4,3,22,30,0,0
11271,416.666666666667,4,3,24,90,1,0
11271,-250,4,3,24,90,0,0
11687,-100,4,3,25,40,0,0
12106,447.761194029851,4,3,26,90,1,0
12106,-200,4,3,26,90,0,0
12553,-100,4,3,25,40,0,0
13003,508.474576271186,4,3,27,40,1,0
13514,413.793103448276,4,3,28,50,1,0
13930,408.163265306122,4,3,29,70,1,0
14340,483.870967741935,4,3,30,80,1,0
14778,500,4,3,31,90,1,0
14827,444.444444444444,4,3,32,90,1,0
15718,566.037735849056,4,3,33,100,1,0
15718,-200,4,3,33,100,0,0
15859,-100,4,3,1,5,0,0
16857,689.655172413792,4,3,34,90,1,0
16857,-133.333333333333,4,3,34,90,0,0
17201,-100,4,3,25,50,0,0
17458,419.58041958042,4,3,35,90,1,0
17458,-133.333333333333,4,3,35,90,0,0
17667,-100,4,3,25,50,0,0
17878,419.58041958042,4,3,36,90,1,0
17878,-133.333333333333,4,3,36,90,0,0
18087,-100,4,3,25,50,0,0
18294,416.666666666667,4,3,37,90,1,0
18294,-133.333333333333,4,3,37,90,0,0
18502,-100,4,3,25,50,0,0
18713,419.58041958042,4,3,38,100,1,0
18713,-100,4,3,38,100,0,0
18922,-100,4,3,25,50,0,0
19132,-100,4,3,39,50,0,0
19342,-100,4,3,25,50,0,0
19412,-100,4,3,40,80,0,0
19482,-100,4,3,41,80,0,0
19560,425.531914893617,4,3,42,90,1,0
19560,-133.333333333333,4,3,42,90,0,0
19772,-100,4,3,25,50,0,0
19984,408.163265306123,4,3,43,90,1,0
19984,-133.333333333333,4,3,43,90,0,0
20188,-100,4,3,25,50,0,0
20398,425.531914893617,4,3,44,90,1,0
20398,-200,4,3,44,90,0,0
20610,-100,4,3,45,50,0,0
20823,-100,4,3,46,50,0,0
21036,-100,4,3,45,50,0,0
21248,408.163265306123,4,3,47,90,1,0
21248,-133.333333333333,4,3,47,90,0,0
21452,-100,4,3,45,50,0,0
21657,422.535211267606,4,3,48,90,1,0
21657,-133.333333333333,4,3,48,90,0,0
21868,-100,4,3,45,50,0,0
22082,410.958904109589,4,3,49,90,1,0
22082,-133.333333333333,4,3,49,90,0,0
22287,-100,4,3,18,50,0,0
22492,-100,4,3,50,50,0,0
22766,-100,4,3,51,100,0,0
22835,-100,4,3,52,100,0,0
22907,428.571428571429,4,3,53,100,1,0
22907,-133.333333333333,4,3,53,100,0,0
22978,-100,4,3,1,5,0,0
23760,405.405405405406,4,3,54,95,1,0
23760,-100,4,3,54,95,0,0
23962,-100,4,3,25,80,0,0
24165,-100,4,3,50,80,0,0
24368,-100,4,3,25,80,0,0
24581,413.793103448276,4,3,55,95,1,0
24787,-100,4,3,25,80,0,0
24994,-100,4,3,56,95,0,0
25201,-100,4,3,25,80,0,0
25409,410.958904109589,4,3,57,95,1,0
25614,-100,4,3,25,80,0,0
25819,-100,4,3,58,80,0,0
26025,-100,4,3,25,80,0,0
26230,410.958904109589,4,3,59,95,1,0
26435,-100,4,3,46,80,0,0
26640,451.127819548872,4,3,60,80,1,0
26865,-100,4,3,46,80,0,0
27122,508.474576271187,4,3,61,90,1,0
27633,444.444444444445,4,3,10,80,1,0
28079,410.958904109589,4,3,9,80,1,0
28490,500,4,3,62,80,1,0
28930,416.666666666667,4,3,84,90,1,0
28991,461.538461538462,4,3,63,90,1,0
28991,-400,4,3,63,90,0,0
29452,-100,4,3,63,5,0,0
29916,487.804878048781,4,3,64,90,1,0
30834,416.666666666667,4,3,65,90,1,0
30894,750,4,3,66,90,1,0
31269,-100,4,3,67,90,0,0
31544,428.571428571429,4,3,68,90,1,0
31758,-100,4,3,69,90,0,0
31975,454.545454545455,4,3,78,90,1,0
32202,-100,4,3,67,90,0,0
32431,428.571428571429,4,3,70,90,1,0
32645,-100,4,3,69,90,0,0
32861,416.666666666667,4,3,78,90,1,0
33069,-100,4,3,67,90,0,0
33277,-100,4,3,68,90,0,0
33486,-100,4,3,69,90,0,0
33697,419.58041958042,4,3,78,90,1,0
33906,-100,4,3,67,90,0,0
34118,416.666666666667,4,3,68,90,1,0
34326,-100,4,3,69,90,0,0
34531,410.958904109589,4,3,71,90,1,0
34736,-100,4,3,67,90,0,0
34941,-100,4,3,68,90,0,0
35147,-100,4,3,69,90,0,0
35352,405.405405405406,4,3,78,90,1,0
35554,-100,4,3,67,90,0,0
35757,-100,4,3,70,90,0,0
35960,-100,4,3,69,90,0,0
36165,416.666666666667,4,3,78,90,1,0
36373,-100,4,3,67,90,0,0
36581,-100,4,3,68,90,0,0
36790,-100,4,3,69,90,0,0
36999,408.163265306123,4,3,6,90,1,0
37203,-100,4,3,67,90,0,0
37407,-100,4,3,68,90,0,0
37611,-100,4,3,69,90,0,0
37816,408.163265306123,4,3,72,90,1,0
38020,-100,4,3,73,90,0,0
38224,-100,4,3,68,90,0,0
38428,-100,4,3,69,90,0,0
38634,413.793103448276,4,3,78,90,1,0
38840,-100,4,3,73,90,0,0
39047,-100,4,3,74,90,0,0
39254,-100,4,3,69,90,0,0
39463,405.405405405406,4,3,78,90,1,0
39665,-100,4,3,73,90,0,0
39868,-100,4,3,68,90,0,0
40071,-100,4,3,69,90,0,0
40272,410.958904109589,4,3,75,90,1,0
40477,-100,4,3,73,90,0,0
40682,-100,4,3,68,90,0,0
40888,-100,4,3,69,90,0,0
41096,408.163265306123,4,3,76,90,1,0
41300,-100,4,3,73,90,0,0
41504,-100,4,3,68,90,0,0
41708,-100,4,3,69,90,0,0
41914,416.666666666667,4,3,78,90,1,0
42122,-100,4,3,73,90,0,0
42330,-100,4,3,74,90,0,0
42539,-100,4,3,69,90,0,0
42746,408.163265306123,4,3,78,90,1,0
42950,-100,4,3,73,90,0,0
43154,-100,4,3,68,90,0,0
43358,-100,4,3,69,90,0,0
43564,419.58041958042,4,3,77,90,1,0
43773,-100,4,3,78,90,0,0
43983,-100,4,3,73,90,0,0
44193,-100,4,3,68,90,0,0
44402,400,4,3,79,90,1,0
44602,-100,4,3,73,90,0,0
44802,-100,4,3,68,90,0,0
45002,-100,4,3,69,90,0,0
45200,408.163265306123,4,3,78,90,1,0
45404,-100,4,3,73,90,0,0
45608,-100,4,3,74,90,0,0
45812,-100,4,3,69,90,0,0
46018,402.68456375839,4,3,78,90,1,0
46219,-100,4,3,73,90,0,0
46420,-100,4,3,68,90,0,0
46622,-100,4,3,69,90,0,0
46821,410.958904109589,4,3,80,90,1,0
47026,-100,4,3,73,90,0,0
47231,-100,4,3,68,90,0,0
47437,-100,4,3,69,90,0,0
47643,397.350993377484,4,3,79,90,1,0
47841,-100,4,3,73,90,0,0
48040,-100,4,3,68,90,0,0
48239,-100,4,3,69,90,0,0
48436,402.68456375839,4,3,78,90,1,0
48637,-100,4,3,73,90,0,0
48838,-100,4,3,81,90,0,0
49040,-100,4,3,69,90,0,0
49241,428.571428571429,4,3,78,90,1,0
49455,-100,4,3,73,90,0,0
49671,416.666666666667,4,3,68,90,1,0
49879,-100,4,3,69,90,0,0
50090,458.015267175573,4,3,82,90,1,0
50319,434.782608695653,4,3,78,90,1,0
50535,555.555555555556,4,3,73,90,1,0
50796,606.060606060607,4,3,68,90,1,0
51075,1090.90909090909,4,3,83,90,1,0
51075,-62.111801242236,4,3,83,90,0,0
51347,-100,4,2,1,5,0,0
59314,355.029585798817,4,2,1,50,1,0
64284,-166.666666666667,4,2,1,50,0,0
64994,-100,4,2,1,70,0,0
66059,-100,4,2,1,30,0,0
66325,-100,4,2,1,70,0,0
66680,-100,4,2,1,30,0,0
66769,-100,4,2,1,70,0,0
67035,-100,4,2,1,30,0,0
67124,-100,4,2,1,70,0,0
67390,-100,4,2,1,30,0,0
67479,-222.222222222222,4,2,1,70,0,0
67745,-100,4,2,1,30,0,0
67834,-100,4,2,1,70,0,0
69964,-100,4,2,1,70,0,0
70142,-100,4,2,1,60,0,0
70319,-100,4,2,1,50,0,0
70497,-100,4,2,1,40,0,0
72095,-100,4,2,1,60,0,0
77775,-90.9090909090909,4,2,1,70,0,0
78308,-57.1428571428571,4,2,1,70,0,0
78663,-90.9090909090909,4,2,1,70,0,0
79728,-57.1428571428571,4,2,1,70,0,0
79905,-80,4,2,1,70,0,0
81325,-57.1428571428571,4,2,1,70,0,0
81858,-80,4,2,1,60,0,0
93751,-80,4,2,1,60,0,0
94816,-133.333333333333,4,2,1,50,0,0
96947,-133.333333333333,4,2,1,50,0,0
99787,-100,4,2,1,50,0,0
100497,-133.333333333333,4,2,1,50,0,0
100852,-100,4,2,1,50,0,0
101207,-133.333333333333,4,2,1,50,0,0
105467,-200,4,2,1,70,0,0
105822,-100,4,2,1,50,0,0
106089,-100,4,2,1,20,0,0
106177,-100,4,2,1,50,0,0
110438,-66.6666666666667,4,2,1,50,0,0
111148,-66.6666666666667,4,2,1,50,0,0
111858,-100,4,2,1,70,0,0
111947,-100,4,2,1,50,0,0
113811,-66.6666666666667,4,2,1,50,0,0
113870,-100,4,2,1,50,0,0
113929,-100,4,2,1,50,0,0
113988,-100,4,2,1,50,0,0
116118,-66.6666666666667,4,2,1,50,0,0
117006,-100,4,2,1,50,0,0
117183,-50,4,2,1,50,0,0
117538,-100,4,2,1,70,0,0
117716,-100,4,2,1,50,0,0
118781,-66.6666666666667,4,2,1,70,0,0
118958,-100,4,2,1,70,0,0
121621,-66.6666666666667,4,2,1,70,0,0
121799,-66.6666666666667,4,2,1,70,0,0
121976,-100,4,2,1,70,0,0
122331,-66.6666666666667,4,2,1,70,0,0
122464,-100,4,2,1,20,0,0
122509,-66.6666666666667,4,2,1,70,0,0
123219,-57.1428571428571,4,2,1,50,0,0
123929,-68.9655172413793,4,2,1,70,0,0
124166,-74.0740740740741,4,2,1,70,0,0
124639,-133.333333333333,4,2,1,70,0,0
125704,-100,4,2,1,50,0,0
126059,-100,4,2,1,50,0,0
148781,-80,4,2,1,50,0,0
159787,-166.666666666667,4,2,1,70,0,0
160142,-66.6666666666667,4,2,1,50,0,0
160497,-100,4,2,1,50,0,0
160852,-66.6666666666667,4,2,1,50,0,0
161207,-100,4,2,1,50,0,0
161562,-66.6666666666667,4,2,1,50,0,0
161917,-100,4,2,1,50,0,0
162982,-66.6666666666667,4,2,1,50,0,0
163337,-100,4,2,1,50,0,0
163692,-66.6666666666667,4,2,1,50,0,0
164047,-100,4,2,1,50,0,0
164402,-66.6666666666667,4,2,1,50,0,0
164757,-100,4,2,1,50,0,0
169136,-100,4,2,1,30,0,0
169491,-100,4,2,1,25,0,0
169609,-153.846153846153,4,2,1,30,0,0
169846,-133.333333333333,4,2,1,30,0,0
170201,-100,4,2,1,45,0,0
170556,-100,4,2,1,50,0,0
170793,-200,4,2,1,70,0,0
171059,-100,4,2,1,20,0,0
171148,-133.333333333333,4,2,1,70,0,0
171414,-100,4,2,1,20,0,0
171503,-66.6666666666667,4,2,1,70,0,1
177805,-66.6666666666667,4,2,5,80,0,1
178160,-57.1428571428571,4,2,6,90,0,1
178426,-100,4,2,1,70,0,1
179225,-100,4,2,11,80,0,1
179314,-66.6666666666667,4,2,11,80,0,1
179580,-100,4,2,9,90,0,1
179669,-57.1428571428571,4,2,9,90,0,1
179846,-100,4,2,1,70,0,1
180024,-66.6666666666667,4,2,1,70,0,1
181444,-100,4,2,1,70,0,1
182154,-50,4,2,1,70,0,1
182864,-66.6666666666667,4,2,1,70,0,1
187893,-66.6666666666667,4,2,1,40,0,1
188189,-66.6666666666667,4,2,1,70,0,1
189166,-66.6666666666667,4,2,5,80,0,1
189521,-57.1428571428571,4,2,6,90,0,1
189787,-100,4,2,1,70,0,1
190586,-57.1428571428571,4,2,83,80,0,1
190941,-100,4,2,8,80,0,1
191029,-50,4,2,8,80,0,1
191118,-66.6666666666667,4,2,1,80,0,1
191207,-50,4,2,1,80,0,1
191385,-50,4,2,1,80,0,1
191651,-50,4,2,9,80,0,1
191828,-50,4,2,1,80,0,1
192361,-50,4,2,13,80,0,1
192538,-50,4,2,1,80,0,1
194225,-100,4,2,5,90,0,0
194402,-100,4,2,1,70,0,0
194757,-100,4,2,6,90,0,0
194935,-100,4,2,1,70,0,0
195290,-100,4,2,7,90,0,0
195467,-100,4,2,1,70,0,0
195822,-100,4,2,6,90,0,0
196000,-100,4,2,1,70,0,0
197065,-100,4,2,5,90,0,0
197242,-100,4,2,1,70,0,0
197598,-100,4,2,6,90,0,0
197775,-100,4,2,1,70,0,0
198130,-100,4,2,7,90,0,0
198308,-100,4,2,1,70,0,0
198663,-100,4,2,8,90,0,0
198840,-100,4,2,1,70,0,0
199195,-100,4,2,1,70,0,0
199905,-100,4,2,5,90,0,0
199994,-100,4,2,1,70,0,0
200438,-100,4,2,6,90,0,0
200527,-100,4,2,1,70,0,0
200970,-100,4,2,7,90,0,0
201059,-100,4,2,1,70,0,0
201503,-100,4,2,6,90,0,0
201592,-100,4,2,1,70,0,0
202745,-100,4,2,5,90,0,0
202923,-100,4,2,1,70,0,0
203278,-100,4,2,6,90,0,0
203456,-100,4,2,1,70,0,0
203811,-100,4,2,7,90,0,0
203988,-100,4,2,1,70,0,0
204343,-100,4,2,9,90,0,0
204521,-100,4,2,1,70,0,0
204876,-66.6666666666667,4,2,1,70,0,0
205586,-100,4,2,1,70,0,0
205674,-100,4,2,1,40,0,0
214106,-100,4,2,1,45,0,0
215527,-100,4,2,1,50,0,0
215615,-100,4,2,1,30,0,0
215882,-100,4,2,1,40,0,0
216237,-100,4,2,1,50,0,0
216592,-100,4,2,1,60,0,0
216769,-100,4,2,1,70,0,0
216947,-100,4,2,1,50,0,0
222627,-80,4,2,1,60,0,0
224047,-66.6666666666667,4,2,1,70,0,0
226887,-133.333333333333,4,2,1,50,0,0
227109,-133.333333333333,4,2,1,5,0,0
227154,-133.333333333333,4,2,1,50,0,0
227376,-133.333333333333,4,2,1,5,0,0
227420,-133.333333333333,4,2,1,50,0,0
227464,-133.333333333333,4,2,1,5,0,0
227598,-200,4,2,1,60,0,0
228308,-57.1428571428571,4,2,1,70,0,0
231148,-57.1428571428571,4,2,1,70,0,0
233988,-57.1428571428571,4,2,1,70,0,0
236828,-57.1428571428571,4,2,1,70,0,0
238958,-57.1428571428571,4,2,1,70,0,0
239136,-57.1428571428571,4,2,1,70,0,0
239314,-50,4,2,1,70,0,0
239491,-50,4,2,1,70,0,0
239669,-50,4,2,1,70,0,0
242686,-50,4,2,1,70,0,0
243219,-50,4,2,1,70,0,0
243574,-50,4,2,1,70,0,0
243929,-50,4,2,1,70,0,0
244195,-50,4,2,1,70,0,0
244994,-50,4,2,1,70,0,0
246769,-50,4,2,1,70,0,0
249609,-50,4,2,1,70,0,0
250024,-50,4,2,1,70,0,0
250319,-50,4,2,1,70,0,0
250852,-50,4,2,1,70,0,0
251029,-100,4,2,53,70,0,0
251118,-100,4,2,52,70,0,0
251207,-100,4,2,50,70,0,0
251296,-100,4,2,49,70,0,0
251385,-100,4,2,51,70,0,0
251473,-100,4,2,49,70,0,0
251562,-100,4,2,47,70,0,0
251651,-100,4,2,46,70,0,0
251740,-400,4,2,1,70,0,0
252450,-200,4,2,1,70,0,0
253515,-100,4,2,54,70,0,0
253692,-100,4,2,55,70,0,0
253870,-200,4,2,56,70,0,0
254846,-100,4,2,57,70,0,0
255112,-100,4,2,58,50,0,0
255290,-200,4,2,58,70,0,0
255911,-100,4,2,46,70,0,0
256000,-100,4,2,45,70,0,0
256089,-100,4,2,42,50,0,0
256177,-100,4,2,41,40,0,0
256266,-100,4,2,45,30,0,0
256355,-100,4,2,42,70,0,0
256444,-100,4,2,38,30,0,0
256532,-100,4,2,36,60,0,0
256621,-100,4,2,34,70,0,0
256710,-100,4,2,59,70,0,0
257065,-100,4,2,60,70,0,0
257420,-100,4,2,61,80,0,0
257775,-100,4,2,62,90,0,0
258130,-100,4,2,63,80,0,0
258663,-100,4,2,64,70,0,0
258751,-100,4,2,65,70,0,0
258840,-200,4,2,66,70,0,0
260260,-100,4,2,67,70,0,0
260615,-100,4,2,68,70,0,0
260970,-200,4,2,68,70,0,0
262213,-200,4,2,67,70,0,0
263100,-200,4,2,68,70,0,0
263544,-100,4,2,47,50,0,0
263633,-100,4,2,46,60,0,0
263722,-100,4,2,43,70,0,0
263801,355.029585798817,4,2,69,80,1,0
264511,-100,4,2,70,70,0,0
264866,-100,4,2,71,80,0,0
265221,-100,4,2,72,90,0,0
265753,-100,4,2,52,50,0,0
265842,-100,4,2,53,50,0,0
265931,-100,4,2,52,70,0,0
266019,-100,4,2,51,60,0,0
266108,-100,4,2,50,60,0,0
266197,-100,4,2,43,60,0,0
266286,-100,4,2,46,70,0,0
266374,-100,4,2,47,70,0,0
266463,-100,4,2,46,70,0,0
266552,-100,4,2,43,80,0,0
266641,-200,4,2,73,90,0,0
267173,-100,4,2,74,60,0,0
267351,-200,4,2,74,70,0,0
268071,355.029585798817,4,2,75,60,1,0
268426,-100,4,2,76,70,0,0
268781,-100,4,2,77,80,0,0
269136,-100,4,2,62,90,0,0
269481,355.029585798817,4,2,78,70,1,0
269569,-100,4,2,45,70,0,0
269658,-100,4,2,40,70,0,0
269747,-100,4,2,39,70,0,0
269836,-100,4,2,36,50,0,0
269924,-100,4,2,30,50,0,0
270013,-100,4,2,31,50,0,0
270102,-100,4,2,32,50,0,0
270191,-100,4,2,20,70,0,0
270279,-100,4,2,46,70,0,0
270368,-100,4,2,41,70,0,0
270457,-100,4,2,40,70,0,0
270546,-100,4,2,39,70,0,0
270634,-100,4,2,40,70,0,0
270723,-100,4,2,41,70,0,0
270812,-100,4,2,45,70,0,0
270901,-100,4,2,19,70,0,0
270989,-100,4,2,48,70,0,0
271078,-100,4,2,45,70,0,0
271167,-100,4,2,41,70,0,0
271256,-100,4,2,45,60,0,0
271344,-100,4,2,41,60,0,0
271433,-100,4,2,40,60,0,0
271522,-100,4,2,39,60,0,0
271611,-100,4,2,18,70,0,0
271699,-100,4,2,40,70,0,0
271788,-100,4,2,41,70,0,0
271877,-100,4,2,46,70,0,0
271966,-100,4,2,45,70,0,0
272054,-100,4,2,41,60,0,0
272143,-100,4,2,40,60,0,0
272232,-100,4,2,39,60,0,0
272321,-100,4,2,17,70,0,0
272409,-100,4,2,45,40,0,0
272498,-100,4,2,41,40,0,0
272587,-100,4,2,47,40,0,0
272676,-100,4,2,79,70,0,0
272765,-100,4,2,45,50,0,0
272853,-100,4,2,40,50,0,0
272942,-100,4,2,46,50,0,0
273031,-100,4,2,80,70,0,0
273120,-100,4,2,43,60,0,0
273208,-100,4,2,38,60,0,0
273297,-100,4,2,45,60,0,0
273386,-100,4,2,81,70,0,0
273475,-100,4,2,41,70,0,0
273563,-100,4,2,37,70,0,0
273652,-100,4,2,43,70,0,0
273741,-100,4,2,92,80,0,0
273751,355.029585798817,4,2,92,90,1,0
274106,-100,4,2,1,50,0,0
274224,-100,4,2,83,60,0,0
274461,-66.6666666666667,4,2,1,50,0,0
274579,-66.6666666666667,4,2,84,70,0,0
274816,-50,4,2,1,50,0,0
274934,-50,4,2,85,80,0,0
275171,-66.6666666666667,4,2,23,80,0,1
275259,-100,4,2,27,80,0,1
275348,-100,4,2,28,80,0,1
275437,-100,4,2,29,80,0,1
275526,-100,4,2,32,80,0,1
275614,-100,4,2,36,80,0,1
275703,-100,4,2,37,80,0,1
275792,-100,4,2,38,80,0,1
275881,-100,4,2,41,80,0,1
275969,-100,4,2,46,80,0,1
276058,-100,4,2,43,80,0,1
276147,-100,4,2,40,80,0,1
276236,-100,4,2,43,80,0,1
276324,-100,4,2,40,80,0,1
276413,-100,4,2,38,80,0,1
276502,-100,4,2,34,80,0,1
276591,-66.6666666666667,4,2,27,80,0,1
276679,-100,4,2,28,80,0,1
276768,-100,4,2,29,80,0,1
276857,-100,4,2,32,80,0,1
276946,-100,4,2,36,80,0,1
277035,-100,4,2,37,80,0,1
277123,-100,4,2,38,80,0,1
277212,-100,4,2,41,80,0,1
277301,-100,4,2,43,80,0,1
277390,-100,4,2,38,80,0,1
277478,-100,4,2,37,80,0,1
277567,-100,4,2,38,80,0,1
277656,-100,4,2,37,80,0,1
277745,-100,4,2,36,80,0,1
277833,-100,4,2,34,80,0,1
277922,-100,4,2,32,80,0,1
278011,-100,4,2,36,80,0,1
278100,-100,4,2,34,80,0,1
278188,-100,4,2,32,80,0,1
278277,-100,4,2,29,80,0,1
278366,-100,4,2,27,80,0,1
278455,-100,4,2,28,80,0,1
278543,-100,4,2,29,80,0,1
278632,-100,4,2,31,80,0,1
278721,-100,4,2,34,80,0,1
278810,-100,4,2,31,80,0,1
278898,-100,4,2,28,80,0,1
278987,-100,4,2,25,80,0,1
279076,-100,4,2,23,80,0,1
279165,-100,4,2,25,80,0,1
279253,-100,4,2,27,80,0,1
279342,-100,4,2,32,80,0,1
279431,-100,4,2,33,80,0,1
279520,-100,4,2,28,80,0,1
279608,-100,4,2,24,80,0,1
279697,-100,4,2,27,80,0,1
279786,-100,4,2,28,80,0,1
279875,-100,4,2,82,80,0,1
279964,-100,4,2,32,80,0,1
280052,-100,4,2,37,80,0,1
280141,-100,4,2,41,80,0,1
280230,-100,4,2,37,80,0,1
280319,-100,4,2,36,80,0,1
280407,-100,4,2,32,80,0,1
280496,-100,4,2,36,80,0,1
280585,-100,4,2,32,80,0,1
280674,-100,4,2,28,80,0,1
280762,-100,4,2,26,80,0,1
280851,-100,4,2,27,80,0,1
281029,-100,4,2,16,80,0,1
281117,-100,4,2,21,80,0,1
281206,-100,4,2,22,80,0,1
281384,-100,4,2,27,80,0,1
281472,-100,4,2,88,80,0,1
281561,-100,4,2,89,80,0,1
281650,-100,4,2,30,70,0,1
281739,-100,4,2,22,70,0,1
281827,-100,4,2,90,80,0,1
281916,-100,4,2,91,80,0,1
282005,-100,4,2,28,80,0,1
282094,-100,4,2,30,80,0,1
282182,-100,4,2,31,80,0,1
282271,-100,4,2,32,80,0,1
282360,-100,4,2,27,80,0,1
282449,-100,4,2,30,80,0,1
282537,-100,4,2,32,80,0,1
282626,-100,4,2,36,90,0,1
282804,-100,4,2,30,70,0,1
282893,-100,4,2,11,90,0,1
283159,-100,4,2,30,70,0,1
283248,-100,4,2,9,100,0,1
283514,-100,4,2,27,80,0,1
283603,-100,4,2,30,80,0,1
283691,-66.6666666666667,4,2,36,80,0,1
283780,-100,4,2,32,80,0,1
283869,-100,4,2,30,80,0,1
283958,-100,4,2,28,80,0,1
284046,-66.6666666666667,4,2,27,80,0,1
284135,-100,4,2,23,80,0,1
284224,-100,4,2,27,80,0,1
284313,-100,4,2,28,80,0,1
284401,-66.6666666666667,4,2,30,80,0,1
284490,-100,4,2,31,80,0,1
284579,-100,4,2,30,80,0,1
284668,-100,4,2,28,80,0,1
284756,-66.6666666666667,4,2,27,80,0,1
284845,-100,4,2,32,80,0,1
284934,-100,4,2,36,80,0,1
285023,-100,4,2,37,80,0,1
285111,-100,4,2,38,80,0,1
285289,-100,4,2,37,80,0,1
285378,-100,4,2,36,80,0,1
285466,-100,4,2,34,80,0,1
285644,-100,4,2,34,80,0,1
285733,-100,4,2,36,80,0,1
285822,-50,4,2,26,90,0,1
285999,-100,4,2,32,90,0,1
286088,-50,4,2,35,90,0,1
286177,-50,4,2,37,90,0,1
286265,-100,4,2,41,90,0,1
286354,-50,4,2,44,90,0,1
286443,-100,4,2,50,90,0,1
286532,-66.6666666666667,4,2,23,90,0,1
286709,-100,4,2,28,80,0,1
286798,-100,4,2,29,80,0,1
286887,-100,4,2,32,80,0,1
287064,-100,4,2,41,80,0,1
287153,-100,4,2,45,80,0,1
287242,-100,4,2,50,90,0,1
287330,-100,4,2,49,90,0,1
287419,-100,4,2,46,90,0,1
287508,-100,4,2,43,90,0,1
287597,-100,4,2,47,90,0,1
287685,-100,4,2,46,90,0,1
287774,-100,4,2,43,90,0,1
287863,-100,4,2,41,90,0,1
287952,-100,4,2,27,90,0,1
288040,-100,4,2,28,90,0,1
288129,-100,4,2,29,90,0,1
288218,-100,4,2,32,90,0,1
288307,-100,4,2,36,90,0,1
288395,-100,4,2,37,90,0,1
288484,-100,4,2,38,90,0,1
288573,-100,4,2,41,90,0,1
288662,-66.6666666666667,4,2,45,90,0,1
288751,-100,4,2,43,90,0,1
288839,-100,4,2,40,90,0,1
288928,-100,4,2,46,90,0,1
289017,-66.6666666666667,4,2,43,80,0,1
289106,-100,4,2,36,80,0,1
289194,-100,4,2,34,80,0,1
289283,-100,4,2,32,80,0,1
289372,-100,4,2,36,80,0,1
289461,-100,4,2,34,80,0,1
289549,-100,4,2,32,80,0,1
289638,-100,4,2,29,80,0,1
289727,-100,4,2,27,80,0,1
289816,-100,4,2,28,80,0,1
289904,-100,4,2,29,80,0,1
289993,-100,4,2,31,80,0,1
290082,-100,4,2,34,80,0,1
290171,-100,4,2,31,80,0,1
290259,-100,4,2,28,80,0,1
290348,-100,4,2,25,80,0,1
290437,-100,4,2,23,80,0,1
290526,-100,4,2,25,80,0,1
290614,-100,4,2,27,80,0,1
290703,-100,4,2,32,80,0,1
290792,-100,4,2,33,80,0,1
290881,-100,4,2,28,80,0,1
290969,-100,4,2,24,80,0,1
291058,-100,4,2,27,80,0,1
291147,-100,4,2,28,80,0,1
291236,-100,4,2,82,80,0,1
291324,-100,4,2,32,80,0,1
291413,-100,4,2,37,80,0,1
291502,-100,4,2,41,80,0,1
291591,-100,4,2,37,80,0,1
291679,-100,4,2,36,80,0,1
291768,-100,4,2,32,80,0,1
291857,-100,4,2,36,80,0,1
291946,-100,4,2,32,80,0,1
292035,-100,4,2,28,80,0,1
292123,-100,4,2,26,80,0,1
292212,-100,4,2,27,80,0,1
292390,-100,4,2,16,80,0,1
292478,-100,4,2,22,80,0,1
292567,-100,4,2,23,80,0,1
292745,-100,4,2,27,80,0,1
292833,-100,4,2,88,90,0,1
292922,-100,4,2,89,90,0,1
293011,-100,4,2,30,70,0,1
293100,-100,4,2,22,70,0,1
293188,-100,4,2,90,100,0,1
293277,-100,4,2,91,100,0,1
293366,-100,4,2,23,80,0,1
293455,-100,4,2,28,80,0,1
293543,-100,4,2,23,80,0,1
293632,-100,4,2,31,80,0,1
293810,-100,4,2,27,80,0,1
293898,-100,4,2,28,80,0,1
293987,-100,4,2,27,80,0,1
294076,-100,4,2,28,80,0,1
294165,-100,4,2,29,80,0,1
294253,-100,4,2,11,100,0,1
294342,-100,4,2,12,100,0,1
294520,-100,4,2,28,80,0,1
294608,-100,4,2,8,100,0,1
294875,-100,4,2,29,80,0,1
294964,-100,4,2,32,80,0,1
295052,-50,4,2,36,80,0,1
295141,-100,4,2,32,80,0,1
295230,-100,4,2,29,80,0,1
295319,-50,4,2,9,100,0,1
295496,-100,4,2,32,80,0,1
295585,-50,4,2,29,80,0,1
295674,-100,4,2,28,80,0,1
295762,-50,4,2,27,80,0,1
295851,-100,4,2,25,80,0,1
295940,-100,4,2,23,80,0,1
296029,-50,4,2,13,100,0,1
296206,-100,4,2,29,80,0,1
296295,-50,4,2,36,80,0,1
296384,-100,4,2,37,80,0,1
296472,-100,4,2,38,80,0,1
296561,-100,4,2,37,80,0,1
296650,-100,4,2,34,80,0,1
296827,-100,4,2,34,80,0,1
296916,-100,4,2,32,80,0,1
297005,-100,4,2,31,80,0,1
297182,-100,4,2,26,90,0,1
297271,-100,4,2,28,90,0,1
297360,-50,4,2,31,80,0,1
297404,-100,4,2,1,80,0,1
297449,-100,4,2,35,80,0,1
297493,-100,4,2,1,80,0,1
297537,-100,4,2,37,100,0,1
297626,-100,4,2,40,100,0,1
297715,-100,4,2,43,100,0,1
297804,-100,4,2,49,100,0,1
297893,-200,4,2,1,100,0,0
298603,-100,4,2,93,80,0,0
299313,-100,4,2,94,80,0,0
300023,-100,4,2,95,80,0,0
300733,-100,4,2,96,80,0,0
301443,-100,4,2,97,80,0,0
301798,-100,4,2,43,60,0,0
302153,-100,4,2,98,80,0,0
302863,-100,4,2,99,80,0,0
303573,-400,4,3,86,70,0,0
303928,-100,4,2,1,5,0,0
304194,-400,4,3,87,70,0,0
304638,-100,4,2,1,5,0,0
304904,-400,4,3,88,70,0,0
305348,-100,4,3,89,70,0,0
305703,-100,4,3,90,70,0,0
306058,-100,4,3,91,70,0,0
306413,-100,4,3,92,70,0,0
307123,-100,4,3,93,70,0,0
307833,-204.081632653061,4,3,94,90,0,0
307922,-181.818181818182,4,3,94,5,0,0
312537,-181.818181818182,4,2,1,5,0,0

[Colours]
Combo1 : 253,238,130
Combo2 : 193,184,172
Combo3 : 112,142,160
Combo4 : 205,237,231
Combo5 : 209,223,198
Combo6 : 245,228,175
Combo7 : 250,192,165
Combo8 : 222,50,46

[HitObjects]
256,383,1000,5,0,0:0:0:0:
292,314,1470,1,0,0:0:0:0:
261,238,1954,5,0,0:0:0:0:
255,242,2030,2,0,P|219:254|178:248,1,80
108,283,3030,5,0,0:0:0:0:
112,204,3465,1,0,0:0:0:0:
115,127,3860,5,0,0:0:0:0:
116,116,3894,1,0,0:0:0:0:
105,213,4760,69,0,0:0:0:0:
109,145,5190,1,0,0:0:0:0:
112,77,5557,5,0,0:0:0:0:
113,66,5621,1,0,0:0:0:0:
102,153,6479,5,0,0:0:0:0:
105,103,6919,1,0,0:0:0:0:
109,49,7326,5,0,0:0:0:0:
110,39,7373,1,0,0:0:0:0:
110,39,7847,5,0,0:0:0:0:
77,147,8368,6,0,B|179:165|150:106|252:124,1,180.000006866455,0|0,0:0|2:0,0:0:0:0:
218,202,9370,53,0,0:0:0:0:
217,210,9451,2,0,L|215:251,1,40
302,285,10430,6,0,L|299:237,1,47.9999985351563,0|0,0:0|0:0,0:0:0:0:
398,185,11271,6,0,L|396:249,1,64
501,299,12106,6,0,L|497:220,1,80
497,220,13003,69,0,0:0:0:0:
396,249,13514,5,0,0:0:0:0:
297,156,13930,5,0,0:0:0:0:
336,0,14340,5,0,0:0:0:0:
497,220,14778,5,0,0:0:0:0:
502,227,14827,1,0,0:0:0:0:
168,42,15718,6,0,B|125:45|125:45|120:52|120:52|47:57,1,120
46,51,16857,6,0,P|39:79|45:111,1,60.0000022888184
0,189,17458,2,0,P|22:209|52:219,1,60.0000022888184
100,298,17878,2,0,P|128:288|153:264,1,60.0000022888184
256,263,18294,2,0,P|262:236|254:201,1,60.0000022888184
160,78,18713,54,0,L|155:157,3,80
159,164,19412,1,0,0:0:0:0:
164,171,19482,1,0,0:0:0:0:
169,177,19560,70,0,L|166:239,1,60.0000022888184
79,274,19984,2,0,L|76:210,1,60.0000022888184
252,206,20398,6,0,L|309:203,3,40
404,147,21248,6,0,P|385:171|375:199,1,60.0000022888184
489,262,21657,2,0,P|480:234|460:212,1,60.0000022888184
348,279,22082,2,0,P|376:285|406:278,2,60.0000022888184
204,211,22766,37,0,0:0:0:0:
204,211,22835,1,0,0:0:0:0:
204,211,22907,2,0,B|98:193|131:257|28:243,1,180.000006866455
170,312,23760,5,0,0:0:0:0:
171,322,23962,1,0,0:0:0:0:
172,332,24165,1,0,0:0:0:0:
173,342,24368,1,0,0:0:0:0:
204,211,24581,5,0,0:0:0:0:
206,201,24787,1,0,0:0:0:0:
147,112,24994,85,0,0:0:0:0:
145,102,25201,1,0,0:0:0:0:
226,23,25409,53,0,0:0:0:0:
228,11,25614,1,0,0:0:0:0:
309,4,25819,1,0,0:0:0:0:
369,83,26025,1,0,0:0:0:0:
280,257,26230,5,0,0:0:0:0:
238,163,26435,1,0,0:0:0:0:
293,91,26640,1,0,0:0:0:0:
369,83,26865,1,0,0:0:0:0:
338,152,27122,5,0,0:0:0:0:
293,91,27633,1,0,0:0:0:0:
324,23,28079,1,0,0:0:0:0:
397,15,28490,1,0,0:0:0:0:
338,152,28930,69,0,0:0:0:0:
335,159,28991,2,0,P|324:199|331:236,1,80
410,203,30834,5,0,0:0:0:0:
411,212,30894,5,0,0:0:0:0:
395,211,31269,1,0,0:0:0:0:
378,210,31544,1,0,0:0:0:0:
362,209,31758,1,0,0:0:0:0:
397,178,31975,5,0,0:0:0:0:
386,188,32202,1,0,0:0:0:0:
373,199,32431,1,0,0:0:0:0:
362,209,32645,1,0,0:0:0:0:
379,163,32861,5,0,0:0:0:0:
374,179,33069,1,0,0:0:0:0:
367,193,33277,1,0,0:0:0:0:
362,209,33486,1,0,0:0:0:0:
354,162,33697,5,0,0:0:0:0:
357,177,33906,1,0,0:0:0:0:
359,193,34118,1,0,0:0:0:0:
362,209,34326,1,0,0:0:0:0:
73,183,34531,69,0,0:0:0:0:
100,166,34736,1,0,0:0:0:0:
131,165,34941,1,0,0:0:0:0:
160,177,35147,1,0,0:0:0:0:
158,35,35352,5,0,0:0:0:0:
203,50,35554,1,0,0:0:0:0:
232,87,35757,1,0,0:0:0:0:
240,134,35960,1,0,0:0:0:0:
328,34,36165,5,0,0:0:0:0:
332,97,36373,1,0,0:0:0:0:
303,154,36581,1,0,0:0:0:0:
244,182,36790,1,0,0:0:0:0:
456,100,36999,5,0,0:0:0:0:
413,202,37203,1,0,0:0:0:0:
314,223,37407,1,0,0:0:0:0:
244,182,37611,1,0,0:0:0:0:
17,366,37816,69,0,0:0:0:0:
48,365,38020,1,0,0:0:0:0:
79,364,38224,1,0,0:0:0:0:
110,363,38428,1,0,0:0:0:0:
201,384,38634,5,0,0:0:0:0:
200,336,38840,1,0,0:0:0:0:
198,287,39047,1,0,0:0:0:0:
196,239,39254,1,0,0:0:0:0:
228,160,39463,5,0,0:0:0:0:
165,162,39665,1,0,0:0:0:0:
102,163,39868,1,0,0:0:0:0:
39,167,40071,1,0,0:0:0:0:
30,94,40272,5,0,0:0:0:0:
32,157,40477,1,0,0:0:0:0:
33,220,40682,1,0,0:0:0:0:
37,283,40888,1,0,0:0:0:0:
228,160,41096,69,0,0:0:0:0:
259,159,41300,1,0,0:0:0:0:
280,182,41504,1,0,0:0:0:0:
270,212,41708,1,0,0:0:0:0:
264,148,41914,5,0,0:0:0:0:
289,188,42122,1,0,0:0:0:0:
267,230,42330,1,0,0:0:0:0:
219,233,42539,1,0,0:0:0:0:
296,193,42746,5,0,0:0:0:0:
256,243,42950,1,0,0:0:0:0:
192,246,43154,1,0,0:0:0:0:
149,197,43358,1,0,0:0:0:0:
334,264,43564,5,0,0:0:0:0:
213,272,43773,1,0,0:0:0:0:
139,187,43983,1,0,0:0:0:0:
156,100,44193,1,0,0:0:0:0:
213,56,44402,37,0,0:0:0:0:
239,96,44602,1,0,0:0:0:0:
239,152,44802,1,0,0:0:0:0:
198,201,45002,1,0,0:0:0:0:
128,212,45200,5,0,0:0:0:0:
159,138,45404,1,0,0:0:0:0:
243,112,45608,1,0,0:0:0:0:
326,159,45812,1,0,0:0:0:0:
360,257,46018,5,0,0:0:0:0:
248,239,46219,1,0,0:0:0:0:
205,126,46420,1,0,0:0:0:0:
294,33,46622,1,0,0:0:0:0:
423,54,46821,5,0,0:0:0:0:
374,189,47026,1,0,0:0:0:0:
224,216,47231,1,0,0:0:0:0:
122,92,47437,1,0,0:0:0:0:
374,189,47643,85,0,0:0:0:0:
343,225,47841,1,0,0:0:0:0:
334,280,48040,1,0,0:0:0:0:
361,337,48239,1,0,0:0:0:0:
426,364,48436,5,0,0:0:0:0:
421,284,48637,1,0,0:0:0:0:
348,234,48838,1,0,0:0:0:0:
255,260,49040,1,0,0:0:0:0:
222,352,49241,5,0,0:0:0:0:
324,334,49455,1,0,0:0:0:0:
357,227,49671,1,0,0:0:0:0:
272,140,49879,1,0,0:0:0:0:
83,165,50090,37,0,0:0:0:0:
181,304,50319,101,0,0:0:0:0:
324,290,50535,21,0,0:0:0:0:
379,194,50796,53,0,0:0:0:0:
349,100,51075,70,0,B|355:125|346:153|346:153|308:133|262:133|262:133|253:206|281:281|281:281|254:288|226:280|226:280|253:206|246:133|246:133|199:133|160:153|160:153|152:125|160:98|160:98|200:118|247:118|247:118|246:71|226:33|226:33|253:24|281:33|281:33|262:71|262:118|262:118|308:119|349:100,1,1030.40000157227,0|0,0:0|0:0,0:3:0:0:
14,193,59314,117,2,0:0:0:0:
331,166,60024,1,2,0:0:0:0:
87,378,60734,1,2,0:0:0:0:
160,67,61444,1,2,0:0:0:0:
294,356,62154,1,2,0:0:0:0:
14,193,62864,5,2,0:0:0:0:
85,132,63219,1,0,0:0:0:0:
155,267,63574,1,2,0:0:0:0:
463,175,64284,6,0,B|370:145|395:213|302:192,1,167.999994873047,2|0,0:0|0:0,0:0:0:0:
302,192,64994,5,4,1:2:0:0:
294,56,65615,53,2,0:0:0:0:
296,96,65704,1,2,0:0:0:0:
201,28,66325,5,2,0:0:0:0:
198,60,66414,1,2,0:0:0:0:
198,60,66769,1,0,0:0:0:0:
99,50,67124,5,2,0:0:0:0:
100,74,67479,2,0,L|102:127,1,53.9999983520508,2|0,0:0|0:0,0:0:0:0:
102,149,67834,5,0,0:0:0:0:
57,321,68100,5,2,0:0:0:0:
105,289,68189,1,2,0:0:0:0:
102,149,68544,69,0,0:0:0:0:
105,317,68811,53,2,0:0:0:0:
54,292,68900,1,2,0:0:0:0:
102,149,69254,37,2,0:0:0:0:
114,149,69343,1,0,0:0:0:0:
125,150,69432,1,0,0:0:0:0:
136,151,69521,1,0,0:0:0:0:
147,151,69609,1,0,0:0:0:0:
163,151,69698,1,0,0:0:0:0:
183,152,69787,1,0,0:0:0:0:
207,153,69876,1,0,0:0:0:0:
234,154,69964,6,0,P|236:173|233:193,1,40,0|0,0:0|0:0,0:0:0:0:
296,268,70142,2,0,P|281:280|259:287,1,40,0|0,0:0|0:0,0:0:0:0:
35,259,70319,6,0,P|51:246|70:240,1,40,0|0,0:0|0:0,0:0:0:0:
103,148,70497,2,0,P|121:156|137:169,1,40,0|0,0:0|0:0,0:0:0:0:
228,378,70674,5,4,3:0:0:0:
256,192,70763,12,0,72006,0:0:0:0:
287,225,72095,5,4,1:0:0:0:
277,29,72450,85,0,0:0:0:0:
278,44,72538,1,0,0:0:0:0:
278,60,72627,1,2,0:0:0:0:
279,76,72716,1,0,0:0:0:0:
280,92,72805,1,0,0:0:0:0:
280,92,72982,2,0,L|282:132,1,40
181,65,73160,5,0,0:0:0:0:
182,80,73248,1,0,0:0:0:0:
182,96,73337,1,2,0:0:0:0:
183,112,73426,1,0,0:0:0:0:
184,128,73515,1,0,0:0:0:0:
184,128,73692,2,0,L|186:168,1,40
91,91,73870,5,0,0:0:0:0:
90,106,73958,1,0,0:0:0:0:
90,122,74047,1,2,0:0:0:0:
89,138,74136,1,0,0:0:0:0:
88,154,74225,6,0,L|86:194,1,40,0|0,0:0|0:0,0:0:0:0:
156,292,74402,1,2,0:0:0:0:
156,292,74491,2,0,L|122:270,1,40,0|0,0:0|0:0,0:0:0:0:
3,282,74669,2,0,L|38:263,1,40,0|2,0:0|0:0,0:0:0:0:
187,188,74846,1,0,0:0:0:0:
250,236,74935,5,4,1:2:0:0:
424,142,75290,69,0,0:0:0:0:
407,144,75379,1,0,0:0:0:0:
392,150,75468,1,2,0:0:0:0:
379,160,75557,1,0,0:0:0:0:
367,173,75645,1,0,0:0:0:0:
367,173,75822,2,0,P|363:154|365:133,1,40,0|0,0:0|0:0,0:0:0:0:
362,370,76000,5,0,0:0:0:0:
368,354,76089,1,0,0:0:0:0:
371,338,76178,1,2,0:0:0:0:
368,322,76267,1,0,0:0:0:0:
363,305,76355,1,0,0:0:0:0:
363,305,76532,2,0,P|381:311|398:323,1,40,0|0,0:0|0:0,0:0:0:0:
195,203,76710,101,0,0:0:0:0:
205,216,76799,1,0,0:0:0:0:
218,226,76888,1,2,0:0:0:0:
233,232,76977,1,0,0:0:0:0:
216,257,77065,6,0,P|235:249|249:236,1,40,0|0,1:0|0:0,0:0:0:0:
269,141,77242,6,0,L|268:117,2,20,0|0|0,3:0|0:0|0:0,3:3:0:0:
263,32,77420,5,0,1:0:0:0:
201,79,77538,1,0,1:0:0:0:
124,35,77657,1,0,1:0:0:0:
40,91,77775,5,4,1:2:0:0:
53,330,77953,1,0,0:0:0:0:
53,330,78041,1,0,0:0:0:0:
53,330,78130,2,0,L|50:286,1,44.0000013427735,8|0,0:0|0:0,0:0:0:0:
0,192,78308,6,0,B|81:187|81:187|116:214|116:214|201:208,1,210.000002002716,4|0,1:2|0:0,0:0:0:0:
200,208,78663,2,0,L|202:251,1,44.0000013427735,2|0,0:0|0:0,0:0:0:0:
283,359,78840,5,8,0:0:0:0:
284,341,78929,1,0,0:0:0:0:
285,323,79018,1,0,0:0:0:0:
287,305,79106,1,0,0:0:0:0:
291,224,79195,85,4,1:2:0:0:
304,7,79373,1,0,0:0:0:0:
304,7,79461,1,0,0:0:0:0:
304,7,79550,2,0,L|301:50,1,44.0000013427735,8|0,0:0|0:0,0:0:0:0:
377,142,79728,6,0,P|401:117|413:84,1,70.000000667572,4|0,1:2|0:0,0:0:0:0:
218,133,79905,6,0,L|163:131,1,50
32,22,80083,2,0,L|57:70,1,50,2|0,0:0|0:0,0:0:0:0:
28,232,80260,2,0,L|57:185,1,50,8|0,0:0|0:0,0:0:0:0:
138,59,80438,6,0,L|154:34,2,25,2|0|0,3:2|3:0|3:0,3:3:0:0:
95,127,80615,5,4,1:2:0:0:
347,229,80793,1,4,1:2:0:0:
174,363,80970,1,0,0:0:0:0:
175,343,81059,1,0,0:0:0:0:
176,322,81148,2,0,L|177:290,2,25,0|0|0,3:0|3:0|3:0,3:3:0:0:
95,211,81325,6,0,P|74:231|57:267,1,70.000000667572,4|0,1:2|0:0,0:0:0:0:
261,214,81503,2,0,P|280:235|295:272,1,70.000000667572,4|0,1:2|0:0,0:0:0:0:
184,90,81680,5,0,0:0:0:0:
184,90,81769,1,0,0:0:0:0:
184,90,81858,2,0,L|182:139,1,50,8|8,0:0|0:0,0:0:0:0:
176,322,82035,5,4,1:2:0:0:
176,332,82124,1,0,0:0:0:0:
175,342,82213,1,8,0:0:0:0:
174,352,82302,1,8,0:0:0:0:
174,361,82390,5,4,1:2:0:0:
223,351,82479,1,8,0:0:0:0:
271,362,82568,1,0,0:0:0:0:
319,350,82657,1,0,1:0:0:0:
366,363,82745,5,4,1:2:0:0:
373,333,82834,1,0,0:0:0:0:
368,303,82923,1,8,0:0:0:0:
432,256,83012,85,4,1:2:0:0:
409,234,83101,1,0,0:0:0:0:
381,224,83190,1,8,0:0:0:0:
373,145,83278,5,4,1:2:0:0:
342,153,83367,1,0,0:0:0:0:
284,229,83456,53,4,1:0:0:0:
264,227,83544,1,0,0:0:0:0:
243,225,83633,1,0,0:0:0:0:
223,223,83722,1,0,0:0:0:0:
203,220,83811,5,0,1:2:0:0:
153,221,83899,1,0,0:0:0:0:
102,224,83988,1,2,0:0:0:0:
51,226,84077,1,0,0:0:0:0:
1,230,84166,5,0,1:0:0:0:
2,210,84254,1,0,0:0:0:0:
3,190,84343,1,0,0:0:0:0:
4,170,84432,1,0,0:0:0:0:
5,150,84521,5,0,1:0:0:0:
8,199,84609,1,0,0:0:0:0:
12,248,84698,1,2,0:0:0:0:
15,297,84787,1,0,0:0:0:0:
17,347,84876,69,0,1:0:0:0:
36,345,84964,1,0,0:0:0:0:
56,343,85053,1,0,0:0:0:0:
76,341,85142,1,0,0:0:0:0:
95,339,85231,5,0,1:0:0:0:
114,340,85319,1,0,0:0:0:0:
163,345,85408,1,2,0:0:0:0:
232,352,85497,1,0,0:0:0:0:
311,360,85586,5,0,1:0:0:0:
310,350,85674,1,2,0:0:0:0:
273,315,85763,5,0,0:0:0:0:
274,305,85851,1,2,0:0:0:0:
305,265,85941,5,0,1:0:0:0:
304,255,86029,1,2,0:0:0:0:
280,210,86118,6,0,P|255:205|229:210,1,50,0|2,0:0|0:0,0:0:0:0:
110,254,86296,5,0,1:0:0:0:
101,235,86385,1,0,0:0:0:0:
99,215,86473,1,0,0:0:0:0:
101,195,86562,1,0,0:0:0:0:
109,176,86651,5,0,1:0:0:0:
144,140,86740,1,0,0:0:0:0:
161,93,86828,1,2,0:0:0:0:
154,43,86917,1,0,0:0:0:0:
118,7,87006,5,0,1:0:0:0:
110,25,87095,1,0,0:0:0:0:
107,44,87183,1,0,0:0:0:0:
107,64,87272,1,0,0:0:0:0:
112,83,87361,5,0,1:0:0:0:
159,67,87450,1,0,0:0:0:0:
206,80,87538,1,2,0:0:0:0:
251,96,87627,1,0,0:0:0:0:
298,81,87716,69,0,1:0:0:0:
316,88,87805,1,0,0:0:0:0:
335,90,87893,1,0,0:0:0:0:
355,89,87982,1,0,0:0:0:0:
374,83,88071,5,0,1:0:0:0:
361,98,88160,1,0,0:0:0:0:
347,145,88248,1,2,0:0:0:0:
380,206,88337,1,0,0:0:0:0:
459,215,88426,53,0,1:0:0:0:
453,206,88515,1,2,0:0:0:0:
437,193,88603,1,0,0:0:0:0:
414,181,88692,1,2,0:0:0:0:
384,177,88781,1,0,1:0:0:0:
344,185,88870,1,0,0:0:0:0:
301,226,88958,1,2,0:0:0:0:
295,306,89047,1,2,0:0:0:0:
362,368,89136,69,4,1:2:0:0:
382,367,89225,1,0,0:0:0:0:
402,366,89314,1,0,0:0:0:0:
421,365,89402,1,0,0:0:0:0:
441,363,89491,5,0,1:0:0:0:
391,357,89580,1,0,0:0:0:0:
341,352,89669,1,2,0:0:0:0:
291,348,89757,1,0,0:0:0:0:
240,345,89846,5,0,1:0:0:0:
241,324,89935,1,0,0:0:0:0:
242,303,90024,1,0,0:0:0:0:
243,283,90112,1,0,0:0:0:0:
244,262,90201,5,0,1:0:0:0:
194,268,90290,1,0,0:0:0:0:
144,273,90379,1,2,0:0:0:0:
94,277,90467,1,0,0:0:0:0:
8,322,90556,69,4,1:2:0:0:
7,301,90645,1,0,0:0:0:0:
6,280,90734,1,0,0:0:0:0:
5,260,90822,1,0,0:0:0:0:
4,239,90911,5,0,1:0:0:0:
7,189,91000,1,0,0:0:0:0:
11,139,91089,1,2,0:0:0:0:
15,89,91177,1,0,0:0:0:0:
19,39,91266,5,0,1:0:0:0:
28,40,91355,1,2,0:0:0:0:
65,72,91444,5,0,0:0:0:0:
74,73,91533,1,2,0:0:0:0:
120,54,91621,5,0,1:0:0:0:
129,55,91710,1,2,0:0:0:0:
174,75,91799,6,0,P|199:80|230:74,1,50,0|2,0:0|0:0,0:0:0:0:
416,23,91976,5,4,1:2:0:0:
422,41,92065,1,0,0:0:0:0:
424,60,92154,1,0,0:0:0:0:
423,79,92242,1,0,0:0:0:0:
416,97,92331,5,0,1:2:0:0:
389,139,92420,1,0,0:0:0:0:
392,188,92509,1,2,0:0:0:0:
422,228,92598,1,0,0:0:0:0:
501,287,92686,5,4,1:2:0:0:
506,307,92775,1,0,0:0:0:0:
508,327,92864,1,0,0:0:0:0:
506,347,92953,1,0,0:0:0:0:
499,367,93041,5,0,1:0:0:0:
463,332,93130,1,0,0:0:0:0:
415,319,93218,1,2,0:0:0:0:
367,333,93307,1,0,0:0:0:0:
272,368,93396,6,0,L|268:311,1,50,0|0,1:0|0:0,0:0:0:0:
33,166,93574,6,0,L|10:176,2,25,2|0|0,1:2|0:0|1:0,0:0:0:0:
195,175,93751,1,0,1:0:0:0:
195,175,93840,1,0,1:0:0:0:
195,175,93929,2,0,L|216:188,2,25,0|0|0,3:0|3:0|3:0,3:3:0:0:
108,224,94106,5,0,1:0:0:0:
117,118,94195,1,4,1:2:0:0:
118,103,94373,1,4,1:2:0:0:
119,88,94639,1,4,1:2:0:0:
120,73,94816,54,0,B|205:47|185:118|287:83,1,160.000006103516,4|0,1:0|0:0,0:0:0:0:
367,36,95408,1,0,0:0:0:0:
366,49,95527,2,0,L|362:159,1,80.0000030517579,2|0,0:3|0:0,0:0:0:0:
459,59,95882,1,0,0:0:0:0:
459,72,96000,1,0,0:0:0:0:
459,84,96118,1,0,0:0:0:0:
459,96,96237,86,0,B|462:175,1,80.0000030517579
506,268,96592,1,0,0:0:0:0:
475,278,96710,1,0,0:0:0:0:
443,277,96828,1,0,0:0:0:0:
412,265,96947,6,0,P|391:262|369:265,2,40.000001525879,8|0|0,0:3|0:0|0:0,0:0:0:0:
309,202,97302,2,0,P|295:218|287:239,2,40.000001525879,0|0|0,0:0|0:0|0:0,0:0:0:0:
221,292,97657,6,0,P|184:302|140:293,1,80.0000030517579,2|0,1:2|0:0,0:0:0:0:
80,356,98012,2,0,P|68:339|60:321,2,40.000001525879,0|0|0,0:0|0:0|0:0,0:0:0:0:
143,294,98367,5,0,0:0:0:0:
143,254,98485,1,0,0:0:0:0:
142,222,98603,1,0,0:0:0:0:
142,197,98722,1,2,0:3:0:0:
141,181,98840,1,0,0:0:0:0:
141,169,98958,1,0,0:0:0:0:
141,160,99077,5,0,0:0:0:0:
155,165,99195,1,0,0:0:0:0:
178,167,99314,1,0,0:0:0:0:
209,161,99432,1,0,0:0:0:0:
244,142,99550,1,0,0:0:0:0:
291,133,99669,1,0,0:0:0:0:
361,170,99787,5,0,3:0:0:0:
430,187,99905,1,0,0:0:0:0:
480,162,100024,1,0,0:0:0:0:
499,127,100142,1,2,0:0:0:0:
503,95,100260,1,0,0:0:0:0:
495,72,100379,1,0,0:0:0:0:
432,22,100497,6,0,B|374:25|374:25|345:57|345:57|281:62,1,160.000006103516,4|0,1:2|0:0,0:0:0:0:
192,18,101089,1,2,0:0:0:0:
187,28,101207,2,0,P|180:67|191:105,1,80.0000030517579,2|0,0:0|0:0,0:0:0:0:
370,129,101562,1,0,0:0:0:0:
368,117,101680,1,0,0:0:0:0:
363,105,101799,1,0,0:0:0:0:
355,96,101917,6,0,P|324:70|285:61,1,80.0000030517579,0|0,0:0|0:0,0:0:0:0:
191,105,102272,1,2,0:0:0:0:
159,107,102390,1,0,0:0:0:0:
126,107,102509,1,2,0:0:0:0:
94,107,102627,6,0,L|98:152,2,40.000001525879,0|2|0,0:0|0:0|0:0,0:0:0:0:
41,217,102982,2,0,L|81:236,2,40.000001525879,2|2|0,0:0|0:0|0:0,0:0:0:0:
139,296,103337,6,0,L|230:293,1,80.0000030517579,0|0,3:0|0:0,0:0:0:0:
287,349,103692,2,0,L|308:307,2,40.000001525879,0|2|2,0:0|0:0|0:0,0:0:0:0:
219,293,104047,5,2,0:0:0:0:
185,237,104166,1,0,0:0:0:0:
198,182,104284,1,0,0:0:0:0:
234,151,104402,5,2,0:0:0:0:
249,113,104521,1,0,0:0:0:0:
242,81,104639,1,2,0:0:0:0:
163,104,104757,5,0,0:0:0:0:
156,108,104876,1,2,0:0:0:0:
126,119,104994,1,2,0:0:0:0:
71,105,105112,5,0,0:0:0:0:
85,159,105231,1,2,0:0:0:0:
59,217,105349,1,2,0:0:0:0:
79,294,105467,6,0,B|152:312|141:268|224:285,1,140,4|0,0:0|0:0,0:0:0:0:
283,337,106177,5,4,1:0:0:0:
319,354,106266,1,0,0:0:0:0:
358,357,106355,1,2,0:0:0:0:
395,343,106444,1,0,0:0:0:0:
423,315,106532,1,8,1:2:0:0:
440,278,106621,1,0,0:0:0:0:
438,237,106710,1,2,0:0:0:0:
419,201,106799,1,0,0:0:0:0:
387,176,106887,5,0,1:0:0:0:
360,206,106976,1,0,0:0:0:0:
323,222,107065,1,2,0:0:0:0:
282,222,107154,1,0,0:0:0:0:
246,203,107242,1,8,1:2:0:0:
220,172,107331,1,0,0:0:0:0:
211,132,107420,1,2,0:0:0:0:
216,92,107509,1,0,0:0:0:0:
239,59,107598,5,0,1:0:0:0:
272,92,107686,1,0,0:0:0:0:
282,138,107775,1,2,0:0:0:0:
272,185,107864,1,0,0:0:0:0:
240,221,107953,1,8,1:2:0:0:
194,236,108041,1,0,0:0:0:0:
146,229,108130,1,2,0:0:0:0:
108,198,108219,1,0,0:0:0:0:
91,152,108308,5,0,1:0:0:0:
135,119,108396,1,0,0:0:0:0:
190,111,108485,1,2,0:0:0:0:
244,124,108574,1,0,0:0:0:0:
290,155,108663,1,8,1:2:0:0:
319,202,108751,1,0,0:0:0:0:
329,257,108840,1,2,0:0:0:0:
318,312,108929,1,0,0:0:0:0:
288,359,109018,5,0,1:0:0:0:
258,370,109106,1,0,0:0:0:0:
225,370,109195,1,2,0:0:0:0:
195,357,109284,1,0,0:0:0:0:
166,341,109373,1,8,1:2:0:0:
137,327,109461,1,0,0:0:0:0:
105,319,109550,1,2,0:0:0:0:
73,324,109639,1,0,0:0:0:0:
44,338,109728,5,0,1:0:0:0:
45,314,109816,1,0,0:0:0:0:
45,289,109905,1,2,0:0:0:0:
46,264,109994,1,0,0:0:0:0:
47,239,110083,1,8,1:2:0:0:
49,215,110171,1,0,0:0:0:0:
50,190,110260,1,2,0:0:0:0:
51,165,110349,1,0,0:0:0:0:
52,140,110438,6,0,P|80:134|114:141,1,60.0000022888184,0|0,1:0|0:0,0:0:0:0:
192,184,110615,2,0,P|211:205|222:238,1,60.0000022888184,2|0,0:0|0:0,0:0:0:0:
160,40,110793,6,0,P|179:61|190:94,1,60.0000022888184,8|0,1:2|0:0,0:0:0:0:
192,184,110970,2,0,P|183:211|160:237,1,60.0000022888184,2|0,0:0|0:0,0:0:0:0:
300,82,111148,6,0,L|346:79,2,40.000001525879,4|0|0,1:0|3:0|3:0,0:0:0:0:
498,98,111325,2,0,L|458:95,2,40.000001525879,0|0|0,1:0|3:0|3:0,0:0:0:0:
330,175,111503,6,0,L|370:178,2,40.000001525879,8|0|0,1:2|3:0|3:0,0:0:0:0:
467,0,111680,2,0,L|428:2,2,40.000001525879,0|0|0,1:0|3:0|3:0,0:0:0:0:
400,271,111858,5,4,1:0:0:0:
367,294,111947,1,0,0:0:0:0:
327,300,112035,1,2,0:0:0:0:
287,291,112124,1,0,0:0:0:0:
255,266,112213,1,8,1:2:0:0:
220,244,112302,1,0,0:0:0:0:
181,236,112390,1,2,0:0:0:0:
141,244,112479,1,0,0:0:0:0:
108,267,112568,5,0,1:0:0:0:
57,242,112657,1,0,0:0:0:0:
29,193,112745,1,2,0:0:0:0:
25,136,112834,1,0,0:0:0:0:
49,85,112923,1,8,1:2:0:0:
95,52,113012,1,0,0:0:0:0:
150,45,113100,1,2,0:0:0:0:
201,66,113189,1,0,0:0:0:0:
236,109,113278,5,0,1:0:0:0:
214,169,113367,1,0,0:0:0:0:
226,231,113456,1,2,0:0:0:0:
270,276,113544,1,0,0:0:0:0:
332,291,113633,1,8,1:2:0:0:
392,269,113722,1,0,0:0:0:0:
431,216,113811,2,0,P|438:188|436:158,1,60.0000022888184,2|0,0:0|0:0,0:0:0:0:
337,37,113988,5,2,1:2:0:0:
294,14,114077,1,0,0:0:0:0:
246,9,114166,1,2,0:0:0:0:
202,27,114254,1,0,0:0:0:0:
168,61,114343,1,8,1:2:0:0:
153,106,114432,1,0,0:0:0:0:
157,153,114521,1,2,0:0:0:0:
180,194,114609,1,0,0:0:0:0:
218,222,114698,5,0,1:0:0:0:
230,183,114787,1,0,0:0:0:0:
222,143,114876,1,2,0:0:0:0:
199,110,114964,1,0,0:0:0:0:
164,88,115053,1,8,1:2:0:0:
124,82,115142,1,0,0:0:0:0:
85,94,115231,1,2,0:0:0:0:
56,122,115319,1,0,0:0:0:0:
38,158,115408,5,0,1:0:0:0:
39,173,115497,1,0,0:0:0:0:
40,188,115586,1,2,0:0:0:0:
41,203,115674,1,0,0:0:0:0:
42,218,115763,1,8,1:2:0:0:
44,241,115852,1,0,0:0:0:0:
46,273,115941,1,2,0:0:0:0:
49,312,116029,1,0,0:0:0:0:
53,359,116118,6,0,L|114:356,1,60.0000022888184,4|0,1:2|0:0,0:0:0:0:
150,268,116296,2,0,L|90:265,1,60.0000022888184,2|0,0:0|3:0,0:0:0:0:
8,176,116473,2,0,L|67:173,1,60.0000022888184,12|0,1:2|0:0,0:0:0:0:
272,81,116651,5,0,0:0:0:0:
280,73,116740,1,0,1:0:0:0:
289,63,116828,2,0,L|290:34,1,30.0000011444092,2|0,3:0|3:0,3:3:0:0:
297,57,116917,2,0,L|298:28,1,30.0000011444092,0|0,3:0|3:0,3:3:0:0:
303,51,117006,1,2,1:2:0:0:
310,44,117095,1,0,1:0:0:0:
317,38,117183,6,0,P|375:77|391:162,1,160,8|0,1:2|1:0,1:1:0:0:
385,349,117450,1,0,1:0:0:0:
327,291,117538,5,4,1:0:0:0:
312,283,117627,1,0,0:0:0:0:
296,279,117716,1,2,0:0:0:0:
280,277,117805,1,0,0:0:0:0:
264,277,117893,1,8,1:2:0:0:
248,280,117982,1,0,0:0:0:0:
232,285,118071,1,2,0:0:0:0:
217,292,118160,1,0,0:0:0:0:
204,301,118248,5,0,1:0:0:0:
233,262,118337,1,0,0:0:0:0:
241,214,118426,1,2,0:0:0:0:
225,168,118515,1,0,0:0:0:0:
189,136,118603,1,8,1:2:0:0:
141,128,118692,1,0,0:0:0:0:
94,141,118781,2,0,P|87:172|91:200,1,60.0000022888184,2|0,0:0|0:0,0:0:0:0:
274,373,118958,5,0,1:0:0:0:
321,381,119047,1,0,0:0:0:0:
367,370,119136,1,2,0:0:0:0:
400,335,119225,1,0,0:0:0:0:
415,289,119314,1,8,1:2:0:0:
403,242,119402,1,0,0:0:0:0:
371,205,119491,1,2,0:0:0:0:
325,190,119580,1,0,0:0:0:0:
277,198,119669,5,0,1:0:0:0:
308,243,119757,1,0,0:0:0:0:
358,267,119846,1,2,0:0:0:0:
414,263,119935,1,0,0:0:0:0:
461,233,120024,1,8,1:2:0:0:
487,184,120112,1,0,0:0:0:0:
487,127,120201,1,2,0:0:0:0:
458,78,120290,1,0,0:0:0:0:
408,51,120379,5,0,1:0:0:0:
397,113,120467,1,0,0:0:0:0:
363,167,120556,1,2,0:0:0:0:
309,202,120645,1,0,0:0:0:0:
247,219,120734,1,8,1:2:0:0:
183,215,120822,1,0,0:0:0:0:
125,187,120911,1,2,0:0:0:0:
80,141,121000,1,0,0:0:0:0:
57,81,121089,5,0,1:0:0:0:
114,38,121177,1,0,0:0:0:0:
186,34,121266,1,2,0:0:0:0:
247,72,121355,1,0,0:0:0:0:
278,136,121444,1,10,1:2:0:0:
274,207,121532,1,0,0:0:0:0:
230,264,121621,5,0,1:0:0:0:
225,272,121680,2,0,L|228:313,1,40.000001525879,0|0,1:0|1:0,0:0:0:0:
220,280,121799,70,0,P|167:272|118:229,1,120.000004577637,12|0,1:2|1:0,0:0:0:0:
122,109,122065,1,0,1:0:0:0:
122,109,122242,5,0,1:0:0:0:
122,109,122331,2,0,L|118:232,1,120.000004577637,12|0,1:2|1:0,0:0:0:0:
16,165,122598,5,0,1:0:0:0:
131,102,122686,2,0,L|127:225,1,120.000004577637,8|0,0:0|1:0,0:0:0:0:
24,161,122953,85,0,1:0:0:0:
139,97,123041,2,8,L|141:52,2,30.0000011444092
136,214,123219,6,0,P|178:224|225:212,1,93.3333342234294,4|0,1:2|0:0,0:0:0:0:
318,49,123456,2,0,P|288:80|275:127,1,93.3333342234294,10|0,0:2|0:0,0:0:0:0:
273,297,123692,1,10,0:2:0:0:
323,212,123811,1,8,0:0:0:0:
368,279,123929,2,0,P|406:285|444:277,1,77.3333356933594,10|0,0:2|1:0,0:0:0:0:
230,367,124166,102,0,P|196:374|151:363,1,72.0000002746582,2|8,1:2|0:0,0:0:0:0:
334,197,124402,1,10,0:2:0:0:
275,127,124521,1,8,1:2:0:0:
312,61,124639,22,0,L|315:19,1,40.000001525879,6|0,1:2|0:0,0:0:0:0:
398,88,124876,1,8,0:0:0:0:
398,88,124994,1,8,0:0:0:0:
398,88,125112,2,0,L|396:49,1,40.000001525879,0|0,1:0|0:0,0:0:0:0:
308,17,125349,2,0,L|305:56,1,40.000001525879,4|0,1:2|0:0,0:0:0:0:
300,148,125586,53,0,3:0:0:0:
300,148,125704,2,0,L|302:182,5,26.6666666666667,0|0|0|0|0|0,3:0|3:0|3:0|3:0|3:0|3:0,3:3:0:0:
309,255,126059,69,4,1:2:0:0:
268,252,126148,1,0,0:0:0:0:
227,249,126237,1,0,0:0:0:0:
187,247,126325,1,0,0:0:0:0:
146,245,126414,1,2,0:2:0:0:
170,164,126592,85,0,1:0:0:0:
309,255,126769,37,0,0:0:0:0:
266,262,126858,1,0,0:0:0:0:
226,268,126947,1,0,0:0:0:0:
184,256,127035,1,0,0:0:0:0:
146,245,127124,1,2,1:2:0:0:
309,255,127479,5,0,0:0:0:0:
267,269,127568,1,0,0:0:0:0:
225,282,127657,1,0,0:0:0:0:
184,266,127745,1,0,0:0:0:0:
146,245,127834,1,2,0:0:0:0:
309,255,128189,5,0,0:0:0:0:
267,278,128278,1,0,0:0:0:0:
224,300,128367,1,0,0:0:0:0:
182,275,128456,1,0,0:0:0:0:
146,245,128544,1,2,1:2:0:0:
439,120,128899,5,2,1:2:0:0:
438,160,128988,1,0,0:0:0:0:
437,200,129077,1,0,0:0:0:0:
437,240,129166,1,0,0:0:0:0:
435,279,129254,1,0,1:0:0:0:
359,256,129432,21,2,1:2:0:0:
439,120,129609,53,0,0:0:0:0:
430,159,129698,1,0,0:0:0:0:
437,200,129787,1,0,0:0:0:0:
445,240,129876,1,0,0:0:0:0:
435,279,129964,1,2,1:2:0:0:
439,120,130319,5,0,0:0:0:0:
416,158,130408,1,0,0:0:0:0:
437,200,130497,1,0,0:0:0:0:
457,239,130586,1,0,0:0:0:0:
435,279,130674,1,2,0:0:0:0:
439,120,131029,5,0,1:0:0:0:
401,156,131118,1,0,0:0:0:0:
437,200,131207,1,0,1:0:0:0:
471,238,131296,1,0,0:0:0:0:
435,279,131385,1,2,1:2:0:0:
28,107,131740,5,0,1:2:0:0:
67,68,131828,1,0,0:0:0:0:
121,54,131917,1,0,0:0:0:0:
173,71,132006,1,0,0:0:0:0:
214,109,132095,1,2,0:0:0:0:
122,161,132272,5,0,1:0:0:0:
28,107,132450,53,0,0:0:0:0:
81,94,132538,1,0,0:0:0:0:
121,54,132627,1,0,0:0:0:0:
160,92,132716,1,0,0:0:0:0:
214,109,132805,1,2,1:2:0:0:
28,107,133160,5,0,0:0:0:0:
81,94,133248,1,0,0:0:0:0:
121,54,133337,1,0,0:0:0:0:
160,92,133426,1,0,0:0:0:0:
214,109,133515,1,2,0:0:0:0:
28,107,133870,5,0,0:0:0:0:
78,128,133958,1,0,0:0:0:0:
119,94,134047,1,0,0:0:0:0:
162,130,134136,1,0,0:0:0:0:
214,109,134225,1,2,1:2:0:0:
276,354,134580,5,2,1:2:0:0:
227,352,134669,1,0,0:0:0:0:
179,349,134757,1,0,0:0:0:0:
130,347,134846,1,0,0:0:0:0:
81,345,134935,1,2,0:0:0:0:
107,269,135112,5,0,1:0:0:0:
276,354,135290,53,0,0:0:0:0:
230,336,135379,1,0,0:0:0:0:
179,349,135467,1,0,0:0:0:0:
129,361,135556,1,0,0:0:0:0:
81,345,135645,1,2,1:2:0:0:
276,354,136000,5,0,3:0:0:0:
225,378,136089,1,0,0:0:0:0:
179,349,136178,1,0,0:0:0:0:
134,314,136267,1,0,0:0:0:0:
81,345,136355,6,0,L|37:343,3,40,2|0|0|0,0:0|0:0|0:0|0:0,0:0:0:0:
230,269,136710,5,2,0:0:0:0:
274,250,136799,1,0,0:0:0:0:
317,249,136887,1,0,0:0:0:0:
353,264,136976,1,0,0:0:0:0:
380,287,137065,1,2,0:0:0:0:
409,299,137154,1,0,0:0:0:0:
436,302,137242,1,0,0:0:0:0:
459,296,137331,1,0,0:0:0:0:
477,287,137420,53,4,1:2:0:0:
478,254,137509,1,0,0:0:0:0:
476,221,137598,1,0,0:0:0:0:
474,189,137686,1,0,0:0:0:0:
471,156,137775,1,0,0:0:0:0:
468,76,137953,69,0,1:0:0:0:
471,156,138130,53,0,0:0:0:0:
442,171,138219,1,0,0:0:0:0:
410,176,138308,1,0,0:0:0:0:
378,172,138396,1,0,0:0:0:0:
349,157,138485,1,2,1:2:0:0:
349,157,138840,5,0,0:0:0:0:
316,134,138929,1,0,0:0:0:0:
276,124,139018,1,0,0:0:0:0:
237,134,139106,1,0,0:0:0:0:
205,158,139195,1,2,0:0:0:0:
123,169,139373,6,0,L|125:129,1,40,0|0,0:0|0:0,0:0:0:0:
205,158,139550,5,0,0:0:0:0:
203,206,139639,1,0,0:0:0:0:
201,254,139728,1,0,0:0:0:0:
199,301,139816,1,0,0:0:0:0:
197,349,139905,1,2,1:2:0:0:
73,350,140260,53,0,1:0:0:0:
104,346,140349,1,0,0:0:0:0:
135,353,140438,1,0,0:0:0:0:
166,347,140527,1,0,0:0:0:0:
197,349,140615,1,2,1:2:0:0:
201,270,140793,69,0,1:0:0:0:
197,349,140970,53,0,0:0:0:0:
229,349,141059,1,0,0:0:0:0:
261,348,141148,1,0,0:0:0:0:
293,348,141237,1,0,0:0:0:0:
324,347,141325,1,2,1:2:0:0:
324,347,141680,5,0,0:0:0:0:
346,313,141769,1,0,0:0:0:0:
352,273,141858,1,0,0:0:0:0:
344,233,141947,1,0,0:0:0:0:
319,202,142035,1,2,0:0:0:0:
235,183,142213,6,0,P|232:203|237:227,1,40,0|0,0:0|0:0,0:0:0:0:
319,202,142390,5,0,1:0:0:0:
348,164,142479,1,0,0:0:0:0:
358,117,142568,1,0,1:0:0:0:
350,69,142657,1,0,0:0:0:0:
317,34,142745,1,2,1:2:0:0:
38,125,143100,53,0,1:0:0:0:
40,165,143189,1,0,0:0:0:0:
42,205,143278,1,0,0:0:0:0:
43,245,143367,1,0,0:0:0:0:
45,285,143456,1,2,0:0:0:0:
49,363,143633,69,0,1:0:0:0:
45,285,143811,53,0,0:0:0:0:
83,277,143899,1,0,0:0:0:0:
118,258,143988,1,0,0:0:0:0:
153,277,144077,1,0,0:0:0:0:
192,286,144166,1,2,1:2:0:0:
192,286,144521,5,0,0:0:0:0:
229,298,144609,1,0,0:0:0:0:
251,264,144698,1,0,0:0:0:0:
227,231,144787,1,0,0:0:0:0:
192,251,144876,1,2,0:0:0:0:
341,321,145053,6,0,L|302:323,1,40,0|0,0:0|0:0,0:0:0:0:
192,251,145231,5,0,0:0:0:0:
144,222,145319,1,0,0:0:0:0:
156,167,145408,1,0,0:0:0:0:
211,161,145497,1,0,0:0:0:0:
234,212,145586,1,2,1:2:0:0:
25,47,145941,53,0,1:0:0:0:
77,66,146029,1,0,0:0:0:0:
131,52,146118,1,0,0:0:0:0:
185,63,146207,1,0,0:0:0:0:
239,48,146296,1,2,0:0:0:0:
337,45,146473,69,0,1:0:0:0:
239,48,146651,53,0,0:0:0:0:
224,102,146740,1,0,0:0:0:0:
206,154,146828,1,0,0:0:0:0:
235,201,146917,1,0,0:0:0:0:
267,246,147006,1,2,1:2:0:0:
267,246,147361,5,2,1:2:0:0:
320,210,147450,1,0,0:0:0:0:
382,198,147538,1,0,0:0:0:0:
444,210,147627,1,0,0:0:0:0:
497,246,147716,1,2,0:0:0:0:
497,246,148071,5,2,0:0:0:0:
430,290,148160,1,2,0:0:0:0:
374,283,148248,1,0,0:0:0:0:
333,249,148337,1,0,0:0:0:0:
320,210,148426,1,2,0:0:0:0:
321,169,148515,1,0,0:0:0:0:
339,138,148603,1,0,0:0:0:0:
354,125,148692,1,0,0:0:0:0:
368,118,148781,6,0,L|371:65,3,50,4|0|0|0,1:2|0:0|0:0|0:0,0:0:0:0:
467,95,149136,1,2,0:0:0:0:
465,120,149225,1,0,0:0:0:0:
463,145,149314,1,0,0:0:0:0:
461,169,149402,1,0,0:0:0:0:
459,194,149491,38,0,L|456:243,3,50,2|0|0|0,0:0|0:0|0:0|0:0,0:0:0:0:
449,342,149846,1,2,0:0:0:0:
405,316,149935,1,0,0:0:0:0:
355,307,150024,1,0,0:0:0:0:
306,315,150112,1,0,0:0:0:0:
264,343,150201,6,0,P|242:348|209:343,3,50,2|0|0|0,1:2|0:0|1:2|0:0,0:0:0:0:
112,298,150556,1,2,0:0:0:0:
114,237,150645,1,0,0:0:0:0:
117,176,150734,1,0,0:0:0:0:
120,116,150822,1,0,0:0:0:0:
122,55,150911,6,0,L|124:2,3,50,2|0|0|0,0:0|0:0|0:0|0:0,0:0:0:0:
204,91,151266,1,2,0:0:0:0:
226,101,151355,1,0,0:0:0:0:
250,105,151444,1,0,0:0:0:0:
274,103,151532,1,0,0:0:0:0:
298,96,151621,6,0,P|320:91|353:96,3,50,2|0|0|0,1:2|0:0|0:0|0:0,0:0:0:0:
404,10,151976,1,2,0:0:0:0:
440,44,152065,1,0,0:0:0:0:
454,91,152154,1,0,0:0:0:0:
440,138,152242,1,0,0:0:0:0:
408,176,152331,6,0,P|403:198|408:231,3,50,2|0|0|0,0:0|0:0|0:0|0:0,0:0:0:0:
440,323,152686,1,2,0:0:0:0:
390,317,152775,1,0,0:0:0:0:
340,326,152864,1,0,0:0:0:0:
292,310,152953,1,0,0:0:0:0:
253,340,153041,6,0,L|196:342,3,50,2|0|0|0,1:2|0:0|1:2|0:0,0:0:0:0:
101,345,153396,1,2,0:0:0:0:
76,289,153485,1,0,0:0:0:0:
101,234,153574,1,0,0:0:0:0:
82,176,153663,1,0,0:0:0:0:
99,119,153751,22,0,L|96:66,3,50,2|0|0|0,0:0|0:0|0:0|0:0,0:0:0:0:
2,103,154106,1,2,0:0:0:0:
2,103,154195,2,0,L|-1:51,2,50,2|0|0,0:0|0:0|0:0,0:0:0:0:
189,93,154461,5,2,1:2:0:0:
219,93,154550,1,0,0:0:0:0:
249,94,154639,1,0,0:0:0:0:
279,94,154728,1,0,0:0:0:0:
297,113,154816,5,2,0:0:0:0:
347,111,154905,1,0,0:0:0:0:
397,109,154994,1,0,0:0:0:0:
447,108,155083,1,0,0:0:0:0:
496,106,155171,6,0,L|498:53,3,50,2|0|0|0,0:0|0:0|0:0|0:0,0:0:0:0:
399,23,155527,2,0,L|401:73,3,50,2|0|0|0,0:0|0:0|0:0|0:0,0:0:0:0:
407,198,155882,5,2,1:2:0:0:
408,222,155970,1,0,0:0:0:0:
408,247,156059,1,0,1:2:0:0:
408,272,156148,1,0,0:0:0:0:
390,291,156237,5,2,0:2:0:0:
346,267,156325,1,0,0:0:0:0:
296,258,156414,1,0,0:0:0:0:
246,268,156503,1,0,0:0:0:0:
204,295,156592,22,0,P|180:300|148:297,3,50,2|0|0|0,0:0|0:0|0:0|0:0,0:0:0:0:
86,374,156947,1,2,0:0:0:0:
86,374,157035,1,0,0:0:0:0:
86,374,157124,2,0,P|69:355|56:326,1,50,0|0,0:0|0:0,0:0:0:0:
69,92,157302,102,0,P|85:110|98:139,3,50,2|0|0|0,1:2|0:0|0:0|0:0,0:0:0:0:
175,203,157657,1,2,0:0:0:0:
224,197,157745,1,0,0:0:0:0:
269,176,157834,1,0,0:0:0:0:
314,197,157923,1,0,0:0:0:0:
362,208,158012,22,0,L|423:205,3,50,2|0|0|0,0:0|0:0|0:0|0:0,0:0:0:0:
443,111,158367,1,2,0:0:0:0:
443,111,158456,1,0,0:0:0:0:
443,111,158544,2,0,L|382:108,1,50,0|0,0:0|0:0,0:0:0:0:
271,33,158722,85,2,1:2:0:0:
271,33,158811,1,0,0:0:0:0:
271,33,158899,2,0,L|332:30,1,50,0|0,1:2|0:0,0:0:0:0:
239,127,159077,5,2,0:0:0:0:
239,127,159166,1,0,0:0:0:0:
239,127,159254,2,0,L|288:129,1,50,0|0,3:0|3:0,0:0:0:0:
131,57,159432,5,2,1:2:0:0:
131,57,159521,1,0,3:0:0:0:
131,57,159609,2,0,L|185:55,1,50,0|0,0:0|0:0,0:0:0:0:
22,108,159787,6,0,L|69:109,1,47.9999985351563
69,109,160142,86,0,B|67:161|67:161|43:224|43:224|64:297,1,180.000006866455,4|0,1:2|0:0,0:0:0:0:
147,384,160497,53,2,1:2:0:0:
148,365,160586,1,0,0:0:0:0:
149,347,160674,1,0,0:0:0:0:
150,328,160763,1,0,0:0:0:0:
153,238,160852,54,0,B|201:197|266:222|266:222|289:244|321:250,1,180.000006866455,2|0,1:2|0:0,0:0:0:0:
449,261,161207,37,2,1:2:0:0:
467,264,161296,1,0,0:0:0:0:
486,264,161385,1,0,0:0:0:0:
504,259,161473,1,0,0:0:0:0:
501,164,161562,70,0,B|473:159|450:137|450:137|385:112|337:153,1,180.000006866455,2|0,1:2|0:0,0:0:0:0:
263,60,161917,69,2,1:2:0:0:
245,61,162006,1,0,0:0:0:0:
226,62,162095,1,0,0:0:0:0:
208,62,162183,1,0,0:0:0:0:
134,0,162272,5,2,1:2:0:0:
116,31,162361,1,2,0:0:0:0:
111,66,162450,1,0,0:2:0:0:
119,100,162538,1,0,0:0:0:0:
143,148,162627,5,2,1:2:0:0:
150,170,162716,1,0,0:0:0:0:
151,193,162805,1,0,0:0:0:0:
143,215,162893,1,0,0:0:0:0:
35,264,162982,6,0,B|0:214|32:142|32:142|51:178|70:184,1,180.000006866455,2|0,1:2|0:0,0:0:0:0:
122,310,163337,37,2,1:2:0:0:
140,309,163426,1,0,0:0:0:0:
158,308,163515,1,0,0:0:0:0:
175,306,163603,1,0,0:0:0:0:
236,375,163692,70,0,B|231:318|231:318|203:267|203:267|221:178,1,180.000006866455,2|0,1:2|0:0,0:0:0:0:
297,101,164047,53,2,1:2:0:0:
298,119,164136,1,0,0:0:0:0:
299,137,164225,1,0,0:0:0:0:
301,154,164313,1,0,0:0:0:0:
311,260,164402,54,0,B|368:255|368:255|419:227|419:227|508:245,1,180.000006866455,2|0,1:2|0:0,0:0:0:0:
333,357,164757,69,2,1:2:0:0:
315,356,164846,1,0,0:0:0:0:
297,355,164935,1,0,0:0:0:0:
279,353,165023,1,0,0:0:0:0:
185,369,165112,5,0,1:2:0:0:
187,332,165201,1,2,0:0:0:0:
188,295,165290,1,0,0:0:0:0:
191,259,165379,1,0,1:0:0:0:
167,232,165467,5,0,1:0:0:0:
165,214,165556,1,0,0:0:0:0:
163,195,165645,1,0,1:0:0:0:
161,177,165734,1,0,1:0:0:0:
174,165,165822,5,0,1:0:0:0:
256,192,165911,12,0,168663,0:0:0:0:
287,373,169491,53,2,0:0:0:0:
287,373,169609,2,0,L|289:333,1,34.6666650797527,2|0,0:0|0:0,0:0:0:0:
192,367,169846,53,2,0:0:0:0:
192,367,169964,2,0,L|190:324,1,40.000001525879,2|0,0:0|0:0,0:0:0:0:
353,272,170201,5,2,0:0:0:0:
353,272,170319,2,0,L|356:212,1,53.3333333333333,2|0,0:0|0:0,0:0:0:0:
128,144,170556,5,2,0:0:0:0:
128,144,170674,1,2,0:0:0:0:
128,144,170793,6,0,L|124:70,1,60,0|0,3:0|0:0,0:0:0:0:
113,69,171148,6,0,L|117:161,1,90.0000034332277,2|0,3:0|0:0,0:0:0:0:
126,310,171503,37,6,1:2:0:0:
127,321,171592,1,0,0:0:0:0:
128,332,171680,1,0,0:0:0:0:
129,343,171769,1,0,0:0:0:0:
130,354,171858,5,10,1:2:0:0:
166,351,171947,1,0,0:0:0:0:
201,348,172035,1,0,0:0:0:0:
237,346,172124,1,0,0:0:0:0:
320,383,172213,5,2,1:2:0:0:
348,343,172302,1,0,0:0:0:0:
351,295,172390,1,0,0:0:0:0:
326,253,172479,1,0,0:0:0:0:
239,221,172568,5,10,1:2:0:0:
211,181,172657,1,0,0:0:0:0:
208,133,172745,1,0,0:0:0:0:
233,91,172834,1,0,0:0:0:0:
318,53,172923,6,0,P|347:60|372:80,3,60.0000022888184,2|0|0|0,1:2|0:0|0:0|0:0,0:0:0:0:
441,141,173278,1,10,1:2:0:0:
438,177,173367,1,0,0:0:0:0:
435,212,173456,1,0,0:0:0:0:
432,247,173544,1,0,0:0:0:0:
472,328,173633,5,2,1:2:0:0:
425,342,173722,1,0,0:0:0:0:
380,325,173811,1,0,0:0:0:0:
335,308,173899,1,0,0:0:0:0:
248,342,173988,85,10,1:2:0:0:
212,345,174076,1,0,0:0:0:0:
176,347,174165,1,0,0:0:0:0:
140,350,174254,1,0,0:0:0:0:
80,354,174343,53,2,1:2:0:0:
81,329,174432,1,0,0:0:0:0:
82,304,174521,1,0,0:0:0:0:
83,280,174609,1,0,0:0:0:0:
85,256,174698,1,8,1:2:0:0:
86,231,174787,1,0,0:0:0:0:
87,206,174876,1,0,0:0:0:0:
87,182,174964,1,0,0:0:0:0:
88,157,175053,5,2,1:2:0:0:
128,182,175142,1,0,0:0:0:0:
176,185,175231,1,0,0:0:0:0:
220,167,175319,1,0,0:0:0:0:
237,111,175408,5,10,1:2:0:0:
270,97,175497,1,0,0:0:0:0:
306,98,175586,1,0,0:0:0:0:
338,112,175674,1,0,0:0:0:0:
356,167,175763,5,2,1:2:0:0:
368,166,175852,1,0,0:0:0:0:
380,165,175941,1,0,0:0:0:0:
391,164,176029,1,0,0:0:0:0:
403,163,176118,1,8,1:2:0:0:
415,162,176207,1,0,0:0:0:0:
427,161,176296,1,0,0:0:0:0:
439,160,176385,1,0,0:0:0:0:
450,159,176473,5,2,1:2:0:0:
483,208,176562,1,0,0:0:0:0:
483,268,176651,1,0,0:0:0:0:
456,321,176740,1,0,0:0:0:0:
405,352,176828,1,8,1:2:0:0:
344,352,176917,1,0,0:0:0:0:
291,322,177006,1,0,0:0:0:0:
266,266,177095,1,0,0:0:0:0:
268,206,177183,5,6,1:2:0:0:
256,210,177272,1,0,0:0:0:0:
232,213,177361,1,0,0:0:0:0:
196,205,177450,1,0,0:0:0:0:
164,169,177538,1,8,1:2:0:0:
114,134,177627,1,0,0:0:0:0:
42,144,177716,1,0,0:0:0:0:
0,217,177805,5,2,0:2:0:0:
103,274,177893,2,0,L|100:154,1,120.000004577637,2|0,1:2|0:0,0:0:0:0:
3,338,178160,5,2,0:2:0:0:
112,267,178248,2,0,L|107:122,1,140.000001335144,10|0,1:2|0:0,0:0:0:0:
116,356,178515,1,0,0:0:0:0:
116,356,178603,5,2,1:2:0:0:
130,356,178692,1,0,0:0:0:0:
158,355,178781,1,0,0:0:0:0:
200,352,178870,1,0,0:0:0:0:
255,349,178958,1,8,1:2:0:0:
325,345,179047,1,0,0:0:0:0:
409,340,179136,1,0,0:0:0:0:
507,336,179225,85,2,0:2:0:0:
396,384,179314,2,0,B|397:343|397:343|395:338|395:338|399:263,1,120.000004577637,2|0,1:2|0:0,0:0:0:0:
404,143,179580,5,2,0:2:0:0:
276,325,179669,2,0,B|278:269|278:269|283:264|283:264|285:185,1,140.000001335144,10|0,1:2|0:0,0:0:0:0:
249,51,179935,1,0,0:0:0:0:
249,51,180024,54,0,P|219:61|194:80,3,60.0000022888184,2|0|0|0,1:2|0:0|0:0|0:0,0:0:0:0:
98,40,180379,2,0,P|92:71|96:102,3,60.0000022888184,10|0|0|0,1:2|0:0|0:0|0:0,0:0:0:0:
2,178,180734,2,0,P|25:198|54:210,3,60.0000022888184,2|0|0|0,1:2|0:0|0:0|0:0,0:0:0:0:
77,343,181089,2,0,P|106:332|131:313,3,60.0000022888184,10|0|0|0,1:2|0:0|0:0|0:0,0:0:0:0:
209,190,181444,5,6,1:2:0:0:
260,159,181532,1,0,0:0:0:0:
320,159,181621,1,0,0:0:0:0:
370,191,181710,1,0,0:0:0:0:
396,244,181799,5,12,1:2:0:0:
319,235,181887,1,0,0:0:0:0:
272,172,181976,1,0,0:0:0:0:
291,96,182065,1,0,0:0:0:0:
359,57,182154,6,0,P|433:66|496:124,1,160,6|0,1:2|0:0,0:0:0:0:
246,291,182420,2,0,P|216:217|234:141,1,160,4|0,1:2|0:0,1:1:0:0:
506,271,182686,2,0,P|492:299|456:332,1,80,4|0,1:2|1:0,1:1:0:0:
234,141,182864,5,4,1:0:0:0:
212,129,182953,1,0,0:0:0:0:
188,126,183041,1,0,0:0:0:0:
164,131,183130,1,0,0:0:0:0:
142,142,183219,21,10,1:2:0:0:
103,170,183308,1,0,0:0:0:0:
55,169,183396,1,0,0:0:0:0:
15,141,183485,1,0,0:0:0:0:
81,92,183574,5,2,1:2:0:0:
80,152,183663,1,0,0:0:0:0:
78,211,183751,1,0,0:0:0:0:
77,271,183840,1,0,0:0:0:0:
51,361,183929,5,10,1:2:0:0:
111,357,184018,1,0,0:0:0:0:
170,354,184106,1,0,0:0:0:0:
230,350,184195,1,0,0:0:0:0:
290,347,184284,37,2,1:2:0:0:
246,281,184373,1,0,0:0:0:0:
246,203,184461,1,0,0:0:0:0:
290,138,184550,1,0,0:0:0:0:
363,110,184639,1,8,1:2:0:0:
438,130,184728,1,0,0:0:0:0:
489,188,184816,1,0,0:0:0:0:
498,265,184905,1,0,0:0:0:0:
463,335,184994,6,0,B|433:344|433:344|398:337,3,60.0000022888184,2|0|0|0,1:2|0:0|0:0|0:0,0:0:0:0:
341,168,185349,2,0,B|363:189|363:189|375:223,3,60.0000022888184,10|0|0|0,1:2|0:0|0:0|0:0,0:0:0:0:
251,358,185704,5,2,1:2:0:0:
227,355,185793,1,0,0:0:0:0:
203,352,185882,1,0,0:0:0:0:
179,349,185970,1,0,0:0:0:0:
155,346,186059,1,8,1:2:0:0:
131,343,186148,1,0,0:0:0:0:
106,342,186237,1,0,0:0:0:0:
82,339,186325,1,0,0:0:0:0:
57,337,186414,5,2,1:2:0:0:
28,298,186503,1,0,0:0:0:0:
27,249,186592,1,0,0:0:0:0:
56,211,186680,1,0,0:0:0:0:
100,169,186769,5,10,1:2:0:0:
110,147,186858,1,0,0:0:0:0:
113,123,186947,1,0,0:0:0:0:
107,99,187035,1,0,0:0:0:0:
83,58,187124,5,2,1:2:0:0:
113,77,187213,1,0,0:0:0:0:
149,79,187302,1,0,0:0:0:0:
184,74,187390,1,0,0:0:0:0:
216,57,187479,1,8,1:2:0:0:
248,41,187568,1,0,0:0:0:0:
283,36,187657,1,0,0:0:0:0:
317,44,187745,1,0,0:0:0:0:
348,62,187834,6,0,L|346:109,5,40.000001525879,2|0|0|0|0|0,1:2|3:0|3:0|3:0|3:0|3:0,0:0:0:0:
261,162,188189,6,0,P|249:145|242:124,2,40.000001525879,8|0|0,1:2|3:0|3:0,0:0:0:0:
425,169,188367,2,0,P|438:153|446:133,2,40.000001525879,0|0|0,1:0|3:0|3:0,0:0:0:0:
339,253,188544,69,6,1:2:0:0:
328,259,188633,1,0,0:0:0:0:
306,269,188722,1,0,0:0:0:0:
271,277,188811,1,0,0:0:0:0:
223,272,188899,1,8,1:2:0:0:
174,237,188988,1,0,0:0:0:0:
148,169,189077,1,0,0:0:0:0:
176,89,189166,53,2,0:0:0:0:
280,147,189254,2,0,P|238:191|178:209,1,120.000004577637,2|0,1:2|0:0,0:0:0:0:
183,208,189521,5,2,0:2:0:0:
57,32,189609,2,0,P|123:40|176:90,1,140.000001335144,10|0,1:2|0:0,0:0:0:0:
84,274,189876,1,0,0:0:0:0:
84,274,189964,5,6,1:2:0:0:
94,283,190053,1,0,0:0:0:0:
120,293,190142,1,0,0:0:0:0:
161,299,190231,1,0,0:0:0:0:
213,280,190319,1,8,1:2:0:0:
262,230,190408,1,0,0:0:0:0:
345,218,190497,1,0,0:0:0:0:
429,268,190586,85,2,0:0:0:0:
289,354,190674,2,0,B|257:290|257:290|281:223,1,140.000001335144,2|0,1:2|1:0,0:0:0:0:
280,225,190941,5,2,0:2:0:0:
492,226,191029,2,0,B|469:256|469:256|427:267,1,80,10|0,1:2|0:0,0:0:0:0:
322,82,191207,2,0,B|359:86|359:86|390:117,1,80,0|0,1:0|0:0,0:0:0:0:
259,249,191385,86,0,B|162:270|189:218|95:231,1,160,6|0,1:2|0:0,0:0:0:0:
103,229,191651,1,2,1:2:0:0:
55,359,191740,2,0,P|93:348|125:324,1,80,10|0,1:2|0:0,0:0:0:0:
85,55,191917,2,0,P|74:93|79:132,1,80,0|0,1:0|0:0,0:0:0:0:
427,348,192095,6,0,B|444:230|444:230|425:194,1,160,6|0,1:2|0:0,0:0:0:0:
425,194,192361,1,2,1:2:0:0:
259,249,192450,2,0,L|350:245,1,80,10|0,1:2|0:0,0:0:0:0:
452,0,192627,2,0,L|361:4,1,80,2|0,1:3|1:2,0:0:0:0:
107,349,192805,6,0,B|93:311|93:311|101:273,1,80,4|0,1:2|0:0,0:0:0:0:
258,30,192982,2,0,B|272:68|272:68|264:106,1,80,0|0,1:0|0:0,0:0:0:0:
2,203,193160,2,0,B|27:171|27:171|64:159,1,80,12|0,1:2|0:0,0:0:0:0:
357,183,193337,2,0,B|331:214|331:214|294:226,1,80,0|0,1:0|0:0,0:0:0:0:
47,6,193515,85,4,1:2:0:0:
47,6,193603,2,0,B|44:61|44:61|68:103|68:103|64:177,1,160,2|0,1:2|1:0,0:0:0:0:
64,159,193870,1,6,1:2:0:0:
465,6,194047,2,0,L|469:94,1,80,0|2,1:0|1:2,0:0:0:0:
477,287,194225,5,4,1:0:0:0:
430,300,194314,1,0,0:0:0:0:
382,294,194402,1,0,0:0:0:0:
337,275,194491,1,0,0:0:0:0:
290,264,194580,1,2,0:2:0:0:
243,276,194669,1,0,0:0:0:0:
168,326,194757,5,4,1:0:0:0:
205,355,194846,1,0,0:0:0:0:
252,364,194935,1,0,0:0:0:0:
297,348,195024,1,0,0:0:0:0:
326,310,195112,1,2,0:2:0:0:
330,262,195201,1,0,0:0:0:0:
274,191,195290,101,4,1:0:0:0:
244,152,195379,1,0,0:0:0:0:
238,104,195467,1,0,0:0:0:0:
259,60,195556,1,0,0:0:0:0:
300,35,195645,1,2,0:0:0:0:
348,36,195734,1,0,0:0:0:0:
327,120,195822,5,4,1:0:0:0:
290,151,195911,1,0,0:0:0:0:
243,162,196000,1,0,0:0:0:0:
196,149,196089,1,0,0:0:0:0:
164,113,196177,1,0,0:0:0:0:
132,77,196266,1,0,0:0:0:0:
85,64,196355,1,0,0:0:0:0:
38,75,196444,1,0,0:0:0:0:
1,106,196532,2,0,L|4:154,1,40,2|0,1:2|0:0,0:0:0:0:
8,266,196710,5,0,1:0:0:0:
9,285,196799,1,0,0:0:0:0:
10,300,196887,1,2,0:0:0:0:
11,315,196976,1,0,0:0:0:0:
16,372,197065,85,4,1:0:0:0:
64,370,197154,1,0,0:0:0:0:
111,366,197242,1,0,0:0:0:0:
159,363,197331,1,0,0:0:0:0:
206,359,197420,1,2,0:2:0:0:
254,355,197509,1,0,0:0:0:0:
340,383,197598,5,4,1:0:0:0:
348,336,197686,1,0,0:0:0:0:
333,290,197775,1,0,0:0:0:0:
348,244,197864,1,0,0:0:0:0:
334,197,197953,1,2,0:2:0:0:
346,151,198041,1,0,0:0:0:0:
428,199,198130,101,4,1:0:0:0:
393,232,198219,1,0,0:0:0:0:
346,243,198308,1,0,0:0:0:0:
300,228,198396,1,0,0:0:0:0:
267,192,198485,1,2,0:2:0:0:
262,144,198574,1,0,0:0:0:0:
346,151,198663,101,4,1:0:0:0:
332,196,198751,1,0,0:0:0:0:
296,228,198840,1,0,0:0:0:0:
248,234,198929,1,0,0:0:0:0:
202,219,199018,1,2,0:2:0:0:
173,180,199106,1,0,0:0:0:0:
170,131,199195,54,0,P|189:128|211:130,1,40,0|0,1:0|0:0,0:0:0:0:
300,46,199373,2,0,P|312:60|321:81,1,40,0|0,1:0|0:0,0:0:0:0:
432,126,199550,2,0,P|425:143|412:162,1,40,0|0,1:0|0:0,0:0:0:0:
435,281,199728,2,0,P|416:284|394:282,1,40,0|0,1:0|0:0,0:0:0:0:
209,129,199905,69,4,1:0:0:0:
178,91,199994,1,0,0:0:0:0:
133,71,200083,1,0,0:0:0:0:
85,74,200171,1,0,0:0:0:0:
47,103,200260,1,2,0:2:0:0:
27,147,200349,1,0,0:0:0:0:
6,231,200438,5,4,1:0:0:0:
51,245,200527,1,0,0:0:0:0:
97,235,200615,1,0,0:0:0:0:
137,209,200704,1,0,0:0:0:0:
184,204,200793,1,2,0:2:0:0:
228,223,200882,1,0,0:0:0:0:
282,293,200970,101,4,1:0:0:0:
323,317,201059,1,0,0:0:0:0:
371,317,201148,1,0,0:0:0:0:
413,295,201237,1,0,0:0:0:0:
437,254,201325,1,2,0:2:0:0:
442,206,201414,1,0,0:0:0:0:
386,136,201503,5,4,1:0:0:0:
344,111,201592,1,0,0:0:0:0:
296,105,201680,1,0,0:0:0:0:
250,121,201769,1,0,0:0:0:0:
215,155,201858,1,0,0:2:0:0:
184,192,201947,1,0,0:0:0:0:
138,204,202035,1,0,0:0:0:0:
90,199,202124,1,0,0:0:0:0:
54,166,202213,2,0,P|50:147|52:120,1,40,2|0,1:2|0:0,0:0:0:0:
89,2,202390,5,0,1:0:0:0:
108,4,202479,1,0,0:0:0:0:
127,5,202568,1,2,0:2:0:0:
146,6,202657,1,0,0:0:0:0:
205,11,202745,85,4,1:0:0:0:
223,55,202834,1,0,0:0:0:0:
217,102,202923,1,0,0:0:0:0:
194,144,203012,1,0,0:0:0:0:
185,190,203100,1,2,0:2:0:0:
202,234,203189,1,0,0:0:0:0:
266,300,203278,5,4,1:0:0:0:
304,270,203367,1,0,0:0:0:0:
351,262,203456,1,0,0:0:0:0:
396,277,203544,1,0,0:0:0:0:
427,313,203633,1,2,0:2:0:0:
436,360,203722,1,0,0:0:0:0:
344,358,203811,53,4,1:0:0:0:
348,310,203899,1,0,0:0:0:0:
351,262,203988,1,0,0:0:0:0:
354,214,204077,1,0,0:0:0:0:
358,166,204166,1,2,0:2:0:0:
361,118,204254,1,0,0:0:0:0:
435,199,204343,37,4,1:0:0:0:
394,224,204432,1,0,0:0:0:0:
346,232,204521,1,0,0:0:0:0:
301,215,204609,1,0,0:0:0:0:
266,181,204698,2,0,L|269:124,1,40,2|0,1:2|0:0,0:0:0:0:
279,17,204876,6,0,L|274:142,1,120.000004577637,0|2,1:0|0:0,0:0:0:0:
174,204,205142,2,0,L|169:79,1,120.000004577637,0|0,1:0|0:0,0:0:0:0:
69,17,205408,2,0,L|66:84,1,60.0000022888184,0|0,1:0|0:0,0:0:0:0:
58,255,205586,5,4,1:0:0:0:
59,258,205674,1,0,0:0:0:0:
60,261,205763,1,0,0:0:0:0:
61,264,205852,1,0,0:0:0:0:
61,267,205941,1,0,0:0:0:0:
62,270,206029,1,0,0:0:0:0:
63,273,206118,1,0,0:0:0:0:
64,276,206207,1,0,0:0:0:0:
64,279,206296,5,2,0:0:0:0:
63,282,206385,1,0,0:0:0:0:
62,285,206473,1,0,0:0:0:0:
61,288,206562,1,0,0:0:0:0:
60,291,206651,1,0,0:0:0:0:
59,294,206740,1,0,0:0:0:0:
58,297,206828,1,0,0:0:0:0:
57,300,206917,1,0,0:0:0:0:
56,303,207006,5,2,0:0:0:0:
70,310,207095,1,0,0:0:0:0:
85,312,207183,1,0,0:0:0:0:
100,309,207272,1,0,0:0:0:0:
115,303,207361,1,0,0:0:0:0:
130,299,207450,1,0,0:0:0:0:
145,297,207538,1,0,0:0:0:0:
160,300,207627,1,2,0:0:0:0:
174,306,207716,5,2,0:0:0:0:
207,292,207805,1,2,0:0:0:0:
228,263,207893,1,0,0:0:0:0:
235,227,207982,1,0,0:0:0:0:
227,191,208071,1,2,0:0:0:0:
202,164,208160,1,0,0:0:0:0:
168,150,208248,1,0,0:0:0:0:
132,153,208337,1,0,0:0:0:0:
102,173,208426,5,0,0:0:0:0:
112,185,208515,1,0,0:0:0:0:
123,195,208603,1,0,0:0:0:0:
137,201,208692,1,0,0:0:0:0:
151,206,208781,1,2,0:0:0:0:
167,206,208870,1,2,0:0:0:0:
182,205,208958,1,0,0:0:0:0:
197,201,209047,1,0,0:0:0:0:
210,192,209136,1,0,0:0:0:0:
222,182,209225,1,0,0:0:0:0:
232,169,209314,1,0,0:0:0:0:
237,154,209402,1,0,0:0:0:0:
238,138,209491,1,2,0:0:0:0:
236,122,209580,1,0,0:0:0:0:
231,106,209669,1,0,0:0:0:0:
223,92,209757,1,0,0:0:0:0:
210,81,209846,5,2,0:0:0:0:
232,90,209935,1,0,0:0:0:0:
255,94,210024,1,2,0:0:0:0:
278,92,210112,1,0,0:0:0:0:
300,83,210201,1,2,0:0:0:0:
319,69,210290,1,0,0:0:0:0:
342,64,210379,1,2,0:0:0:0:
365,64,210467,1,2,0:0:0:0:
387,72,210556,102,0,L|429:74,3,40,2|0|0|0,0:0|0:0|0:0|0:0,0:0:0:0:
405,152,210911,2,0,L|444:153,3,40,2|0|0|0,0:0|0:0|0:0|0:0,0:0:0:0:
424,233,211266,53,2,0:0:0:0:
423,249,211355,1,0,0:0:0:0:
422,265,211444,1,0,0:0:0:0:
411,276,211532,1,0,0:0:0:0:
399,287,211621,5,2,3:0:0:0:
398,303,211710,1,0,0:0:0:0:
398,319,211799,1,0,0:0:0:0:
397,334,211887,1,0,0:0:0:0:
396,350,211976,1,2,0:0:0:0:
385,361,212065,1,0,0:0:0:0:
373,372,212154,5,0,0:0:0:0:
357,371,212242,1,0,0:0:0:0:
340,370,212331,1,2,3:0:0:0:
323,368,212420,1,0,0:0:0:0:
306,366,212509,1,0,0:0:0:0:
291,372,212598,1,0,0:0:0:0:
276,378,212686,5,2,0:0:0:0:
259,377,212775,1,0,0:0:0:0:
242,375,212864,1,0,0:0:0:0:
225,374,212953,1,0,0:0:0:0:
209,373,213041,1,2,3:0:0:0:
192,372,213130,1,0,0:0:0:0:
175,371,213219,1,0,0:0:0:0:
159,369,213308,1,0,0:0:0:0:
143,368,213396,5,2,0:0:0:0:
169,337,213485,1,0,0:0:0:0:
174,297,213574,1,0,0:0:0:0:
159,259,213663,1,2,0:0:0:0:
128,233,213751,1,2,3:0:0:0:
88,228,213840,1,0,0:0:0:0:
49,240,213929,1,0,0:0:0:0:
24,271,214018,1,0,0:0:0:0:
17,310,214106,69,2,0:0:0:0:
55,298,214195,1,0,0:0:0:0:
81,267,214284,1,0,0:0:0:0:
88,228,214373,1,2,0:0:0:0:
74,190,214461,5,2,3:0:0:0:
75,182,214550,1,0,0:0:0:0:
76,174,214639,1,0,0:0:0:0:
77,166,214728,1,0,0:0:0:0:
78,158,214816,5,2,0:0:0:0:
78,141,214905,1,0,0:0:0:0:
77,124,214994,1,0,0:0:0:0:
76,107,215083,1,0,0:0:0:0:
75,91,215171,1,0,3:0:0:0:
74,74,215260,1,0,0:0:0:0:
72,57,215349,1,0,0:0:0:0:
71,40,215438,1,0,0:0:0:0:
70,23,215527,5,2,0:0:0:0:
57,32,215615,1,0,3:0:0:0:
49,50,215704,1,0,3:0:0:0:
44,73,215793,1,0,3:0:0:0:
50,100,215882,1,0,3:0:0:0:
63,128,215970,1,0,3:0:0:0:
92,148,216059,1,0,3:0:0:0:
131,156,216148,1,0,3:0:0:0:
172,140,216237,1,0,3:0:0:0:
201,102,216325,1,0,3:0:0:0:
247,78,216414,1,0,3:0:0:0:
303,81,216503,1,0,3:0:0:0:
355,111,216592,1,0,3:0:0:0:
383,167,216680,1,0,3:0:0:0:
374,234,216769,1,0,3:0:0:0:
324,286,216858,1,0,3:0:0:0:
244,297,216947,21,0,1:0:0:0:
245,289,217035,1,0,0:0:0:0:
246,281,217124,37,0,0:0:0:0:
197,279,217213,1,0,0:0:0:0:
148,277,217302,1,0,1:0:0:0:
100,274,217390,1,0,0:0:0:0:
51,271,217480,69,2,0:0:0:0:
52,263,217568,1,0,0:0:0:0:
53,255,217656,53,0,1:0:0:0:
102,253,217745,1,0,0:0:0:0:
151,251,217834,1,0,0:0:0:0:
199,248,217922,1,0,0:0:0:0:
248,245,218012,53,2,1:2:0:0:
249,237,218100,1,0,0:0:0:0:
250,229,218189,69,0,0:0:0:0:
201,227,218278,1,0,0:0:0:0:
152,225,218367,1,0,1:0:0:0:
104,222,218455,1,0,0:0:0:0:
55,219,218545,37,2,0:0:0:0:
56,211,218633,1,0,0:0:0:0:
57,203,218721,85,0,1:0:0:0:
106,201,218810,1,0,0:0:0:0:
155,199,218899,1,0,0:0:0:0:
203,196,218987,1,0,0:0:0:0:
252,193,219077,5,2,1:2:0:0:
218,138,219166,1,2,0:0:0:0:
234,76,219254,1,0,0:0:0:0:
290,45,219343,1,0,0:0:0:0:
349,67,219432,21,2,1:2:0:0:
325,117,219521,1,0,0:0:0:0:
275,143,219609,1,0,0:0:0:0:
218,138,219698,1,0,0:0:0:0:
174,102,219787,101,2,1:2:0:0:
173,94,219876,1,0,0:0:0:0:
172,86,219964,37,0,0:0:0:0:
140,90,220053,1,0,0:0:0:0:
108,93,220142,1,0,1:0:0:0:
76,96,220231,1,0,0:0:0:0:
44,98,220319,69,2,0:0:0:0:
45,105,220408,1,0,0:0:0:0:
46,112,220497,53,0,1:0:0:0:
78,116,220586,1,0,0:0:0:0:
110,119,220675,1,0,0:0:0:0:
142,122,220764,1,0,0:0:0:0:
174,124,220851,53,2,1:2:0:0:
175,131,220940,1,0,0:0:0:0:
176,138,221029,69,0,0:0:0:0:
144,142,221118,1,0,0:0:0:0:
112,145,221207,1,0,1:0:0:0:
80,148,221296,1,0,0:0:0:0:
48,150,221385,37,2,0:0:0:0:
49,157,221474,1,0,0:0:0:0:
50,164,221563,85,2,1:2:0:0:
82,166,221651,1,0,0:0:0:0:
114,169,221740,1,0,0:0:0:0:
146,172,221828,1,0,0:0:0:0:
178,176,221917,37,0,1:0:0:0:
182,215,222006,1,0,0:0:0:0:
185,254,222095,1,0,0:0:0:0:
187,293,222183,1,0,0:0:0:0:
188,333,222272,85,0,1:0:0:0:
194,277,222361,1,0,0:0:0:0:
199,221,222450,1,2,0:2:0:0:
203,165,222538,1,0,0:0:0:0:
207,109,222627,6,0,L|210:162,1,50,4|0,1:1|0:0,0:0:0:0:
304,194,222805,2,0,L|307:141,1,50,0|0,1:0|0:0,0:0:0:0:
213,104,222982,2,0,L|216:157,1,50,0|0,1:0|0:0,0:0:0:0:
310,189,223160,2,0,L|313:136,1,50,0|0,1:0|0:0,0:0:0:0:
118,68,223337,6,0,L|115:121,1,50,0|0,1:0|0:0,0:0:0:0:
215,153,223515,2,0,L|212:100,1,50,0|0,1:0|0:0,0:0:0:0:
125,64,223692,2,0,L|122:117,1,50,0|0,1:0|0:0,0:0:0:0:
222,149,223870,2,0,L|219:96,1,50,0|0,1:0|0:0,0:0:0:0:
51,270,224047,54,0,B|81:279|81:279|108:273,1,60.0000022888184,4|0,1:0|0:0,0:0:0:0:
326,146,224225,2,0,B|296:136|296:136|268:142,1,60.0000022888184,0|0,1:0|0:0,0:0:0:0:
173,359,224402,2,0,B|195:337|195:337|205:310,1,60.0000022888184,0|0,1:0|0:0,0:0:0:0:
204,58,224580,2,0,B|181:79|181:79|171:106,1,60.0000022888184,0|0,1:0|0:0,0:0:0:0:
51,278,224757,6,0,B|81:287|81:287|108:281,1,60.0000022888184,0|0,1:0|0:0,0:0:0:0:
198,53,224935,2,0,B|175:74|175:74|165:101,1,60.0000022888184,0|0,1:0|0:0,0:0:0:0:
178,364,225112,2,0,B|200:342|200:342|210:315,1,60.0000022888184,0|0,1:0|0:0,0:0:0:0:
62,126,225290,2,0,B|69:156|69:156|87:178,1,60.0000022888184,0|0,1:0|0:0,0:0:0:0:
303,304,225467,5,4,1:0:0:0:
391,342,225556,1,0,1:0:0:0:
473,306,225645,1,0,1:0:0:0:
499,226,225734,1,0,1:0:0:0:
471,153,225822,1,0,1:0:0:0:
407,119,225911,1,0,1:0:0:0:
341,127,226000,1,0,1:0:0:0:
294,165,226089,1,0,1:0:0:0:
279,216,226177,5,2,1:2:0:0:
246,251,226266,1,0,1:0:0:0:
199,261,226355,1,0,1:0:0:0:
151,253,226444,1,0,1:0:0:0:
116,220,226532,1,0,1:0:0:0:
102,173,226621,1,0,1:0:0:0:
111,125,226710,1,0,1:0:0:0:
143,89,226799,1,0,1:0:0:0:
198,167,226887,22,0,L|195:241,1,75.000002861023,0|0,1:0|0:0,0:0:0:0:
189,248,227154,2,0,L|193:329,1,75.000002861023
188,330,227420,2,0,L|187:349,1,15.0000005722046,0|2,0:0|0:0,0:0:0:0:
94,95,227598,6,0,B|162:100|145:69|210:74,1,120,0|0,1:0|0:0,0:0:0:0:
334,9,228308,6,0,L|330:159,1,140.000001335144,4|0,1:2|0:0,0:0:0:0:
234,250,228574,1,0,0:0:0:0:
234,250,228663,1,8,1:2:0:0:
283,255,228751,1,0,0:0:0:0:
329,273,228840,1,2,0:0:0:0:
376,258,228929,1,0,0:0:0:0:
425,254,229018,6,0,P|476:307|487:373,1,140.000001335144,0|0,1:0|0:0,0:0:0:0:
330,148,229284,1,0,0:0:0:0:
330,148,229373,1,8,1:2:0:0:
281,146,229461,1,0,0:0:0:0:
231,144,229550,1,2,0:0:0:0:
181,142,229639,1,0,0:0:0:0:
131,141,229728,6,0,P|79:194|68:260,1,140.000001335144,0|0,1:0|0:0,0:0:0:0:
232,43,229994,1,0,0:0:0:0:
232,43,230083,1,8,1:2:0:0:
272,16,230171,1,0,0:0:0:0:
320,8,230260,1,2,0:0:0:0:
367,21,230349,1,0,0:0:0:0:
405,50,230438,5,0,1:0:0:0:
403,63,230527,1,2,0:0:0:0:
439,104,230615,5,0,0:0:0:0:
441,117,230704,1,2,0:0:0:0:
392,144,230793,5,8,1:2:0:0:
390,157,230882,1,2,0:0:0:0:
426,198,230970,85,0,0:0:0:0:
428,211,231059,1,2,0:0:0:0:
406,262,231148,70,0,L|256:258,1,140.000001335144,0|0,1:2|0:0,0:0:0:0:
16,328,231414,1,0,0:0:0:0:
20,324,231503,1,8,1:2:0:0:
83,350,231592,1,0,0:0:0:0:
150,336,231680,1,2,0:0:0:0:
199,286,231769,1,2,0:0:0:0:
203,216,231858,6,0,P|151:269|140:335,1,140.000001335144,0|0,1:2|0:0,0:0:0:0:
324,228,232124,1,0,0:0:0:0:
319,225,232213,1,8,1:2:0:0:
309,157,232302,1,0,0:0:0:0:
264,107,232390,1,2,0:0:0:0:
196,89,232479,1,2,0:0:0:0:
134,120,232568,6,0,P|205:138|268:115,1,140.000001335144,0|0,1:2|0:0,0:0:0:0:
412,19,232834,1,0,0:0:0:0:
419,12,232923,1,8,1:2:0:0:
405,80,233012,1,0,0:0:0:0:
425,146,233100,1,2,0:0:0:0:
403,212,233189,1,2,0:0:0:0:
413,281,233278,21,0,1:0:0:0:
470,241,233367,1,0,1:0:0:0:
464,171,233456,1,0,1:0:0:0:
398,146,233544,1,0,1:0:0:0:
339,184,233633,1,8,1:2:0:0:
189,379,233811,53,0,1:0:0:0:
189,379,233899,1,0,1:0:0:0:
189,379,233988,2,0,B|132:377|132:377|110:364|110:364|48:361,1,140.000001335144,4|0,1:2|0:0,0:0:0:0:
59,124,234254,1,2,0:0:0:0:
59,124,234343,1,8,1:2:0:0:
132,104,234432,1,0,0:0:0:0:
196,146,234521,1,2,0:0:0:0:
211,221,234609,1,0,0:0:0:0:
166,284,234698,6,0,B|223:286|223:286|245:299|245:299|307:302,1,140.000001335144,0|0,1:2|0:0,0:0:0:0:
481,185,234964,1,2,0:0:0:0:
481,185,235053,1,8,1:2:0:0:
408,205,235142,1,0,0:0:0:0:
344,163,235231,1,2,0:0:0:0:
329,88,235319,1,0,0:0:0:0:
374,25,235408,6,0,B|413:45|425:64|425:64|432:67|432:67|433:73|433:73|446:91|447:133,1,140.000001335144,0|0,1:2|0:0,0:0:0:0:
441,342,235674,1,2,0:0:0:0:
441,342,235763,1,8,1:2:0:0:
363,339,235852,1,0,0:0:0:0:
285,337,235941,1,2,0:0:0:0:
208,334,236029,1,0,0:0:0:0:
130,329,236118,6,0,L|134:257,1,70.000000667572,0|0,1:0|0:0,0:0:0:0:
3,204,236296,2,0,L|-1:276,1,70.000000667572,2|0,0:0|0:0,0:0:0:0:
136,339,236473,2,0,L|140:267,1,70.000000667572,8|0,1:2|0:0,0:0:0:0:
9,214,236651,2,0,L|5:286,1,70.000000667572,2|0,0:0|0:0,0:0:0:0:
143,348,236828,70,0,B|200:346|200:346|222:333|222:333|279:330,1,140.000001335144,0|0,1:0|0:0,0:0:0:0:
428,171,237095,1,2,0:0:0:0:
428,171,237183,1,8,1:2:0:0:
381,109,237272,1,0,0:0:0:0:
303,107,237361,1,2,0:0:0:0:
248,161,237450,1,2,0:0:0:0:
251,237,237538,6,0,B|309:240|309:240|331:253|331:253|388:255,1,140.000001335144,0|0,1:0|0:0,0:0:0:0:
457,257,237805,1,2,0:0:0:0:
457,257,237893,2,0,L|379:254,1,70.000000667572,8|0,1:2|0:0,0:0:0:0:
143,348,238071,5,0,1:0:0:0:
143,348,238160,1,0,1:0:0:0:
143,348,238248,2,0,P|115:291|133:220,1,140.000001335144,4|0,1:2|0:0,0:0:0:0:
211,281,238515,1,0,0:0:0:0:
136,350,238603,2,0,P|110:294|126:220,1,140.000001335144,12|0,1:2|0:0,0:0:0:0:
188,91,238870,1,0,0:0:0:0:
188,91,238958,6,0,L|257:94,1,70.000000667572,4|0,1:2|0:0,0:0:0:0:
402,102,239136,2,0,L|471:105,1,70.000000667572,2|0,1:2|0:0,0:0:0:0:
488,117,239314,6,0,B|450:115|450:115|444:110|444:110|409:109,1,80,12|0,1:2|0:0,0:0:0:0:
276,102,239491,2,0,B|240:101|240:101|231:104|231:104|197:102,1,80,2|0,1:2|0:0,0:0:0:0:
52,8,239669,6,0,L|60:171,1,160,4|0,1:2|0:0,0:0:0:0:
69,328,239935,1,0,0:0:0:0:
69,328,240024,1,8,1:2:0:0:
126,382,240112,1,0,0:0:0:0:
203,361,240201,1,2,0:0:0:0:
222,283,240290,1,0,0:0:0:0:
163,228,240379,1,0,1:0:0:0:
134,376,240556,21,0,0:0:0:0:
134,376,240645,1,0,0:0:0:0:
134,376,240734,1,8,1:2:0:0:
211,355,240823,1,0,0:0:0:0:
230,277,240912,1,2,0:0:0:0:
171,222,241001,1,0,0:0:0:0:
95,244,241089,1,0,1:0:0:0:
219,351,241266,5,0,0:0:0:0:
219,351,241355,1,0,0:0:0:0:
219,351,241444,1,8,1:2:0:0:
298,348,241532,1,0,0:0:0:0:
378,344,241621,1,2,0:0:0:0:
376,265,241710,1,0,0:0:0:0:
372,186,241799,5,0,1:0:0:0:
371,178,241887,1,0,0:0:0:0:
325,132,241976,5,2,0:0:0:0:
326,124,242064,1,0,0:0:0:0:
377,84,242154,5,8,1:2:0:0:
376,76,242242,1,0,0:0:0:0:
330,30,242331,5,2,0:0:0:0:
331,22,242419,1,0,0:0:0:0:
333,13,242509,37,0,1:0:0:0:
326,232,242686,2,0,L|322:311,1,80,0|0,0:0|0:0,0:0:0:0:
171,361,242864,54,0,L|168:308,2,53.3333333333333,8|0|0,1:2|0:0|0:0,0:0:0:0:
322,178,243041,2,0,L|325:231,2,53.3333333333333,2|2|0,0:2|0:0|0:0,0:0:0:0:
68,330,243219,70,0,B|73:259|73:259|69:251|69:251|74:171,1,160,0|0,1:2|0:0,0:0:0:0:
82,12,243485,1,0,0:0:0:0:
0,95,243574,38,0,L|53:92,2,53.3333333333333,8|0|0,1:2|0:0|0:0,0:0:0:0:
217,81,243751,2,0,L|270:78,2,53.3333333333333,2|2|0,0:2|0:0|0:0,0:0:0:0:
363,0,243929,86,0,B|324:36|324:36|316:160,1,160,0|0,1:2|0:0,0:0:0:0:
307,309,244195,1,0,0:0:0:0:
227,221,244284,22,0,L|151:217,2,53.3333333333333,8|0|0,1:2|0:0|0:0,0:0:0:0:
396,233,244461,2,0,L|471:236,2,53.3333333333333,2|2|0,0:2|0:0|0:0,0:0:0:0:
178,121,244639,5,4,1:2:0:0:
178,121,244728,2,0,L|132:124,2,40,0|0|0,1:0|1:0|1:0,1:1:0:0:
152,39,244905,1,0,1:0:0:0:
14,227,244994,6,0,L|184:217,1,160,12|0,1:2|1:0,0:0:0:0:
252,214,245260,1,0,1:0:0:0:
101,360,245349,38,0,L|260:369,1,160,4|0,1:2|0:0,0:0:0:0:
462,377,245615,1,0,0:0:0:0:
462,377,245704,1,8,1:2:0:0:
384,375,245793,1,0,0:0:0:0:
347,303,245882,1,2,0:0:0:0:
383,232,245970,1,0,0:0:0:0:
463,235,246059,1,0,1:0:0:0:
432,38,246237,5,0,3:0:0:0:
432,38,246325,1,0,3:0:0:0:
432,38,246414,2,0,L|429:127,1,80,10|0,1:2|0:0,0:0:0:0:
421,384,246592,2,0,L|423:304,1,80,2|0,1:2|0:0,0:0:0:0:
512,154,246769,6,0,B|395:146|395:146|357:175,1,160,4|0,1:2|0:0,0:0:0:0:
218,315,247035,1,0,0:0:0:0:
210,316,247124,2,0,B|93:324|93:324|55:295,1,160,8|0,1:2|0:0,0:0:0:0:
0,105,247390,1,0,3:0:0:0:
0,105,247479,6,0,P|33:95|78:100,1,80,2|0,1:2|0:0,0:0:0:0:
120,224,247657,2,0,P|158:234|197:229,1,80,2|0,1:2|0:0,0:0:0:0:
242,12,247834,2,0,P|275:2|320:7,1,80,2|0,1:2|0:0,0:0:0:0:
403,301,248012,2,0,P|436:311|481:306,1,80,0|0,1:0|1:0,0:0:0:0:
512,88,248189,5,4,1:2:0:0:
445,43,248278,1,0,1:0:0:0:
365,34,248367,1,0,1:0:0:0:
293,70,248456,1,0,1:0:0:0:
250,136,248544,1,2,1:2:0:0:
250,216,248633,1,0,1:0:0:0:
291,284,248722,1,0,1:0:0:0:
364,315,248811,1,0,1:0:0:0:
443,314,248899,5,4,1:2:0:0:
454,234,248988,1,0,1:0:0:0:
419,161,249077,1,0,1:0:0:0:
351,117,249166,1,0,1:0:0:0:
271,112,249254,1,2,1:2:0:0:
203,155,249343,1,0,1:0:0:0:
166,226,249432,1,0,1:0:0:0:
168,306,249521,1,0,1:0:0:0:
216,368,249609,38,0,P|265:313|286:231,1,160,12|8,1:2|0:0,0:0:0:0:
33,39,249964,5,0,1:0:0:0:
33,39,250053,1,8,1:2:0:0:
33,39,250142,2,0,L|30:0,2,40,8|8|8,1:2|0:0|0:2,0:0:0:0:
119,83,250319,38,0,L|123:4,2,80,12|0|0,1:2|1:0|1:0,0:0:0:0:
107,251,250586,1,12,1:2:0:0:
479,39,250763,5,0,1:0:0:0:
389,4,250852,2,0,L|393:83,1,80,12|0,1:2|0:0,0:0:0:0:
405,242,251029,5,2,0:0:0:0:
406,257,251118,1,2,0:0:0:0:
407,272,251207,1,2,0:0:0:0:
408,287,251296,1,2,0:0:0:0:
393,290,251384,5,2,0:0:0:0:
392,305,251473,1,2,0:0:0:0:
391,320,251562,1,2,0:0:0:0:
390,335,251651,1,2,0:0:0:0:
418,339,251740,54,0,L|421:380,1,40,2|0,0:0|0:0,0:0:0:0:
488,162,252450,54,0,B|368:190|402:103|276:135,1,220,4|0,0:1|0:0,0:0:0:0:
277,135,253515,1,2,0:0:0:0:
144,169,253692,1,2,0:0:0:0:
11,203,253870,6,0,P|90:257|99:358,1,200,2|0,0:0|0:0,0:0:0:0:
100,354,254846,1,2,0:0:0:0:
235,384,255112,1,2,0:0:0:0:
235,384,255290,2,0,P|253:352|302:324,1,80,2|0,0:0|0:0,0:0:0:0:
369,305,255822,5,0,0:0:0:0:
369,305,255911,1,2,0:0:0:0:
369,305,256000,5,2,0:0:0:0:
371,285,256089,1,2,0:0:0:0:
373,265,256177,1,2,0:0:0:0:
375,245,256266,1,2,0:0:0:0:
361,225,256355,5,2,0:0:0:0:
362,211,256444,1,2,0:0:0:0:
363,197,256532,1,2,0:0:0:0:
364,183,256621,1,2,0:0:0:0:
365,169,256710,5,2,0:0:0:0:
315,241,257065,5,2,0:0:0:0:
199,231,257420,5,2,0:0:0:0:
144,115,257775,5,2,0:0:0:0:
224,0,258130,5,2,0:0:0:0:
443,315,258663,5,2,0:0:0:0:
443,315,258752,1,2,0:0:0:0:
443,315,258840,2,0,B|351:296|379:351|275:332,1,160,2|0,0:0|0:0,0:0:0:0:
287,334,259905,5,2,0:0:0:0:
146,328,260260,5,2,0:0:0:0:
69,183,260615,5,2,0:0:0:0:
170,21,260970,6,0,L|211:23,3,40,2|0|0|0,0:0|0:0|0:0|0:0,0:0:0:0:
265,138,261680,2,0,L|246:101,2,40,0|0|0,0:0|0:0|0:0,0:0:0:0:
317,0,262213,1,2,0:0:0:0:
317,0,262390,2,0,L|294:34,3,40,2|0|0|0,0:0|0:0|0:0|0:0,0:0:0:0:
161,100,263100,6,0,L|76:105,1,80,2|0,0:0|0:0,0:0:0:0:
71,106,263544,1,2,0:0:0:0:
61,107,263633,1,2,0:0:0:0:
51,108,263722,1,2,0:0:0:0:
42,109,263801,5,6,0:0:0:0:
42,109,263978,1,0,0:0:0:0:
116,147,264156,5,2,0:0:0:0:
116,147,264333,1,0,0:0:0:0:
180,24,264511,5,2,0:0:0:0:
180,24,264688,1,0,0:0:0:0:
46,192,264866,5,2,0:0:0:0:
46,192,265043,1,0,0:0:0:0:
335,261,265221,21,2,0:0:0:0:
342,263,265398,1,0,0:0:0:0:
349,265,265576,1,0,0:0:0:0:
356,267,265753,54,2,L|353:314,1,40,0|0,0:0|0:0,0:0:0:0:
440,371,265931,1,2,0:0:0:0:
441,355,266019,1,2,0:0:0:0:
442,339,266108,1,2,0:0:0:0:
443,322,266197,1,2,0:0:0:0:
452,305,266286,5,2,0:0:0:0:
451,289,266374,1,2,0:0:0:0:
450,273,266463,1,2,0:0:0:0:
449,256,266552,1,2,0:0:0:0:
448,239,266641,6,0,L|443:149,1,80,2|0,0:0|0:0,0:0:0:0:
348,283,267173,5,2,0:0:0:0:
348,283,267262,1,2,0:0:0:0:
348,283,267351,2,0,L|352:203,1,80,2|0,0:0|0:0,0:0:0:0:
351,203,268071,53,2,0:0:0:0:
310,90,268426,5,2,0:0:0:0:
160,65,268781,5,2,0:0:0:0:
51,196,269136,5,2,0:0:0:0:
120,382,269481,53,2,0:0:0:0:
143,379,269569,1,2,0:0:0:0:
167,377,269658,1,2,0:0:0:0:
190,374,269747,1,2,0:0:0:0:
213,371,269836,1,2,0:0:0:0:
236,368,269924,1,2,0:0:0:0:
259,365,270013,1,2,0:0:0:0:
282,362,270102,1,2,0:0:0:0:
305,359,270191,5,2,0:0:0:0:
277,330,270279,1,2,0:0:0:0:
267,291,270368,1,2,0:0:0:0:
281,253,270457,1,2,0:0:0:0:
313,229,270546,1,2,0:0:0:0:
352,224,270634,1,2,0:0:0:0:
389,239,270723,1,2,0:0:0:0:
410,273,270812,1,2,0:0:0:0:
409,313,270901,5,6,0:0:0:0:
362,324,270989,1,2,0:0:0:0:
316,308,271078,1,2,0:0:0:0:
289,267,271167,1,2,0:0:0:0:
291,218,271256,1,2,0:0:0:0:
320,180,271344,1,2,0:0:0:0:
365,164,271433,1,2,0:0:0:0:
409,178,271522,1,2,0:0:0:0:
439,217,271611,5,2,0:0:0:0:
391,245,271699,1,2,0:0:0:0:
334,244,271788,1,2,0:0:0:0:
287,212,271877,1,2,0:0:0:0:
271,158,271966,1,2,0:0:0:0:
284,104,272054,1,2,0:0:0:0:
325,66,272143,1,2,0:0:0:0:
380,59,272232,1,2,0:0:0:0:
430,82,272321,5,2,0:0:0:0:
429,89,272409,1,2,0:0:0:0:
422,88,272498,1,2,0:0:0:0:
423,81,272587,1,2,0:0:0:0:
446,86,272676,5,2,0:0:0:0:
433,105,272765,1,2,0:0:0:0:
412,95,272853,1,2,0:0:0:0:
425,73,272942,1,2,0:0:0:0:
451,100,273031,5,2,0:0:0:0:
413,108,273120,1,2,0:0:0:0:
403,71,273208,1,2,0:0:0:0:
441,61,273297,1,2,0:0:0:0:
434,118,273386,5,2,0:0:0:0:
397,96,273475,1,2,0:0:0:0:
419,60,273563,1,2,0:0:0:0:
457,81,273652,1,2,0:0:0:0:
428,90,273751,53,2,0:0:0:0:
428,90,274106,5,0,0:0:0:0:
428,90,274224,2,0,L|424:153,1,53.3333333333333,2|2,0:0|0:0,0:0:0:0:
336,65,274461,5,0,0:0:0:0:
336,65,274579,2,0,L|331:148,1,80.0000030517579,2|2,0:0|0:0,0:0:0:0:
237,44,274816,5,0,0:0:0:0:
237,44,274934,2,0,L|232:162,1,106.666666666667,2|2,0:0|0:0,0:0:0:0:
226,295,275171,53,6,1:2:0:0:
225,306,275259,1,2,0:2:0:0:
224,318,275348,1,2,0:2:0:0:
223,330,275437,1,2,0:2:0:0:
222,342,275526,5,10,1:2:0:0:
186,340,275614,1,2,0:2:0:0:
149,338,275703,1,2,0:2:0:0:
112,336,275792,1,2,0:2:0:0:
30,372,275881,5,2,1:2:0:0:
14,327,275969,1,2,0:2:0:0:
0,280,276058,1,2,0:2:0:0:
20,236,276147,1,2,0:2:0:0:
111,221,276236,5,10,1:2:0:0:
131,177,276325,1,2,0:2:0:0:
117,130,276414,1,2,0:2:0:0:
101,85,276502,1,2,0:2:0:0:
66,0,276591,6,0,L|7:4,3,60.0000022888184,2|2|2|2,1:2|0:2|0:2|0:2,0:0:0:0:
101,85,276946,1,10,1:2:0:0:
137,85,277035,1,2,0:2:0:0:
172,86,277123,1,2,0:2:0:0:
208,87,277212,1,2,0:2:0:0:
295,41,277301,5,2,1:2:0:0:
305,88,277390,1,2,0:2:0:0:
290,133,277478,1,2,0:2:0:0:
293,180,277567,1,2,0:2:0:0:
303,270,277656,5,10,1:2:0:0:
338,266,277745,1,2,0:2:0:0:
373,263,277833,1,2,0:2:0:0:
408,260,277922,1,2,0:2:0:0:
467,254,278011,5,2,1:2:0:0:
443,247,278100,1,2,0:2:0:0:
419,245,278188,1,2,0:2:0:0:
396,252,278277,1,2,0:2:0:0:
374,263,278366,1,10,1:2:0:0:
357,280,278455,1,2,0:2:0:0:
335,289,278543,1,2,0:2:0:0:
311,292,278632,1,2,0:2:0:0:
287,287,278721,5,2,1:2:0:0:
243,266,278810,1,2,0:2:0:0:
197,280,278898,1,2,0:2:0:0:
150,293,278987,1,2,0:2:0:0:
170,349,279076,5,10,1:2:0:0:
137,364,279165,1,2,0:2:0:0:
101,357,279253,1,2,0:2:0:0:
65,349,279342,1,2,0:2:0:0:
6,332,279431,5,2,1:2:0:0:
8,320,279520,1,2,0:2:0:0:
9,308,279608,1,2,0:2:0:0:
11,296,279697,1,2,0:2:0:0:
13,284,279786,1,10,1:2:0:0:
15,272,279875,1,2,0:2:0:0:
16,260,279964,1,2,0:2:0:0:
17,248,280052,1,2,0:2:0:0:
19,236,280141,5,2,1:2:0:0:
69,269,280230,1,2,0:2:0:0:
129,269,280319,1,2,0:2:0:0:
175,231,280407,1,2,0:2:0:0:
191,173,280496,1,10,1:2:0:0:
172,115,280585,1,2,0:2:0:0:
120,83,280674,1,2,0:2:0:0:
60,89,280762,1,2,0:2:0:0:
13,127,280851,5,6,1:2:0:0:
15,150,280940,1,0,0:0:0:0:
17,173,281029,1,2,0:0:0:0:
19,196,281117,1,2,0:0:0:0:
21,219,281206,1,10,1:2:0:0:
23,242,281295,1,0,0:0:0:0:
25,265,281384,1,2,0:0:0:0:
34,340,281472,5,2,0:0:0:0:
97,296,281561,1,2,1:2:0:0:
120,290,281650,1,2,0:2:0:0:
143,296,281739,1,2,0:2:0:0:
207,334,281827,5,2,0:2:0:0:
284,331,281916,1,10,1:2:0:0:
308,330,282005,1,2,0:2:0:0:
332,329,282094,1,2,0:2:0:0:
355,327,282182,1,2,0:2:0:0:
379,326,282271,5,2,1:2:0:0:
347,289,282360,1,2,0:2:0:0:
339,241,282449,1,2,0:2:0:0:
362,199,282537,1,2,0:2:0:0:
405,179,282626,1,10,1:2:0:0:
452,184,282715,1,0,0:0:0:0:
485,218,282804,1,2,0:2:0:0:
418,257,282893,5,2,0:2:0:0:
362,199,282981,1,2,1:2:0:0:
316,184,283070,1,0,0:0:0:0:
270,199,283159,1,2,0:2:0:0:
200,254,283248,5,2,0:2:0:0:
133,311,283336,1,10,1:2:0:0:
72,311,283425,1,0,0:0:0:0:
30,267,283514,1,2,0:2:0:0:
32,206,283603,1,2,0:2:0:0:
75,165,283691,6,0,L|78:97,3,60.0000022888184,2|2|2|2,1:2|0:2|0:2|0:2,0:0:0:0:
161,68,284046,2,0,L|164:136,3,60.0000022888184,10|2|2|2,1:2|0:2|0:2|0:2,0:0:0:0:
262,168,284401,2,0,L|265:100,3,60.0000022888184,2|2|2|2,1:2|0:2|0:2|0:2,0:0:0:0:
379,68,284756,2,0,L|382:136,3,60.0000022888184,10|2|2|2,1:2|0:2|0:2|0:2,0:0:0:0:
388,249,285111,5,6,1:2:0:0:
340,212,285200,1,0,0:0:0:0:
279,210,285289,1,2,0:2:0:0:
229,244,285378,1,2,0:2:0:0:
211,300,285466,37,14,1:2:0:0:
282,268,285555,1,0,0:0:0:0:
302,192,285644,1,2,0:2:0:0:
259,126,285733,1,2,0:2:0:0:
181,114,285822,86,0,P|99:127|48:186,1,160,6|2,1:2|0:2,0:0:0:0:
296,339,286088,2,0,P|325:262|299:188,1,160,6|2,1:2|0:2,0:0:0:0:
42,323,286354,2,0,P|60:358|105:391,1,80,6|2,1:2|0:2,0:0:0:0:
302,192,286532,37,6,1:2:0:0:
325,190,286620,1,0,0:0:0:0:
349,188,286709,1,2,0:2:0:0:
373,186,286798,1,2,0:2:0:0:
396,183,286887,5,10,1:2:0:0:
367,145,286975,1,0,0:0:0:0:
362,97,287064,1,2,0:2:0:0:
388,57,287153,1,2,0:0:0:0:
441,116,287242,5,2,1:2:0:0:
395,154,287330,1,2,0:2:0:0:
334,158,287419,1,2,0:2:0:0:
284,123,287508,1,2,0:2:0:0:
214,52,287597,5,10,1:2:0:0:
169,11,287686,1,2,0:2:0:0:
104,0,287775,1,2,0:2:0:0:
48,21,287863,1,2,0:2:0:0:
12,69,287952,5,2,1:2:0:0:
50,135,288040,1,2,0:2:0:0:
123,162,288129,1,2,0:2:0:0:
198,143,288218,1,2,0:2:0:0:
252,86,288307,1,10,1:2:0:0:
306,29,288396,1,2,0:2:0:0:
381,10,288485,1,2,0:2:0:0:
454,37,288574,1,2,0:2:0:0:
492,103,288662,6,0,L|488:174,3,60.0000022888184,2|2|2|2,1:2|0:2|0:2|0:2,0:0:0:0:
433,334,289017,2,0,L|429:274,3,60.0000022888184,10|2|2|2,1:2|0:2|0:2|0:2,0:0:0:0:
358,217,289372,5,2,1:2:0:0:
333,218,289461,1,2,0:2:0:0:
309,218,289549,1,2,0:2:0:0:
284,219,289638,1,2,0:2:0:0:
259,220,289727,1,10,1:2:0:0:
234,221,289816,1,2,0:2:0:0:
210,222,289904,1,2,0:2:0:0:
186,223,289993,1,2,0:2:0:0:
162,224,290082,5,2,1:2:0:0:
131,186,290171,1,2,0:2:0:0:
126,138,290259,1,2,0:2:0:0:
150,96,290348,1,2,0:2:0:0:
127,40,290437,5,10,1:2:0:0:
148,31,290526,1,2,0:2:0:0:
173,31,290614,1,2,0:2:0:0:
196,38,290703,1,2,0:2:0:0:
239,18,290792,5,2,1:2:0:0:
264,45,290881,1,2,0:2:0:0:
273,80,290969,1,2,0:2:0:0:
266,116,291058,1,2,0:2:0:0:
246,146,291147,1,10,1:2:0:0:
225,175,291236,1,2,0:2:0:0:
215,210,291324,1,2,0:2:0:0:
222,246,291413,1,2,0:2:0:0:
239,279,291502,6,0,P|259:283|303:270,3,40,2|2|2|2,1:2|0:0|0:0|0:2,0:0:0:0:
339,345,291857,6,0,P|352:329|362:305,1,40.000001525879,10|2,1:2|0:0,0:0:0:0:
449,290,292035,2,0,P|442:270|426:250,1,40.000001525879,2|2,0:2|0:0,0:0:0:0:
416,165,292212,5,6,1:2:0:0:
392,166,292301,1,0,0:0:0:0:
368,167,292390,1,2,0:2:0:0:
344,168,292478,1,2,0:2:0:0:
319,169,292567,1,10,1:2:0:0:
294,170,292656,1,0,0:0:0:0:
269,171,292745,1,2,0:2:0:0:
191,176,292833,5,2,0:2:0:0:
123,136,292922,1,2,1:2:0:0:
98,130,293011,1,2,0:2:0:0:
73,136,293100,1,2,0:2:0:0:
11,182,293188,5,2,0:2:0:0:
15,259,293277,1,10,1:2:0:0:
16,283,293366,1,2,0:2:0:0:
17,307,293455,1,2,0:2:0:0:
18,330,293543,1,2,0:2:0:0:
19,354,293632,5,6,1:2:0:0:
64,338,293721,1,0,0:0:0:0:
111,346,293810,1,2,0:2:0:0:
157,335,293898,1,2,0:2:0:0:
203,346,293987,1,10,1:2:0:0:
249,332,294076,1,2,0:2:0:0:
296,341,294165,1,2,0:2:0:0:
385,328,294253,85,2,0:2:0:0:
477,354,294342,1,2,1:2:0:0:
492,308,294431,1,0,0:0:0:0:
478,261,294520,1,2,0:2:0:0:
446,173,294608,5,2,1:2:0:0:
372,228,294697,1,2,1:2:0:0:
318,255,294786,1,0,0:0:0:0:
261,233,294875,1,2,1:2:0:0:
204,211,294964,1,2,1:2:0:0:
148,233,295052,54,0,P|112:241|70:234,1,80,6|2,1:2|0:2,0:0:0:0:
365,177,295230,1,2,1:2:0:0:
365,177,295319,1,2,0:2:0:0:
365,177,295407,2,0,P|391:206|404:244,1,80,2|2,1:2|0:2,0:0:0:0:
115,107,295585,2,0,P|88:77|75:39,1,80,2|2,1:2|0:2,0:0:0:0:
272,268,295762,6,0,P|259:305|233:336,1,80,6|2,1:2|0:2,0:0:0:0:
331,50,295940,1,2,1:2:0:0:
331,50,296029,1,2,0:2:0:0:
331,50,296117,2,0,P|369:41|409:49,1,80,2|2,1:2|0:2,0:0:0:0:
148,233,296295,2,0,P|112:241|70:234,1,80,2|2,1:2|0:2,0:0:0:0:
365,177,296472,5,6,1:2:0:0:
411,163,296561,1,2,1:2:0:0:
456,177,296650,1,2,1:2:0:0:
233,335,296827,5,6,1:2:0:0:
165,361,296916,1,2,1:2:0:0:
96,338,297005,1,2,1:2:0:0:
75,40,297182,5,6,1:2:0:0:
75,40,297271,1,2,1:2:0:0:
75,40,297360,2,0,L|77:0,2,40,2|0|2,1:2|3:2|3:2,3:3:0:0:
13,159,297537,5,6,1:2:0:0:
101,164,297626,1,2,1:2:0:0:
189,168,297715,1,2,1:2:0:0:
277,173,297804,1,2,1:2:0:0:
365,177,297893,5,4,1:1:0:0:
323,243,298603,5,2,2:2:0:0:
400,245,299313,5,2,2:2:0:0:
365,177,300023,5,2,2:2:0:0:
361,311,300733,5,2,2:2:0:0:
406,112,301443,1,2,2:2:0:0:
95,235,301798,1,2,2:2:0:0:
441,180,302153,1,2,2:2:0:0:
219,39,302863,5,2,2:2:0:0:
285,308,303573,22,0,L|283:352,1,40,2|0,0:2|0:2,0:0:0:0:
194,332,304194,5,0,0:2:0:0:
194,332,304283,2,0,L|196:376,1,40,0|0,0:2|0:2,0:0:0:0:
110,305,304904,5,0,0:2:0:0:
110,305,304993,2,0,L|108:344,1,40,0|0,0:2|0:2,0:0:0:0:
107,344,305703,5,0,0:2:0:0:
25,287,306058,5,0,0:2:0:0:
29,166,306413,5,0,0:2:0:0:
167,87,307123,5,0,0:2:0:0:
352,168,307833,54,0,B|357:193|348:221|348:221|310:200|263:199|263:199|252:274|279:349|279:349|251:357|224:347|224:347|252:274|246:199|246:199|199:198|159:218|159:218|151:189|160:162|160:162|200:183|247:184|247:184|247:137|229:97|229:97|255:89|284:98|284:98|264:137|263:184|263:184|310:186|335:171,1,1038.7999904895,0|0,0:2|0:2,0:2:0:0:
