osu file format v14

[General]
AudioFilename: Crystalia.mp3
AudioLeadIn: 0
PreviewTime: 91465
Countdown: 1
SampleSet: Normal
StackLeniency: 0.7
Mode: 0
LetterboxInBreaks: 1
WidescreenStoryboard: 0

[Editor]
Bookmarks: 11687,22354,27687,38354,49020,59687,70354,91020,91687,94354,97020,99687,102354,105020,107687,110354,113020,113909
DistanceSpacing: 1
BeatDivisor: 4
GridSize: 4
TimelineZoom: 2.2

[Metadata]
Title:Crystalia
TitleUnicode:Crystalia
Artist:DJ TOTTO
ArtistUnicode:DJ TOTTO
Creator:None1637
Version:Extra
Source:REFLEC BEAT VOLZZA
Tags:DJ TOTTO Totoriott REFLEC BEAT helloisuck
BeatmapID:1108593
BeatmapSetID:521936

[Difficulty]
HPDrainRate:0
CircleSize:4
OverallDifficulty:9.1
ApproachRate:10
SliderMultiplier:2
SliderTickRate:2

[Events]
//Background and Video events
0,0,"BG.jpg",0,0
//Break Periods
//Storyboard Layer 0 (Background)
//Storyboard Layer 1 (Fail)
//Storyboard Layer 2 (Pass)
//Storyboard Layer 3 (Foreground)
//Storyboard Sound Samples

[TimingPoints]
1021,222.222222222222,3,1,0,100,1,0
1021,-200,3,1,0,30,0,0
11687,-133.333333333333,3,2,0,70,0,0
22354,-500,3,2,0,60,0,0
27020,-250,3,1,0,60,0,0
27687,-100,3,1,0,100,0,0
38354,-80,3,1,0,100,0,0
43687,-66.6666666666667,3,1,0,100,0,0
49020,-100,3,1,0,100,0,0
59687,-80,3,1,0,100,0,0
69020,-66.6666666666667,3,1,0,100,0,0
70354,-200,3,2,0,60,0,0
91687,-66.6666666666667,3,1,0,100,0,1
113020,-100,3,1,0,100,0,0

[Colours]
Combo1 : 0,128,255
Combo2 : 0,255,255
Combo3 : 128,128,255
Combo4 : 128,255,255

[HitObjects]
144,136,1021,6,0,B|192:108|232:124|232:124|268:100|312:144|312:144|352:180|404:156|404:156|448:128|440:80|440:80|428:32|380:24|380:24|328:16|296:56,1,550
368,96,2354,2,0,P|464:88|384:44,1,250
412,120,3020,2,0,P|324:161|372:82,1,250
416,148,3687,2,0,P|470:227|469:135,1,250
416,196,4354,2,0,B|404:244|360:260|360:260|320:276|304:216|260:232|260:232|256:324|176:384|72:336|72:220|152:184,1,550
176,260,5687,6,0,L|120:256,1,50
284,260,5909,2,0,L|228:264,1,50
396,256,6132,2,0,L|340:252,1,50
500,248,6354,2,0,B|440:272|396:256|388:216|388:216|380:188|396:160|396:160|408:132|440:44|320:-8|236:44|224:136|276:184|328:192,1,550
336,124,7687,2,0,P|296:92|228:216,1,250
312,216,8354,2,0,P|344:256|220:324,1,250
184,252,9020,2,0,P|396:200|208:112,1,550
256,192,10354,12,0,11576,0:0:0:0:
325,76,11687,6,0,B|372:122|395:192|395:192|372:261|325:308|325:308|256:331|186:308|186:308|140:261|116:192|116:192|140:122|186:76|186:76|256:52|325:76,1,825.000031471254
384,176,13020,2,0,P|336:320|144:288,1,375.000014305115
112,224,13687,2,0,P|160:80|352:112,1,375.000014305115
384,176,14354,2,0,P|336:320|144:288,1,375.000014305115
112,224,15020,2,0,B|144:192|140:140|140:140|168:184|376:316|376:-84|159:57|136:88|136:88|220:124|308:129|308:129|376:136|440:72,1,825.000031471254
376,32,16354,6,0,L|452:52,1,75.0000028610231
236,56,16576,2,0,L|312:36,1,75.0000028610231
96,32,16798,2,0,L|172:52,1,75.0000028610231
44,76,17020,2,0,P|344:188|36:324,1,825.000031471254
44,260,18354,2,0,P|216:200|332:336,1,375.000014305115
380,384,19020,2,0,P|432:208|384:28,1,375.000014305115
328,76,19687,2,0,B|404:24|504:136|448:248|448:248|296:276|228:144|228:144|140:316|256:296|256:296|296:288|336:340,1,825.000031471254
260,368,21020,2,0,B|352:376|416:320|416:320|372:256|264:208|264:208|392:172|440:72|440:72|316:80|196:48,1,825.000031471254
140,28,22354,5,0,0:0:0:0:
460,132,23020,1,0,0:0:0:0:
140,28,23687,1,0,0:0:0:0:
464,140,24354,1,0,0:0:0:0:
140,28,25020,1,0,0:0:0:0:
468,152,25687,1,0,0:0:0:0:
140,28,26354,2,0,P|172:64|176:116,1,100
372,196,27020,2,0,L|164:232,1,200
76,256,27687,6,0,P|116:272|156:316,1,100
288,288,27909,2,0,P|248:272|208:228,1,100
180,272,28132,1,0,0:0:0:0:
180,272,28243,1,0,0:0:0:0:
220,52,28354,6,0,P|176:80|168:124,1,100
248,224,28576,2,0,P|292:196|300:152,1,100
236,144,28798,1,0,0:0:0:0:
236,144,28909,1,0,0:0:0:0:
168,216,29020,6,0,L|272:236,1,100
432,368,29243,2,0,L|328:348,1,100
300,296,29465,1,0,0:0:0:0:
300,296,29576,1,0,0:0:0:0:
376,76,29687,6,0,L|356:180,1,100
224,340,29910,2,0,L|244:236,1,100
296,208,30132,1,0,0:0:0:0:
296,208,30243,1,0,0:0:0:0:
460,184,30354,6,0,P|424:224|376:232,1,100
196,136,30576,2,0,P|232:96|280:88,1,100
328,160,30798,1,0,0:0:0:0:
324,164,30909,1,0,0:0:0:0:
376,324,31020,6,0,P|380:264|352:224,1,100
232,20,31243,2,0,P|228:80|256:120,1,100
304,176,31465,1,0,0:0:0:0:
304,176,31576,1,0,0:0:0:0:
208,252,31687,6,0,L|300:300,1,100
136,80,31909,2,0,L|44:32,1,100
168,172,32132,1,0,0:0:0:0:
168,172,32243,1,0,0:0:0:0:
340,100,32354,6,0,P|308:143|258:170,1,100
21,59,32576,2,0,P|74:65|123:94,1,100
145,355,32798,2,0,P|123:305|124:248,1,100
168,172,33020,6,0,L|64:188,1,100
368,192,33243,2,0,L|264:208,1,100
300,104,33465,1,0,0:0:0:0:
300,104,33576,1,0,0:0:0:0:
216,160,33687,6,0,P|176:108|176:72,1,100
348,296,33909,2,0,P|341:247|307:211,1,100
224,296,34132,1,0,0:0:0:0:
224,296,34243,1,0,0:0:0:0:
136,208,34354,6,0,P|184:184|236:192,1,100
472,232,34576,2,0,P|424:256|372:248,1,100
456,88,34798,1,0,0:0:0:0:
456,88,34909,1,0,0:0:0:0:
308,16,35020,6,0,P|272:60|268:104,1,100
494,89,35243,2,0,P|483:33|452:1,1,100
334,194,35465,2,0,P|387:212|430:201,1,100
384,72,35687,2,0,P|420:100|452:148,1,100
334,194,35909,2,0,P|351:236|354:293,1,100
228,272,36132,2,0,P|221:317|196:368,1,100
92,136,36354,2,0,P|80:184|96:232,1,100
204,236,36576,2,0,P|217:283|255:317,1,100
368,256,36798,1,0,0:0:0:0:
456,64,37020,6,0,L|448:164,1,100
432,332,37243,1,0,0:0:0:0:
240,112,37354,2,0,L|256:220,1,100
288,356,37576,1,0,0:0:0:0:
332,136,37687,6,0,L|416:80,1,100
169,154,37909,2,0,L|79:109,1,100
266,285,38132,2,0,L|272:386,1,100
136,284,38354,6,0,P|176:332|236:352,1,125
420,216,38576,2,0,P|380:168|320:148,1,125
280,252,38798,1,0,0:0:0:0:
280,252,38909,1,0,0:0:0:0:
312,104,39020,6,0,L|440:72,1,125
156,244,39243,2,0,L|28:276,1,125
236,168,39465,1,0,0:0:0:0:
236,168,39576,1,0,0:0:0:0:
256,52,39687,6,0,P|312:80|344:148,1,125
400,364,39909,2,0,P|344:336|312:268,1,125
332,208,40132,1,0,0:0:0:0:
332,208,40243,1,0,0:0:0:0:
304,124,40354,6,0,L|428:104,1,125
88,108,40576,2,0,L|212:88,1,125
60,184,40798,1,0,0:0:0:0:
60,184,40909,1,0,0:0:0:0:
168,228,41020,6,0,P|136:284|72:272,1,125
116,112,41243,2,0,P|148:56|212:68,1,125
144,172,41465,1,0,0:0:0:0:
144,172,41576,1,0,0:0:0:0:
208,40,41687,6,0,B|236:100|236:100|232:160,1,125
188,240,41909,2,0,B|184:298|184:298|212:358,1,125
288,288,42132,1,0,0:0:0:0:
288,288,42243,1,0,0:0:0:0:
336,208,42354,6,0,L|404:316,1,125
180,88,42576,2,0,L|248:196,1,125
260,32,42798,1,0,0:0:0:0:
260,32,42909,1,0,0:0:0:0:
360,80,43020,6,0,B|304:108|304:108|240:112,1,125
120,176,43243,2,0,B|176:204|176:204|240:208,1,125
380,268,43465,2,0,B|324:296|324:296|260:300,1,125
196,180,43687,6,0,L|216:336,1,150.000005722046
380,12,43909,2,0,L|360:168,1,150.000005722046
336,292,44132,1,0,0:0:0:0:
336,292,44243,1,0,0:0:0:0:
152,144,44354,6,0,P|200:84|272:84,1,150.000005722046
472,220,44576,2,0,P|424:280|352:280,1,150.000005722046
312,184,44798,1,0,0:0:0:0:
312,184,44909,1,0,0:0:0:0:
216,240,45020,6,0,L|268:384,1,150.000005722046
388,148,45243,2,0,L|336:4,1,150.000005722046
300,192,45465,1,0,0:0:0:0:
300,192,45576,1,0,0:0:0:0:
152,96,45687,6,0,B|228:92|228:92|300:120,1,150.000005722046
360,288,45909,2,0,B|284:292|284:292|212:264,1,150.000005722046
256,192,46132,1,0,0:0:0:0:
256,192,46243,1,0,0:0:0:0:
372,56,46354,6,0,L|384:208,1,150.000005722046
256,320,46576,2,0,B|328:344|328:344|408:340,1,150.000005722046
402,340,46798,1,0,0:0:0:0:
402,340,46909,1,0,0:0:0:0:
402,340,47020,6,0,B|322:336|322:336|258:300,1,150.000005722046
366,95,47243,2,0,B|402:166|402:166|403:239,1,150.000005722046
173,248,47465,2,0,B|216:180|216:180|279:143,1,150.000005722046
257,278,47687,2,0,B|181:148|181:148|333:148|333:148|259:277,1,450.000017166138
184,336,48132,2,0,B|256:360|256:360|328:336,1,150.000005722046
116,136,48354,2,0,B|128:212|128:212|168:272,1,150.000005722046
344,272,48576,2,0,B|384:212|384:212|396:136,1,150.000005722046
256,36,48798,2,0,L|256:196,1,150.000005722046
256,292,49020,5,0,0:0:0:0:
28,212,49132,2,0,L|128:216,1,100
256,292,49354,1,0,0:0:0:0:
484,212,49466,2,0,L|384:216,1,100
236,208,49687,1,0,0:0:0:0:
468,328,49798,1,0,0:0:0:0:
356,172,49909,2,0,L|296:256,1,100
364,352,50132,2,0,L|424:268,1,100
444,180,50354,5,0,0:0:0:0:
272,16,50465,2,0,L|284:128,1,100
356,232,50687,1,0,0:0:0:0:
184,68,50798,2,0,L|196:180,1,100
216,340,51020,5,0,0:0:0:0:
340,52,51132,1,0,0:0:0:0:
344,320,51243,1,0,0:0:0:0:
176,104,51354,1,0,0:0:0:0:
456,172,51465,1,0,0:0:0:0:
248,192,51576,1,0,0:0:0:0:
380,280,51687,5,0,0:0:0:0:
256,96,51798,2,0,L|272:200,1,100
304,348,52020,1,0,0:0:0:0:
180,164,52131,2,0,L|196:268,1,100
216,360,52354,5,0,0:0:0:0:
56,124,52465,1,0,0:0:0:0:
240,264,52576,2,0,L|156:328,1,100
160,124,52798,2,0,L|244:60,1,100
304,296,53020,5,0,0:0:0:0:
456,172,53132,2,0,L|356:192,1,100
216,208,53354,1,0,0:0:0:0:
368,84,53466,2,0,L|268:104,1,100
116,148,53687,5,0,0:0:0:0:
464,248,53798,1,0,0:0:0:0:
168,264,53909,1,0,0:0:0:0:
416,136,54020,1,0,0:0:0:0:
260,112,54132,2,0,P|264:168|296:208,1,100
392,288,54354,5,0,0:0:0:0:
304,116,54465,2,0,L|292:216,1,100
272,332,54687,1,0,0:0:0:0:
184,160,54798,2,0,L|172:260,1,100
160,364,55020,5,0,0:0:0:0:
96,100,55132,1,0,0:0:0:0:
72,344,55243,2,0,L|168:304,1,100
184,128,55465,2,0,L|88:168,1,100
24,208,55687,5,0,0:0:0:0:
320,168,55798,2,0,L|232:224,1,100
140,280,56020,1,0,0:0:0:0:
436,240,56131,2,0,L|348:296,1,100
256,356,56354,5,0,0:0:0:0:
368,20,56465,1,0,0:0:0:0:
452,316,56576,1,0,0:0:0:0:
196,104,56687,1,0,0:0:0:0:
504,140,56798,1,0,0:0:0:0:
272,304,56909,1,0,0:0:0:0:
320,168,57020,5,0,0:0:0:0:
68,224,57132,2,0,L|168:244,1,100
332,276,57354,1,0,0:0:0:0:
80,332,57466,2,0,L|180:352,1,100
340,368,57687,5,0,0:0:0:0:
260,68,57798,1,0,0:0:0:0:
240,352,57909,2,0,L|344:320,1,100
352,84,58132,2,0,L|248:116,1,100
140,152,58354,5,0,0:0:0:0:
376,248,58465,2,0,L|272:268,1,100
268,136,58687,1,0,0:0:0:0:
504,232,58798,2,0,L|400:252,1,100
208,264,59020,5,0,0:0:0:0:
472,144,59132,1,0,0:0:0:0:
152,136,59243,1,0,0:0:0:0:
472,144,59354,1,0,0:0:0:0:
148,8,59465,1,0,0:0:0:0:
468,140,59576,1,0,0:0:0:0:
336,52,59687,5,0,0:0:0:0:
344,356,59798,2,0,L|376:236,1,125
204,76,60020,1,0,0:0:0:0:
212,380,60131,2,0,L|244:260,1,125
276,140,60354,5,0,0:0:0:0:
80,260,60465,1,0,0:0:0:0:
388,152,60576,2,0,P|348:100|284:76,1,125
64,148,60798,2,0,P|104:200|168:224,1,125
304,240,61020,5,0,0:0:0:0:
176,16,61132,2,0,L|188:144,1,125
208,292,61354,1,0,0:0:0:0:
80,68,61466,2,0,L|92:196,1,125
100,332,61687,5,0,0:0:0:0:
456,200,61798,1,0,0:0:0:0:
116,196,61909,1,0,0:0:0:0:
416,280,62020,1,0,0:0:0:0:
304,120,62132,1,0,0:0:0:0:
276,368,62243,1,0,0:0:0:0:
208,240,62354,5,0,0:0:0:0:
336,16,62466,2,0,L|324:144,1,125
304,292,62688,1,0,0:0:0:0:
432,68,62798,2,0,L|420:196,1,125
408,340,63020,5,0,0:0:0:0:
120,192,63132,1,0,0:0:0:0:
408,220,63243,2,0,P|388:288|344:324,1,125
144,296,63465,2,0,P|164:228|208:192,1,125
356,184,63687,5,0,0:0:0:0:
100,136,63798,2,0,L|224:160,1,125
332,88,64020,1,0,0:0:0:0:
76,40,64131,2,0,L|200:64,1,125
252,160,64354,5,0,0:0:0:0:
488,24,64465,1,0,0:0:0:0:
404,264,64576,1,0,0:0:0:0:
356,8,64687,1,0,0:0:0:0:
492,160,64798,2,0,P|424:172|368:160,1,125
232,96,65020,5,0,0:0:0:0:
464,296,65132,2,0,L|408:180,1,125
344,56,65354,1,0,0:0:0:0:
512,208,65466,2,0,L|456:92,1,125
320,160,65687,5,0,0:0:0:0:
508,56,65798,1,0,0:0:0:0:
208,116,65909,2,0,B|272:96|272:96|340:96,1,125
512,128,66132,2,0,B|448:148|448:148|380:148,1,125
216,128,66354,5,0,0:0:0:0:
448,328,66465,2,0,L|368:224,1,125
296,128,66687,1,0,0:0:0:0:
64,328,66798,2,0,L|144:224,1,125
256,60,67020,5,0,0:0:0:0:
256,364,67132,1,0,0:0:0:0:
160,144,67243,1,0,0:0:0:0:
360,296,67354,1,0,0:0:0:0:
352,144,67465,1,0,0:0:0:0:
152,296,67576,1,0,0:0:0:0:
332,232,67687,5,0,0:0:0:0:
96,64,67798,2,0,L|164:176,1,125
180,232,68020,1,0,0:0:0:0:
416,64,68131,2,0,L|348:176,1,125
212,292,68354,5,0,0:0:0:0:
464,188,68465,1,0,0:0:0:0:
208,112,68576,2,0,B|232:176|232:176|276:216,1,125
448,344,68798,2,0,B|424:280|424:280|380:240,1,125
256,312,69020,5,0,0:0:0:0:
416,64,69132,2,0,B|416:140|416:140|380:204,1,150.000005722046
256,312,69354,1,0,0:0:0:0:
96,64,69466,2,0,B|96:140|96:140|132:204,1,150.000005722046
392,316,69687,5,0,0:0:0:0:
20,216,69798,1,0,0:0:0:0:
496,160,69909,1,0,0:0:0:0:
16,160,70020,1,0,0:0:0:0:
504,8,70132,1,0,0:0:0:0:
0,104,70243,1,0,0:0:0:0:
256,192,70354,12,0,70965,0:0:0:0:
256,192,71020,12,0,71632,0:0:0:0:
256,192,71687,12,0,72298,0:0:0:0:
256,192,72354,12,0,72965,0:0:0:0:
256,192,73020,12,0,74298,0:0:0:0:
256,192,74354,12,0,75632,0:0:0:0:
296,96,75687,6,0,P|344:204|264:308,1,250
224,296,76354,2,0,P|288:328|464:312,1,250
500,284,77020,2,0,P|480:176|356:148,1,250
316,176,77687,2,0,P|396:148|360:8,1,250
316,8,78354,2,0,B|376:52|480:48|480:48|416:104|396:216,1,350
392,252,79243,1,0,0:0:0:0:
300,292,79465,1,0,0:0:0:0:
316,192,79687,2,0,B|300:336|504:384|504:384|440:224|312:364,1,550
268,372,81020,6,0,P|368:364|460:248,1,250
472,204,81687,2,0,P|392:268|252:248,1,250
220,212,82354,2,0,P|324:200|436:104,1,250
452,64,83020,2,0,P|356:88|204:68,1,250
168,36,83687,2,0,P|356:184|160:308,1,550
112,308,85020,6,0,P|185:317|252:351,1,150
308,328,85465,2,0,P|252:252|256:192,1,150
268,152,85909,2,0,P|341:161|408:195,1,150
444,232,86354,2,0,P|272:240|264:96,1,350
308,72,87243,1,0,0:0:0:0:
396,120,87465,1,0,0:0:0:0:
336,200,87687,2,0,P|192:252|128:92,1,350
148,60,88576,1,0,0:0:0:0:
248,68,88798,1,0,0:0:0:0:
300,152,89020,2,0,B|136:228|244:368|244:368|360:228|176:152,1,550
148,192,90354,2,0,P|248:264|328:192,1,250
252,172,91020,2,0,L|252:288,1,100
252,272,91465,5,0,0:0:0:0:
368,332,91576,1,0,0:0:0:0:
412,192,91687,1,0,0:0:0:0:
156,328,91798,1,0,0:0:0:0:
448,272,91909,1,0,0:0:0:0:
164,160,92020,1,0,0:0:0:0:
328,368,92132,2,0,P|340:312|316:216,1,150.000005722046
236,120,92354,5,0,0:0:0:0:
244,372,92465,1,0,0:0:0:0:
416,124,92576,1,0,0:0:0:0:
140,256,92687,1,0,0:0:0:0:
384,268,92798,2,0,P|372:212|312:140,1,150.000005722046
192,88,93020,5,0,0:0:0:0:
360,360,93132,1,0,0:0:0:0:
456,136,93243,1,0,0:0:0:0:
144,316,93354,1,0,0:0:0:0:
388,252,93465,2,0,P|376:192|312:132,1,150.000005722046
152,208,93687,5,0,0:0:0:0:
472,172,93798,1,0,0:0:0:0:
276,120,93909,2,0,P|264:204|304:260,1,150.000005722046
372,176,94132,1,0,0:0:0:0:
176,76,94243,1,0,0:0:0:0:
200,272,94354,5,0,0:0:0:0:
312,16,94465,1,0,0:0:0:0:
48,188,94576,1,0,0:0:0:0:
356,140,94687,1,0,0:0:0:0:
112,64,94798,2,0,P|132:140|188:192,1,150.000005722046
376,224,95020,6,0,P|284:224|220:204,1,150.000005722046
336,64,95243,1,0,0:0:0:0:
300,380,95354,1,0,0:0:0:0:
160,160,95465,1,0,0:0:0:0:
504,252,95576,1,0,0:0:0:0:
292,300,95687,2,0,L|304:148,1,150.000005722046
408,96,95909,1,0,0:0:0:0:
408,96,96020,1,0,0:0:0:0:
448,220,96132,2,0,P|376:200|304:164,1,150.000005722046
276,64,96354,1,0,0:0:0:0:
276,64,96465,1,0,0:0:0:0:
168,160,96576,2,0,P|240:192|316:176,1,150.000005722046
396,124,96798,5,0,0:0:0:0:
352,304,96909,1,0,0:0:0:0:
208,44,97020,1,0,0:0:0:0:
476,300,97132,1,0,0:0:0:0:
72,224,97243,1,0,0:0:0:0:
444,56,97354,1,0,0:0:0:0:
264,356,97465,2,0,B|248:280|248:280|260:200,1,150.000005722046
288,96,97687,5,0,0:0:0:0:
432,320,97798,1,0,0:0:0:0:
136,140,97909,1,0,0:0:0:0:
476,204,98020,1,0,0:0:0:0:
176,300,98132,2,0,B|192:224|192:224|236:160,1,150.000005722046
376,120,98354,5,0,0:0:0:0:
72,216,98465,1,0,0:0:0:0:
376,292,98576,1,0,0:0:0:0:
184,32,98687,1,0,0:0:0:0:
224,332,98798,2,0,B|248:256|248:256|244:180,1,150.000005722046
184,76,99020,5,0,0:0:0:0:
380,360,99132,1,0,0:0:0:0:
96,136,99243,1,0,0:0:0:0:
396,364,99354,1,0,0:0:0:0:
40,228,99465,1,0,0:0:0:0:
416,364,99576,1,0,0:0:0:0:
416,240,99687,2,0,P|304:320|276:104,1,450.000017166138
372,108,100132,6,0,P|292:128|220:108,1,150.000005722046
120,96,100354,2,0,P|284:192|164:364,1,450.000017166138
72,320,100798,1,0,0:0:0:0:
404,252,100909,1,0,0:0:0:0:
148,56,101020,6,0,B|148:132|148:132|212:176,1,150.000005722046
192,353,101243,2,0,B|258:315|258:315|264:238,1,150.000005722046
427,166,101465,2,0,B|361:128|361:128|291:161,1,150.000005722046
248,142,101687,6,0,B|253:68|253:68|319:30,1,150.000005722046
216,223,101910,2,0,B|150:255|150:255|84:217,1,150.000005722046
303,210,102132,2,0,B|364:252|364:252|364:327,1,150.000005722046
248,344,102354,5,0,0:0:0:0:
488,316,102465,1,0,0:0:0:0:
168,192,102576,1,0,0:0:0:0:
504,224,102687,1,0,0:0:0:0:
244,40,102798,2,0,L|404:76,1,150.000005722046
488,100,103020,5,0,0:0:0:0:
176,188,103132,1,0,0:0:0:0:
500,208,103243,1,0,0:0:0:0:
200,232,103354,1,0,0:0:0:0:
480,324,103465,2,0,L|324:312,1,150.000005722046
156,300,103687,5,0,0:0:0:0:
472,228,103798,1,0,0:0:0:0:
92,144,103909,1,0,0:0:0:0:
448,120,104020,1,0,0:0:0:0:
136,8,104132,2,0,L|288:28,1,150.000005722046
448,56,104354,1,0,0:0:0:0:
288,344,104465,1,0,0:0:0:0:
304,112,104576,2,0,P|344:176|356:248,1,150.000005722046
352,348,104798,5,0,0:0:0:0:
180,188,104909,1,0,0:0:0:0:
372,92,105020,1,0,0:0:0:0:
168,364,105132,1,0,0:0:0:0:
240,20,105243,1,0,0:0:0:0:
280,376,105354,1,0,0:0:0:0:
80,212,105465,1,0,0:0:0:0:
432,112,105576,1,0,0:0:0:0:
324,252,105687,2,0,P|232:228|196:184,1,150.000005722046
168,64,105909,5,0,0:0:0:0:
244,344,106020,1,0,0:0:0:0:
292,44,106132,1,0,0:0:0:0:
124,360,106243,1,0,0:0:0:0:
288,240,106354,6,0,P|232:180|164:168,1,150.000005722046
20,330,106576,2,0,P|99:311|144:258,1,150.000005722046
75,53,106798,2,0,P|51:131|74:196,1,150.000005722046
168,168,107020,6,0,B|144:264|144:264|72:192|72:192|168:168|168:168|144:264|144:264|104:224|104:224,1,450.000017166138
72,192,107465,5,0,0:0:0:0:
272,140,107576,1,0,0:0:0:0:
184,372,107687,1,0,0:0:0:0:
224,32,107798,1,0,0:0:0:0:
288,356,107909,1,0,0:0:0:0:
136,56,108020,1,0,0:0:0:0:
380,304,108132,1,0,0:0:0:0:
72,128,108243,1,0,0:0:0:0:
312,136,108354,1,0,0:0:0:0:
88,256,108465,1,0,0:0:0:0:
400,172,108576,1,0,0:0:0:0:
96,176,108687,1,0,0:0:0:0:
312,288,108798,2,0,P|268:216|264:152,1,150.000005722046
296,44,109020,5,0,0:0:0:0:
232,336,109132,1,0,0:0:0:0:
400,36,109243,1,0,0:0:0:0:
184,260,109354,1,0,0:0:0:0:
500,48,109465,1,0,0:0:0:0:
188,164,109576,1,0,0:0:0:0:
404,304,109687,1,0,0:0:0:0:
340,24,109798,1,0,0:0:0:0:
292,348,109909,1,0,0:0:0:0:
300,56,110020,1,0,0:0:0:0:
176,212,110132,2,0,P|240:256|316:268,1,150.000005722046
456,150,110354,5,0,0:0:0:0:
55,143,110465,1,0,0:0:0:0:
374,383,110576,1,0,0:0:0:0:
258,1,110687,1,0,0:0:0:0:
128,380,110798,1,0,0:0:0:0:
456,150,110909,1,0,0:0:0:0:
128,380,111020,5,0,0:0:0:0:
258,1,111131,1,0,0:0:0:0:
374,383,111242,1,0,0:0:0:0:
55,143,111353,1,0,0:0:0:0:
456,150,111464,1,0,0:0:0:0:
128,380,111576,1,0,0:0:0:0:
60,104,111687,5,0,0:0:0:0:
452,280,111798,1,0,0:0:0:0:
0,192,111909,1,0,0:0:0:0:
512,192,112020,1,0,0:0:0:0:
60,280,112132,1,0,0:0:0:0:
452,104,112243,1,0,0:0:0:0:
0,76,112354,5,0,0:0:0:0:
512,308,112465,1,0,0:0:0:0:
0,308,112576,1,0,0:0:0:0:
512,76,112687,1,0,0:0:0:0:
0,76,112798,1,0,0:0:0:0:
256,192,113909,5,0,0:0:0:0:
256,192,113965,12,0,118354,0:0:0:0:
