osu file format v14

[General]
AudioFilename: Crystalia.mp3
AudioLeadIn: 0
PreviewTime: 91465
Countdown: 1
SampleSet: None
StackLeniency: 0.7
Mode: 0
LetterboxInBreaks: 1
WidescreenStoryboard: 1

[Editor]
Bookmarks: 11687,22354,27687,38354,49020,59687,70354,91020,91687,94354,97020,99687,102354,105020,107687,110354,113020,113909
DistanceSpacing: 1
BeatDivisor: 4
GridSize: 32
TimelineZoom: 2.2

[Metadata]
Title:Crystalia
TitleUnicode:Crystalia
Artist:DJ TOTTO
ArtistUnicode:DJ TOTTO
Creator:None1637
Version:Extra 2018 Random CS7
Source:REFLEC BEAT VOLZZA
Tags:DJ TOTTO Totoriott REFLEC BEAT helloisuck
BeatmapID:2320698
BeatmapSetID:521936

[Difficulty]
HPDrainRate:0
CircleSize:7
OverallDifficulty:10
ApproachRate:10
SliderMultiplier:2
SliderTickRate:2

[Events]
//Background and Video events
0,0,"BG.jpg",0,0
//Break Periods
//Storyboard Layer 0 (Background)
//Storyboard Layer 1 (Fail)
//Storyboard Layer 2 (Pass)
//Storyboard Layer 3 (Foreground)
//Storyboard Layer 4 (Overlay)
//Storyboard Sound Samples

[TimingPoints]
1021,222.222222222222,3,1,1,100,1,0
1021,-200,3,1,1,40,0,0
11687,-133.333333333333,3,2,1,70,0,0
22354,-500,3,2,1,60,0,0
27020,-500,3,1,1,30,0,0
27687,-80,3,1,1,60,0,0
38354,-66.6666666666667,3,1,1,70,0,0
49020,-66.6666666666667,3,1,1,80,0,1
70354,-200,3,2,1,60,0,0
91465,-200,3,1,1,60,0,0
91687,-66.6666666666667,3,1,1,85,0,1
113020,-100,3,1,1,50,0,0

[Colours]
Combo1 : 0,128,255
Combo2 : 0,255,255
Combo3 : 128,128,255
Combo4 : 128,255,255

[HitObjects]
62,146,1021,6,0,B|118:139|142:193|142:193|190:168|239:195|239:195|298:231|364:205|393:142|379:75|323:41|260:38|224:93,1,550
285,133,2354,6,0,B|327:129|353:166|353:166|373:134|409:123|409:123|429:157|472:163|499:148,1,250
476,64,3020,2,0,P|405:153|485:236,1,250
423,306,3687,6,0,B|381:310|355:273|355:273|335:305|299:316|299:316|279:282|236:276|209:291,1,250
120,384,4354,2,0,B|109:335|140:306|140:306|86:303|43:217|135:181|135:181|36:147|50:54|137:2|210:73,1,550
209,188,5687,6,0,P|211:163|230:148,1,50
286,88,5909,2,0,P|305:102|309:126,1,50
331,204,6132,2,0,P|308:214|286:205,1,50
386,143,6354,6,0,B|461:149|487:75|487:75|467:137|506:168|506:168|506:220|472:247|472:247|508:280|524:330|494:369|445:387|399:360|393:310,1,550
328,373,7687,6,0,B|287:310|335:254|335:254|290:271|248:262|248:262|228:233,1,250
199,154,8354,2,0,B|259:138|296:179|296:179|339:166|381:173|411:204|414:242,1,250
229,237,9020,6,0,B|157:254|97:211|83:134|124:73|194:68|194:68|112:80|58:33|58:33|103:68|95:127,1,550
256,192,10354,12,0,11576,0:0:0:0:
128,192,11687,6,0,B|224:160|256:32|256:32|288:160|384:192|384:192|288:224|256:352|256:352|224:224|128:192,1,825.000031471254
16,240,13020,2,0,B|160:256|192:384|192:384|160:304|96:272,1,375.000014305115
289,138,13687,2,0,B|145:154|113:282|113:282|145:202|209:170,1,375.000014305115
367,324,14354,2,0,B|223:308|191:180|191:180|223:260|287:292,1,375.000014305115
491,211,15020,2,0,P|266:30|537:129,1,825.000031471254
447,162,16354,6,0,P|413:163|380:139,1,75.0000028610231
418,24,16577,2,0,P|436:53|432:93,1,75.0000028610231
313,119,16799,2,0,P|329:88|366:72,1,75.0000028610231
330,197,17020,6,0,B|253:201|237:129|237:129|194:154|194:154|183:82|95:38|5:98|-4:188|61:274|147:240|147:240|152:289|152:289|206:233|280:291|262:364|192:373,1,825.000031471254
374,367,18354,6,0,B|311:359|293:286|367:228|421:284|421:284|458:250|508:261|508:261|470:254|449:216,1,375.000014305115
482,16,19020,2,0,B|544:23|562:96|488:154|434:98|434:98|398:133|347:121|347:121|386:129|407:167,1,375.000014305115
375,42,19687,6,0,B|286:23|253:93|238:165|330:201|330:201|273:181|216:213|216:213|187:161|187:161|131:193|74:173|74:173|166:209|151:281|118:351|29:332,1,825.000031471254
277,371,21020,6,0,B|246:369|219:342|212:302|246:273|285:255|332:268|359:301|372:350|372:350|365:271|372:251|431:251|435:154|347:121|347:121|398:133|434:98|434:98|488:154|562:96|544:23|482:16,1,825.000031471254
494,18,22354,5,0,0:0:0:0:
486,316,23020,1,0,0:0:0:0:
458,35,23687,5,0,0:0:0:0:
474,303,24353,1,0,0:0:0:0:
425,54,25020,5,0,0:0:0:0:
460,289,25686,1,0,0:0:0:0:
395,73,26354,5,0,0:0:0:0:
443,275,27020,2,0,P|397:255|348:260,1,100
281,304,27687,6,0,P|337:339|400:319,1,125,2|0,0:0|0:0,0:0:0:0:
121,292,27909,2,0,P|65:257|2:277,1,125,2|0,0:0|0:0,0:0:0:0:
201,298,28132,1,0,0:0:0:0:
201,298,28243,1,8,0:0:0:0:
465,287,28354,6,0,B|415:258|415:258|347:259,1,125,2|0,0:0|0:0,0:0:0:0:
154,356,28576,2,0,B|203:384|203:384|271:383,1,125,2|0,0:0|0:0,0:0:0:0:
310,322,28798,1,0,0:0:0:0:
310,322,28909,1,8,0:0:0:0:
487,176,29020,6,0,P|499:235|464:286,1,125,2|0,0:0|0:0,0:0:0:0:
305,172,29243,2,0,P|292:112|327:61,1,125,2|0,0:0|0:0,0:0:0:0:
396,174,29465,1,0,0:0:0:0:
396,174,29576,1,8,0:0:0:0:
512,68,29687,6,0,B|462:96|462:96|394:95,1,125,2|0,0:0|0:0,0:0:0:0:
191,204,29909,2,0,B|240:175|240:175|308:176,1,125,2|0,0:0|0:0,0:0:0:0:
325,61,30132,1,2,2:0:0:0:
325,61,30243,1,8,0:0:0:0:
152,0,30354,6,0,P|139:59|174:110,1,125,2|0,0:0|0:0,0:0:0:0:
82,336,30576,2,0,P|94:276|59:225,1,125,2|0,0:0|0:0,0:0:0:0:
117,168,30798,1,0,0:0:0:0:
117,168,30909,1,8,0:0:0:0:
199,307,31020,6,0,B|131:306|131:306|82:335,1,125,2|0,0:0|0:0,0:0:0:0:
308,176,31243,2,0,B|376:177|376:177|425:148,1,125,2|0,0:0|0:0,0:0:0:0:
255,243,31465,1,0,0:0:0:0:
255,243,31576,1,8,0:0:0:0:
403,338,31687,6,0,P|343:350|292:315,1,125,2|0,0:0|0:0,0:0:0:0:
88,284,31909,2,0,P|147:271|198:306,1,125,2|0,0:0|0:0,0:0:0:0:
236,379,32132,1,0,0:0:0:0:
236,379,32243,1,8,0:0:0:0:
307,175,32354,6,0,P|250:156|194:181,1,125,2|0,0:0|0:0,0:0:0:0:
425,147,32576,2,0,P|470:106|477:46,1,125,2|0,0:0|0:0,0:0:0:0:
391,262,32798,2,0,P|402:321|452:357,1,125,2|0,0:0|0:0,0:0:0:0:
236,379,33020,6,0,B|265:330|265:330|264:262,1,125,2|0,0:0|0:0,0:0:0:0:
335,58,33243,2,0,B|306:107|306:107|307:175,1,125,2|0,0:0|0:0,0:0:0:0:
425,147,33465,1,0,0:0:0:0:
425,147,33576,1,8,0:0:0:0:
501,283,33687,6,0,P|450:249|390:261,1,125,2|0,0:0|0:0,0:0:0:0:
125,357,33909,2,0,P|175:390|235:378,1,125,2|0,0:0|0:0,0:0:0:0:
313,320,34132,1,0,0:0:0:0:
313,320,34243,1,8,0:0:0:0:
169,188,34354,6,0,B|168:256|168:256|197:305,1,125,2|0,0:0|0:0,0:0:0:0:
425,147,34576,2,0,B|426:79|426:79|397:30,1,125,2|0,0:0|0:0,0:0:0:0:
296,167,34798,1,0,0:0:0:0:
296,167,34909,1,8,0:0:0:0:
390,261,35020,6,0,P|447:280|503:255,1,125,2|0,0:0|0:0,0:0:0:0:
227,216,35243,2,0,P|181:256|174:316,1,125,2|0,0:0|0:0,0:0:0:0:
348,97,35465,2,0,P|336:37|286:1,1,125,2|0,0:0|0:0,0:0:0:0:
157,133,35687,6,0,P|212:107|270:127,1,125,2|0,0:0|0:0,0:0:0:0:
353,361,35909,2,0,P|303:325|291:265,1,125,2|0,0:0|0:0,0:0:0:0:
453,78,36132,2,0,P|446:138|400:178,1,125,2|0,0:0|0:0,0:0:0:0:
288,19,36354,6,0,P|338:55|350:115,1,125,2|0,0:0|0:0,0:0:0:0:
189,303,36576,2,0,P|195:242|241:202,1,125,2|0,0:0|0:0,0:0:0:0:
370,253,36798,1,0,0:0:0:0:
453,78,37020,6,2,L|443:203,1,125
433,347,37243,1,0,0:0:0:0:
230,77,37354,2,0,L|240:202,1,125,2|0,0:0|0:0,0:0:0:0:
250,346,37577,1,0,0:0:0:0:
443,202,37687,6,0,P|392:168|332:180,1,125,2|0,0:0|0:0,0:0:0:0:
115,384,37909,2,0,P|169:356|189:298,1,125,2|0,0:0|0:0,0:0:0:0:
121,9,38132,2,0,P|117:70|157:116,1,125,2|0,0:0|0:0,0:0:0:0:
239,201,38354,6,0,L|88:213,1,150.000005722046,2|0,0:0|0:0,0:0:0:0:
493,275,38576,2,0,L|343:287,1,150.000005722046,2|0,0:0|0:0,0:0:0:0:
247,292,38798,1,4,0:0:0:0:
247,292,38909,1,8,0:0:0:0:
349,247,39020,6,0,P|418:275|492:274,1,150.000005722046,2|0,0:0|0:0,0:0:0:0:
145,337,39243,2,0,P|75:308|1:309,1,150.000005722046,2|0,0:0|0:0,0:0:0:0:
247,292,39465,1,4,0:0:0:0:
247,292,39576,1,8,0:0:0:0:
360,97,39687,6,0,L|348:246,1,150.000005722046,2|0,0:0|0:0,0:0:0:0:
48,378,39909,2,0,L|36:228,1,150.000005722046,2|0,0:0|0:0,0:0:0:0:
193,238,40132,1,4,0:0:0:0:
193,238,40243,1,8,0:0:0:0:
390,319,40354,6,0,P|320:290|246:291,1,150.000005722046,2|0,0:0|0:0,0:0:0:0:
0,157,40576,2,0,P|69:185|143:184,1,150.000005722046,2|0,0:0|0:0,0:0:0:0:
193,238,40798,1,12,0:0:0:0:
193,238,40909,1,8,0:0:0:0:
203,1,41020,6,0,L|215:150,1,150.000005722046,2|0,0:0|0:0,0:0:0:0:
48,378,41243,2,0,L|36:229,1,150.000005722046,2|0,0:0|0:0,0:0:0:0:
113,259,41465,1,4,0:0:0:0:
113,259,41576,1,8,0:0:0:0:
187,354,41687,6,0,P|117:383|43:382,1,150.000005722046,2|0,0:0|0:0,0:0:0:0:
246,290,41909,2,0,P|315:261|390:262,1,150.000005722046,2|0,0:0|0:0,0:0:0:0:
488,308,42132,1,4,0:0:0:0:
488,308,42243,1,8,0:0:0:0:
510,54,42354,6,0,L|498:203,1,150.000005722046,2|0,0:0|0:0,0:0:0:0:
246,289,42576,2,0,L|234:140,1,150.000005722046,2|0,0:0|0:0,0:0:0:0:
319,99,42798,1,4,0:0:0:0:
319,99,42909,1,8,0:0:0:0:
438,141,43020,6,0,P|381:188|307:187,1,150.000005722046,2|0,0:0|0:0,0:0:0:0:
128,50,43243,2,0,P|196:75|233:139,1,150.000005722046,2|0,0:0|0:0,0:0:0:0:
205,364,43465,2,0,P|192:291|229:227,1,150.000005722046,2|0,0:0|0:0,0:0:0:0:
488,308,43687,6,0,L|339:296,1,150.000005722046,2|0,0:0|0:0,0:0:0:0:
84,151,43909,2,0,L|233:139,1,150.000005722046,2|0,0:0|0:0,0:0:0:0:
307,187,44132,1,4,0:0:0:0:
307,187,44243,1,8,0:0:0:0:
462,70,44354,6,0,P|387:69|318:98,1,150.000005722046,2|0,0:0|0:0,0:0:0:0:
86,256,44576,2,0,P|160:256|229:227,1,150.000005722046,2|0,0:0|0:0,0:0:0:0:
233,138,44798,1,2,2:0:0:0:
233,138,44909,1,8,0:0:0:0:
387,209,45020,6,0,L|375:358,1,150.000005722046,2|0,0:0|0:0,0:0:0:0:
474,219,45243,2,0,L|462:70,1,150.000005722046,2|0,0:0|0:0,0:0:0:0:
295,270,45465,1,4,2:0:0:0:
295,270,45576,1,8,2:0:0:0:
35,129,45687,6,0,P|92:82|166:83,1,150.000005722046,2|0,0:0|0:0,0:0:0:0:
191,345,45909,2,0,P|121:319|85:254,1,150.000005722046,2|0,0:0|0:0,0:0:0:0:
301,184,46132,1,4,3:0:0:0:
301,184,46243,1,8,0:0:0:0:
13,370,46354,6,0,L|1:221,1,150.000005722046,2|0,0:0|0:0,0:0:0:0:
309,29,46576,2,0,L|297:178,1,150.000005722046,2|0,0:0|0:0,0:0:0:0:
285,314,46798,1,0,0:0:0:0:
158,218,46909,1,8,0:0:0:0:
165,82,47020,6,0,P|91:82|35:129,1,150.000005722046,2|0,0:0|0:0,0:0:0:0:
296,178,47243,2,0,P|333:114|320:42,1,150.000005722046,2|0,0:0|0:0,0:0:0:0:
148,243,47465,2,0,P|184:306|253:332,1,150.000005722046,2|0,0:0|0:0,0:0:0:0:
364,141,47687,6,0,P|327:77|258:51,1,150.000005722046,2|0,0:0|0:0,0:0:0:0:
215,206,47909,2,0,P|178:269|191:341,1,150.000005722046,2|0,0:0|0:0,0:0:0:0:
346,301,48132,2,0,P|420:301|476:255,1,150.000005722046,2|0,0:0|0:0,0:0:0:0:
388,5,48354,6,0,P|350:68|363:140,1,150.000005722046,2|0,0:0|0:0,0:0:0:0:
28,171,48576,2,0,P|101:171|158:124,1,150.000005722046,2|0,0:0|0:0,0:0:0:0:
351,399,48798,2,0,P|315:335|246:310,1,150.000005722046,2|0,0:0|0:0,0:0:0:0:
130,345,49020,5,2,0:0:0:0:
476,254,49132,2,0,L|327:266,1,150.000005722046,10|0,2:0|0:0,0:0:0:0:
220,273,49354,5,2,0:0:0:0:
8,111,49466,2,0,L|157:123,1,150.000005722046,10|0,2:0|0:0,0:0:0:0:
363,140,49687,5,2,0:0:0:0:
113,196,49798,1,2,2:0:0:0:
293,58,49909,2,0,P|255:121|268:193,1,150.000005722046,10|0,0:0|0:0,0:0:0:0:
452,384,50132,2,0,P|490:321|477:249,1,150.000005722046,2|0,0:0|0:0,0:0:0:0:
363,140,50354,5,2,0:0:0:0:
15,237,50465,2,0,B|-8:233|-8:233|112:195,1,150.000005722046,10|0,2:0|0:0,0:0:0:0:
211,159,50687,5,2,0:0:0:0:
414,210,50798,2,0,B|534:248|534:248|511:252,1,150.000005722046,10|0,2:0|0:0,0:0:0:0:
326,266,51020,5,2,0:0:0:0:
451,84,51132,1,12,0:0:0:0:
236,171,51243,5,2,0:0:0:0:
331,370,51355,1,12,0:0:0:0:
363,140,51465,5,2,0:0:0:0:
143,122,51577,1,12,0:0:0:0:
326,266,51687,5,2,0:0:0:0:
512,0,51798,2,0,L|363:12,1,150.000005722046,10|0,2:0|0:0,0:0:0:0:
418,222,52020,5,2,0:0:0:0:
50,384,52132,2,0,L|199:372,1,150.000005722046,10|0,2:0|0:0,0:0:0:0:
326,266,52354,5,2,0:0:0:0:
106,248,52466,1,2,2:0:0:0:
376,353,52576,2,0,P|421:295|417:222,1,150.000005722046,10|0,0:0|0:0,0:0:0:0:
362,12,52798,2,0,P|317:70|321:143,1,150.000005722046,2|0,0:0|0:0,0:0:0:0:
412,99,53020,5,2,0:0:0:0:
106,248,53132,2,0,P|180:247|249:276,1,150.000005722046,10|0,2:0|0:0,0:0:0:0:
416,221,53354,5,2,0:0:0:0:
50,384,53465,2,0,P|124:385|193:356,1,150.000005722046,10|0,2:0|0:0,0:0:0:0:
249,276,53687,5,2,0:0:0:0:
167,109,53798,1,10,2:0:0:0:
277,204,53909,1,0,0:0:0:0:
106,248,54020,1,2,0:0:0:0:
192,355,54132,2,0,P|261:384|336:384,1,150.000005722046,10|0,2:0|0:0,0:0:0:0:
459,307,54354,5,2,1:0:0:0:
0,168,54465,2,0,L|149:180,1,150.000005722046,10|0,2:0|0:0,0:0:0:0:
266,194,54687,5,2,0:0:0:0:
512,2,54798,2,0,L|363:14,1,150.000005722046,10|0,2:0|0:0,0:0:0:0:
226,27,55020,5,2,0:0:0:0:
405,211,55132,1,2,2:0:0:0:
124,315,55243,2,0,P|110:242|148:179,1,150.000005722046,10|0,0:0|0:0,0:0:0:0:
487,153,55465,2,0,P|500:225|462:288,1,150.000005722046,2|0,0:0|0:0,0:0:0:0:
369,308,55687,5,2,0:0:0:0:
49,137,55798,2,0,B|26:141|26:141|146:179,1,150.000005722046,10|0,2:0|0:0,0:0:0:0:
254,208,56020,5,2,0:0:0:0:
512,6,56132,2,0,B|535:10|535:10|415:48,1,150.000005722046,10|0,2:0|0:0,0:0:0:0:
223,113,56354,5,2,0:0:0:0:
192,355,56465,1,12,0:0:0:0:
338,149,56576,5,2,0:0:0:0:
143,1,56687,1,12,0:0:0:0:
249,230,56798,5,2,0:0:0:0:
474,135,56909,1,12,0:0:0:0:
223,113,57020,5,2,0:0:0:0:
512,335,57132,2,0,L|363:347,1,150.000005722046,10|0,2:0|0:0,0:0:0:0:
249,230,57354,5,2,0:0:0:0:
0,14,57465,2,0,L|149:2,1,150.000005722046,10|0,2:0|0:0,0:0:0:0:
338,149,57687,5,2,0:0:0:0:
192,355,57798,1,2,2:0:0:0:
0,173,57909,2,0,L|149:161,1,150.000005722046,10|0,2:0|0:0,0:0:0:0:
249,230,58132,2,0,L|398:218,1,150.000005722046,2|0,2:0|0:0,0:0:0:0:
474,135,58354,5,2,0:0:0:0:
192,355,58465,2,0,L|43:367,1,150.000005722046,10|0,2:0|0:0,0:0:0:0:
398,217,58687,5,2,0:0:0:0:
0,18,58798,2,0,L|149:30,1,150.000005722046,10|0,2:0|0:0,0:0:0:0:
354,47,59020,5,2,0:0:0:0:
332,349,59132,1,14,2:0:0:0:
81,179,59243,5,2,0:0:0:0:
430,204,59354,1,14,2:0:0:0:
158,337,59466,5,2,0:0:0:0:
179,34,59577,1,14,2:0:0:0:
430,204,59687,5,2,1:0:0:0:
160,256,59798,2,0,L|11:268,1,150.000005722046,10|0,2:0|0:0,0:0:0:0:
462,191,60020,5,2,1:0:0:0:
42,254,60132,2,0,L|191:242,1,150.000005722046,10|0,2:0|0:0,0:0:0:0:
366,230,60354,5,2,1:0:0:0:
130,105,60465,1,2,2:0:0:0:
462,191,60576,2,0,P|466:264|421:322,1,150.000005722046,10|0,0:0|0:0,0:0:0:0:
34,144,60798,2,0,P|29:70|74:12,1,150.000005722046,2|0,0:0|0:0,0:0:0:0:
193,21,61020,5,2,0:0:0:0:
366,230,61132,2,0,L|354:379,1,150.000005722046,10|0,2:0|0:0,0:0:0:0:
130,105,61354,5,2,2:0:0:0:
421,322,61465,2,0,L|433:173,1,150.000005722046,10|0,2:0|0:0,0:0:0:0:
443,57,61687,5,2,0:0:0:0:
130,105,61798,1,14,2:0:0:0:
421,322,61909,5,2,0:0:0:0:
193,21,62020,1,14,2:0:0:0:
46,308,62132,5,2,0:0:0:0:
312,29,62243,1,14,2:0:0:0:
215,378,62354,5,2,0:0:0:0:
130,105,62465,2,0,L|118:254,1,150.000005722046,10|0,2:0|0:0,0:0:0:0:
316,349,62687,5,2,0:0:0:0:
50,151,62798,2,0,L|62:2,1,150.000005722046,10|0,2:0|0:0,0:0:0:0:
193,21,63020,5,2,1:0:0:0:
117,254,63132,1,0,0:0:0:0:
289,79,63243,2,0,P|231:124|157:120,1,150.000005722046,10|0,0:0|0:0,0:0:0:0:
0,379,63465,2,0,P|57:333|131:337,1,150.000005722046,2|0,0:0|0:0,0:0:0:0:
215,378,63687,5,2,0:0:0:0:
443,57,63798,2,0,L|455:206,1,150.000005722046,10|0,2:0|0:0,0:0:0:0:
131,337,64020,5,0,0:0:0:0:
512,268,64132,2,0,L|500:119,1,150.000005722046,10|0,2:0|0:0,0:0:0:0:
495,18,64354,5,2,0:0:0:0:
306,177,64465,1,10,2:0:0:0:
363,19,64576,1,0,0:0:0:0:
455,206,64687,1,2,0:0:0:0:
220,224,64798,2,0,P|289:253|364:253,1,150.000005722046,10|0,2:0|0:0,0:0:0:0:
512,267,65020,5,2,1:0:0:0:
31,246,65132,2,0,L|180:258,1,150.000005722046,10|0,2:0|0:0,0:0:0:0:
446,318,65353,5,2,1:0:0:0:
149,244,65465,2,0,L|0:232,1,150.000005722046,10|0,2:0|0:0,0:0:0:0:
218,107,65687,5,2,0:0:0:0:
300,344,65798,1,2,0:0:0:0:
366,22,65909,2,0,P|321:80|325:154,1,150.000005722046,10|0,0:0|0:0,0:0:0:0:
107,375,66132,2,0,P|152:317|148:243,1,150.000005722046,2|0,0:0|0:0,0:0:0:0:
54,158,66354,5,2,0:0:0:0:
362,280,66465,2,0,L|511:268,1,150.000005722046,10|0,2:0|0:0,0:0:0:0:
0,231,66687,5,2,0:0:0:0:
474,141,66798,2,0,L|325:153,1,150.000005722046,10|0,2:0|0:0,0:0:0:0:
187,157,67020,5,2,0:0:0:0:
420,354,67132,1,14,2:0:0:0:
273,59,67243,5,2,0:0:0:0:
107,375,67354,1,14,2:0:0:0:
324,153,67465,5,2,0:0:0:0:
0,19,67576,1,14,2:0:0:0:
221,323,67687,5,0,0:0:0:0:
507,0,67798,2,0,L|495:149,1,150.000005722046,10|0,2:0|0:0,0:0:0:0:
362,280,68020,5,0,0:0:0:0:
21,245,68132,2,0,L|9:96,1,150.000005722046,10|0,2:0|0:0,0:0:0:0:
123,74,68354,5,2,0:0:0:0:
221,323,68465,1,2,0:0:0:0:
360,97,68576,2,0,P|302:142|228:138,1,150.000005722046,2|0,0:0|0:0,0:0:0:0:
0,354,68798,2,0,P|58:309|132:313,1,150.000005722046,2|0,0:0|0:0,0:0:0:0:
285,383,69020,5,2,0:0:0:0:
0,82,69132,2,0,L|12:231,1,150.000005722046,10|0,2:0|0:0,0:0:0:0:
221,323,69354,5,0,0:0:0:0:
495,149,69465,2,0,L|507:0,1,150.000005722046,10|0,2:0|0:0,0:0:0:0:
132,54,69687,5,2,0:0:0:0:
484,289,69798,1,14,0:0:0:0:
256,0,69909,5,2,0:0:0:0:
171,384,70020,1,14,0:0:0:0:
502,76,70132,5,2,0:0:0:0:
12,231,70243,1,14,0:0:0:0:
256,192,70354,12,0,70965,0:0:0:0:
256,192,71020,12,0,71631,0:0:0:0:
256,192,71687,12,0,72298,0:0:0:0:
256,192,72354,12,0,72965,0:0:0:0:
256,192,73020,12,0,74298,0:0:0:0:
256,192,74354,12,0,75632,0:0:0:0:
128,64,75687,6,0,P|256:96|384:64,1,250
384,64,76354,2,0,P|352:192|384:320,1,250
384,320,77020,2,0,P|256:288|128:320,1,250
128,320,77687,2,0,P|160:192|128:64,1,250
128,64,78354,6,0,B|264:63|264:167|402:167,1,300
500,117,79243,1,0,0:0:0:0:
346,75,79465,1,0,0:0:0:0:
286,219,79687,6,0,P|379:272|401:167,1,250
272,336,80354,2,0,P|178:389|156:284,1,250
32,128,81020,6,0,L|64:384,1,250
128,256,81687,2,0,L|159:7,1,250
316,127,82354,2,0,P|246:227|127:255,1,250
224,384,83020,2,0,P|293:283|412:255,1,250
512,288,83687,6,0,P|416:384|352:128,1,550
480,160,85020,6,0,P|416:224|352:224,1,150
171,401,85465,2,0,P|148:314|180:259,1,150
116,14,85909,2,0,P|203:37|235:92,1,150
384,320,86354,6,0,P|512:192|470:91,1,300
233,84,87243,1,0,0:0:0:0:
279,300,87465,1,0,0:0:0:0:
33,284,87687,2,0,P|10:144|128:64,1,300
364,169,88576,1,0,0:0:0:0:
148,215,88798,1,0,0:0:0:0:
279,300,89020,6,0,P|508:293|398:93,1,550
259,129,90354,6,0,P|195:225|259:385,1,300
192,128,91465,5,0,0:0:0:0:
320,256,91576,1,8,0:0:0:0:
256,0,91687,5,2,0:0:0:0:
256,384,91798,1,12,0:0:0:0:
362,70,91909,5,4,0:0:0:0:
68,253,92020,1,12,0:0:0:0:
397,340,92132,6,0,P|440:279|422:200,1,150.000005722046,8|0,0:0|0:0,0:0:0:0:
161,194,92354,5,4,0:0:0:0:
503,94,92465,1,12,0:0:0:0:
159,67,92576,5,2,0:0:0:0:
256,384,92687,1,12,0:0:0:0:
362,70,92799,6,0,P|319:131|337:210,1,150.000005722046,8|0,0:0|0:0,0:0:0:0:
512,275,93020,5,2,0:0:0:0:
85,349,93131,1,12,0:0:0:0:
337,0,93242,5,4,0:0:0:0:
256,384,93353,1,12,0:0:0:0:
91,44,93465,5,4,0:0:0:0:
444,203,93576,1,12,0:0:0:0:
7,217,93687,5,2,0:0:0:0:
458,109,93798,1,12,0:0:0:0:
117,384,93909,6,0,P|74:324|85:252,1,150.000005722046,8|0,0:0|0:0,0:0:0:0:
320,128,94132,5,4,0:0:0:0:
192,256,94243,1,12,0:0:0:0:
256,0,94354,5,2,0:0:0:0:
256,384,94465,1,12,0:0:0:0:
202,95,94576,5,4,0:0:0:0:
420,345,94687,1,12,0:0:0:0:
97,128,94798,5,4,0:0:0:0:
512,190,94909,1,12,0:0:0:0:
45,210,95020,6,0,P|2:149|20:70,1,150.000005722046,2|0,0:0|0:0,0:0:0:0:
309,95,95243,1,4,0:0:0:0:
202,288,95354,1,12,0:0:0:0:
192,128,95465,5,12,0:0:0:0:
320,256,95576,1,12,0:0:0:0:
467,174,95687,6,0,P|510:235|492:314,1,150.000005722046,2|0,0:0|0:0,0:0:0:0:
309,95,95909,2,0,P|340:27|417:3,1,150.000005722046,4|0,0:0|0:0,0:0:0:0:
320,272,96132,2,0,P|245:278|186:223,1,150.000005722046,4|0,0:0|0:0,0:0:0:0:
192,128,96354,5,2,0:0:0:0:
467,174,96465,1,12,0:0:0:0:
221,18,96576,5,8,0:0:0:0:
233,367,96687,1,12,0:0:0:0:
331,37,96798,5,8,0:0:0:0:
152,317,96909,1,0,0:0:0:0:
44,31,97020,5,2,0:0:0:0:
418,324,97132,1,12,0:0:0:0:
63,140,97243,5,4,0:0:0:0:
512,235,97355,1,12,0:0:0:0:
221,18,97465,6,0,P|163:66|160:147,1,150.000005722046,8|0,0:0|0:0,0:0:0:0:
355,247,97687,5,2,0:0:0:0:
44,31,97799,1,12,0:0:0:0:
409,153,97910,5,4,0:0:0:0:
0,192,98020,1,12,0:0:0:0:
291,366,98132,6,0,P|349:318|352:237,1,150.000005722046,8|0,0:0|0:0,0:0:0:0:
309,75,98354,5,2,0:0:0:0:
442,384,98466,1,12,0:0:0:0:
156,136,98576,5,4,0:0:0:0:
512,105,98687,1,12,0:0:0:0:
210,308,98798,5,4,0:0:0:0:
257,0,98909,1,12,0:0:0:0:
377,291,99020,5,2,0:0:0:0:
65,140,99132,1,12,0:0:0:0:
428,24,99243,5,4,0:0:0:0:
292,366,99355,1,12,0:0:0:0:
102,40,99464,5,4,0:0:0:0:
512,211,99576,1,12,0:0:0:0:
65,140,99687,6,0,B|186:71|256:192|256:192|325:312|446:243,1,450.000017166138,2|0,0:0|0:0,0:0:0:0:
486,136,100132,2,0,P|413:124|354:166,1,150.000005722046,2|0,0:0|0:0,0:0:0:0:
307,382,100354,2,0,B|376:261|256:192|256:192|135:122|204:1,1,450.000017166138,2|0,0:0|0:0,0:0:0:0:
296,78,100798,5,4,0:0:0:0:
216,306,100909,1,12,0:0:0:0:
45,174,101020,6,0,P|2:235|20:314,1,150.000005722046,2|0,0:0|0:0,0:0:0:0:
203,95,101242,2,0,P|172:27|95:3,1,150.000005722046,2|0,0:0|0:0,0:0:0:0:
192,272,101465,2,0,P|267:278|326:223,1,150.000005722046,2|0,0:0|0:0,0:0:0:0:
320,128,101687,5,2,0:0:0:0:
45,174,101798,1,12,0:0:0:0:
291,18,101909,5,2,0:0:0:0:
279,367,102020,1,12,0:0:0:0:
194,75,102131,5,2,0:0:0:0:
442,286,102242,1,12,0:0:0:0:
141,202,102354,5,2,0:0:0:0:
471,59,102465,1,12,0:0:0:0:
194,75,102576,5,4,0:0:0:0:
358,372,102687,1,12,0:0:0:0:
88,117,102798,6,0,P|45:178|63:257,1,150.000005722046,6|0,0:0|0:0,0:0:0:0:
221,366,103020,5,2,0:0:0:0:
291,18,103131,1,12,0:0:0:0:
299,294,103242,5,4,0:0:0:0:
98,19,103353,1,12,0:0:0:0:
423,116,103465,6,0,P|466:176|454:248,1,150.000005722046,6|0,0:0|0:0,0:0:0:0:
206,225,103687,5,2,0:0:0:0:
437,24,103798,1,12,0:0:0:0:
192,124,103909,5,4,0:0:0:0:
465,329,104020,1,12,0:0:0:0:
293,76,104131,5,4,0:0:0:0:
56,326,104242,1,12,0:0:0:0:
330,282,104354,5,2,0:0:0:0:
90,21,104465,1,12,0:0:0:0:
168,384,104576,6,0,P|240:395|299:353,1,150.000005722046,8|0,0:0|0:0,0:0:0:0:
320,256,104798,5,4,0:0:0:0:
192,128,104909,1,0,0:0:0:0:
299,353,105021,5,6,0:0:0:0:
213,31,105132,1,12,0:0:0:0:
57,260,105243,5,4,0:0:0:0:
427,119,105354,1,12,0:0:0:0:
118,95,105465,5,4,0:0:0:0:
239,383,105576,1,12,0:0:0:0:
312,0,105687,6,0,P|240:-18|181:24,1,150.000005722046,6|0,0:0|0:0,0:0:0:0:
182,239,105909,5,4,0:0:0:0:
512,133,106020,1,0,0:0:0:0:
208,135,106132,5,4,0:0:0:0:
403,335,106243,1,0,0:0:0:0:
88,116,106354,6,0,P|45:176|57:248,1,150.000005722046,2|0,0:0|0:0,0:0:0:0:
404,84,106576,2,0,P|374:17|306:-8,1,150.000005722046,12|0,0:0|0:0,0:0:0:0:
275,374,106798,2,0,P|347:382|404:335,1,150.000005722046,12|0,0:0|0:0,0:0:0:0:
309,95,107020,5,2,0:0:0:0:
155,384,107132,1,12,0:0:0:0:
351,184,107243,5,2,0:0:0:0:
0,64,107354,1,12,0:0:0:0:
203,289,107465,5,2,0:0:0:0:
309,95,107576,1,12,0:0:0:0:
32,192,107687,5,14,0:0:0:0:
512,0,107798,1,12,0:0:0:0:
192,32,107909,5,12,0:0:0:0:
160,384,108020,1,12,0:0:0:0:
384,128,108132,5,12,0:0:0:0:
0,64,108243,1,12,0:0:0:0:
256,352,108354,5,12,0:0:0:0:
512,0,108465,1,12,0:0:0:0:
64,96,108576,5,12,0:0:0:0:
480,192,108687,1,12,0:0:0:0:
160,64,108798,5,12,0:0:0:0:
448,352,108909,1,12,0:0:0:0:
0,288,109020,5,14,0:0:0:0:
512,0,109132,1,12,0:0:0:0:
256,384,109243,5,12,0:0:0:0:
224,0,109354,1,12,0:0:0:0:
128,320,109465,5,12,0:0:0:0:
512,128,109576,1,12,0:0:0:0:
160,64,109687,5,12,0:0:0:0:
484,243,109798,1,12,0:0:0:0:
32,192,109909,5,12,0:0:0:0:
512,128,110020,1,12,0:0:0:0:
256,384,110132,6,0,L|288:224,1,150.000005722046,12|0,0:0|0:0,0:0:0:0:
320,96,110354,5,14,0:0:0:0:
0,288,110465,1,12,0:0:0:0:
512,352,110576,5,12,0:0:0:0:
160,64,110687,1,12,0:0:0:0:
448,0,110798,6,0,L|418:147,1,150.000005722046,12|0,0:0|0:0,0:0:0:0:
384,320,111020,5,14,0:0:0:0:
256,0,111132,1,12,0:0:0:0:
128,320,111243,5,12,0:0:0:0:
512,128,111354,1,12,0:0:0:0:
64,32,111465,5,12,0:0:0:0:
256,384,111576,1,4,0:0:0:0:
448,32,111687,5,14,0:0:0:0:
0,192,111798,1,4,0:0:0:0:
416,384,111909,5,14,0:0:0:0:
64,32,112020,1,12,0:0:0:0:
512,128,112132,5,14,0:0:0:0:
0,384,112243,1,4,0:0:0:0:
512,256,112354,5,14,0:0:0:0:
0,0,112465,1,14,0:0:0:0:
512,384,112576,5,6,0:0:0:0:
0,192,112687,1,14,0:0:0:0:
512,0,112798,1,14,0:0:0:0:
256,192,113909,5,4,0:0:0:0:
256,192,113965,12,0,116465,0:0:0:0:
