osu file format v14

[General]
AudioFilename: audio.mp3
AudioLeadIn: 0
PreviewTime: 91025
Countdown: 0
SampleSet: Soft
StackLeniency: 0.4
Mode: 0
LetterboxInBreaks: 0
WidescreenStoryboard: 1

[Editor]
Bookmarks: 1027,11693,22360,27693,38359,49026,59692,70285,81025,91692,102358,113914
DistanceSpacing: 0.3
BeatDivisor: 4
GridSize: 4
TimelineZoom: 3.099999

[Metadata]
Title:Crystalia
TitleUnicode:Crystalia
Artist:DJ TOTTO
ArtistUnicode:DJ TOTTO
Creator:Hysteria
Version:Meal's Ultra
Source:REFLEC BEAT VOLZZA
Tags:DJ TOTTO Totoriott REFLEC BEAT Eternal Refresia Lazyboy007 Hiiro Xenok Realazy Meftly den0saur tokiko Owens CXu Pachiru
BeatmapID:1475722
BeatmapSetID:691220

[Difficulty]
HPDrainRate:6
CircleSize:3.3
OverallDifficulty:9.3
ApproachRate:9.8
SliderMultiplier:1.8
SliderTickRate:1

[Events]
//Background and Video events
0,0,"BG_Crystalia.jpg",0,0
//Break Periods
//Storyboard Layer 0 (Background)
//Storyboard Layer 1 (Fail)
//Storyboard Layer 2 (Pass)
//Storyboard Layer 3 (Foreground)
//Storyboard Sound Samples

[TimingPoints]
1027,222.222222222222,3,2,1,40,1,0
1027,-300,3,2,1,40,0,0
11693,-300,3,2,1,40,0,0
15026,-300,3,2,1,40,0,0
21026,-300,3,2,1,50,0,0
22360,-300,3,2,2,60,0,0
23026,-300,3,2,1,25,0,0
27026,-1200,3,2,1,25,0,0
27693,-100,3,2,1,25,0,0
27804,-100,3,2,1,50,0,0
32359,-83.3333333333333,3,2,1,50,0,0
33026,-100,3,2,1,50,0,0
38359,-90.9090909090909,3,2,2,50,0,0
38470,-90.9090909090909,3,2,1,50,0,0
43026,-83.3333333333333,3,2,1,50,0,0
43692,-90.9090909090909,3,2,1,50,0,0
49026,-80,3,2,2,60,0,1
49137,-80,3,2,1,60,0,1
53692,-100,3,2,1,60,0,1
54359,-80,3,2,1,60,0,1
59692,-74.0740740740741,3,2,2,60,0,1
59804,-74.0740740740741,3,2,1,60,0,1
64359,-90.9090909090909,3,2,1,60,0,1
65026,-74.0740740740741,3,2,1,60,0,1
67692,-68.9655172413793,3,2,1,60,0,1
70360,-400,3,2,2,40,0,0
71025,-400,3,2,1,40,0,0
81025,-300,3,2,2,40,0,0
81470,-300,3,2,1,40,0,0
85025,-375,3,2,1,40,0,0
85470,-500,3,2,1,40,0,0
85914,-600,3,2,1,40,0,0
86359,-333.333333333333,3,2,1,40,0,0
87692,-428.571428571,3,2,1,50,0,0
89025,-600,3,2,1,60,0,0
90358,-1500,3,2,1,60,0,0
91025,-500,3,2,2,60,0,0
91470,-600,3,2,1,40,0,0
91693,-80,3,2,2,60,0,1
91803,-80,3,2,1,60,0,1
102358,-80,3,2,2,60,0,1
102469,-80,3,2,1,60,0,1
107691,-76.9230769230769,3,2,1,60,0,1
112804,-100,3,2,2,80,0,0
113915,222.222222222222,3,2,1,25,1,0
113915,-300,3,2,1,25,0,0
119248,-100,3,2,1,5,0,0

[Colours]
Combo1 : 114,226,114
Combo2 : 114,170,226
Combo3 : 226,114,170
Combo4 : 226,114,114
Combo5 : 226,226,114

[HitObjects]
106,193,1027,6,0,L|106:223,11,30,10|0|0|0|0|0|0|0|0|0|0|0,0:0|0:0|0:0|0:0|0:0|0:0|0:0|0:0|0:0|0:0|0:0|0:0,0:0:0:0:
161,281,2360,6,0,L|190:274,5,30,2|0|0|0|0|0,0:0|0:0|0:0|0:0|0:0|0:0,0:0:0:0:
260,232,3026,2,0,L|289:238,5,30,2|0|0|0|0|0,0:0|0:0|0:0|0:0|0:0|0:0,0:0:0:0:
344,297,3693,6,0,L|346:326,5,30,10|0|0|0|0|0,0:0|0:0|0:0|0:0|0:0|0:0,0:0:0:0:
427,320,4360,2,0,L|424:290,11,30,2|0|0|2|0|0|2|0|0|2|0|0,0:0|0:0|0:0|0:0|0:0|0:0|0:0|0:0|0:0|0:0|0:0|0:0,0:0:0:0:
434,209,5693,6,0,L|463:202,1,30,2|0,0:0|0:0,0:0:0:0:
394,138,5915,2,0,L|416:117,1,30,2|0,0:0|0:0,0:0:0:0:
323,96,6138,2,0,L|332:67,1,30,2|0,0:0|0:0,0:0:0:0:
240,95,6360,6,0,L|207:102,11,30,10|0|0|0|0|0|0|0|0|0|0|0,0:0|0:0|0:0|0:0|0:0|0:0|0:0|0:0|0:0|0:0|0:0|0:0,0:0:0:0:
170,171,7693,6,0,L|167:200,5,30,2|0|0|0|0|0,0:0|0:0|0:0|0:0|0:0|0:0,0:0:0:0:
228,255,8360,2,0,L|230:284,5,30,2|0|0|0|0|0,0:0|0:0|0:0|0:0|0:0|0:0,0:0:0:0:
294,335,9026,6,0,L|323:330,11,30,10|0|2|0|2|2|2|0|2|0|0|0,0:0|0:0|0:0|0:0|0:0|0:0|0:0|0:0|0:0|0:0|0:0|0:0,0:0:0:0:
388,282,10360,5,2,0:0:0:0:
388,282,10471,2,0,L|388:228,1,30,0|0,0:0|0:0,0:0:0:0:
325,200,10693,1,0,0:0:0:0:
325,200,10804,2,0,L|325:146,1,30,0|0,0:0|0:0,0:0:0:0:
282,98,11026,5,0,0:0:0:0:
256,113,11138,1,0,0:0:0:0:
227,121,11249,1,0,0:0:0:0:
197,122,11360,1,0,0:0:0:0:
168,115,11471,1,0,0:0:0:0:
141,101,11582,1,0,0:0:0:0:
70,140,11693,5,10,0:0:0:0:
62,152,11804,1,0,0:0:0:0:
56,166,11915,1,0,0:0:0:0:
52,181,12026,1,0,0:0:0:0:
50,196,12138,1,0,0:0:0:0:
51,211,12249,1,0,0:0:0:0:
53,225,12360,1,0,0:0:0:0:
58,240,12471,1,0,0:0:0:0:
65,253,12582,1,0,0:0:0:0:
73,265,12693,1,0,0:0:0:0:
83,276,12804,1,0,0:0:0:0:
95,286,12915,1,0,0:0:0:0:
110,293,13026,6,0,L|159:287,5,30,10|0|0|0|0|0,0:0|0:0|0:0|0:0|0:0|0:0,0:0:0:0:
200,229,13693,2,0,L|229:232,5,30,2|0|0|0|0|0,0:0|0:0|0:0|0:0|0:0|0:0,0:0:0:0:
280,318,14360,5,10,0:0:0:0:
292,310,14471,1,0,0:0:0:0:
306,304,14582,1,0,0:0:0:0:
321,302,14693,1,0,0:0:0:0:
335,302,14804,1,0,0:0:0:0:
350,304,14915,1,0,0:0:0:0:
363,308,15026,1,0,0:0:0:0:
375,315,15138,1,0,0:0:0:0:
389,322,15249,1,0,0:0:0:0:
403,325,15360,1,0,0:0:0:0:
418,326,15471,1,0,0:0:0:0:
434,325,15582,1,0,0:0:0:0:
447,321,15693,6,0,L|461:284,5,30,8|0|0|0|0|0,0:0|0:0|0:0|0:0|0:0|0:0,0:0:0:0:
382,185,16360,6,0,L|386:215,1,30,2|0,0:0|0:0,0:0:0:0:
277,199,16582,2,0,L|280:228,1,30,2|0,0:0|0:0,0:0:0:0:
178,188,16804,2,0,L|181:217,1,30,2|0,0:0|0:0,0:0:0:0:
85,163,17026,5,10,0:0:0:0:
65,148,17138,1,0,0:0:0:0:
51,129,17249,1,0,0:0:0:0:
44,106,17360,1,0,0:0:0:0:
44,82,17471,1,0,0:0:0:0:
52,60,17582,1,0,0:0:0:0:
66,41,17693,1,0,0:0:0:0:
86,27,17804,1,0,0:0:0:0:
108,20,17915,1,0,0:0:0:0:
132,21,18026,1,0,0:0:0:0:
155,28,18138,1,0,0:0:0:0:
174,43,18249,1,0,0:0:0:0:
187,66,18360,6,0,L|193:109,5,30,10|0|0|0|0|0,0:0|0:0|0:0|0:0|0:0|0:0,0:0:0:0:
276,123,19026,2,0,L|270:166,5,30,2|0|0|0|0|0,0:0|0:0|0:0|0:0|0:0|0:0,0:0:0:0:
172,272,19693,5,10,0:0:0:0:
190,248,19804,1,0,0:0:0:0:
216,234,19915,1,0,0:0:0:0:
246,230,20026,1,0,0:0:0:0:
274,238,20138,1,0,0:0:0:0:
298,256,20249,1,0,0:0:0:0:
313,282,20360,1,0,0:0:0:0:
317,311,20471,1,0,0:0:0:0:
310,340,20582,1,0,0:0:0:0:
292,364,20693,1,0,0:0:0:0:
266,380,20804,1,0,0:0:0:0:
237,384,20915,1,0,0:0:0:0:
208,377,21026,5,10,0:0:0:0:
231,343,21138,1,0,0:0:0:0:
272,318,21249,1,0,0:0:0:0:
317,311,21360,1,0,0:0:0:0:
363,315,21471,1,0,0:0:0:0:
407,334,21582,1,0,0:0:0:0:
439,368,21693,5,0,0:0:0:0:
498,324,21804,1,0,0:0:0:0:
512,254,21915,1,0,0:0:0:0:
499,184,22026,1,0,0:0:0:0:
439,140,22138,1,0,0:0:0:0:
365,140,22249,1,0,0:0:0:0:
296,229,22360,5,14,0:0:0:0:
296,238,23026,1,2,0:0:0:0:
296,247,23693,1,2,0:0:0:0:
296,255,24360,1,2,0:0:0:0:
296,263,25026,1,2,0:0:0:0:
296,271,25693,1,2,0:0:0:0:
296,279,26360,1,2,0:0:0:0:
241,181,27026,6,0,L|243:137,1,45,12|10,0:0|0:0,0:0:0:0:
243,137,27693,6,0,L|247:226,1,90,10|0,0:0|0:0,0:0:0:0:
336,51,27915,2,0,L|331:140,1,90,10|0,0:0|0:0,0:0:0:0:
367,270,28138,1,0,0:0:0:0:
367,270,28249,1,0,0:0:0:0:
367,270,28360,6,0,P|409:256|453:264,1,90,10|0,0:0|0:0,0:0:0:0:
331,141,28582,2,0,P|375:150|418:136,1,90,10|0,0:0|0:0,0:0:0:0:
247,226,28804,1,0,0:0:0:0:
247,226,28915,1,0,0:0:0:0:
247,226,29026,6,0,B|204:237|204:237|160:223,1,90,10|0,0:0|0:0,0:0:0:0:
161,49,29249,2,0,B|204:34|204:34|247:45,1,90,10|0,0:0|0:0,0:0:0:0:
89,139,29471,1,0,0:0:0:0:
89,139,29582,1,0,0:0:0:0:
88,139,29693,6,0,P|44:141|2:125,1,90,10|0,0:0|0:0,0:0:0:0:
160,223,29915,2,0,P|122:247|78:254,1,90,10|0,0:0|0:0,0:0:0:0:
263,260,30138,1,8,0:0:0:0:
207,138,30249,1,0,0:0:0:0:
274,277,30360,6,0,L|363:279,1,90,10|0,0:0|0:0,0:0:0:0:
307,157,30582,2,0,L|218:155,1,90,10|0,0:0|0:0,0:0:0:0:
86,262,30804,1,0,0:0:0:0:
86,262,30915,1,0,0:0:0:0:
86,262,31026,6,0,P|73:219|79:175,1,90,10|0,0:0|0:0,0:0:0:0:
217,154,31249,2,0,P|230:197|224:241,1,90,10|0,0:0|0:0,0:0:0:0:
136,64,31471,1,0,0:0:0:0:
136,64,31582,1,0,0:0:0:0:
136,64,31693,6,0,B|180:70|180:70|222:53,1,90,10|0,0:0|0:0,0:0:0:0:
303,164,31915,2,0,B|259:170|259:170|216:153,1,90,10|0,0:0|0:0,0:0:0:0:
388,53,32138,1,0,0:0:0:0:
388,53,32249,1,0,0:0:0:0:
388,53,32360,6,0,P|338:72|305:113,1,107.999996704102,10|8,0:0|0:0,0:0:0:0:
453,285,32582,2,0,P|460:232|441:182,1,107.999996704102,10|8,0:0|0:0,0:0:0:0:
217,230,32804,2,0,P|258:263|311:271,1,107.999996704102,10|0,0:0|0:0,0:0:0:0:
249,33,33026,6,0,L|159:33,1,90,14|0,0:0|0:0,0:0:0:0:
127,230,33249,2,0,L|217:229,1,90,10|0,0:0|0:0,0:0:0:0:
34,186,33471,1,0,0:0:0:0:
34,186,33582,1,0,0:0:0:0:
34,186,33693,6,0,B|23:228|23:228|33:273,1,90,10|0,0:0|0:0,0:0:0:0:
216,316,33915,2,0,B|227:274|227:274|217:229,1,90,10|0,0:0|0:0,0:0:0:0:
49,365,34138,1,0,0:0:0:0:
49,365,34249,1,0,0:0:0:0:
49,365,34360,6,0,L|139:365,1,90,10|0,0:0|0:0,0:0:0:0:
304,268,34582,2,0,L|394:268,1,90,10|0,0:0|0:0,0:0:0:0:
500,366,34804,1,0,0:0:0:0:
500,366,34915,1,0,0:0:0:0:
499,365,35026,6,0,P|474:329|472:284,1,90,10|0,0:0|0:0,0:0:0:0:
509,135,35249,1,10,0:0:0:0:
465,146,35360,1,0,0:0:0:0:
422,136,35471,2,0,B|378:125|378:125|334:137,1,90,8|0,0:0|0:0,0:0:0:0:
208,264,35693,6,0,P|251:275|294:263,1,90,10|0,0:0|0:0,0:0:0:0:
251,93,35915,2,0,P|239:136|251:179,1,90,10|0,0:0|0:0,0:0:0:0:
379,307,36138,2,0,P|390:263|378:220,1,90,0|0,0:0|0:0,0:0:0:0:
331,41,36360,6,0,L|421:41,1,90,10|0,0:0|0:0,0:0:0:0:
251,93,36582,2,0,L|161:93,1,90,10|0,0:0|0:0,0:0:0:0:
334,136,36804,2,0,L|424:136,1,90,2|0,0:0|0:0,0:0:0:0:
253,188,37026,6,0,P|262:231|250:274,1,90,10|0,0:0|0:0,0:0:0:0:
83,230,37249,1,10,0:0:0:0:
83,230,37360,2,0,L|173:229,1,90,8|2,0:0|0:0,0:0:0:0:
316,341,37582,1,8,0:0:0:0:
251,93,37693,5,10,0:0:0:0:
250,274,37804,1,8,0:0:0:0:
408,185,37915,5,10,0:0:0:0:
227,183,38026,1,8,0:0:0:0:
316,341,38138,5,10,0:0:0:0:
318,160,38249,1,8,0:0:0:0:
224,364,38360,6,0,L|125:358,1,99.0000030212403,14|0,0:0|0:0,0:0:0:0:
358,256,38582,2,0,L|259:262,1,99.0000030212403,10|0,0:0|0:0,0:0:0:0:
462,312,38804,1,0,0:0:0:0:
462,312,38915,1,0,0:0:0:0:
462,312,39026,6,0,B|474:263|474:263|460:214,1,99.0000030212403,10|0,0:0|0:0,0:0:0:0:
316,64,39249,2,0,B|304:113|304:113|318:160,1,99.0000030212403,10|0,0:0|0:0,0:0:0:0:
129,188,39471,1,8,0:0:0:0:
129,188,39582,1,0,0:0:0:0:
128,188,39693,6,0,L|227:182,1,99.0000030212403,10|0,0:0|0:0,0:0:0:0:
414,69,39915,2,0,L|315:63,1,99.0000030212403,10|0,0:0|0:0,0:0:0:0:
125,8,40138,1,8,0:0:0:0:
125,8,40249,1,0,0:0:0:0:
125,8,40360,6,0,P|145:54|117:111,1,99.0000030212403,10|0,0:0|0:0,0:0:0:0:
38,241,40582,2,0,P|18:195|46:138,1,99.0000030212403,10|0,0:0|0:0,0:0:0:0:
226,182,40804,1,8,0:0:0:0:
124,120,40915,1,0,0:0:0:0:
232,204,41026,6,0,L|331:198,1,99.0000030212403,10|0,0:0|0:0,0:0:0:0:
138,288,41249,2,0,L|237:294,1,99.0000030212403,10|0,0:0|0:0,0:0:0:0:
435,366,41471,1,0,0:0:0:0:
435,366,41582,1,0,0:0:0:0:
434,365,41693,6,0,B|388:352|388:352|339:364,1,99.0000030212403,10|0,0:0|0:0,0:0:0:0:
138,288,41915,2,0,B|92:275|92:275|43:287,1,99.0000030212403,10|0,0:0|0:0,0:0:0:0:
137,89,42138,1,10,0:0:0:0:
137,89,42249,1,0,0:0:0:0:
137,89,42360,6,0,L|126:199,1,99.0000030212403,10|0,0:0|0:0,0:0:0:0:
334,274,42582,2,0,L|324:175,1,99.0000030212403,10|0,0:0|0:0,0:0:0:0:
46,135,42804,1,8,0:0:0:0:
46,135,42915,1,0,0:0:0:0:
46,135,43026,6,0,P|89:96|167:98,1,107.999996704102,10|8,0:0|0:0,0:0:0:0:
405,122,43249,2,0,P|362:83|284:85,1,107.999996704102,10|8,0:0|0:0,0:0:0:0:
128,0,43471,2,0,P|180:9|218:46,1,107.999996704102,10|0,0:0|0:0,0:0:0:0:
117,285,43693,6,0,L|126:186,1,99.0000030212403,14|0,0:0|0:0,0:0:0:0:
314,75,43915,2,0,L|323:173,1,99.0000030212403,10|0,0:0|0:0,0:0:0:0:
271,344,44138,1,0,0:0:0:0:
271,344,44249,1,0,0:0:0:0:
271,344,44360,6,0,B|318:331|318:331|367:343,1,99.0000030212403,10|0,0:0|0:0,0:0:0:0:
221,187,44582,2,0,B|172:199|172:199|125:186,1,99.0000030212403,10|0,0:0|0:0,0:0:0:0:
314,75,44804,1,8,0:0:0:0:
314,75,44915,1,0,0:0:0:0:
314,75,45026,6,0,L|419:86,1,99.0000030212403,10|0,0:0|0:0,0:0:0:0:
221,187,45249,2,0,L|319:176,1,99.0000030212403,10|0,0:0|0:0,0:0:0:0:
77,97,45471,1,8,0:0:0:0:
77,97,45582,1,0,0:0:0:0:
77,97,45693,6,0,B|124:84|124:84|173:96,1,99.0000030212403,10|0,0:0|0:0,0:0:0:0:
160,275,45915,2,0,B|130:234|130:234|124:185,1,99.0000030212403,10|0,0:0|0:0,0:0:0:0:
265,101,46138,2,0,B|254:148|254:148|220:186,1,99.0000030212403,8|0,0:0|0:0,0:0:0:0:
31,206,46360,6,0,P|73:184|136:190,1,99.0000030212403,14|0,0:0|0:0,0:0:0:0:
357,250,46582,2,0,P|313:272|264:270,1,99.0000030212403,10|0,0:0|0:0,0:0:0:0:
102,280,46804,1,0,0:0:0:0:
102,280,46915,1,0,0:0:0:0:
102,280,47026,6,0,L|97:399,1,99.0000030212403,10|0,0:0|0:0,0:0:0:0:
268,171,47249,2,0,L|263:290,1,99.0000030212403,10|0,0:0|0:0,0:0:0:0:
434,62,47471,2,0,L|429:181,1,99.0000030212403,10|0,0:0|0:0,0:0:0:0:
136,32,47693,6,0,B|187:18|187:18|241:31,1,99.0000030212403,14|0,0:0|0:0,0:0:0:0:
121,186,47915,2,0,B|67:199|67:199|16:185,1,99.0000030212403,10|0,0:0|0:0,0:0:0:0:
187,113,48138,1,10,0:0:0:0:
154,278,48249,1,0,0:0:0:0:
393,138,48360,5,10,0:0:0:0:
219,203,48471,1,8,0:0:0:0:
443,268,48582,5,10,0:0:0:0:
274,360,48693,1,8,0:0:0:0:
281,130,48804,5,8,0:0:0:0:
371,362,48915,1,8,0:0:0:0:
154,278,49026,5,14,0:0:0:0:
169,166,49138,2,0,L|153:278,1,112.5,8|0,0:0|0:0,0:0:0:0:
371,362,49360,5,8,0:0:0:0:
354,250,49471,2,0,L|369:361,1,112.5,8|0,0:0|0:0,0:0:0:0:
227,112,49693,5,10,0:0:0:0:
354,250,49804,1,8,0:0:0:0:
188,358,49915,2,0,P|132:362|86:331,1,112.5,8|0,0:0|0:0,0:0:0:0:
126,86,50138,2,0,P|182:82|228:113,1,112.5,8|0,0:0|0:0,0:0:0:0:
39,253,50360,5,14,0:0:0:0:
54,145,50471,2,0,B|32:197|32:197|38:252,1,112.5,8|0,0:0|0:0,0:0:0:0:
260,299,50693,5,8,0:0:0:0:
275,191,50804,2,0,B|281:246|281:246|260:299,1,112.5,8|0,0:0|0:0,0:0:0:0:
227,111,51026,5,10,0:0:0:0:
319,109,51138,1,0,0:0:0:0:
367,189,51249,5,8,0:0:0:0:
275,191,51360,1,0,0:0:0:0:
271,29,51471,5,8,0:0:0:0:
183,192,51582,1,8,0:0:0:0:
66,34,51693,5,14,0:0:0:0:
179,31,51804,2,0,L|66:34,1,112.5,8|0,0:0|0:0,0:0:0:0:
30,190,52026,5,8,0:0:0:0:
143,193,52138,2,0,L|30:190,1,112.5,8|0,0:0|0:0,0:0:0:0:
319,109,52360,5,10,0:0:0:0:
351,336,52471,1,8,0:0:0:0:
133,300,52582,2,0,P|123:246|143:194,1,112.5,8|0,0:0|0:0,0:0:0:0:
403,49,52804,2,0,P|422:101|412:155,1,112.5,8|0,0:0|0:0,0:0:0:0:
172,23,53026,5,14,0:0:0:0:
284,21,53138,2,0,L|172:23,1,112.5,8|0,0:0|0:0,0:0:0:0:
143,193,53360,5,8,0:0:0:0:
255,191,53471,2,0,L|142:192,1,112.5,8|0,0:0|0:0,0:0:0:0:
324,109,53693,5,10,0:0:0:0:
235,108,53804,2,0,L|324:109,1,90,8|8,0:0|0:0,0:0:0:0:
352,276,54026,5,8,0:0:0:0:
263,275,54138,2,0,L|352:276,1,90,8|8,0:0|0:0,0:0:0:0:
73,240,54360,5,14,0:0:0:0:
81,135,54471,2,0,P|59:185|72:239,1,112.5,8|0,0:0|0:0,0:0:0:0:
235,108,54693,5,8,0:0:0:0:
226,3,54804,2,0,P|248:54|235:108,1,112.5,8|0,0:0|0:0,0:0:0:0:
50,52,55026,5,10,0:0:0:0:
142,191,55138,1,8,0:0:0:0:
347,109,55249,2,0,L|235:107,1,112.5,8|0,0:0|0:0,0:0:0:0:
148,294,55471,2,0,L|260:291,1,112.5,8|0,0:0|0:0,0:0:0:0:
440,191,55693,5,14,0:0:0:0:
440,83,55804,2,0,B|425:135|425:135|440:191,1,112.5,8|0,0:0|0:0,0:0:0:0:
334,348,56026,5,8,0:0:0:0:
335,239,56138,2,0,B|350:291|350:291|334:347,1,112.5,8|0,0:0|0:0,0:0:0:0:
249,197,56360,5,10,0:0:0:0:
260,290,56471,1,0,0:0:0:0:
163,161,56582,5,8,0:0:0:0:
174,254,56693,1,0,0:0:0:0:
238,104,56804,5,8,0:0:0:0:
88,218,56915,1,8,0:0:0:0:
324,140,57026,5,14,0:0:0:0:
311,28,57138,2,0,L|323:140,1,112.5,8|0,0:0|0:0,0:0:0:0:
163,161,57360,5,8,0:0:0:0:
151,49,57471,2,0,L|162:160,1,112.5,8|0,0:0|0:0,0:0:0:0:
266,331,57693,5,10,0:0:0:0:
238,104,57804,1,8,0:0:0:0:
62,266,57915,2,0,L|173:253,1,112.5,8|0,0:0|0:0,0:0:0:0:
377,343,58138,2,0,L|266:331,1,112.5,8|0,0:0|0:0,0:0:0:0:
452,172,58360,5,14,0:0:0:0:
458,277,58471,2,0,P|471:223|451:171,1,112.5,8|0,0:0|0:0,0:0:0:0:
272,225,58693,5,8,0:0:0:0:
266,330,58804,2,0,P|252:276|272:225,1,112.5,8|0,0:0|0:0,0:0:0:0:
396,80,59026,5,10,0:0:0:0:
271,225,59138,1,8,0:0:0:0:
146,80,59249,1,8,0:0:0:0:
333,152,59360,5,8,0:0:0:0:
84,153,59471,1,8,0:0:0:0:
273,31,59582,1,8,0:0:0:0:
209,298,59693,5,14,0:0:0:0:
329,283,59804,2,0,L|208:298,1,121.500000463486,8|0,0:0|0:0,0:0:0:0:
333,153,60026,5,8,0:0:0:0:
453,168,60138,2,0,L|333:153,1,121.500000463486,8|0,0:0|0:0,0:0:0:0:
229,14,60360,5,10,0:0:0:0:
233,199,60471,1,8,0:0:0:0:
92,35,60582,2,0,B|72:96|72:96|85:161,1,121.500000463486,8|0,0:0|0:0,0:0:0:0:
225,317,60804,2,0,B|244:255|244:255|233:199,1,121.500000463486,8|0,0:0|0:0,0:0:0:0:
23,287,61026,5,14,0:0:0:0:
126,248,61138,2,0,P|66:247|23:287,1,121.500000463486,8|0,0:0|0:0,0:0:0:0:
204,115,61360,5,8,0:0:0:0:
308,151,61471,2,0,P|263:112|204:114,1,121.500000463486,8|0,0:0|0:0,0:0:0:0:
35,58,61693,5,10,0:0:0:0:
97,138,61804,1,0,0:0:0:0:
132,36,61915,5,8,0:0:0:0:
35,58,62026,1,0,0:0:0:0:
159,218,62138,5,8,0:0:0:0:
229,14,62249,1,8,0:0:0:0:
377,207,62360,5,14,0:0:0:0:
260,216,62471,2,0,B|321:196|321:196|378:208,1,121.500000463486,8|0,0:0|0:0,0:0:0:0:
445,32,62693,5,8,0:0:0:0:
327,40,62804,2,0,B|388:20|388:20|445:32,1,121.500000463486,8|0,0:0|0:0,0:0:0:0:
260,216,63026,5,10,0:0:0:0:
115,48,63138,1,8,0:0:0:0:
15,233,63249,2,0,L|137:226,1,121.500000463486,8|0,0:0|0:0,0:0:0:0:
325,121,63471,2,0,L|203:114,1,121.500000463486,8|0,0:0|0:0,0:0:0:0:
230,325,63693,5,14,0:0:0:0:
234,214,63804,2,0,P|211:270|231:326,1,121.500000463486,8|0,0:0|0:0,0:0:0:0:
449,279,64026,5,8,0:0:0:0:
451,168,64138,2,0,P|471:223|450:278,1,121.500000463486,8|0,0:0|0:0,0:0:0:0:
234,214,64360,5,10,0:0:0:0:
332,217,64471,2,0,L|234:214,1,99.0000030212403,8|8,0:0|0:0,0:0:0:0:
143,98,64693,5,8,0:0:0:0:
242,96,64804,2,0,L|143:99,1,99.0000030212403,8|8,2:0|0:0,0:0:0:0:
443,50,65026,5,14,0:0:0:0:
451,168,65138,2,0,B|463:112|463:112|443:51,1,121.500000463486,8|0,0:0|0:0,0:0:0:0:
242,96,65360,5,8,0:0:0:0:
234,214,65471,2,0,B|222:157|222:157|242:96,1,121.500000463486,8|0,0:0|0:0,0:0:0:0:
35,71,65693,5,10,0:0:0:0:
147,265,65804,1,8,0:0:0:0:
7,188,65915,2,0,L|130:173,1,121.500000463486,8|0,0:0|0:0,0:0:0:0:
362,111,66138,2,0,L|241:96,1,121.500000463486,8|0,0:0|0:0,0:0:0:0:
225,325,66360,5,14,0:0:0:0:
234,214,66471,2,0,P|250:271|226:325,1,121.500000463486,8|0,0:0|0:0,0:0:0:0:
0,298,66693,5,8,0:0:0:0:
7,187,66804,2,0,P|-17:241|0:298,1,121.500000463486,8|0,0:0|0:0,0:0:0:0:
234,214,67026,5,10,0:0:0:0:
147,265,67138,1,0,0:0:0:0:
314,276,67249,5,8,0:0:0:0:
226,326,67360,1,0,0:0:0:0:
149,163,67471,5,8,0:0:0:0:
138,376,67582,1,8,0:0:0:0:
241,121,67693,5,14,0:0:0:0:
371,126,67804,2,0,L|241:121,1,130.500003982544,8|0,0:0|0:0,0:0:0:0:
314,276,68026,5,8,0:0:0:0:
445,271,68138,2,0,L|314:276,1,130.500003982544,8|0,0:0|0:0,0:0:0:0:
93,63,68360,5,10,0:0:0:0:
147,265,68471,1,8,0:0:0:0:
371,126,68582,2,0,B|387:62|387:62|367:1,1,130.500003982544,8|0,0:0|0:0,0:0:0:0:
141,126,68804,2,0,B|125:62|125:62|145:1,1,130.500003982544,8|0,0:0|0:0,0:0:0:0:
352,224,69026,5,14,0:0:0:0:
478,224,69138,2,0,B|414:208|414:208|350:224,1,130.500003982544,8|0,0:0|0:0,0:0:0:0:
160,224,69360,5,8,0:0:0:0:
33,224,69471,2,0,B|97:208|97:208|159:223,1,130.500003982544,8|0,0:0|0:0,0:0:0:0:
391,224,69693,5,8,0:0:0:0:
259,319,69804,1,8,0:0:0:0:
128,224,69915,1,8,0:0:0:0:
341,68,70026,5,8,0:0:0:0:
256,192,70138,1,8,0:0:0:0:
178,68,70249,1,10,0:0:0:0:
256,192,70360,5,14,0:0:0:0:
258,205,71026,1,2,0:0:0:0:
260,218,71693,1,2,0:0:0:0:
262,231,72360,1,2,0:0:0:0:
264,244,73026,6,0,L|276:311,2,67.5000025749208,10|0|0,0:0|0:0|0:0,0:0:0:0:
184,295,74360,2,0,L|172:362,2,67.5000025749208,10|0|0,0:0|0:0|0:0,0:0:0:0:
117,229,75693,5,10,0:0:0:0:
119,215,76360,1,2,0:0:0:0:
121,201,77026,1,10,0:0:0:0:
123,187,77693,1,2,0:0:0:0:
125,173,78360,6,0,L|133:103,2,67.5000025749208,10|0|0,0:0|0:0|0:0,0:0:0:0:
218,157,79693,2,0,L|225:224,1,67.5000025749208,10|0,0:0|0:0,0:0:0:0:
282,279,80360,2,0,P|272:300|265:321,2,45.0000017166138,8|8|0,0:0|0:0|0:0,0:0:0:0:
352,218,81026,6,0,P|412:205|475:247,1,120,14|0,0:0|0:0,0:0:0:0:
500,31,81693,2,0,P|524:91|508:155,1,120,10|0,0:0|0:0,0:0:0:0:
300,104,82360,2,0,L|419:98,1,120,10|0,0:0|0:0,0:0:0:0:
212,48,83026,2,0,P|159:53|118:128,1,120,10|0,0:0|0:0,0:0:0:0:
89,274,83693,6,0,B|159:256|159:256|219:266,1,120,10|2,0:0|0:0,0:0:0:0:
290,312,84249,1,2,0:0:0:0:
370,255,84360,2,0,P|378:192|323:144,1,120,2|2,0:0|0:0,0:0:0:0:
322,61,85026,6,0,P|291:63|262:70,1,48,10|0,0:0|0:0,0:0:0:0:
167,147,85471,2,0,P|189:152|213:153,1,35.9999989013672,2|0,0:0|0:0,0:0:0:0:
86,6,85915,2,0,B|76:31|76:31|80:57,1,52.5,2|0,0:0|0:0,0:0:0:0:
26,162,86360,6,0,B|140:123|140:199|254:162,1,215.999993408203,10|10,0:0|0:0,0:0:0:0:
325,114,87471,1,2,0:0:0:0:
452,297,87693,6,0,P|469:246|380:254,1,167.999994873047,10|10,0:0|0:0,0:0:0:0:
295,292,88804,1,2,0:0:0:0:
145,302,89026,6,0,L|316:290,1,150,10|2,0:0|0:0,0:0:0:0:
255,71,90360,6,0,L|255:119,1,45,10|0,0:0|0:0,0:0:0:0:
366,211,91026,5,14,0:0:0:0:
366,211,91471,6,0,L|363:196,1,15,2|2,0:0|0:0,0:0:0:0:
332,74,91693,5,14,0:0:0:0:
187,147,91804,1,0,0:0:0:0:
366,211,91915,1,10,0:0:0:0:
332,74,92026,1,10,0:0:0:0:
275,257,92138,2,0,P|266:311|286:363,1,112.5,10|0,0:0|0:0,0:0:0:0:
474,347,92360,5,10,2:0:0:0:
394,179,92471,1,2,2:0:0:0:
286,363,92582,1,10,0:0:0:0:
474,347,92693,1,2,0:0:0:0:
275,257,92804,2,0,B|224:245|224:245|167:263,1,112.5,10|0,0:0|0:0,0:0:0:0:
40,361,93026,5,10,0:0:0:0:
0,185,93138,1,0,0:0:0:0:
166,263,93249,1,10,0:0:0:0:
40,361,93360,1,10,0:0:0:0:
0,184,93471,2,0,P|9:130|42:85,1,112.5,10|2,0:0|0:0,0:0:0:0:
258,0,93693,5,10,0:0:0:0:
339,240,93804,1,2,0:0:0:0:
130,161,93915,2,0,L|243:161,1,112.5,10|0,2:0|2:0,0:0:0:0:
471,58,94138,5,10,2:0:0:0:
258,0,94249,1,2,2:0:0:0:
417,208,94360,5,14,0:0:0:0:
365,30,94471,1,0,0:0:0:0:
242,161,94582,1,10,0:0:0:0:
417,208,94693,1,10,0:0:0:0:
365,30,94804,1,10,0:0:0:0:
132,214,94915,2,0,B|177:235|225:214|225:214|250:240|250:240|297:220|340:240,1,225,2|0,0:0|0:0,0:0:0:0:
176,113,95249,5,10,0:0:0:0:
176,113,95360,1,2,0:0:0:0:
296,340,95471,1,10,0:0:0:0:
296,340,95582,1,2,0:0:0:0:
430,125,95693,6,0,L|318:133,1,112.5,10|0,0:0|0:0,0:0:0:0:
492,218,95915,1,10,0:0:0:0:
365,30,96026,1,8,0:0:0:0:
340,239,96138,5,10,0:0:0:0:
365,30,96249,1,8,0:0:0:0:
427,305,96360,5,10,0:0:0:0:
427,305,96471,1,8,0:0:0:0:
502,51,96582,1,8,0:0:0:0:
502,51,96693,1,8,0:0:0:0:
232,54,96804,5,10,0:0:0:0:
340,239,96915,1,10,0:0:0:0:
418,73,97026,5,14,0:0:0:0:
232,54,97138,1,0,0:0:0:0:
360,226,97249,1,10,0:0:0:0:
418,73,97360,1,10,0:0:0:0:
254,174,97471,2,0,L|142:169,1,112.5,10|0,0:0|0:0,0:0:0:0:
314,108,97693,5,10,2:0:0:0:
107,55,97804,1,2,2:0:0:0:
204,250,97915,1,10,0:0:0:0:
314,108,98026,1,2,0:0:0:0:
204,250,98138,2,0,P|188:303|203:356,1,112.5,10|0,2:0|2:0,0:0:0:0:
141,168,98360,5,10,0:0:0:0:
284,304,98471,1,0,0:0:0:0:
76,353,98582,1,10,0:0:0:0:
141,168,98693,1,10,0:0:0:0:
203,356,98804,1,10,0:0:0:0:
258,171,98915,5,2,0:0:0:0:
397,304,99026,1,10,0:0:0:0:
342,127,99138,5,2,0:0:0:0:
284,304,99249,1,10,0:0:0:0:
437,130,99360,5,2,0:0:0:0:
284,304,99471,1,10,0:0:0:0:
262,76,99582,1,2,0:0:0:0:
438,222,99693,6,0,L|326:222,1,112.5,14|0,0:0|0:0,0:0:0:0:
341,21,99915,2,0,P|358:74|342:127,1,112.5,8|8,0:0|0:0,0:0:0:0:
184,130,100138,2,0,P|167:77|183:24,1,112.5,10|0,0:0|0:0,0:0:0:0:
199,225,100360,5,10,0:0:0:0:
199,225,100471,2,0,L|86:225,1,112.5,0|8,0:0|0:0,0:0:0:0:
113,349,100693,1,0,0:0:0:0:
113,349,100804,5,10,0:0:0:0:
184,130,100915,1,2,0:0:0:0:
338,301,101026,2,0,P|284:288|232:307,1,112.5,10|0,0:0|0:0,0:0:0:0:
302,89,101249,2,0,P|319:141|362:177,1,112.5,10|0,0:0|0:0,0:0:0:0:
137,225,101471,2,0,P|175:184|184:130,1,112.5,10|0,0:0|0:0,0:0:0:0:
113,349,101693,5,10,0:0:0:0:
87,142,101804,1,8,0:0:0:0:
232,307,101915,5,10,0:0:0:0:
245,66,102026,1,8,0:0:0:0:
357,286,102138,5,10,0:0:0:0:
421,15,102249,1,8,0:0:0:0:
512,352,102360,5,14,0:0:0:0:
351,384,102471,1,2,0:0:0:0:
444,213,102582,1,10,0:0:0:0:
512,352,102693,1,10,0:0:0:0:
340,264,102804,2,0,B|328:209|328:209|345:155,1,112.5,10|0,0:0|0:0,0:0:0:0:
454,54,103026,5,10,0:0:0:0:
281,2,103138,1,0,0:0:0:0:
345,155,103249,1,10,0:0:0:0:
454,54,103360,1,2,0:0:0:0:
225,113,103471,2,0,L|86:104,1,112.5,10|0,0:0|0:0,0:0:0:0:
99,233,103693,5,10,0:0:0:0:
0,61,103804,1,0,0:0:0:0:
113,106,103915,1,10,0:0:0:0:
0,174,104026,1,10,0:0:0:0:
226,114,104138,5,10,0:0:0:0:
113,106,104249,1,2,0:0:0:0:
97,0,104360,1,2,0:0:0:0:
113,106,104471,1,10,0:0:0:0:
198,14,104582,2,0,B|254:12|254:12|319:47,1,112.5,10|0,0:0|0:0,0:0:0:0:
395,213,104804,5,10,0:0:0:0:
479,93,104915,1,2,0:0:0:0:
255,150,105026,5,14,0:0:0:0:
339,298,105138,1,2,0:0:0:0:
119,257,105249,1,10,0:0:0:0:
255,150,105360,5,10,0:0:0:0:
161,355,105471,1,10,0:0:0:0:
45,175,105582,1,2,0:0:0:0:
232,252,105693,2,0,L|119:258,1,112.5,10|0,0:0|0:0,0:0:0:0:
221,43,105915,5,10,0:0:0:0:
360,199,106026,1,2,0:0:0:0:
157,148,106138,1,10,0:0:0:0:
342,70,106249,1,2,0:0:0:0:
257,254,106360,6,0,P|238:198|257:145,1,112.5,10|0,0:0|0:0,0:0:0:0:
353,317,106582,2,0,P|314:361|258:371,1,112.5,10|8,0:0|0:0,0:0:0:0:
360,199,106804,2,0,P|414:212|450:255,1,112.5,10|8,0:0|0:0,0:0:0:0:
56,249,107026,5,10,0:0:0:0:
271,283,107138,1,8,0:0:0:0:
122,124,107249,5,8,0:0:0:0:
151,348,107360,1,8,0:0:0:0:
254,149,107471,5,10,0:0:0:0:
169,238,107582,1,10,0:0:0:0:
17,159,107693,6,0,L|150:150,1,116.999994644165,14|2,0:0|0:0,0:0:0:0:
243,13,107915,1,10,0:0:0:0:
254,149,108026,1,10,0:0:0:0:
51,66,108138,1,10,0:0:0:0:
139,240,108249,1,2,0:0:0:0:
468,200,108360,6,0,L|335:191,1,116.999994644165,10|10,0:0|0:0,0:0:0:0:
359,318,108582,1,10,0:0:0:0:
359,318,108693,1,2,0:0:0:0:
133,151,108804,5,10,0:0:0:0:
250,275,108915,1,2,0:0:0:0:
34,355,109026,6,0,L|167:346,1,116.999994644165,14|2,0:0|0:0,0:0:0:0:
254,149,109249,1,10,0:0:0:0:
119,257,109360,1,10,0:0:0:0:
140,41,109471,1,10,0:0:0:0:
250,275,109582,1,2,0:0:0:0:
17,159,109693,5,10,0:0:0:0:
261,44,109804,1,10,0:0:0:0:
133,151,109915,5,10,0:0:0:0:
25,39,110026,1,2,0:0:0:0:
254,149,110138,2,0,B|377:128,1,116.999994644165,10|2,0:0|0:0,0:0:0:0:
416,32,110360,5,14,0:0:0:0:
416,32,110471,1,2,0:0:0:0:
472,136,110582,5,10,0:0:0:0:
472,136,110693,1,2,0:0:0:0:
416,240,110804,5,10,0:0:0:0:
416,240,110915,1,2,0:0:0:0:
189,47,111026,5,14,0:0:0:0:
189,47,111138,1,2,0:0:0:0:
133,151,111249,5,10,0:0:0:0:
133,151,111360,1,2,0:0:0:0:
189,255,111471,5,10,0:0:0:0:
189,255,111582,1,2,0:0:0:0:
372,138,111693,5,14,0:0:0:0:
281,195,111804,1,10,0:0:0:0:
393,184,111915,5,10,0:0:0:0:
223,133,112026,1,10,0:0:0:0:
464,78,112138,5,10,0:0:0:0:
189,255,112249,1,10,0:0:0:0:
487,217,112360,5,10,0:0:0:0:
129,100,112471,1,10,0:0:0:0:
369,318,112582,5,10,0:0:0:0:
299,30,112693,1,10,0:0:0:0:
140,352,112804,5,14,0:0:0:0:
140,352,113915,5,14,0:0:0:0:
140,352,114026,2,0,L|146:294,2,30
48,257,114359,5,2,0:0:0:0:
48,257,114470,1,0,0:0:0:0:
48,257,114581,2,0,L|42:199,3,30,2|0|0|0,0:0|0:0|0:0|0:0,0:0:0:0:
100,143,115026,6,0,L|106:85,1,30,2|0,0:0|0:0,0:0:0:0:
198,89,115248,2,0,L|212:32,1,30,2|0,0:0|0:0,0:0:0:0:
316,90,115470,2,0,L|348:41,1,30,2|0,0:0|0:0,0:0:0:0:
417,144,115692,5,2,0:0:0:0:
417,144,115803,1,2,0:0:0:0:
417,144,115915,2,0,L|464:109,1,30,2|2,0:0|0:0,0:0:0:0:
442,239,116137,6,0,L|498:222,2,30,0|2|2,0:0|0:0|0:0,0:0:0:0:
395,327,116470,1,2,0:0:0:0:
256,192,116581,12,0,119248,0:0:0:0:
