osu file format v14

[General]
AudioFilename: audio.mp3
AudioLeadIn: 0
PreviewTime: 21467
Countdown: 0
SampleSet: None
StackLeniency: 0.7
Mode: 3
LetterboxInBreaks: 0
SpecialStyle: 0
WidescreenStoryboard: 1

[Editor]
Bookmarks: 60505
DistanceSpacing: 1.6
BeatDivisor: 4
GridSize: 32
TimelineZoom: 2.899997

[Metadata]
Title:chaplet
TitleUnicode:chaplet
Artist:DJ TOTTO
ArtistUnicode:DJ TOTTO
Creator:Rivals_7
Version:Hyper
Source:REFLEC BEAT colette -Spring-
Tags:jubeat saucer plus jukebeat the 6th kac dj totto's selection fulfill prop qubell groovin'!! upper volzza festo 悠久のリフレシア yukyuu no reflessia achsanlovers
BeatmapID:2481992
BeatmapSetID:930633

[Difficulty]
HPDrainRate:8
CircleSize:4
OverallDifficulty:8
ApproachRate:5
SliderMultiplier:1.4
SliderTickRate:1

[Events]
//Background and Video events
0,0,"chaplet.png",0,0
//Break Periods
//Storyboard Layer 0 (Background)
//Storyboard Layer 1 (Fail)
//Storyboard Layer 2 (Pass)
//Storyboard Layer 3 (Foreground)
//Storyboard Layer 4 (Overlay)
//Storyboard Sound Samples

[TimingPoints]
1705,300,4,2,1,5,1,0
22105,-100,4,2,1,5,0,1
31405,-100,4,2,1,5,0,0
31705,-100,4,2,1,5,0,1
35305,-100,4,2,1,5,0,0
36505,-100,4,2,1,5,0,1
41305,-100,4,2,1,5,0,0
89305,-100,4,2,1,5,0,1
92905,-100,4,2,1,5,0,0
94105,-100,4,2,1,5,0,1
98905,-100,4,2,1,5,0,0

[HitObjects]
64,192,1705,5,0,0:0:0:0:
448,192,1705,1,0,0:0:0:0:
320,192,1855,1,0,0:0:0:0:
192,192,2005,1,0,0:0:0:0:
64,192,2305,1,0,0:0:0:0:
192,192,2455,1,0,0:0:0:0:
448,192,2605,1,0,0:0:0:0:
320,192,2755,1,0,0:0:0:0:
64,192,2905,1,0,0:0:0:0:
192,192,3205,1,0,0:0:0:0:
320,192,3355,1,0,0:0:0:0:
448,192,3505,1,0,0:0:0:0:
192,192,3655,1,0,0:0:0:0:
64,192,3805,1,0,0:0:0:0:
320,192,3955,1,0,0:0:0:0:
192,192,4105,1,0,0:0:0:0:
64,192,4105,1,0,0:0:0:0:
320,192,4255,1,0,0:0:0:0:
448,192,4405,1,0,0:0:0:0:
192,192,4705,1,0,0:0:0:0:
320,192,4855,1,0,0:0:0:0:
448,192,5005,1,0,0:0:0:0:
192,192,5155,1,0,0:0:0:0:
64,192,5305,1,0,0:0:0:0:
320,192,5455,1,0,0:0:0:0:
192,192,5605,1,0,0:0:0:0:
320,192,5755,1,0,0:0:0:0:
448,192,5905,1,0,0:0:0:0:
192,192,6055,1,0,0:0:0:0:
320,192,6205,1,0,0:0:0:0:
64,192,6355,1,0,0:0:0:0:
320,192,6505,1,0,0:0:0:0:
448,192,6505,1,0,0:0:0:0:
192,192,6805,1,0,0:0:0:0:
64,192,6955,1,0,0:0:0:0:
320,192,7105,1,0,0:0:0:0:
192,192,7255,1,0,0:0:0:0:
448,192,7405,1,0,0:0:0:0:
320,192,7555,1,0,0:0:0:0:
64,192,7705,1,0,0:0:0:0:
192,192,8005,1,0,0:0:0:0:
320,192,8155,1,0,0:0:0:0:
448,192,8305,1,0,0:0:0:0:
192,192,8455,1,0,0:0:0:0:
64,192,8605,1,0,0:0:0:0:
320,192,8755,1,0,0:0:0:0:
448,192,8905,1,0,0:0:0:0:
64,192,8905,1,0,0:0:0:0:
192,192,9055,1,0,0:0:0:0:
320,192,9205,1,0,0:0:0:0:
192,192,9505,1,0,0:0:0:0:
320,192,9655,1,0,0:0:0:0:
448,192,9805,1,0,0:0:0:0:
192,192,9955,1,0,0:0:0:0:
64,192,10105,1,0,0:0:0:0:
448,192,10405,1,0,0:0:0:0:
320,192,10555,1,0,0:0:0:0:
64,192,10705,128,0,11305:0:0:0:0:
320,192,11305,1,0,0:0:0:0:
448,192,11305,1,0,0:0:0:0:
192,192,11605,1,0,0:0:0:0:
320,192,11905,1,0,0:0:0:0:
64,192,12205,1,0,0:0:0:0:
448,192,12505,1,0,0:0:0:0:
192,192,12805,1,0,0:0:0:0:
320,192,13105,1,0,0:0:0:0:
192,192,13405,1,0,0:0:0:0:
64,192,13705,1,0,0:0:0:0:
448,192,13705,1,0,0:0:0:0:
320,192,14005,1,0,0:0:0:0:
192,192,14305,1,0,0:0:0:0:
448,192,14605,1,0,0:0:0:0:
64,192,14905,1,0,0:0:0:0:
320,192,15055,1,0,0:0:0:0:
448,192,15205,1,0,0:0:0:0:
192,192,15505,1,0,0:0:0:0:
64,192,15805,1,0,0:0:0:0:
320,192,16105,1,0,0:0:0:0:
448,192,16105,1,0,0:0:0:0:
192,192,16405,1,0,0:0:0:0:
448,192,16705,1,0,0:0:0:0:
64,192,17005,1,0,0:0:0:0:
448,192,17155,1,0,0:0:0:0:
192,192,17305,1,0,0:0:0:0:
64,192,17305,1,0,0:0:0:0:
320,192,17605,1,0,0:0:0:0:
192,192,17905,1,0,0:0:0:0:
320,192,18205,1,0,0:0:0:0:
448,192,18505,1,0,0:0:0:0:
64,192,18505,1,0,0:0:0:0:
192,192,18805,1,0,0:0:0:0:
320,192,19105,1,0,0:0:0:0:
448,192,19405,1,0,0:0:0:0:
64,192,19555,1,0,0:0:0:0:
320,192,19705,1,0,0:0:0:0:
448,192,19705,1,0,0:0:0:0:
192,192,20005,1,0,0:0:0:0:
64,192,20305,1,0,0:0:0:0:
448,192,20305,1,0,0:0:0:0:
320,192,20605,1,0,0:0:0:0:
192,192,20905,1,0,0:0:0:0:
64,192,20905,1,0,0:0:0:0:
320,192,21505,1,0,0:0:0:0:
192,192,21605,1,0,0:0:0:0:
64,192,21705,1,0,0:0:0:0:
448,192,21805,1,0,0:0:0:0:
320,192,21905,1,0,0:0:0:0:
64,192,22005,1,0,0:0:0:0:
192,192,22105,1,0,0:0:0:0:
448,192,22105,1,0,0:0:0:0:
320,192,22205,1,0,0:0:0:0:
448,192,22305,1,0,0:0:0:0:
64,192,22405,1,0,0:0:0:0:
192,192,22405,1,0,0:0:0:0:
448,192,22505,1,0,0:0:0:0:
320,192,22605,1,0,0:0:0:0:
64,192,22705,1,0,0:0:0:0:
192,192,22805,1,0,0:0:0:0:
320,192,22905,1,0,0:0:0:0:
448,192,23005,1,0,0:0:0:0:
64,192,23005,1,0,0:0:0:0:
192,192,23105,1,0,0:0:0:0:
320,192,23205,1,0,0:0:0:0:
192,192,23305,1,0,0:0:0:0:
64,192,23305,1,0,0:0:0:0:
448,192,23505,1,0,0:0:0:0:
320,192,23605,1,0,0:0:0:0:
64,192,23605,1,0,0:0:0:0:
192,192,23705,1,0,0:0:0:0:
448,192,23805,1,0,0:0:0:0:
320,192,23905,1,0,0:0:0:0:
64,192,24005,1,0,0:0:0:0:
192,192,24105,1,0,0:0:0:0:
320,192,24205,1,0,0:0:0:0:
448,192,24205,1,0,0:0:0:0:
64,192,24305,1,0,0:0:0:0:
192,192,24405,1,0,0:0:0:0:
320,192,24505,1,0,0:0:0:0:
448,192,24505,1,0,0:0:0:0:
64,192,24605,1,0,0:0:0:0:
320,192,24705,1,0,0:0:0:0:
192,192,24805,1,0,0:0:0:0:
64,192,24805,1,0,0:0:0:0:
448,192,24905,1,0,0:0:0:0:
320,192,25005,1,0,0:0:0:0:
64,192,25105,1,0,0:0:0:0:
192,192,25205,1,0,0:0:0:0:
320,192,25305,1,0,0:0:0:0:
192,192,25405,1,0,0:0:0:0:
64,192,25405,1,0,0:0:0:0:
448,192,25505,1,0,0:0:0:0:
320,192,25605,1,0,0:0:0:0:
192,192,25705,1,0,0:0:0:0:
64,192,25705,1,0,0:0:0:0:
320,192,25905,1,0,0:0:0:0:
448,192,26005,1,0,0:0:0:0:
64,192,26005,1,0,0:0:0:0:
192,192,26205,1,0,0:0:0:0:
320,192,26305,1,0,0:0:0:0:
448,192,26305,1,0,0:0:0:0:
192,192,26505,1,0,0:0:0:0:
64,192,26605,1,0,0:0:0:0:
448,192,26605,1,0,0:0:0:0:
320,192,26805,1,0,0:0:0:0:
448,192,26805,1,0,0:0:0:0:
192,192,26905,1,0,0:0:0:0:
64,192,26905,1,0,0:0:0:0:
320,192,27005,1,0,0:0:0:0:
192,192,27105,1,0,0:0:0:0:
448,192,27205,1,0,0:0:0:0:
64,192,27205,1,0,0:0:0:0:
320,192,27305,1,0,0:0:0:0:
192,192,27405,1,0,0:0:0:0:
64,192,27505,1,0,0:0:0:0:
320,192,27605,1,0,0:0:0:0:
192,192,27705,1,0,0:0:0:0:
320,192,27805,1,0,0:0:0:0:
448,192,27805,1,0,0:0:0:0:
64,192,28005,1,0,0:0:0:0:
192,192,28105,1,0,0:0:0:0:
448,192,28105,1,0,0:0:0:0:
320,192,28205,1,0,0:0:0:0:
448,192,28305,1,0,0:0:0:0:
192,192,28405,1,0,0:0:0:0:
64,192,28405,1,0,0:0:0:0:
320,192,28505,1,0,0:0:0:0:
64,192,28605,1,0,0:0:0:0:
448,192,28705,1,0,0:0:0:0:
192,192,28805,1,0,0:0:0:0:
64,192,28905,1,0,0:0:0:0:
320,192,29005,1,0,0:0:0:0:
448,192,29005,1,0,0:0:0:0:
192,192,29105,1,0,0:0:0:0:
320,192,29205,1,0,0:0:0:0:
64,192,29305,1,0,0:0:0:0:
448,192,29305,1,0,0:0:0:0:
320,192,29605,1,0,0:0:0:0:
448,192,29605,1,0,0:0:0:0:
192,192,29705,1,0,0:0:0:0:
448,192,29805,1,0,0:0:0:0:
192,192,29905,1,0,0:0:0:0:
64,192,29905,1,0,0:0:0:0:
64,192,30205,1,0,0:0:0:0:
192,192,30205,1,0,0:0:0:0:
448,192,30305,1,0,0:0:0:0:
64,192,30405,1,0,0:0:0:0:
320,192,30505,1,0,0:0:0:0:
448,192,30505,1,0,0:0:0:0:
192,192,30605,1,0,0:0:0:0:
320,192,30705,1,0,0:0:0:0:
64,192,30805,1,0,0:0:0:0:
448,192,30805,1,0,0:0:0:0:
192,192,30905,1,0,0:0:0:0:
320,192,31005,1,0,0:0:0:0:
448,192,31005,1,0,0:0:0:0:
192,192,31105,1,0,0:0:0:0:
64,192,31105,1,0,0:0:0:0:
320,192,31205,1,0,0:0:0:0:
192,192,31305,1,0,0:0:0:0:
320,192,31405,1,0,0:0:0:0:
448,192,31405,1,0,0:0:0:0:
64,192,31505,1,0,0:0:0:0:
448,192,31605,1,0,0:0:0:0:
192,192,31705,1,0,0:0:0:0:
64,192,31705,1,0,0:0:0:0:
320,192,31805,1,0,0:0:0:0:
192,192,31905,1,0,0:0:0:0:
448,192,32005,1,0,0:0:0:0:
64,192,32005,1,0,0:0:0:0:
320,192,32105,1,0,0:0:0:0:
448,192,32205,1,0,0:0:0:0:
64,192,32305,1,0,0:0:0:0:
192,192,32405,1,0,0:0:0:0:
320,192,32505,1,0,0:0:0:0:
448,192,32605,1,0,0:0:0:0:
64,192,32605,1,0,0:0:0:0:
192,192,32705,1,0,0:0:0:0:
320,192,32805,1,0,0:0:0:0:
192,192,32905,1,0,0:0:0:0:
64,192,32905,1,0,0:0:0:0:
320,192,33105,1,0,0:0:0:0:
192,192,33205,1,0,0:0:0:0:
64,192,33205,1,0,0:0:0:0:
448,192,33305,1,0,0:0:0:0:
192,192,33405,1,0,0:0:0:0:
64,192,33505,1,0,0:0:0:0:
320,192,33605,1,0,0:0:0:0:
448,192,33705,1,0,0:0:0:0:
192,192,33805,1,0,0:0:0:0:
64,192,33805,1,0,0:0:0:0:
320,192,33905,1,0,0:0:0:0:
192,192,34005,1,0,0:0:0:0:
448,192,34105,1,0,0:0:0:0:
64,192,34105,1,0,0:0:0:0:
320,192,34205,1,0,0:0:0:0:
192,192,34305,1,0,0:0:0:0:
448,192,34405,1,0,0:0:0:0:
64,192,34405,1,0,0:0:0:0:
320,192,34505,1,0,0:0:0:0:
192,192,34605,1,0,0:0:0:0:
64,192,34705,1,0,0:0:0:0:
320,192,34805,1,0,0:0:0:0:
192,192,34905,1,0,0:0:0:0:
320,192,35005,1,0,0:0:0:0:
448,192,35005,1,0,0:0:0:0:
64,192,35105,1,0,0:0:0:0:
192,192,35205,1,0,0:0:0:0:
320,192,35305,1,0,0:0:0:0:
448,192,35305,1,0,0:0:0:0:
320,192,35505,1,0,0:0:0:0:
448,192,35505,1,0,0:0:0:0:
192,192,35705,1,0,0:0:0:0:
64,192,35705,1,0,0:0:0:0:
192,192,35905,1,0,0:0:0:0:
64,192,35905,1,0,0:0:0:0:
320,192,36105,1,0,0:0:0:0:
448,192,36105,1,0,0:0:0:0:
320,192,36305,1,0,0:0:0:0:
448,192,36305,1,0,0:0:0:0:
448,192,36505,1,0,0:0:0:0:
320,192,36505,1,0,0:0:0:0:
64,192,36505,1,0,0:0:0:0:
192,192,36705,1,0,0:0:0:0:
64,192,36805,1,0,0:0:0:0:
448,192,36805,1,0,0:0:0:0:
320,192,36905,1,0,0:0:0:0:
64,192,37005,1,0,0:0:0:0:
448,192,37105,1,0,0:0:0:0:
192,192,37205,1,0,0:0:0:0:
320,192,37305,1,0,0:0:0:0:
192,192,37405,1,0,0:0:0:0:
64,192,37405,1,0,0:0:0:0:
448,192,37505,1,0,0:0:0:0:
320,192,37605,1,0,0:0:0:0:
192,192,37705,1,0,0:0:0:0:
64,192,37705,1,0,0:0:0:0:
192,192,37905,1,0,0:0:0:0:
320,192,38005,1,0,0:0:0:0:
448,192,38005,1,0,0:0:0:0:
64,192,38105,1,0,0:0:0:0:
320,192,38205,1,0,0:0:0:0:
192,192,38305,1,0,0:0:0:0:
64,192,38305,1,0,0:0:0:0:
448,192,38405,1,0,0:0:0:0:
320,192,38505,1,0,0:0:0:0:
192,192,38605,1,0,0:0:0:0:
64,192,38605,1,0,0:0:0:0:
448,192,38705,1,0,0:0:0:0:
192,192,38805,1,0,0:0:0:0:
64,192,38905,1,0,0:0:0:0:
448,192,38905,1,0,0:0:0:0:
320,192,39105,1,0,0:0:0:0:
64,192,39205,1,0,0:0:0:0:
192,192,39205,1,0,0:0:0:0:
448,192,39305,1,0,0:0:0:0:
320,192,39405,1,0,0:0:0:0:
448,192,39505,1,0,0:0:0:0:
64,192,39505,1,0,0:0:0:0:
64,192,39705,1,0,0:0:0:0:
320,192,39805,1,0,0:0:0:0:
448,192,39805,1,0,0:0:0:0:
192,192,39905,1,0,0:0:0:0:
320,192,40005,1,0,0:0:0:0:
64,192,40105,1,0,0:0:0:0:
448,192,40105,1,0,0:0:0:0:
192,192,40205,1,0,0:0:0:0:
192,192,40305,1,0,0:0:0:0:
448,192,40405,1,0,0:0:0:0:
64,192,40405,1,0,0:0:0:0:
320,192,40505,1,0,0:0:0:0:
320,192,40605,1,0,0:0:0:0:
64,192,40705,1,0,0:0:0:0:
448,192,40705,1,0,0:0:0:0:
192,192,40805,1,0,0:0:0:0:
192,192,40905,1,0,0:0:0:0:
448,192,41005,1,0,0:0:0:0:
64,192,41005,1,0,0:0:0:0:
320,192,41105,1,0,0:0:0:0:
320,192,41205,1,0,0:0:0:0:
64,192,41305,1,0,0:0:0:0:
448,192,41305,1,0,0:0:0:0:
192,192,41405,1,0,0:0:0:0:
64,192,41505,1,0,0:0:0:0:
320,192,41605,1,0,0:0:0:0:
192,192,41705,1,0,0:0:0:0:
448,192,41805,1,0,0:0:0:0:
64,192,41905,1,0,0:0:0:0:
192,192,42005,1,0,0:0:0:0:
320,192,42105,1,0,0:0:0:0:
448,192,42205,1,0,0:0:0:0:
192,192,42305,1,0,0:0:0:0:
320,192,42405,1,0,0:0:0:0:
64,192,42505,1,0,0:0:0:0:
448,192,42605,1,0,0:0:0:0:
320,192,42705,1,0,0:0:0:0:
192,192,42805,1,0,0:0:0:0:
64,192,42905,1,0,0:0:0:0:
320,192,43005,1,0,0:0:0:0:
448,192,43105,1,0,0:0:0:0:
64,192,43105,1,0,0:0:0:0:
320,192,43205,1,0,0:0:0:0:
192,192,43305,128,0,43405:0:0:0:0:
448,192,43405,1,0,0:0:0:0:
320,192,43505,128,0,43605:0:0:0:0:
64,192,43605,1,0,0:0:0:0:
448,192,43705,128,0,43805:0:0:0:0:
192,192,43805,1,0,0:0:0:0:
64,192,43905,1,0,0:0:0:0:
320,192,44005,1,0,0:0:0:0:
192,192,44105,1,0,0:0:0:0:
320,192,44205,1,0,0:0:0:0:
448,192,44305,1,0,0:0:0:0:
192,192,44405,1,0,0:0:0:0:
64,192,44505,1,0,0:0:0:0:
320,192,44605,1,0,0:0:0:0:
192,192,44705,1,0,0:0:0:0:
64,192,44805,1,0,0:0:0:0:
320,192,44905,1,0,0:0:0:0:
448,192,45005,1,0,0:0:0:0:
192,192,45105,1,0,0:0:0:0:
320,192,45205,1,0,0:0:0:0:
64,192,45305,1,0,0:0:0:0:
192,192,45405,1,0,0:0:0:0:
320,192,45505,1,0,0:0:0:0:
448,192,45505,1,0,0:0:0:0:
192,192,45605,1,0,0:0:0:0:
448,192,45705,128,0,45805:0:0:0:0:
64,192,45805,1,0,0:0:0:0:
192,192,45905,128,0,46005:0:0:0:0:
320,192,46005,1,0,0:0:0:0:
64,192,46105,128,0,46205:0:0:0:0:
448,192,46205,1,0,0:0:0:0:
320,192,46305,1,0,0:0:0:0:
192,192,46405,1,0,0:0:0:0:
64,192,46505,1,0,0:0:0:0:
320,192,46605,1,0,0:0:0:0:
192,192,46705,1,0,0:0:0:0:
320,192,46805,1,0,0:0:0:0:
64,192,46905,1,0,0:0:0:0:
192,192,47005,1,0,0:0:0:0:
320,192,47105,1,0,0:0:0:0:
64,192,47205,1,0,0:0:0:0:
192,192,47305,1,0,0:0:0:0:
320,192,47405,1,0,0:0:0:0:
448,192,47505,1,0,0:0:0:0:
192,192,47605,1,0,0:0:0:0:
64,192,47705,1,0,0:0:0:0:
320,192,47805,1,0,0:0:0:0:
192,192,47905,1,0,0:0:0:0:
64,192,47905,1,0,0:0:0:0:
320,192,48005,1,0,0:0:0:0:
64,192,48105,128,0,48205:0:0:0:0:
448,192,48205,1,0,0:0:0:0:
320,192,48305,128,0,48405:0:0:0:0:
192,192,48405,1,0,0:0:0:0:
448,192,48505,128,0,48605:0:0:0:0:
64,192,48605,1,0,0:0:0:0:
192,192,48705,1,0,0:0:0:0:
320,192,48805,1,0,0:0:0:0:
192,192,48905,1,0,0:0:0:0:
448,192,49005,1,0,0:0:0:0:
64,192,49105,1,0,0:0:0:0:
192,192,49205,1,0,0:0:0:0:
320,192,49305,1,0,0:0:0:0:
448,192,49405,1,0,0:0:0:0:
192,192,49505,1,0,0:0:0:0:
320,192,49605,1,0,0:0:0:0:
192,192,49705,1,0,0:0:0:0:
64,192,49705,1,0,0:0:0:0:
448,192,49805,1,0,0:0:0:0:
192,192,50005,1,0,0:0:0:0:
192,192,50105,1,0,0:0:0:0:
320,192,50205,1,0,0:0:0:0:
448,192,50305,1,0,0:0:0:0:
64,192,50305,1,0,0:0:0:0:
320,192,50505,1,0,0:0:0:0:
320,192,50605,1,0,0:0:0:0:
192,192,50705,1,0,0:0:0:0:
192,192,50805,1,0,0:0:0:0:
64,192,50905,1,0,0:0:0:0:
448,192,50905,1,0,0:0:0:0:
320,192,51205,1,0,0:0:0:0:
192,192,51305,1,0,0:0:0:0:
64,192,51405,1,0,0:0:0:0:
320,192,51505,1,0,0:0:0:0:
192,192,51605,1,0,0:0:0:0:
448,192,51705,1,0,0:0:0:0:
320,192,51805,1,0,0:0:0:0:
64,192,51905,1,0,0:0:0:0:
192,192,52005,1,0,0:0:0:0:
320,192,52105,1,0,0:0:0:0:
448,192,52205,1,0,0:0:0:0:
192,192,52305,1,0,0:0:0:0:
320,192,52405,1,0,0:0:0:0:
64,192,52505,1,0,0:0:0:0:
192,192,52605,1,0,0:0:0:0:
320,192,52705,1,0,0:0:0:0:
448,192,52705,1,0,0:0:0:0:
64,192,52805,1,0,0:0:0:0:
448,192,52905,128,0,53005:0:0:0:0:
192,192,53005,1,0,0:0:0:0:
64,192,53105,128,0,53205:0:0:0:0:
320,192,53205,1,0,0:0:0:0:
192,192,53305,128,0,53405:0:0:0:0:
448,192,53305,1,0,0:0:0:0:
64,192,53405,1,0,0:0:0:0:
320,192,53505,1,0,0:0:0:0:
192,192,53605,1,0,0:0:0:0:
448,192,53705,1,0,0:0:0:0:
320,192,53805,1,0,0:0:0:0:
64,192,53905,1,0,0:0:0:0:
192,192,54005,1,0,0:0:0:0:
320,192,54105,1,0,0:0:0:0:
448,192,54205,1,0,0:0:0:0:
192,192,54305,1,0,0:0:0:0:
64,192,54405,1,0,0:0:0:0:
320,192,54505,1,0,0:0:0:0:
192,192,54605,1,0,0:0:0:0:
320,192,54705,1,0,0:0:0:0:
448,192,54805,1,0,0:0:0:0:
192,192,54905,1,0,0:0:0:0:
64,192,55005,1,0,0:0:0:0:
320,192,55105,1,0,0:0:0:0:
448,192,55105,1,0,0:0:0:0:
192,192,55305,1,0,0:0:0:0:
448,192,55305,1,0,0:0:0:0:
320,192,55505,1,0,0:0:0:0:
64,192,55505,1,0,0:0:0:0:
192,192,55705,1,0,0:0:0:0:
64,192,55705,1,0,0:0:0:0:
448,192,55705,1,0,0:0:0:0:
320,192,55805,1,0,0:0:0:0:
64,192,55905,1,0,0:0:0:0:
192,192,56005,1,0,0:0:0:0:
320,192,56105,1,0,0:0:0:0:
448,192,56205,1,0,0:0:0:0:
192,192,56305,1,0,0:0:0:0:
320,192,56405,1,0,0:0:0:0:
64,192,56505,1,0,0:0:0:0:
192,192,56605,1,0,0:0:0:0:
448,192,56705,1,0,0:0:0:0:
320,192,56805,1,0,0:0:0:0:
192,192,56905,1,0,0:0:0:0:
64,192,56905,1,0,0:0:0:0:
448,192,57005,1,0,0:0:0:0:
64,192,57105,1,0,0:0:0:0:
192,192,57205,1,0,0:0:0:0:
320,192,57305,1,0,0:0:0:0:
448,192,57405,1,0,0:0:0:0:
192,192,57505,1,0,0:0:0:0:
64,192,57505,1,0,0:0:0:0:
448,192,57605,1,0,0:0:0:0:
64,192,57705,1,0,0:0:0:0:
192,192,57805,1,0,0:0:0:0:
320,192,57905,1,0,0:0:0:0:
192,192,58005,1,0,0:0:0:0:
64,192,58105,1,0,0:0:0:0:
448,192,58105,1,0,0:0:0:0:
320,192,58205,1,0,0:0:0:0:
192,192,58305,1,0,0:0:0:0:
448,192,58405,1,0,0:0:0:0:
320,192,58505,1,0,0:0:0:0:
192,192,58605,1,0,0:0:0:0:
64,192,58705,1,0,0:0:0:0:
448,192,58705,1,0,0:0:0:0:
320,192,58805,1,0,0:0:0:0:
320,192,58905,1,0,0:0:0:0:
192,192,59005,1,0,0:0:0:0:
192,192,59105,1,0,0:0:0:0:
320,192,59205,1,0,0:0:0:0:
448,192,59305,1,0,0:0:0:0:
64,192,59305,128,0,59905:0:0:0:0:
448,192,59905,1,0,0:0:0:0:
320,192,59980,1,0,0:0:0:0:
192,192,60055,1,0,0:0:0:0:
64,192,60130,1,0,0:0:0:0:
320,192,60205,1,0,0:0:0:0:
448,192,60280,1,0,0:0:0:0:
192,192,60355,1,0,0:0:0:0:
64,192,60430,1,0,0:0:0:0:
320,192,60505,1,0,0:0:0:0:
448,192,60505,1,0,0:0:0:0:
192,192,61105,1,0,0:0:0:0:
64,192,61255,1,0,0:0:0:0:
320,192,61405,1,0,0:0:0:0:
192,192,61555,1,0,0:0:0:0:
320,192,61705,1,0,0:0:0:0:
448,192,61705,1,0,0:0:0:0:
192,192,61855,1,0,0:0:0:0:
64,192,62005,1,0,0:0:0:0:
320,192,62155,1,0,0:0:0:0:
448,192,62305,1,0,0:0:0:0:
192,192,62605,1,0,0:0:0:0:
320,192,62755,1,0,0:0:0:0:
448,192,62905,1,0,0:0:0:0:
64,192,62905,1,0,0:0:0:0:
320,192,63205,1,0,0:0:0:0:
192,192,63355,1,0,0:0:0:0:
320,192,63655,1,0,0:0:0:0:
192,192,63805,1,0,0:0:0:0:
64,192,64105,1,0,0:0:0:0:
448,192,64105,1,0,0:0:0:0:
320,192,64255,1,0,0:0:0:0:
192,192,64405,1,0,0:0:0:0:
64,192,64555,1,0,0:0:0:0:
320,192,64705,1,0,0:0:0:0:
448,192,64705,1,0,0:0:0:0:
448,192,65005,1,0,0:0:0:0:
64,192,65005,1,0,0:0:0:0:
192,192,65305,1,0,0:0:0:0:
64,192,65305,1,0,0:0:0:0:
448,192,65605,1,0,0:0:0:0:
192,192,66055,1,0,0:0:0:0:
320,192,66205,1,0,0:0:0:0:
192,192,66355,1,0,0:0:0:0:
64,192,66505,1,0,0:0:0:0:
448,192,66505,1,0,0:0:0:0:
320,192,66655,1,0,0:0:0:0:
192,192,66955,1,0,0:0:0:0:
320,192,67105,1,0,0:0:0:0:
320,192,67405,1,0,0:0:0:0:
192,192,67555,1,0,0:0:0:0:
64,192,67705,1,0,0:0:0:0:
448,192,67705,1,0,0:0:0:0:
320,192,68005,1,0,0:0:0:0:
64,192,68155,1,0,0:0:0:0:
64,192,68455,1,0,0:0:0:0:
192,192,68605,1,0,0:0:0:0:
448,192,68755,1,0,0:0:0:0:
320,192,68905,1,0,0:0:0:0:
64,192,68905,1,0,0:0:0:0:
192,192,69055,1,0,0:0:0:0:
448,192,69205,1,0,0:0:0:0:
64,192,69355,1,0,0:0:0:0:
192,192,69505,1,0,0:0:0:0:
320,192,69655,1,0,0:0:0:0:
448,192,69805,1,0,0:0:0:0:
192,192,69955,1,0,0:0:0:0:
448,192,70105,1,0,0:0:0:0:
64,192,70105,1,0,0:0:0:0:
320,192,70405,1,0,0:0:0:0:
192,192,70705,1,0,0:0:0:0:
448,192,71005,1,0,0:0:0:0:
64,192,71305,1,0,0:0:0:0:
192,192,71605,1,0,0:0:0:0:
320,192,71905,1,0,0:0:0:0:
64,192,72205,1,0,0:0:0:0:
192,192,72505,1,0,0:0:0:0:
448,192,72505,1,0,0:0:0:0:
320,192,72805,1,0,0:0:0:0:
64,192,73105,1,0,0:0:0:0:
448,192,73405,1,0,0:0:0:0:
320,192,73705,1,0,0:0:0:0:
192,192,74005,1,0,0:0:0:0:
64,192,74305,1,0,0:0:0:0:
320,192,74605,1,0,0:0:0:0:
448,192,74905,1,0,0:0:0:0:
64,192,74905,1,0,0:0:0:0:
192,192,75205,1,0,0:0:0:0:
320,192,75505,1,0,0:0:0:0:
64,192,75805,1,0,0:0:0:0:
320,192,76105,1,0,0:0:0:0:
448,192,76105,1,0,0:0:0:0:
192,192,76405,1,0,0:0:0:0:
64,192,76705,1,0,0:0:0:0:
320,192,77005,1,0,0:0:0:0:
192,192,77305,1,0,0:0:0:0:
64,192,77305,1,0,0:0:0:0:
320,192,77605,1,0,0:0:0:0:
448,192,77905,1,0,0:0:0:0:
320,192,78005,1,0,0:0:0:0:
192,192,78105,1,0,0:0:0:0:
64,192,78205,1,0,0:0:0:0:
320,192,78305,1,0,0:0:0:0:
192,192,78405,1,0,0:0:0:0:
64,192,78505,1,0,0:0:0:0:
448,192,78505,128,0,79105:0:0:0:0:
64,192,79105,1,0,0:0:0:0:
192,192,79205,1,0,0:0:0:0:
320,192,79305,1,0,0:0:0:0:
448,192,79405,1,0,0:0:0:0:
192,192,79505,1,0,0:0:0:0:
320,192,79605,1,0,0:0:0:0:
448,192,79705,1,0,0:0:0:0:
64,192,79705,1,0,0:0:0:0:
320,192,79905,1,0,0:0:0:0:
64,192,80005,1,0,0:0:0:0:
64,192,80205,1,0,0:0:0:0:
192,192,80305,1,0,0:0:0:0:
192,192,80505,1,0,0:0:0:0:
320,192,80605,1,0,0:0:0:0:
320,192,80805,1,0,0:0:0:0:
448,192,80905,1,0,0:0:0:0:
448,192,81105,1,0,0:0:0:0:
448,192,81205,1,0,0:0:0:0:
320,192,81305,1,0,0:0:0:0:
192,192,81405,1,0,0:0:0:0:
448,192,81505,1,0,0:0:0:0:
320,192,81605,1,0,0:0:0:0:
64,192,81705,1,0,0:0:0:0:
192,192,81805,1,0,0:0:0:0:
320,192,81905,1,0,0:0:0:0:
64,192,82005,1,0,0:0:0:0:
192,192,82105,1,0,0:0:0:0:
448,192,82105,1,0,0:0:0:0:
320,192,82205,1,0,0:0:0:0:
64,192,82305,1,0,0:0:0:0:
192,192,82405,1,0,0:0:0:0:
448,192,82505,1,0,0:0:0:0:
320,192,82605,1,0,0:0:0:0:
192,192,82705,1,0,0:0:0:0:
64,192,82805,1,0,0:0:0:0:
320,192,82905,1,0,0:0:0:0:
192,192,83005,1,0,0:0:0:0:
64,192,83105,1,0,0:0:0:0:
320,192,83205,1,0,0:0:0:0:
192,192,83305,1,0,0:0:0:0:
448,192,83305,128,0,83905:0:0:0:0:
64,192,83905,128,0,84505:0:0:0:0:
320,192,84505,1,0,0:0:0:0:
448,192,84505,1,0,0:0:0:0:
192,192,84605,1,0,0:0:0:0:
64,192,84705,1,0,0:0:0:0:
448,192,84805,1,0,0:0:0:0:
192,192,85005,1,0,0:0:0:0:
448,192,85105,1,0,0:0:0:0:
64,192,85205,1,0,0:0:0:0:
192,192,85305,1,0,0:0:0:0:
320,192,85405,1,0,0:0:0:0:
320,192,85605,1,0,0:0:0:0:
448,192,85705,1,0,0:0:0:0:
192,192,85805,1,0,0:0:0:0:
320,192,85905,1,0,0:0:0:0:
64,192,86005,1,0,0:0:0:0:
192,192,86105,1,0,0:0:0:0:
320,192,86205,1,0,0:0:0:0:
448,192,86305,1,0,0:0:0:0:
192,192,86405,1,0,0:0:0:0:
64,192,86505,1,0,0:0:0:0:
320,192,86605,1,0,0:0:0:0:
192,192,86705,1,0,0:0:0:0:
448,192,86805,1,0,0:0:0:0:
320,192,86905,128,0,87205:0:0:0:0:
64,192,87205,1,0,0:0:0:0:
192,192,87305,1,0,0:0:0:0:
320,192,87405,1,0,0:0:0:0:
448,192,87505,128,0,87805:0:0:0:0:
192,192,87805,1,0,0:0:0:0:
64,192,87905,1,0,0:0:0:0:
320,192,88005,1,0,0:0:0:0:
448,192,88105,1,0,0:0:0:0:
192,192,88205,1,0,0:0:0:0:
64,192,88405,1,0,0:0:0:0:
64,192,88605,1,0,0:0:0:0:
448,192,88705,1,0,0:0:0:0:
192,192,88805,1,0,0:0:0:0:
448,192,88905,1,0,0:0:0:0:
192,192,89005,1,0,0:0:0:0:
64,192,89005,1,0,0:0:0:0:
448,192,89305,1,0,0:0:0:0:
320,192,89305,1,0,0:0:0:0:
64,192,89305,1,0,0:0:0:0:
192,192,89405,1,0,0:0:0:0:
320,192,89505,1,0,0:0:0:0:
448,192,89605,1,0,0:0:0:0:
64,192,89605,1,0,0:0:0:0:
192,192,89705,1,0,0:0:0:0:
64,192,89805,1,0,0:0:0:0:
448,192,89905,1,0,0:0:0:0:
320,192,90005,1,0,0:0:0:0:
192,192,90105,1,0,0:0:0:0:
448,192,90205,1,0,0:0:0:0:
64,192,90205,1,0,0:0:0:0:
320,192,90305,1,0,0:0:0:0:
192,192,90405,1,0,0:0:0:0:
448,192,90505,1,0,0:0:0:0:
320,192,90505,1,0,0:0:0:0:
192,192,90705,1,0,0:0:0:0:
448,192,90805,1,0,0:0:0:0:
320,192,90805,1,0,0:0:0:0:
64,192,90905,1,0,0:0:0:0:
320,192,91005,1,0,0:0:0:0:
448,192,91105,1,0,0:0:0:0:
192,192,91205,1,0,0:0:0:0:
64,192,91305,1,0,0:0:0:0:
448,192,91405,1,0,0:0:0:0:
320,192,91405,1,0,0:0:0:0:
192,192,91505,1,0,0:0:0:0:
320,192,91605,1,0,0:0:0:0:
448,192,91705,1,0,0:0:0:0:
64,192,91705,1,0,0:0:0:0:
192,192,91805,1,0,0:0:0:0:
320,192,91905,1,0,0:0:0:0:
448,192,92005,1,0,0:0:0:0:
64,192,92005,1,0,0:0:0:0:
192,192,92105,1,0,0:0:0:0:
320,192,92205,1,0,0:0:0:0:
448,192,92305,1,0,0:0:0:0:
192,192,92405,1,0,0:0:0:0:
320,192,92505,1,0,0:0:0:0:
64,192,92605,1,0,0:0:0:0:
192,192,92605,1,0,0:0:0:0:
448,192,92705,1,0,0:0:0:0:
320,192,92805,1,0,0:0:0:0:
64,192,92905,1,0,0:0:0:0:
192,192,92905,1,0,0:0:0:0:
64,192,93105,1,0,0:0:0:0:
192,192,93105,1,0,0:0:0:0:
448,192,93305,1,0,0:0:0:0:
320,192,93305,1,0,0:0:0:0:
448,192,93505,1,0,0:0:0:0:
320,192,93505,1,0,0:0:0:0:
64,192,93705,1,0,0:0:0:0:
192,192,93705,1,0,0:0:0:0:
64,192,93905,1,0,0:0:0:0:
192,192,93905,1,0,0:0:0:0:
448,192,94105,1,0,0:0:0:0:
192,192,94105,1,0,0:0:0:0:
64,192,94105,1,0,0:0:0:0:
320,192,94305,1,0,0:0:0:0:
64,192,94405,1,0,0:0:0:0:
448,192,94405,1,0,0:0:0:0:
192,192,94505,1,0,0:0:0:0:
448,192,94605,1,0,0:0:0:0:
64,192,94705,1,0,0:0:0:0:
320,192,94805,1,0,0:0:0:0:
192,192,94905,1,0,0:0:0:0:
448,192,95005,1,0,0:0:0:0:
320,192,95005,1,0,0:0:0:0:
64,192,95105,1,0,0:0:0:0:
192,192,95205,1,0,0:0:0:0:
448,192,95305,1,0,0:0:0:0:
320,192,95305,1,0,0:0:0:0:
320,192,95505,1,0,0:0:0:0:
64,192,95605,1,0,0:0:0:0:
192,192,95605,1,0,0:0:0:0:
448,192,95705,1,0,0:0:0:0:
192,192,95805,1,0,0:0:0:0:
448,192,95905,1,0,0:0:0:0:
320,192,95905,1,0,0:0:0:0:
64,192,96005,1,0,0:0:0:0:
192,192,96105,1,0,0:0:0:0:
448,192,96205,1,0,0:0:0:0:
320,192,96205,1,0,0:0:0:0:
64,192,96305,1,0,0:0:0:0:
320,192,96405,1,0,0:0:0:0:
64,192,96505,1,0,0:0:0:0:
448,192,96505,1,0,0:0:0:0:
192,192,96505,1,0,0:0:0:0:
192,192,96705,1,0,0:0:0:0:
320,192,96805,1,0,0:0:0:0:
448,192,96805,1,0,0:0:0:0:
64,192,96905,1,0,0:0:0:0:
192,192,97005,1,0,0:0:0:0:
448,192,97105,1,0,0:0:0:0:
64,192,97105,1,0,0:0:0:0:
320,192,97105,1,0,0:0:0:0:
64,192,97405,1,0,0:0:0:0:
192,192,97405,1,0,0:0:0:0:
320,192,97505,1,0,0:0:0:0:
192,192,97605,1,0,0:0:0:0:
320,192,97705,1,0,0:0:0:0:
448,192,97705,1,0,0:0:0:0:
64,192,97805,1,0,0:0:0:0:
64,192,97905,1,0,0:0:0:0:
192,192,98005,1,0,0:0:0:0:
448,192,98005,1,0,0:0:0:0:
320,192,98105,1,0,0:0:0:0:
320,192,98205,1,0,0:0:0:0:
448,192,98305,1,0,0:0:0:0:
64,192,98305,1,0,0:0:0:0:
192,192,98405,1,0,0:0:0:0:
192,192,98505,1,0,0:0:0:0:
320,192,98605,1,0,0:0:0:0:
64,192,98605,1,0,0:0:0:0:
448,192,98705,1,0,0:0:0:0:
448,192,98805,1,0,0:0:0:0:
64,192,98905,1,0,0:0:0:0:
192,192,98905,1,0,0:0:0:0:
320,192,99005,1,0,0:0:0:0:
448,192,99105,1,0,0:0:0:0:
192,192,99205,1,0,0:0:0:0:
320,192,99305,1,0,0:0:0:0:
64,192,99505,1,0,0:0:0:0:
448,192,99505,1,0,0:0:0:0:
320,192,99605,1,0,0:0:0:0:
192,192,99705,1,0,0:0:0:0:
64,192,99805,1,0,0:0:0:0:
320,192,99905,1,0,0:0:0:0:
64,192,100105,1,0,0:0:0:0:
448,192,100105,1,0,0:0:0:0:
320,192,100205,1,0,0:0:0:0:
192,192,100305,1,0,0:0:0:0:
320,192,100405,1,0,0:0:0:0:
448,192,100405,1,0,0:0:0:0:
64,192,100505,1,0,0:0:0:0:
192,192,100605,1,0,0:0:0:0:
320,192,100705,1,0,0:0:0:0:
448,192,100705,1,0,0:0:0:0:
192,192,100805,1,0,0:0:0:0:
448,192,100905,1,0,0:0:0:0:
320,192,101005,1,0,0:0:0:0:
64,192,101005,1,0,0:0:0:0:
192,192,101105,1,0,0:0:0:0:
448,192,101205,1,0,0:0:0:0:
320,192,101205,1,0,0:0:0:0:
192,192,101305,1,0,0:0:0:0:
64,192,101305,1,0,0:0:0:0:
320,192,101405,1,0,0:0:0:0:
448,192,101505,1,0,0:0:0:0:
192,192,101605,1,0,0:0:0:0:
320,192,101705,1,0,0:0:0:0:
64,192,101905,1,0,0:0:0:0:
448,192,101905,1,0,0:0:0:0:
192,192,102005,1,0,0:0:0:0:
320,192,102105,1,0,0:0:0:0:
64,192,102205,1,0,0:0:0:0:
448,192,102305,1,0,0:0:0:0:
64,192,102505,1,0,0:0:0:0:
192,192,102505,1,0,0:0:0:0:
320,192,102605,1,0,0:0:0:0:
64,192,102705,1,0,0:0:0:0:
448,192,102805,1,0,0:0:0:0:
320,192,102805,1,0,0:0:0:0:
192,192,102905,1,0,0:0:0:0:
64,192,103005,1,0,0:0:0:0:
320,192,103105,1,0,0:0:0:0:
448,192,103105,1,0,0:0:0:0:
192,192,103205,1,0,0:0:0:0:
64,192,103305,1,0,0:0:0:0:
320,192,103405,1,0,0:0:0:0:
320,192,103505,1,0,0:0:0:0:
192,192,103605,1,0,0:0:0:0:
64,192,103705,1,0,0:0:0:0:
448,192,103705,1,0,0:0:0:0:
320,192,103805,1,0,0:0:0:0:
192,192,103905,1,0,0:0:0:0:
64,192,104005,1,0,0:0:0:0:
448,192,104005,1,0,0:0:0:0:
320,192,104105,1,0,0:0:0:0:
64,192,104305,1,0,0:0:0:0:
192,192,104305,1,0,0:0:0:0:
320,192,104405,1,0,0:0:0:0:
448,192,104505,1,0,0:0:0:0:
192,192,104605,1,0,0:0:0:0:
320,192,104705,1,0,0:0:0:0:
192,192,104905,1,0,0:0:0:0:
64,192,104905,1,0,0:0:0:0:
448,192,105005,1,0,0:0:0:0:
320,192,105105,1,0,0:0:0:0:
192,192,105205,1,0,0:0:0:0:
64,192,105205,1,0,0:0:0:0:
320,192,105305,1,0,0:0:0:0:
64,192,105405,1,0,0:0:0:0:
192,192,105505,1,0,0:0:0:0:
448,192,105505,1,0,0:0:0:0:
320,192,105605,1,0,0:0:0:0:
64,192,105705,1,0,0:0:0:0:
192,192,105805,1,0,0:0:0:0:
320,192,105905,1,0,0:0:0:0:
320,192,106005,1,0,0:0:0:0:
448,192,106105,1,0,0:0:0:0:
64,192,106105,1,0,0:0:0:0:
192,192,106205,1,0,0:0:0:0:
320,192,106305,1,0,0:0:0:0:
192,192,106405,1,0,0:0:0:0:
64,192,106405,1,0,0:0:0:0:
448,192,106505,1,0,0:0:0:0:
320,192,106605,1,0,0:0:0:0:
192,192,106705,1,0,0:0:0:0:
64,192,106705,1,0,0:0:0:0:
320,192,106805,1,0,0:0:0:0:
64,192,106905,1,0,0:0:0:0:
192,192,107005,1,0,0:0:0:0:
448,192,107005,1,0,0:0:0:0:
320,192,107205,1,0,0:0:0:0:
192,192,107305,1,0,0:0:0:0:
64,192,107305,1,0,0:0:0:0:
448,192,107405,1,0,0:0:0:0:
448,192,107505,1,0,0:0:0:0:
192,192,107605,1,0,0:0:0:0:
64,192,107605,1,0,0:0:0:0:
320,192,107705,1,0,0:0:0:0:
320,192,107805,1,0,0:0:0:0:
64,192,107905,1,0,0:0:0:0:
448,192,107905,1,0,0:0:0:0:
192,192,108005,1,0,0:0:0:0:
192,192,108105,1,0,0:0:0:0:
448,192,108205,128,0,108405:0:0:0:0:
320,192,108305,128,0,108405:0:0:0:0:
64,192,108405,1,0,0:0:0:0:
192,192,108505,1,0,0:0:0:0:
320,192,108505,1,0,0:0:0:0:
448,192,108505,1,0,0:0:0:0:
