osu file format v14

[General]
AudioFilename: DJ TOTTO & Qrispy Joybox - Curtain Call Memories.mp3
AudioLeadIn: 0
PreviewTime: 53376
Countdown: 0
SampleSet: Soft
StackLeniency: 0.7
Mode: 0
LetterboxInBreaks: 0
WidescreenStoryboard: 0

[Editor]
Bookmarks: 9850,15400,26498,37596,43145,49648,54244,55631,65342,76440,87538,95862,104186
DistanceSpacing: 1
BeatDivisor: 8
GridSize: 4
TimelineZoom: 2.3

[Metadata]
Title:Curtain Call Memories
TitleUnicode:カーテンコール・メモリーズ
Artist:DJ TOTTO & Qrispy Joybox
ArtistUnicode:DJ TOTTO & Qrispy Joybox
Creator:StarForYou
Version:Special
Source:REFLEC BEAT groovin'!! Upper
Tags:Starfy Regou Bemani Konami VOLZZA
BeatmapID:910009
BeatmapSetID:414940

[Difficulty]
HPDrainRate:6
CircleSize:4.3
OverallDifficulty:8
ApproachRate:9.2
SliderMultiplier:1.8
SliderTickRate:1

[Events]
//Background and Video events
0,0,"BG.png",0,0
//Break Periods
2,76640,81419
//Storyboard Layer 0 (Background)
//Storyboard Layer 1 (Fail)
//Storyboard Layer 2 (Pass)
//Storyboard Layer 3 (Foreground)
//Storyboard Sound Samples

[TimingPoints]
140,346.820809248555,4,2,1,60,1,0
15400,-80,4,1,1,60,0,0
23723,-200,4,1,1,60,0,0
24244,-133.333333333333,4,1,1,60,0,0
24764,-100,4,1,1,60,0,0
25284,-80,4,1,1,60,0,0
25804,-100,4,1,1,60,0,0
26151,-133.333333333333,4,2,1,70,0,0
26324,-133.333333333333,4,2,1,50,0,0
26498,-80,4,1,1,60,0,0
34822,-200,4,1,1,60,0,0
35342,-133.333333333333,4,1,1,60,0,0
35862,-100,4,1,1,60,0,0
36382,-80,4,1,1,60,0,0
36903,-100,4,1,1,60,0,0
37249,-133.333333333333,4,2,1,70,0,0
37423,-133.333333333333,4,2,1,50,0,0
37596,-80,4,1,1,60,0,0
53376,-100,4,2,1,60,0,0
54244,-80,4,1,1,70,0,1
75920,-100,4,1,1,70,0,0
76440,-100,4,2,1,60,0,0
86151,-133.333333333333,4,1,1,70,0,0
86498,-100,4,1,1,70,0,0
86845,-80,4,1,1,70,0,0
87192,-66.6666666666667,4,1,1,70,0,0
87538,-80,4,1,1,70,0,1
104186,-100,4,2,1,70,0,0
104706,-100,4,2,1,60,0,0
105400,-100,4,2,1,50,0,0
105746,-100,4,2,1,40,0,0
105833,-100,4,2,1,39,0,0
105920,-100,4,2,1,38,0,0
106007,-100,4,2,1,37,0,0
106093,-100,4,2,1,36,0,0
106180,-100,4,2,1,35,0,0
106267,-100,4,2,1,34,0,0
106353,-100,4,2,1,33,0,0
106440,-100,4,2,1,32,0,0
106527,-100,4,2,1,31,0,0
106613,-100,4,2,1,30,0,0
106700,-100,4,2,1,29,0,0
106787,-100,4,2,1,28,0,0
106874,-100,4,2,1,27,0,0
106960,-100,4,2,1,26,0,0
107047,-100,4,2,1,25,0,0
107134,-100,4,2,1,24,0,0
107220,-100,4,2,1,23,0,0
107307,-100,4,2,1,22,0,0
107394,-100,4,2,1,21,0,0
107481,-100,4,2,1,20,0,0
107567,-100,4,2,1,19,0,0
107654,-100,4,2,1,18,0,0
107741,-100,4,2,1,17,0,0
107827,-100,4,2,1,16,0,0
107914,-100,4,2,1,15,0,0
108001,-100,4,2,1,14,0,0
108087,-100,4,2,1,13,0,0
108174,-100,4,2,1,12,0,0
108261,-100,4,2,1,11,0,0
108348,-100,4,2,1,10,0,0
108694,-100,4,2,1,9,0,0
109041,-100,4,2,1,8,0,0
109388,-100,4,2,1,7,0,0
109561,-100,4,2,1,6,0,0
109735,-100,4,2,1,5,0,0

[Colours]
Combo1 : 0,255,255
Combo2 : 0,255,0
Combo3 : 255,255,0

[HitObjects]
392,156,9850,6,0,L|396:224,3,45,6|0|0|0,0:0|0:0|0:0|0:0,0:0:0:0:
440,257,10197,2,0,L|444:325,1,45
280,147,10371,6,0,L|284:215,3,45,6|0|0|0,0:0|0:0|0:0|0:0,0:0:0:0:
328,248,10718,2,0,L|332:316,1,45,0|0,0:0|0:0,0:0:0:0:
168,138,10891,6,0,L|172:206,3,45,6|0|2|2,0:0|0:0|0:0|0:0,0:0:0:0:
216,239,11238,2,0,L|220:307,1,45,2|2,0:0|0:0,0:0:0:0:
266,340,11411,2,0,L|146:347,1,90,6|0,0:0|0:0,0:0:0:0:
330,292,11758,1,0,0:0:0:0:
442,301,11931,6,0,L|445:360,1,60,6|2,0:0|0:0,0:0:0:0:
394,200,12163,1,2,0:0:0:0:
394,200,12278,6,0,L|443:167,1,60,2|2,0:0|0:0,0:0:0:0:
330,292,12509,1,2,0:0:0:0:
330,292,12625,6,0,L|277:265,1,45,2|2,0:0|0:0,0:0:0:0:
371,355,12798,2,0,L|334:381,1,45,2|0,0:0|0:0,0:0:0:0:
445,360,12972,6,0,L|439:259,1,90,2|2,0:0|0:0,0:0:0:0:
466,204,13232,2,0,P|501:234|511:273,1,45,2|2,0:0|0:0,0:0:0:0:
282,191,13492,1,2,0:0:0:0:
282,191,13579,1,2,0:0:0:0:
282,191,13666,2,0,P|273:133|286:82,1,90,2|2,0:0|0:0,0:0:0:0:
284,76,13926,1,2,0:0:0:0:
296,51,14012,2,0,L|344:44,2,45,2|0|0,0:0|0:0|0:0,0:0:0:0:
168,138,14359,2,0,L|61:122,1,90,0|2,0:0|0:0,0:0:0:0:
79,125,14619,1,2,0:0:0:0:
79,125,14706,5,2,0:0:0:0:
201,221,14879,2,0,L|197:243,1,22.5,2|0,0:0|0:0,0:0:0:0:
201,221,15400,6,0,P|256:232|320:216,1,112.5,2|0,0:0|0:0,0:0:0:0:
360,170,15660,1,0,0:0:0:0:
342,102,15746,2,0,P|333:74|342:34,2,56.25,8|0|0,0:0|2:0|0:0,0:0:0:0:
360,170,16007,1,0,0:0:0:0:
427,188,16093,2,0,P|444:252|428:304,1,112.5,2|0,0:0|0:0,0:0:0:0:
377,339,16353,1,0,0:0:0:0:
306,341,16440,2,0,P|275:337|235:346,1,56.25,8|0,0:0|2:0,0:0:0:0:
185,367,16613,1,0,0:0:0:0:
185,367,16700,1,0,0:0:0:0:
185,367,16787,6,0,P|194:304|170:245,1,112.5,2|0,0:0|0:0,0:0:0:0:
124,214,17047,1,0,0:0:0:0:
55,203,17134,2,0,L|-7:206,2,56.25,8|0|0,0:0|2:0|0:0,0:0:0:0:
124,214,17394,1,0,0:0:0:0:
168,159,17481,6,0,P|174:129|169:83,1,56.25,2|0,0:0|2:0,0:0:0:0:
178,258,17654,2,0,P|177:286|183:313,1,56.25,0|0,0:0|2:0,0:0:0:0:
103,124,17827,2,0,P|93:95|65:57,1,56.25,8|0,0:0|2:0,0:0:0:0:
248,278,18001,2,0,P|257:307|285:345,1,56.25,0|0,0:0|2:0,0:0:0:0:
30,127,18174,6,0,L|33:250,1,112.5,2|0,0:0|0:0,0:0:0:0:
102,252,18434,1,0,0:0:0:0:
148,199,18521,2,0,P|150:164|135:126,2,56.25,8|0|0,0:0|2:0|0:0,0:0:0:0:
102,252,18781,1,0,0:0:0:0:
124,318,18868,2,0,L|247:315,1,112.5,2|0,0:0|0:0,0:0:0:0:
307,312,19128,1,0,0:0:0:0:
378,309,19215,2,0,L|442:310,2,56.25,8|0|0,0:0|2:0|0:0,0:0:0:0:
307,312,19475,1,0,0:0:0:0:
268,252,19561,6,0,P|262:216|269:172,1,56.25,2|0,0:0|2:0,0:0:0:0:
315,148,19735,1,0,0:0:0:0:
318,154,19822,1,0,0:0:0:0:
320,159,19908,2,0,P|251:166|213:92,1,112.5,8|0,0:0|0:0,0:0:0:0:
200,73,20168,1,0,0:0:0:0:
247,21,20255,2,0,L|316:24,2,56.25,2|0|0,0:0|2:0|0:0,0:0:0:0:
200,73,20515,1,0,0:0:0:0:
131,58,20602,2,0,P|75:45|13:61,1,112.5,8|0,0:0|0:0,0:0:0:0:
44,124,20862,1,0,0:0:0:0:
44,124,20949,6,0,P|31:180|47:242,1,112.5,2|0,0:0|0:0,0:0:0:0:
263,196,21296,1,8,0:0:0:0:
144,143,21469,1,0,0:0:0:0:
126,319,21642,2,0,P|197:296|302:337,1,168.75,2|0,0:0|0:0,0:0:0:0:
225,370,21989,2,0,P|208:318|245:256,1,112.5,8|0,0:0|0:0,0:0:0:0:
303,247,22249,1,0,0:0:0:0:
303,247,22336,6,0,L|447:254,1,112.5,2|0,0:0|0:0,0:0:0:0:
491,193,22683,1,8,0:0:0:0:
434,309,22856,1,0,0:0:0:0:
478,98,23030,1,2,0:0:0:0:
453,366,23203,1,0,0:0:0:0:
389,62,23376,2,0,P|352:79|346:20,1,112.5,8|0,0:0|0:0,0:0:0:0:
339,24,23637,1,0,0:0:0:0:
339,24,23723,6,0,L|220:27,1,112.5,2|0,0:0|2:0,0:0:0:0:
231,71,24244,6,0,B|219:63|211:39|227:27|227:27|234:99|309:96,1,168.750006437302,2|0,0:0|2:0,0:0:0:0:
354,148,24764,6,0,B|343:99|305:96|305:96|345:158|314:251,1,225,2|0,0:0|2:0,0:0:0:0:
262,296,25284,6,0,B|318:238|318:238|364:259|413:241,1,168.75,2|0,0:0|2:0,0:0:0:0:
395,232,25631,1,0,0:0:0:0:
453,179,25804,6,0,P|480:217|471:290,1,90,8|0,0:0|0:0,0:0:0:0:
453,381,26151,6,0,P|433:354|431:321,1,67.5000025749208,2|0,0:0|0:0,0:0:0:0:
483,259,26498,6,0,P|426:271|361:249,1,112.5,2|0,0:0|0:0,0:0:0:0:
321,211,26758,1,0,0:0:0:0:
335,142,26845,2,0,P|339:109|355:77,2,56.25,8|0|0,0:0|2:0|0:0,0:0:0:0:
321,211,27105,1,0,0:0:0:0:
254,233,27192,2,0,P|198:242|129:223,1,112.5,2|0,0:0|0:0,0:0:0:0:
88,188,27452,1,0,0:0:0:0:
111,122,27538,2,0,P|115:85|108:57,1,56.25,8|0,0:0|2:0,0:0:0:0:
53,26,27712,1,0,0:0:0:0:
53,26,27798,1,0,0:0:0:0:
53,26,27885,6,0,L|186:23,1,112.5,2|0,0:0|0:0,0:0:0:0:
231,49,28145,1,0,0:0:0:0:
227,120,28232,2,0,P|224:140|206:177,2,56.25,8|0|0,0:0|2:0|0:0,0:0:0:0:
231,49,28492,1,0,0:0:0:0:
300,31,28579,6,0,P|331:27|361:36,1,56.25,2|0,0:0|2:0,0:0:0:0:
231,242,28752,2,0,P|200:246|170:237,1,56.25,0|0,0:0|2:0,0:0:0:0:
322,101,28926,2,0,P|350:113|372:135,1,56.25,8|0,0:0|2:0,0:0:0:0:
209,172,29099,2,0,P|180:159|158:137,1,56.25,0|0,0:0|2:0,0:0:0:0:
306,172,29272,6,0,P|329:199|327:283,1,112.5,2|0,0:0|0:0,0:0:0:0:
267,301,29533,1,0,0:0:0:0:
197,293,29619,2,0,P|160:288|126:295,2,56.25,8|0|0,0:0|2:0|0:0,0:0:0:0:
267,301,29879,1,0,0:0:0:0:
295,365,29966,2,0,P|351:371|413:321,1,112.5,2|0,0:0|0:0,0:0:0:0:
415,275,30226,1,0,0:0:0:0:
396,207,30313,2,0,P|394:181|415:140,2,56.25,8|0|0,0:0|2:0|0:0,0:0:0:0:
415,275,30573,1,0,0:0:0:0:
483,292,30660,6,0,P|485:266|464:225,1,56.25,2|0,0:0|2:0,0:0:0:0:
485,168,30833,1,0,0:0:0:0:
480,158,30920,1,0,0:0:0:0:
476,147,31007,2,0,P|469:95|489:29,1,112.5,8|0,0:0|0:0,0:0:0:0:
409,24,31267,1,0,0:0:0:0:
340,52,31353,2,0,P|315:49|276:33,2,56.25,2|0|0,0:0|2:0|0:0,0:0:0:0:
374,119,31613,1,0,0:0:0:0:
385,145,31700,1,8,0:0:0:0:
387,173,31787,1,0,0:0:0:0:
365,224,31874,1,0,0:0:0:0:
317,252,31960,1,0,0:0:0:0:
261,246,32047,6,0,P|196:234|140:252,1,112.5,2|0,0:0|0:0,0:0:0:0:
47,312,32394,1,8,0:0:0:0:
162,142,32567,1,0,0:0:0:0:
358,360,32741,2,0,P|464:339|480:267,1,168.75,2|0,0:0|0:0,0:0:0:0:
512,339,33087,2,0,P|485:272|497:209,1,112.5,8|0,0:0|0:0,0:0:0:0:
502,163,33348,1,0,0:0:0:0:
502,163,33434,6,0,L|357:169,1,112.5,2|0,0:0|0:0,0:0:0:0:
162,142,33781,1,8,0:0:0:0:
316,251,33955,1,0,0:0:0:0:
256,71,34128,1,2,0:0:0:0:
129,214,34301,1,0,0:0:0:0:
315,172,34475,1,8,0:0:0:0:
186,32,34648,1,0,0:0:0:0:
208,221,34822,6,0,L|203:351,1,112.5,2|0,0:0|2:0,0:0:0:0:
169,355,35342,6,0,B|152:323|152:323|204:333|204:333|240:313|299:340,1,168.750006437302,2|0,0:0|2:0,0:0:0:0:
354,350,35862,6,0,B|329:326|281:333|281:333|297:288|297:288|268:244|303:183,1,225,2|0,0:0|2:0,0:0:0:0:
406,195,36382,6,0,B|370:211|370:211|351:180|351:180|323:173|297:193|297:193|220:220|129:181,1,281.25,2|0,0:0|2:0,0:0:0:0:
144,175,36903,6,0,P|155:239|128:279,1,90,8|0,0:0|0:0,0:0:0:0:
129,275,37163,1,0,0:0:0:0:
108,284,37249,6,0,L|19:282,1,67.5000025749208,2|2,0:0|0:0,0:0:0:0:
24,298,37509,1,2,0:0:0:0:
13,317,37596,6,0,L|147:320,1,112.5,2|0,0:0|0:0,0:0:0:0:
150,333,37856,1,0,0:0:0:0:
175,347,37943,1,8,0:0:0:0:
354,350,38116,2,0,P|333:356|293:349,1,56.25,0|0,0:0|0:0,0:0:0:0:
256,295,38290,2,0,L|262:175,1,112.5,2|0,0:0|0:0,0:0:0:0:
271,156,38550,1,0,0:0:0:0:
293,89,38637,2,0,P|334:121|322:203,1,112.5,8|0,0:0|0:0,0:0:0:0:
183,185,38983,5,2,0:0:0:0:
58,111,39157,1,0,0:0:0:0:
293,89,39330,1,8,0:0:0:0:
115,244,39504,1,0,0:0:0:0:
167,13,39677,1,2,0:0:0:0:
260,230,39850,1,0,0:0:0:0:
255,243,39937,1,0,0:0:0:0:
263,291,40024,1,8,0:0:0:0:
245,269,40111,1,0,0:0:0:0:
221,253,40197,1,0,0:0:0:0:
193,245,40284,1,0,0:0:0:0:
164,246,40371,6,0,P|195:244|255:192,1,112.5,2|0,0:0|0:0,0:0:0:0:
253,165,40631,1,0,0:0:0:0:
243,138,40718,1,8,0:0:0:0:
174,15,40891,2,0,P|167:56|182:86,1,56.25,0|0,0:0|0:0,0:0:0:0:
225,115,41064,2,0,L|353:112,1,112.5,2|0,0:0|0:0,0:0:0:0:
363,125,41324,1,0,0:0:0:0:
413,175,41411,2,0,P|434:119|393:58,1,112.5,8|0,0:0|0:0,0:0:0:0:
350,39,41671,1,0,0:0:0:0:
350,39,41758,5,2,0:0:0:0:
225,115,41931,1,0,0:0:0:0:
96,44,42105,1,8,0:0:0:0:
241,131,42278,2,0,B|225:202|225:202|279:275|232:368,1,225,0|0,0:0|0:0,0:0:0:0:
162,272,42798,1,8,0:0:0:0:
315,186,42972,1,0,0:0:0:0:
241,346,43145,6,0,P|179:342|98:351,1,112.5,2|0,0:0|0:0,0:0:0:0:
100,348,43405,1,0,0:0:0:0:
74,360,43492,1,8,0:0:0:0:
35,184,43666,2,0,P|29:150|42:117,1,56.25,0|0,0:0|0:0,0:0:0:0:
77,72,43839,2,0,L|210:78,1,112.5,2|0,0:0|0:0,0:0:0:0:
260,64,44099,1,0,0:0:0:0:
285,51,44186,2,0,L|418:57,1,112.5,8|0,0:0|0:0,0:0:0:0:
471,55,44446,1,0,0:0:0:0:
471,55,44533,5,2,0:0:0:0:
361,142,44706,1,0,0:0:0:0:
491,193,44879,1,8,0:0:0:0:
381,280,45053,1,0,0:0:0:0:
511,331,45226,5,2,0:0:0:0:
361,142,45400,1,0,0:0:0:0:
351,147,45486,1,0,0:0:0:0:
340,175,45573,1,8,0:0:0:0:
341,152,45660,1,0,0:0:0:0:
334,129,45746,1,0,0:0:0:0:
321,109,45833,1,0,0:0:0:0:
302,95,45920,6,0,P|253:84|178:103,1,112.5,2|2,0:0|0:2,0:0:0:0:
168,110,46180,1,2,0:2:0:0:
149,131,46267,1,2,0:2:0:0:
188,307,46440,1,2,0:2:0:0:
178,274,46527,1,2,0:2:0:0:
177,239,46614,1,2,0:2:0:0:
295,324,46787,1,2,0:2:0:0:
332,345,46874,1,2,0:2:0:0:
374,355,46961,1,2,0:2:0:0:
509,199,47134,1,2,0:2:0:0:
472,237,47221,1,2,0:2:0:0:
427,264,47307,6,0,P|413:240|413:214,1,37.5,2|0,0:0|0:0,0:0:0:0:
374,264,47423,2,0,P|373:236|386:213,1,37.5,0|2,0:0|0:0,0:0:0:0:
328,237,47538,2,0,P|341:212|364:199,1,37.5,0|0,0:0|0:0,0:0:0:0:
301,190,47654,2,0,P|351:178|417:200,1,112.5,8|0,0:0|0:0,0:0:0:0:
300,99,48001,2,0,P|250:111|184:89,1,112.5,2|0,0:0|0:0,0:0:0:0:
472,237,48348,2,0,L|466:364,1,112.5,8|0,0:0|0:0,0:0:0:0:
128,51,48694,5,2,0:0:0:0:
136,95,48781,1,0,0:0:0:0:
116,135,48868,1,0,0:0:0:0:
76,156,48955,1,0,0:0:0:0:
32,149,49041,2,0,P|30:108|43:74,1,56.25,8|0,0:0|0:0,0:0:0:0:
162,272,49215,2,0,P|164:313|151:347,1,56.25,0|0,0:0|0:0,0:0:0:0:
116,135,49388,5,2,0:0:0:0:
141,173,49475,1,0,0:0:0:0:
183,189,49561,1,0,0:0:0:0:
226,176,49648,1,0,0:0:0:0:
255,141,49735,2,0,P|260:103|249:61,1,56.25,8|0,0:0|0:0,0:0:0:0:
334,289,49908,2,0,P|329:327|340:369,1,56.25,0|0,0:0|0:0,0:0:0:0:
512,205,50082,5,2,0:0:0:0:
484,170,50168,1,0,0:0:0:0:
440,158,50255,1,0,0:0:0:0:
398,173,50342,1,0,0:0:0:0:
373,211,50429,1,8,0:0:0:0:
330,227,50515,1,0,0:0:0:0:
285,214,50602,1,0,0:0:0:0:
256,178,50688,1,0,0:0:0:0:
215,157,50775,5,2,0:0:0:0:
261,125,50862,1,0,0:0:0:0:
244,71,50949,1,0,0:0:0:0:
187,69,51035,1,0,0:0:0:0:
169,123,51122,1,8,0:0:0:0:
122,156,51209,1,0,0:0:0:0:
65,155,51296,1,0,0:0:0:0:
19,121,51382,1,0,0:0:0:0:
1,66,51469,6,0,L|8:0,1,56.25,2|0,0:0|0:0,0:0:0:0:
59,210,51642,2,0,L|66:144,1,56.25,0|0,0:0|0:0,0:0:0:0:
215,157,51816,2,0,L|222:91,1,56.25,8|0,0:0|0:0,0:0:0:0:
273,301,51989,2,0,L|280:235,1,56.25,0|0,0:0|0:0,0:0:0:0:
429,248,52163,5,2,0:0:0:0:
432,206,52249,1,0,0:0:0:0:
466,229,52336,1,0,0:0:0:0:
430,249,52423,1,0,0:0:0:0:
433,207,52509,1,8,0:0:0:0:
467,230,52596,1,0,0:0:0:0:
431,250,52683,1,0,0:0:0:0:
434,208,52769,1,0,0:0:0:0:
468,231,53376,5,2,0:0:0:0:
374,355,53550,1,2,0:0:0:0:
377,199,53723,2,0,L|366:147,3,30,2|2|2|2,0:0|0:0|0:0|0:0,0:0:0:0:
465,326,54070,1,2,0:0:0:0:
318,275,54244,6,0,L|192:276,1,112.5,6|0,0:0|0:0,0:0:0:0:
121,279,54504,1,0,0:0:0:0:
171,223,54590,2,0,P|195:283|165:339,1,112.5,8|0,0:0|0:0,0:0:0:0:
74,360,54937,1,2,0:0:0:0:
4,208,55111,1,0,0:0:0:0:
171,223,55284,1,8,0:0:0:0:
27,309,55457,1,0,0:0:0:0:
24,141,55631,5,2,0:0:0:0:
121,279,55804,1,0,0:0:0:0:
121,279,55891,1,0,0:0:0:0:
121,279,55978,2,0,P|98:211|121:166,1,112.5,8|0,0:0|0:0,0:0:0:0:
368,65,56324,1,2,0:0:0:0:
366,88,56411,1,0,0:0:0:0:
364,111,56498,1,0,0:0:0:0:
362,134,56585,1,0,0:0:0:0:
398,184,56671,5,8,0:0:0:0:
360,157,56758,1,0,0:0:0:0:
313,157,56845,1,0,0:0:0:0:
275,184,56931,1,0,0:0:0:0:
276,273,57018,6,0,L|391:269,1,112.5,2|0,0:0|0:0,0:0:0:0:
449,315,57278,1,0,0:0:0:0:
510,361,57365,2,0,L|395:365,1,112.5,8|0,0:0|0:0,0:0:0:0:
201,343,57712,2,0,B|191:264|191:264|209:203|209:203|194:116,1,225,2|8,0:0|0:0,0:0:0:0:
195,122,58232,1,0,0:0:0:0:
12,194,58405,6,0,B|66:206|66:206|122:195,1,112.5,2|0,0:0|0:0,0:0:0:0:
192,264,58666,1,0,0:0:0:0:
192,264,58752,2,0,B|248:253|248:253|302:265,1,112.5,8|0,0:0|0:0,0:0:0:0:
429,364,59099,1,2,0:0:0:0:
416,345,59186,1,0,0:0:0:0:
405,324,59272,1,0,0:0:0:0:
397,302,59359,1,0,0:0:0:0:
425,244,59446,5,8,0:0:0:0:
392,278,59533,1,0,0:0:0:0:
345,286,59619,1,0,0:0:0:0:
302,265,59706,1,0,0:0:0:0:
287,174,59793,6,0,L|293:50,1,112.5,2|0,0:0|0:0,0:0:0:0:
302,265,60140,1,8,0:0:0:0:
270,43,60313,1,0,0:0:0:0:
270,43,60400,1,0,0:0:0:0:
270,43,60486,2,0,L|264:155,1,112.5,2|0,0:0|0:0,0:0:0:0:
201,343,60833,1,8,0:0:0:0:
142,154,61007,1,0,0:0:0:0:
335,197,61180,5,2,0:0:0:0:
153,275,61353,1,0,0:0:0:0:
254,104,61527,1,8,0:0:0:0:
272,301,61700,1,0,0:0:0:0:
268,329,61787,1,0,0:0:0:0:
264,357,61874,2,0,L|248:245,1,112.5,2|0,0:0|0:0,0:0:0:0:
319,85,62220,2,0,L|335:197,1,112.5,8|0,0:0|0:0,0:0:0:0:
335,197,62481,1,0,0:0:0:0:
335,197,62567,5,2,0:0:0:0:
248,245,62741,1,0,0:0:0:0:
240,242,62827,1,0,0:0:0:0:
232,239,62914,1,8,0:0:0:0:
421,249,63087,1,0,0:0:0:0:
224,236,63260,1,2,0:0:0:0:
509,200,63434,1,0,0:0:0:0:
506,208,63521,1,0,0:0:0:0:
503,216,63608,1,8,0:0:0:0:
216,233,63781,1,0,0:0:0:0:
510,99,63955,5,2,0:0:0:0:
208,230,64128,1,0,0:0:0:0:
200,227,64215,1,0,0:0:0:0:
192,224,64301,1,8,0:0:0:0:
423,47,64475,1,0,0:0:0:0:
184,221,64648,5,2,0:0:0:0:
334,96,64822,1,2,0:0:0:0:
139,108,64995,2,0,L|160:170,1,56.25,10|0,0:0|0:0,0:0:0:0:
303,212,65168,2,0,L|322:149,1,56.25,2|0,0:0|0:0,0:0:0:0:
231,31,65342,6,0,L|115:37,1,112.5,6|0,0:0|0:0,0:0:0:0:
64,90,65602,1,0,0:0:0:0:
10,144,65689,2,0,L|126:138,1,112.5,8|0,0:0|0:0,0:0:0:0:
423,47,66035,2,0,B|482:151|389:150|441:276,1,225,2|8,0:0|0:0,0:0:0:0:
436,264,66556,1,0,0:0:0:0:
260,129,66729,6,0,B|276:112|276:112|376:114,1,112.5,2|0,0:0|0:0,0:0:0:0:
303,212,66989,1,0,0:0:0:0:
303,212,67076,2,0,L|169:209,1,112.5,8|0,0:0|0:0,0:0:0:0:
4,310,67423,1,2,0:0:0:0:
26,313,67509,1,0,0:0:0:0:
48,316,67596,1,0,0:0:0:0:
70,319,67683,1,0,0:0:0:0:
109,364,67769,5,8,0:0:0:0:
92,322,67856,1,0,0:0:0:0:
88,276,67943,1,0,0:0:0:0:
98,232,68030,1,0,0:0:0:0:
157,161,68116,6,0,P|166:97|144:45,1,112.5,2|0,0:0|0:0,0:0:0:0:
90,7,68377,1,0,0:0:0:0:
79,81,68463,2,0,L|212:77,1,112.5,8|0,0:0|0:0,0:0:0:0:
276,224,68810,2,0,B|208:280|140:236|140:236|196:244|228:188,1,225,2|8,0:0|0:0,0:0:0:0:
210,212,69330,1,0,0:0:0:0:
149,53,69504,6,0,P|139:108|157:161,1,112.5,2|0,0:0|0:0,0:0:0:0:
210,212,69764,1,0,0:0:0:0:
210,212,69850,2,0,L|336:208,1,112.5,8|0,0:0|0:0,0:0:0:0:
472,320,70197,1,2,0:0:0:0:
449,320,70283,1,0,0:0:0:0:
427,321,70370,1,0,0:0:0:0:
404,322,70457,1,0,0:0:0:0:
411,378,70543,5,8,0:0:0:0:
387,341,70631,1,0,0:0:0:0:
352,313,70718,1,0,0:0:0:0:
310,297,70804,1,0,0:0:0:0:
218,288,70891,6,0,P|152:288|136:180,1,168.75,6|0,0:0|2:0,0:0:0:0:
176,156,71238,2,0,P|192:204|180:236,1,56.25,10|0,0:0|2:0,0:0:0:0:
110,132,71411,2,0,B|138:22|138:22|153:75,1,168.75,2|0,0:0|2:0,0:0:0:0:
191,208,71758,2,0,B|163:318|163:318|148:265,1,168.75,2|0,0:0|2:0,0:0:0:0:
122,202,72105,6,0,B|241:150|241:240|372:179,1,225,2|0,0:0|0:2,0:0:0:0:
373,163,72538,1,2,0:2:0:0:
381,121,72625,1,10,0:2:0:0:
364,83,72712,1,2,0:2:0:0:
327,62,72798,5,2,0:2:0:0:
153,75,72972,1,2,0:0:0:0:
364,83,73145,1,0,0:0:0:0:
110,132,73319,1,8,2:0:0:0:
381,121,73492,1,0,0:0:0:0:
39,123,73666,6,0,P|112:102|208:134,1,168.75,6|0,0:0|2:0,0:0:0:0:
287,122,74012,2,0,P|262:100|253:56,1,56.25,10|0,0:0|2:0,0:0:0:0:
323,64,74186,2,0,B|426:74|426:74|374:128,1,168.75,2|0,0:0|2:0,0:0:0:0:
424,216,74533,2,0,B|381:121|381:121|443:136,1,168.75,2|0,0:0|2:0,0:0:0:0:
505,52,74879,6,0,B|444:136|444:136|408:13,1,225,2|2,0:0|0:2,0:0:0:0:
387,56,75313,1,2,0:2:0:0:
353,83,75400,1,10,0:2:0:0:
314,99,75487,1,2,0:2:0:0:
270,100,75573,1,2,0:2:0:0:
230,91,75660,1,0,0:0:0:0:
193,65,75746,5,2,0:0:0:0:
305,279,75920,1,2,0:0:0:0:
302,292,76440,5,2,0:0:0:0:
256,192,81989,12,0,85457,0:0:0:0:
216,265,85804,6,0,P|222:286|225:308,1,45,2|2,0:0|0:0,0:0:0:0:
219,231,85978,2,0,P|241:236|262:245,1,45,2|2,0:0|0:0,0:0:0:0:
193,212,86151,6,0,P|151:205|177:172,1,101.250003862381,2|0,0:0|2:0,0:0:0:0:
220,178,86498,6,0,P|178:173|152:76,1,135,10|0,0:0|2:0,0:0:0:0:
207,113,86845,6,0,B|289:89|288:155|378:110,1,168.75,2|0,0:0|2:0,0:0:0:0:
423,161,87192,6,0,B|359:199|298:192|298:192|346:216|340:259,1,202.500007724762,10|0,0:0|2:0,0:0:0:0:
269,363,87538,6,0,B|285:338|285:338|276:256,1,112.5,6|0,0:0|0:0,0:0:0:0:
298,192,87798,1,0,0:0:0:0:
231,205,87885,2,0,P|170:211|109:198,1,112.5,8|0,0:0|0:0,0:0:0:0:
32,346,88232,2,0,B|94:242|-9:242|71:109,1,225,2|8,0:0|0:0,0:0:0:0:
59,130,88752,1,0,0:0:0:0:
204,7,88926,6,0,P|222:66|204:117,1,112.5,2|0,0:0|0:0,0:0:0:0:
334,200,89186,1,0,0:0:0:0:
275,255,89272,2,0,P|256:202|272:149,1,112.5,8|0,0:0|0:0,0:0:0:0:
490,338,89619,1,2,0:0:0:0:
461,333,89706,1,0,0:0:0:0:
432,328,89793,1,0,0:0:0:0:
403,323,89879,1,0,0:0:0:0:
337,364,89966,5,8,0:0:0:0:
374,318,90053,1,0,0:0:0:0:
376,259,90140,1,0,0:0:0:0:
343,209,90226,1,0,0:0:0:0:
231,205,90313,6,0,L|75:209,1,112.5,2|0,0:0|0:0,0:0:0:0:
61,166,90573,1,0,0:0:0:0:
6,211,90660,2,0,P|-8:273|9:326,1,112.5,8|0,0:0|0:0,0:0:0:0:
271,262,91007,2,0,P|300:191|182:155,1,225,2|8,0:0|0:0,0:0:0:0:
187,150,91527,1,0,0:0:0:0:
214,339,91700,6,0,P|276:353|329:336,1,112.5,2|0,0:0|0:0,0:0:0:0:
397,264,91960,1,0,0:0:0:0:
451,203,92047,2,0,P|397:188|343:201,1,112.5,8|0,0:0|0:0,0:0:0:0:
60,203,92394,1,2,0:0:0:0:
87,195,92481,1,0,0:0:0:0:
110,179,92567,1,0,0:0:0:0:
127,156,92654,1,0,0:0:0:0:
107,83,92740,5,8,0:0:0:0:
136,130,92827,1,0,0:0:0:0:
187,150,92914,1,0,0:0:0:0:
240,136,93001,1,0,0:0:0:0:
278,39,93087,6,0,L|256:207,1,168.75,6|0,0:0|2:0,0:0:0:0:
321,339,93434,2,0,P|308:314|309:287,1,56.25,10|0,0:0|2:0,0:0:0:0:
352,201,93608,2,0,P|283:220|180:194,1,168.75,2|0,0:0|2:0,0:0:0:0:
77,134,93955,2,0,P|146:115|249:141,1,168.75,2|0,0:0|2:0,0:0:0:0:
323,24,94301,6,0,B|361:60|361:104|316:125|316:125|303:53|197:54,1,225,2|0,0:0|0:2,0:0:0:0:
206,63,94735,1,2,0:2:0:0:
167,79,94822,1,2,0:2:0:0:
134,106,94908,1,2,0:2:0:0:
111,141,94995,1,2,0:2:0:0:
101,183,95081,1,0,0:0:0:0:
104,226,95168,5,2,0:0:0:0:
214,339,95342,1,0,0:0:0:0:
101,183,95515,1,8,0:0:0:0:
308,287,95689,1,0,0:0:0:0:
111,141,95862,6,0,L|88:317,1,168.75,6|0,0:0|2:0,0:0:0:0:
214,339,96209,2,0,P|171:336|142:352,1,56.25,10|0,0:0|2:0,0:0:0:0:
308,287,96382,2,0,B|420:277|420:277|336:233,1,168.75,2|0,0:0|2:0,0:0:0:0:
216,216,96729,2,0,B|104:226|104:226|188:270,1,168.75,2|0,0:0|2:0,0:0:0:0:
255,350,97076,6,0,B|302:239|215:239|275:127,1,225,2|2,0:0|0:2,0:0:0:0:
296,97,97509,1,2,0:2:0:0:
335,82,97596,1,10,0:2:0:0:
375,92,97683,1,2,0:2:0:0:
401,123,97770,1,2,0:2:0:0:
403,164,97856,1,2,0:2:0:0:
382,198,97943,5,6,0:2:0:0:
216,216,98116,1,2,0:0:0:0:
403,164,98290,1,8,0:0:0:0:
136,130,98463,1,0,0:0:0:0:
401,123,98637,6,0,P|382:196|456:273,1,168.75,6|0,0:0|2:0,0:0:0:0:
321,339,98983,2,0,P|339:314|342:270,1,56.25,10|0,0:0|2:0,0:0:0:0:
301,207,99157,2,0,B|219:239|219:176|115:221,1,168.75,2|0,0:0|2:0,0:0:0:0:
16,282,99504,2,0,B|98:250|98:313|202:268,1,168.75,2|0,0:0|2:0,0:0:0:0:
136,213,99850,6,0,P|116:311|226:337,1,225,2|2,0:0|0:2,0:0:0:0:
247,312,100284,1,2,0:2:0:0:
285,292,100370,1,10,0:2:0:0:
327,285,100457,1,2,0:2:0:0:
370,291,100543,1,2,0:2:0:0:
408,310,100631,1,2,0:2:0:0:
439,340,100717,5,2,0:0:0:0:
341,147,100891,1,2,0:0:0:0:
306,360,101064,1,10,0:0:0:0:
459,207,101238,1,2,0:0:0:0:
245,239,101411,5,2,0:0:0:0:
439,340,101585,2,0,L|448:275,1,56.25,2|2,0:2|0:2,0:0:0:0:
341,147,101758,1,10,0:2:0:0:
341,147,101931,2,0,L|295:194,1,56.25,0|0,0:2|0:2,0:0:0:0:
306,360,102104,1,6,0:2:0:0:
306,360,102278,2,0,L|370:348,1,56.25,2|2,0:2|0:2,0:0:0:0:
459,208,102451,1,10,0:2:0:0:
459,208,102625,2,0,L|399:179,1,56.25,2|2,0:2|0:2,0:0:0:0:
245,239,102798,5,2,0:2:0:0:
196,267,102885,1,2,0:2:0:0:
139,260,102972,1,2,0:2:0:0:
97,222,103059,1,2,0:2:0:0:
86,165,103146,1,2,0:2:0:0:
109,113,103232,1,2,0:2:0:0:
159,85,103319,1,2,0:2:0:0:
215,90,103405,1,2,0:2:0:0:
257,129,103492,5,2,0:2:0:0:
304,188,103608,1,2,0:2:0:0:
378,176,103723,1,2,0:2:0:0:
405,105,103839,1,2,0:2:0:0:
358,47,103954,1,2,0:2:0:0:
284,58,104070,1,2,0:2:0:0:
331,117,104186,5,4,0:1:0:0:
331,117,104706,5,2,0:0:0:0:
326,95,104793,1,2,0:0:0:0:
321,73,104879,1,2,0:0:0:0:
321,73,105400,5,2,0:0:0:0:
331,117,105486,1,2,0:0:0:0:
341,161,105573,1,2,0:0:0:0:
256,192,105746,12,0,109735,0:0:0:0:
