osu file format v14

[General]
AudioFilename: DJ TOTTO & Qrispy Joybox - Curtain Call Memories.mp3
AudioLeadIn: 0
PreviewTime: 53376
Countdown: 0
SampleSet: Normal
StackLeniency: 0.7
Mode: 0
LetterboxInBreaks: 0
WidescreenStoryboard: 0

[Editor]
Bookmarks: 9850,15400,26498,37596,43145,54244,65342,76440,87538,95862,104186
DistanceSpacing: 1
BeatDivisor: 4
GridSize: 4
TimelineZoom: 2.3

[Metadata]
Title:Curtain Call Memories
TitleUnicode:カーテンコール・メモリーズ
Artist:DJ TOTTO & Qrispy Joybox
ArtistUnicode:DJ TOTTO & Qrispy Joybox
Creator:StarForYou
Version:Basic
Source:REFLEC BEAT groovin'!! Upper
Tags:Starfy Regou Bemani Konami VOLZZA
BeatmapID:900036
BeatmapSetID:414940

[Difficulty]
HPDrainRate:2
CircleSize:3
OverallDifficulty:2
ApproachRate:3
SliderMultiplier:0.799999999999999
SliderTickRate:1

[Events]
//Background and Video events
0,0,"BG.png",0,0
//Break Periods
2,76440,80549
//Storyboard Layer 0 (Background)
//Storyboard Layer 1 (Fail)
//Storyboard Layer 2 (Pass)
//Storyboard Layer 3 (Foreground)
//Storyboard Sound Samples

[TimingPoints]
140,346.820809248555,4,2,1,60,1,0
15400,-100,4,1,1,60,0,0
52856,-100,4,2,1,5,0,0
54244,-100,4,1,1,70,0,1
75920,-100,4,1,1,70,0,0
76440,-100,4,2,1,60,0,0
86151,-100,4,1,1,70,0,0
87538,-100,4,1,1,70,0,1
104186,-100,4,2,1,70,0,0
104706,-100,4,2,1,60,0,0
105400,-100,4,2,1,50,0,0
105746,-100,4,2,1,40,0,0
105833,-100,4,2,1,39,0,0
105920,-100,4,2,1,38,0,0
106007,-100,4,2,1,37,0,0
106093,-100,4,2,1,36,0,0
106180,-100,4,2,1,35,0,0
106267,-100,4,2,1,34,0,0
106353,-100,4,2,1,33,0,0
106440,-100,4,2,1,32,0,0
106527,-100,4,2,1,31,0,0
106613,-100,4,2,1,30,0,0
106700,-100,4,2,1,29,0,0
106787,-100,4,2,1,28,0,0
106874,-100,4,2,1,27,0,0
106960,-100,4,2,1,26,0,0
107047,-100,4,2,1,25,0,0
107134,-100,4,2,1,24,0,0
107220,-100,4,2,1,23,0,0
107307,-100,4,2,1,22,0,0
107394,-100,4,2,1,21,0,0
107481,-100,4,2,1,20,0,0
107567,-100,4,2,1,19,0,0
107654,-100,4,2,1,18,0,0
107741,-100,4,2,1,17,0,0
107827,-100,4,2,1,16,0,0
107914,-100,4,2,1,15,0,0
108001,-100,4,2,1,14,0,0
108087,-100,4,2,1,13,0,0
108174,-100,4,2,1,12,0,0
108261,-100,4,2,1,11,0,0
108348,-100,4,2,1,10,0,0
108694,-100,4,2,1,9,0,0
109041,-100,4,2,1,8,0,0
109388,-100,4,2,1,7,0,0
109561,-100,4,2,1,6,0,0
109735,-100,4,2,1,5,0,0

[Colours]
Combo1 : 0,255,255
Combo2 : 0,255,0
Combo3 : 255,255,0

[HitObjects]
256,192,9850,12,2,14012,0:0:0:0:
72,160,15400,6,0,P|108:152|152:160,1,79.9999999999999,2|8,0:0|0:0,0:0:0:0:
224,192,16093,2,0,P|263:199|302:191,1,79.9999999999999,2|8,0:0|0:0,0:0:0:0:
352,128,16787,2,0,P|316:188|352:272,1,160,2|2,0:0|0:0,0:0:0:0:
416,308,17827,1,8,0:0:0:0:
480,260,18174,6,0,L|476:176,1,79.9999999999999,2|8,0:0|0:0,0:0:0:0:
408,136,18868,2,0,L|411:56,1,79.9999999999999,2|8,0:0|0:0,0:0:0:0:
332,40,19561,2,0,P|292:52|168:36,1,160,2|2,0:0|0:0,0:0:0:0:
100,64,20602,1,8,0:0:0:0:
99,143,20949,6,0,L|104:232,1,79.9999999999999,2|8,0:0|0:0,0:0:0:0:
176,256,21642,2,0,P|184:296|176:348,1,79.9999999999999,2|8,0:0|0:0,0:0:0:0:
219,344,22163,2,0,B|279:336|279:336|351:348,1,120,0|8,0:0|0:0,0:0:0:0:
410,312,23030,2,0,P|446:320|494:308,1,79.9999999999999,2|8,0:0|0:0,0:0:0:0:
488,232,23723,6,0,L|484:140,1,79.9999999999999,2|0,0:0|0:0,0:0:0:0:
480,112,24244,2,0,P|432:124|360:112,1,120,2|2,0:0|0:0,0:0:0:0:
256,168,25284,2,0,P|197:155|139:166,1,120,2|8,0:0|0:0,0:0:0:0:
44,296,26498,6,0,L|136:292,1,79.9999999999999,2|8,0:0|0:0,0:0:0:0:
200,320,27192,2,0,P|236:328|284:320,1,79.9999999999999,2|8,0:0|0:0,0:0:0:0:
348,280,27885,2,0,P|416:280|460:360,1,160,2|2,0:0|0:0,0:0:0:0:
380,356,28926,1,8,0:0:0:0:
300,352,29272,6,0,L|220:348,1,79.9999999999999,2|8,0:0|0:0,0:0:0:0:
144,320,29966,2,0,P|140:272|152:232,1,79.9999999999999,2|8,0:0|0:0,0:0:0:0:
192,176,30660,2,0,B|248:172|248:172|292:188|292:188|356:184,1,160,2|2,0:0|0:0,0:0:0:0:
428,204,31700,1,8,0:0:0:0:
476,140,32047,6,0,P|480:88|464:52,1,79.9999999999999,2|8,0:0|0:0,0:0:0:0:
392,44,32741,2,0,L|300:48,1,79.9999999999999,2|8,0:0|0:0,0:0:0:0:
288,80,33261,2,0,L|155:74,1,120,0|8,0:0|0:0,0:0:0:0:
108,128,34128,2,0,P|100:168|108:216,1,79.9999999999999,2|8,0:0|0:0,0:0:0:0:
136,280,34822,5,2,0:0:0:0:
248,232,35342,1,2,0:0:0:0:
345,304,35862,2,0,P|368:260|360:176,2,120,2|2|8,0:0|0:0|0:0,0:0:0:0:
188,344,37596,6,0,L|108:340,1,79.9999999999999,2|8,0:0|0:0,0:0:0:0:
52,280,38290,2,0,P|48:236|60:196,1,79.9999999999999,2|8,0:0|0:0,0:0:0:0:
108,140,38983,2,0,L|274:143,1,160,2|2,0:0|0:0,0:0:0:0:
340,108,40024,1,8,0:0:0:0:
416,132,40371,6,0,P|440:152|428:272,1,160,2|2,0:0|0:0,0:0:0:0:
368,316,41411,1,8,0:0:0:0:
292,292,41758,2,0,B|216:280|216:280|128:292,1,160,2|0,0:0|0:0,0:0:0:0:
60,324,42798,1,8,0:0:0:0:
28,252,43145,6,0,L|32:156,1,79.9999999999999,2|8,0:0|0:0,0:0:0:0:
108,144,43839,2,0,L|111:64,1,79.9999999999999,2|8,0:0|0:0,0:0:0:0:
188,36,44533,2,0,B|256:48|256:48|356:36,1,160,2|2,0:0|0:0,0:0:0:0:
424,20,45573,1,8,0:0:0:0:
464,88,45920,6,0,P|484:132|464:208,1,120,2|2,0:0|0:2,0:0:0:0:
353,229,46960,1,2,0:2:0:0:
311,161,47307,2,0,P|271:155|231:159,1,79.9999999999999,2|8,0:0|0:0,0:0:0:0:
204,236,48001,2,0,P|172:240|116:232,1,79.9999999999999,2|8,0:0|0:0,0:0:0:0:
80,168,48694,6,0,L|91:327,1,160,2|2,0:0|0:0,0:0:0:0:
252,316,50082,2,0,L|240:156,1,160,2|2,0:0|0:0,0:0:0:0:
401,145,51469,1,2,0:0:0:0:
256,192,51642,12,0,52856,0:0:0:0:
148,56,54244,6,0,P|156:96|148:136,1,79.9999999999999,6|8,0:0|0:0,0:0:0:0:
96,192,54937,2,0,L|100:276,1,79.9999999999999,2|8,0:0|0:0,0:0:0:0:
168,316,55631,2,0,P|224:332|336:312,1,160,2|2,0:0|0:0,0:0:0:0:
392,276,56671,1,8,0:0:0:0:
432,208,57018,6,0,P|433:168|428:128,1,79.9999999999999,2|8,0:0|0:0,0:0:0:0:
372,72,57712,1,2,0:0:0:0:
300,108,58059,1,8,0:0:0:0:
232,68,58405,2,0,L|136:64,1,79.9999999999999,2|8,0:0|0:0,0:0:0:0:
92,116,59099,2,0,L|88:212,1,79.9999999999999,2|8,0:0|0:0,0:0:0:0:
28,248,59793,6,0,P|68:228|176:252,1,160,2|2,0:0|0:0,0:0:0:0:
244,292,60833,1,8,0:0:0:0:
312,336,61180,2,0,P|385:364|459:339,1,160,2|2,0:0|0:0,0:0:0:0:
496,268,62220,1,8,0:0:0:0:
488,188,62567,6,0,L|484:100,2,79.9999999999999,2|8|2,0:0|0:0|0:0,0:0:0:0:
408,204,63608,2,0,L|404:283,2,79.9999999999999,8|2|8,0:0|0:0|0:0,0:0:0:0:
344,152,64648,2,0,P|296:144|256:152,1,79.9999999999999,2|10,0:0|0:0,0:0:0:0:
208,204,65342,6,0,L|212:283,1,79.9999999999999,6|8,0:0|0:0,0:0:0:0:
136,312,66035,2,0,L|132:233,1,79.9999999999999,2|8,0:0|0:0,0:0:0:0:
128,152,66729,2,0,P|188:112|280:144,1,160,2|2,0:0|0:0,0:0:0:0:
316,200,67770,1,8,0:0:0:0:
388,168,68116,6,0,P|436:164|476:172,1,79.9999999999999,2|8,0:0|0:0,0:0:0:0:
460,248,68810,2,0,P|412:252|372:244,1,79.9999999999999,2|8,0:0|0:0,0:0:0:0:
316,200,69504,2,0,P|344:232|320:352,1,160,2|2,0:0|0:0,0:0:0:0:
252,360,70544,1,8,0:0:0:0:
172,360,70891,6,0,L|72:356,1,79.9999999999999,6|10,0:0|0:0,0:0:0:0:
68,324,71411,2,0,P|44:249|83:182,1,160,2|2,0:0|0:0,0:0:0:0:
192,128,72625,1,10,0:2:0:0:
256,176,72972,2,0,P|288:184|344:176,1,79.9999999999999,2|8,0:0|2:0,0:0:0:0:
408,148,73666,6,0,P|447:142|486:151,1,79.9999999999999,6|10,0:0|0:0,0:0:0:0:
472,188,74186,2,0,B|480:240|480:240|444:276|452:356,1,160,2|2,0:0|0:0,0:0:0:0:
332,320,75400,1,10,0:2:0:0:
256,344,75746,2,0,L|204:340,1,40,2|2,0:0|0:0,0:0:0:0:
256,192,81989,12,0,84764,0:0:0:0:
256,336,86151,5,2,0:0:0:0:
336,336,86498,1,10,0:0:0:0:
360,259,86845,1,2,0:0:0:0:
295,211,87192,1,10,0:0:0:0:
230,260,87538,6,0,P|188:264|136:256,1,79.9999999999999,6|8,0:0|0:0,0:0:0:0:
92,204,88232,2,0,L|96:116,1,79.9999999999999,2|8,0:0|0:0,0:0:0:0:
100,44,88926,2,0,P|176:32|255:50,1,160,2|2,0:0|0:0,0:0:0:0:
312,108,89966,1,8,0:0:0:0:
380,148,90313,6,0,P|416:152|464:144,1,79.9999999999999,2|8,0:0|0:0,0:0:0:0:
480,224,91007,2,0,L|476:316,1,79.9999999999999,2|8,0:0|0:0,0:0:0:0:
412,352,91700,2,0,B|352:332|352:332|240:340,1,160,2|2,0:0|0:0,0:0:0:0:
176,340,92741,1,8,0:0:0:0:
104,372,93087,6,0,P|100:320|116:288,1,79.9999999999999,6|10,0:0|0:0,0:0:0:0:
136,264,93608,2,0,L|128:92,1,160,2|2,0:0|0:0,0:0:0:0:
228,40,94822,1,2,0:2:0:0:
308,32,95168,2,0,L|404:40,1,79.9999999999999,2|8,0:0|0:0,0:0:0:0:
452,88,95862,6,0,P|460:108|452:180,1,79.9999999999999,6|10,0:0|0:0,0:0:0:0:
456,204,96382,2,0,B|388:192|388:192|284:204,1,160,2|2,0:0|0:0,0:0:0:0:
196,268,97596,1,10,0:2:0:0:
132,316,97943,2,0,P|96:324|52:316,1,79.9999999999999,6|8,0:2|0:0,0:0:0:0:
36,240,98637,6,0,L|40:144,1,79.9999999999999,6|10,0:0|0:0,0:0:0:0:
36,120,99157,2,0,P|80:132|160:64,1,160,2|2,0:0|0:0,0:0:0:0:
276,40,100371,1,10,0:2:0:0:
336,96,100718,2,0,L|332:176,1,79.9999999999999,2|10,0:0|0:0,0:0:0:0:
380,240,101411,6,0,P|388:280|380:332,1,79.9999999999999,2|10,0:0|0:2,0:0:0:0:
304,328,102105,2,0,P|296:288|299:249,1,79.9999999999999,6|10,0:2|0:2,0:0:0:0:
332,175,102798,2,0,B|180:108|180:244|24:160,1,320,2|4,0:2|0:1,0:0:0:0:
171,95,104879,5,2,0:0:0:0:
251,233,105573,1,2,0:0:0:0:
256,192,105746,12,0,109735,0:0:0:0:
