osu file format v14

[General]
AudioFilename: Curtain Call Memories.mp3
AudioLeadIn: 0
PreviewTime: 53384
Countdown: 1
SampleSet: Soft
StackLeniency: 0.6
Mode: 0
LetterboxInBreaks: 0
WidescreenStoryboard: 1

[Editor]
Bookmarks: 15407,26506,32055,37604,54251,65350,101939
DistanceSpacing: 1.5
BeatDivisor: 2
GridSize: 8
TimelineZoom: 3.400004

[Metadata]
Title:Curtain Call Memories
TitleUnicode:カーテンコール・メモリーズ
Artist:DJ TOTTO & Qrispy Joybox
ArtistUnicode:DJ TOTTO & Qrispy Joybox
Creator:Scaltinof
Version:Hyper
Source:REFLEC BEAT groovin'!! Upper
Tags:repl4y joker- konami volzza
BeatmapID:1517864
BeatmapSetID:667307

[Difficulty]
HPDrainRate:5.5
CircleSize:4
OverallDifficulty:6
ApproachRate:8
SliderMultiplier:1.3
SliderTickRate:1

[Events]
//Background and Video events
0,0,"bg.jpg",0,0
//Break Periods
2,76448,85409
//Storyboard Layer 0 (Background)
//Storyboard Layer 1 (Fail)
//Storyboard Layer 2 (Pass)
//Storyboard Layer 3 (Foreground)
//Storyboard Sound Samples

[TimingPoints]
1535,346.820809248555,4,2,1,35,1,0
1535,-125,4,2,1,35,0,0
9858,-100,4,2,1,70,0,0
14020,-100,4,2,1,70,0,0
15407,-100,4,2,1,80,0,1
15494,-100,4,2,1,80,0,0
17662,-100,4,2,2,80,0,0
18182,-100,4,2,1,80,0,0
23731,-100,4,2,1,70,0,0
24251,-100,4,2,1,70,0,0
24771,-100,4,2,1,70,0,0
26159,-100,4,2,1,70,0,0
26506,-100,4,2,1,80,0,1
26592,-100,4,2,1,80,0,0
28760,-100,4,2,2,80,0,0
29280,-100,4,2,1,80,0,0
34829,-100,4,2,1,70,0,0
35350,-100,4,2,1,70,0,0
35870,-100,4,2,1,70,0,0
37604,-100,4,2,1,80,0,0
41809,-100,4,2,1,5,0,0
41939,-100,4,2,1,80,0,0
41982,-100,4,2,1,5,0,0
42113,-100,4,2,1,80,0,0
42156,-100,4,2,1,5,0,0
42286,-100,4,2,1,80,0,0
42329,-100,4,2,1,5,0,0
42459,-100,4,2,1,80,0,0
42503,-100,4,2,1,5,0,0
42633,-100,4,2,1,80,0,0
42676,-100,4,2,1,5,0,0
42806,-100,4,2,1,80,0,0
42850,-100,4,2,1,5,0,0
42980,-100,4,2,1,80,0,0
43023,-100,4,2,1,5,0,0
43153,-100,4,2,1,80,0,0
54251,-83.3333333333333,4,2,1,85,0,1
76448,-100,4,2,1,60,0,0
86159,-100,4,2,1,90,0,0
87546,-83.3333333333333,4,2,1,85,0,1
103500,-83.3333333333333,4,2,1,85,0,1
104193,-125,4,2,1,85,0,0
104714,-125,4,2,1,60,0,0
105407,-125,4,2,1,50,0,0
105928,-125,4,2,1,65,0,0
106274,-125,4,2,1,60,0,0
106621,-125,4,2,1,50,0,0
106968,-125,4,2,1,35,0,0
107315,-125,4,2,1,20,0,0
107662,-125,4,2,1,15,0,0
108008,-125,4,2,1,10,0,0
108355,-125,4,2,1,5,0,0

[Colours]
Combo1 : 0,128,64
Combo2 : 0,128,255
Combo3 : 255,0,255

[HitObjects]
93,224,1535,5,2,0:0:0:0:
167,249,1708,2,0,L|173:274,2,26,0|0|0,0:0|0:0|0:0,0:0:0:0:
151,172,2055,1,0,0:0:0:0:
226,196,2228,2,0,P|277:204|327:190,1,104,2|0,0:0|0:0,0:0:0:0:
327,190,2748,2,0,P|312:240|321:291,1,104,2|2,0:0|0:0,0:0:0:0:
333,315,3182,1,0,0:0:0:0:
333,315,3269,5,2,0:0:0:0:
411,310,3442,1,0,0:0:0:0:
433,235,3615,2,0,L|426:210,3,26,2|0|0|0,0:0|0:0|0:0|0:0,0:0:0:0:
390,195,3962,2,0,L|391:169,3,26,0|0|0|0,0:0|0:0|0:0|0:0,0:0:0:0:
393,143,4309,5,2,0:0:0:0:
334,91,4482,2,0,L|339:65,2,26,0|0|0,0:0|0:0|0:0,0:0:0:0:
318,168,4829,1,0,0:0:0:0:
259,115,5003,2,0,P|208:107|158:121,1,104,2|0,0:0|0:0,0:0:0:0:
158,120,5523,2,0,P|172:170|164:221,1,104,2|2,0:0|0:0,0:0:0:0:
152,245,5957,1,0,0:0:0:0:
152,245,6044,5,2,0:0:0:0:
86,202,6217,1,0,0:0:0:0:
75,279,6390,2,0,L|71:305,2,26,2|0|0,0:0|0:0|0:0,0:0:0:0:
148,325,6737,2,0,L|199:333,1,52,2|2,0:0|0:0,0:0:0:0:
267,294,7084,6,0,L|275:346,1,52,2|0,0:0|0:0,0:0:0:0:
344,307,7430,2,0,L|335:255,1,52,0|0,0:0|0:0,0:0:0:0:
273,216,7777,1,2,0:0:0:0:
421,318,8124,1,2,0:0:0:0:
409,241,8298,2,0,P|385:197|337:179,1,104,2|2,0:0|0:0,0:0:0:0:
236,59,8991,6,0,L|238:85,1,26,2|2,0:0|0:0,0:0:0:0:
270,100,9165,2,0,L|266:152,1,52,2|2,0:0|0:0,0:0:0:0:
187,203,9511,2,0,L|183:151,1,52,2|2,0:0|0:0,0:0:0:0:
94,118,9858,6,0,L|106:255,1,130,6|2,1:0|0:0,0:0:0:0:
67,337,10378,2,0,L|204:324,1,130,6|2,1:0|0:0,0:0:0:0:
287,363,10899,2,0,L|274:225,1,130,6|2,1:0|0:0,0:0:0:0:
313,144,11419,2,0,L|175:156,1,130,6|2,1:0|0:0,0:0:0:0:
94,118,11939,5,6,1:0:0:0:
256,8,12286,1,6,1:0:0:0:
418,118,12633,2,0,L|414:95,6,21.6666666666666,6|0|0|0|0|0|0,1:0|0:0|0:0|0:0|0:0|0:0|0:0,0:0:0:0:
320,116,13153,6,0,L|296:87,2,32.5,2|2|2,0:0|0:0|0:0,0:0:0:0:
243,158,13500,2,0,L|208:145,2,32.5,2|2|2,0:0|0:0|0:0,0:0:0:0:
196,232,13847,2,0,L|163:237,1,32.5,2|2,0:0|0:0,0:0:0:0:
132,244,14020,6,0,P|202:316|302:288,1,195,6|2,1:0|0:0,0:0:0:0:
317,288,14627,1,2,0:0:0:0:
317,288,14714,2,0,L|307:372,1,64.9999999999999,2|0,0:0|0:0,0:0:0:0:
227,222,15407,5,6,1:0:0:0:
149,317,15581,2,0,L|90:311,1,32.5,2|2,0:0|0:0,0:0:0:0:
67,311,15754,2,0,L|79:225,1,65,2|0,1:0|0:0,0:0:0:0:
79,148,16101,2,0,L|14:140,2,65,2|2|0,1:0|0:0|1:0,0:0:0:0:
182,177,16621,1,2,0:0:0:0:
182,177,16708,1,2,0:0:0:0:
182,177,16795,6,0,L|173:100,1,65,2|2,1:0|0:0,0:0:0:0:
280,94,17141,2,0,L|287:29,1,65,2|2,1:0|0:0,0:0:0:0:
286,29,17488,1,0,1:0:0:0:
391,101,17662,2,0,L|456:94,2,65,10|10|10,0:0|1:2|1:2,0:0:0:0:
280,94,18182,5,0,1:0:0:0:
351,178,18355,2,0,L|345:237,1,32.5,2|2,0:0|0:0,0:0:0:0:
300,224,18528,2,0,L|312:310,1,65,2|2,1:0|0:0,0:0:0:0:
236,355,18876,2,0,L|224:269,1,65,2|2,1:0|0:0,0:0:0:0:
148,239,19222,1,0,1:0:0:0:
58,313,19395,1,2,0:0:0:0:
58,313,19482,1,2,0:0:0:0:
58,313,19569,6,0,L|49:236,1,65,2|2,1:2|0:0,0:0:0:0:
157,175,19916,2,0,L|149:239,2,65,2|2|0,1:2|0:0|1:0,0:0:0:0:
76,116,20436,2,0,L|81:83,5,32.5,2|2|2|2|2|2,0:0|0:0|1:0|0:0|1:0|0:0,0:0:0:0:
129,85,20956,6,0,L|212:95,1,65,2|0,1:0|0:0,0:0:0:0:
274,148,21303,2,0,L|338:140,1,65,2|0,1:0|0:0,0:0:0:0:
430,103,21650,2,0,L|438:39,2,65,2|0|0,1:0|0:0|1:0,0:0:0:0:
417,199,22170,1,2,0:0:0:0:
339,140,22344,5,2,1:0:0:0:
256,316,22691,1,2,1:0:0:0:
173,140,23037,2,0,P|176:108|173:62,3,65,2|2|2|2,1:0|0:0|1:0|1:0,0:0:0:0:
266,110,23731,6,0,P|262:175|219:223,1,130,6|2,1:0|0:0,0:0:0:0:
250,315,24251,2,0,P|185:311|137:268,1,130,2|2,1:0|0:0,0:0:0:0:
45,299,24771,2,0,P|49:234|92:186,1,130,2|0,1:0|0:0,0:0:0:0:
61,94,25292,2,0,P|126:98|174:141,1,130,2|2,1:0|0:0,0:0:0:0:
220,221,25812,6,0,L|315:209,1,65,2|2,1:0|0:0,0:0:0:0:
319,304,26159,2,0,L|383:312,1,65,2|2,0:0|0:0,0:0:0:0:
469,265,26506,5,4,1:0:0:0:
380,224,26679,2,0,L|386:165,1,32.5,2|2,0:0|0:0,0:0:0:0:
431,178,26852,2,0,L|419:92,1,65,2|2,1:0|0:0,0:0:0:0:
324,113,27199,2,0,L|333:48,2,65,2|2|0,1:0|0:0|1:0,0:0:0:0:
237,68,27719,1,2,0:0:0:0:
237,68,27806,1,2,0:0:0:0:
237,68,27893,6,0,L|160:77,1,65,2|2,1:0|0:0,0:0:0:0:
164,172,28239,2,0,L|99:165,1,65,2|2,1:0|0:0,0:0:0:0:
99,165,28586,1,0,1:0:0:0:
6,157,28760,2,0,L|-1:92,2,65,10|10|10,0:0|1:2|1:2,0:0:0:0:
99,165,29280,5,0,1:0:0:0:
60,244,29453,2,0,L|66:303,1,32.5,2|2,0:0|0:0,0:0:0:0:
111,290,29626,2,0,L|99:376,1,65,2|2,1:0|0:0,0:0:0:0:
200,346,29974,2,0,L|208:281,1,65,2|2,1:0|0:0,0:0:0:0:
255,196,30320,1,0,1:0:0:0:
305,281,30493,1,2,0:0:0:0:
305,281,30580,1,0,0:0:0:0:
305,281,30667,6,0,L|314:358,1,65,2|2,1:2|0:0,0:0:0:0:
410,354,31014,2,0,L|402:290,2,65,2|2|0,1:2|0:0|1:0,0:0:0:0:
436,218,31534,2,0,L|431:185,5,32.5,2|2|2|2|2|2,0:0|0:0|1:0|0:0|1:0|0:0,0:0:0:0:
403,146,32054,6,0,L|320:136,1,65,2|0,1:0|0:0,0:0:0:0:
289,53,32401,2,0,L|222:53,1,65,2|0,1:0|0:0,0:0:0:0:
173,139,32748,2,0,L|109:147,2,65,2|0|0,1:0|0:0|1:0,0:0:0:0:
256,192,33269,1,2,0:0:0:0:
173,139,33442,5,2,1:0:0:0:
256,316,33789,1,2,1:0:0:0:
339,139,34135,2,0,P|336:107|339:61,3,65,2|2|2|2,1:0|0:0|1:0|1:0,0:0:0:0:
246,110,34829,6,0,P|250:175|293:223,1,130,6|2,1:0|0:0,0:0:0:0:
262,315,35349,2,0,P|327:311|375:268,1,130,2|2,1:0|0:0,0:0:0:0:
467,299,35870,2,0,P|463:234|420:186,1,130,2|0,1:0|0:0,0:0:0:0:
451,94,36390,2,0,P|386:98|338:141,1,130,2|2,1:0|0:0,0:0:0:0:
291,221,36910,6,0,P|258:221|226:226,2,65,2|2|2,1:0|0:0|0:0,0:0:0:0:
262,314,37430,2,0,P|230:315|199:322,1,32.5,2|2,0:0|0:0,0:0:0:0:
196,320,37604,5,6,1:0:0:0:
101,299,37777,2,0,L|99:343,2,32.5,2|2|2,0:0|0:0|1:0,0:0:0:0:
50,215,38124,2,0,L|17:245,2,32.5,2|2|2,0:0|0:0|1:0,0:0:0:0:
73,120,38471,2,0,L|28:118,2,32.5,2|2|2,0:0|0:0|1:0,0:0:0:0:
170,126,38818,1,2,0:0:0:0:
143,32,38991,6,0,L|211:41,1,65,2|2,1:0|0:0,0:0:0:0:
305,40,39338,2,0,L|369:31,2,65,2|2|0,1:0|0:0|1:0,0:0:0:0:
284,135,39858,2,0,L|332:128,5,32.5,2|2|2|2|2|2,0:0|0:0|1:0|0:0|0:0|0:0,0:0:0:0:
342,126,40378,5,6,1:0:0:0:
439,120,40552,2,0,L|471:118,2,32.5,2|2|2,0:0|0:0|1:0,0:0:0:0:
462,215,40899,2,0,L|485:237,2,32.5,2|2|2,0:0|0:0|1:0,0:0:0:0:
411,299,41246,2,0,L|412:331,2,32.5,2|2|2,0:0|0:0|1:0,0:0:0:0:
316,320,41592,1,2,0:0:0:0:
316,320,41678,1,2,0:0:0:0:
316,320,41766,6,0,L|328:248,3,65,2|2|2|2,1:0|0:0|1:0|0:0,0:0:0:0:
239,213,42459,2,0,L|227:141,3,65,0|2|2|2,1:0|0:0|1:0|0:0,0:0:0:0:
134,177,43153,5,4,1:0:0:0:
70,104,43326,2,0,L|61:72,2,32.5,2|2|2,0:0|0:0|1:0,0:0:0:0:
40,195,43673,2,0,L|16:217,2,32.5,2|2|2,0:0|0:0|1:0,0:0:0:0:
134,177,44020,2,0,L|176:190,2,32.5,2|2|2,0:0|0:0|1:0,0:0:0:0:
94,267,44367,1,2,0:0:0:0:
143,352,44540,6,0,L|211:343,1,65,2|2,1:0|0:0,0:0:0:0:
305,344,44887,2,0,L|369:353,2,65,2|2|0,1:0|0:0|1:0,0:0:0:0:
361,263,45407,2,0,L|405:266,5,32.5,2|2|2|2|2|2,0:0|0:0|1:0|0:0|0:0|0:0,0:0:0:0:
418,267,45927,5,6,1:0:0:0:
378,177,46101,2,0,L|346:186,2,32.5,2|2|2,0:0|0:0|0:0,0:0:0:0:
472,195,46448,2,0,L|495:217,2,32.5,2|2|2,1:0|0:0|0:0,0:0:0:0:
442,104,46795,2,0,L|450:72,2,32.5,2|2|2,0:0|0:0|1:0,0:0:0:0:
374,25,47141,2,0,L|327:19,1,32.5,2|2,0:0|0:0,0:0:0:0:
317,67,47315,6,0,L|270:61,3,43.3333333333333,2|2|2|2,1:3|0:3|0:3|0:3,0:0:0:0:
180,107,47835,2,0,P|189:55|181:18,1,65,2|0,0:0|1:0,0:0:0:0:
93,62,48182,1,2,0:0:0:0:
8,19,48355,2,0,P|-2:69|5:106,1,65,2|0,1:0|0:0,0:0:0:0:
11,189,48702,6,0,P|61:227|125:237,1,130,6|0,1:2|1:0,0:0:0:0:
98,330,49222,1,2,0:0:0:0:
98,330,49309,1,2,0:0:0:0:
98,330,49396,2,0,P|161:321|212:282,1,130,6|0,1:2|1:0,0:0:0:0:
260,368,49916,1,2,0:0:0:0:
260,368,50003,1,2,0:0:0:0:
260,368,50089,6,0,P|299:317|307:253,1,130,6|0,1:2|1:0,0:0:0:0:
402,279,50610,1,2,0:0:0:0:
402,279,50696,1,2,0:0:0:0:
402,279,50783,2,0,P|393:215|354:164,1,130,6|0,1:2|1:0,0:0:0:0:
439,115,51303,1,2,0:0:0:0:
439,115,51390,1,2,0:0:0:0:
439,115,51477,6,0,P|416:92|388:76,7,32.5,6|0|0|0|0|0|0|0,1:2|0:0|0:0|0:0|1:0|0:0|0:0|0:0,0:0:0:0:
431,45,52170,6,0,P|414:43|398:45,3,32.5,0|0|0|0,1:0|0:0|0:0|0:0,0:0:0:0:
377,0,52517,2,0,P|363:10|353:23,1,32.5,0|0,1:0|0:0,0:0:0:0:
306,8,52691,2,0,P|303:24|305:41,1,32.5,0|0,0:0|0:0,0:0:0:0:
305,40,54251,5,6,1:0:0:0:
366,140,54425,2,0,L|328:137,1,38.9999988098145,2|2,0:0|0:0,0:0:0:0:
268,133,54598,2,0,P|230:127|195:111,1,77.999997619629,10|2,1:0|0:0,0:0:0:0:
194,110,54945,1,0,1:0:0:0:
103,35,55118,2,0,P|85:70|77:107,1,77.999997619629,2|8,0:0|1:0,0:0:0:0:
9,200,55465,2,0,P|20:237|41:270,1,77.999997619629,2|0,0:0|1:0,0:0:0:0:
125,361,55812,5,2,0:0:0:0:
125,361,55899,1,2,0:0:0:0:
125,361,55985,2,0,P|133:323|152:290,1,77.999997619629,10|0,1:0|0:0,0:0:0:0:
264,251,56332,2,0,L|270:292,3,38.9999988098145,2|2|2|2,1:0|0:0|0:0|0:0,0:0:0:0:
309,333,56679,2,0,L|350:327,3,38.9999988098145,10|2|2|2,1:0|0:0|1:0|0:0,0:0:0:0:
401,352,57026,5,2,1:0:0:0:
350,246,57199,2,0,L|342:208,1,38.9999988098145,2|2,0:0|0:0,0:0:0:0:
331,150,57372,2,0,P|326:111|332:73,1,77.999997619629,10|2,1:0|0:0,0:0:0:0:
439,37,57719,2,0,P|443:75|437:113,1,77.999997619629,2|0,1:0|0:0,0:0:0:0:
331,150,58066,1,8,1:0:0:0:
223,79,58240,2,0,P|228:40|244:5,1,77.999997619629,2|0,0:0|1:0,0:0:0:0:
109,37,58587,6,0,L|118:74,1,38.9999988098145,2|2,0:0|0:0,0:0:0:0:
131,131,58760,2,0,P|137:168|133:206,1,77.999997619629,10|0,1:0|0:0,0:0:0:0:
33,284,59107,2,0,L|46:337,2,38.9999988098145,2|2|2,1:0|0:0|0:0,0:0:0:0:
132,208,59454,1,10,1:0:0:0:
165,327,59627,1,2,1:0:0:0:
42,321,59800,6,0,P|37:282|43:244,1,77.999997619629,2|2,1:0|0:0,0:0:0:0:
132,208,60147,2,0,P|135:169|130:131,1,77.999997619629,10|2,1:0|0:0,0:0:0:0:
89,47,60494,2,0,P|127:40|165:44,1,77.999997619629,2|0,1:0|0:0,0:0:0:0:
286,98,60841,1,10,1:0:0:0:
286,98,61014,2,0,P|362:87|430:51,1,116.999996429443,2|0,0:0|0:0,0:0:0:0:
447,39,61361,1,2,0:0:0:0:
384,280,61708,6,0,L|389:317,2,38.9999988098145,2|2|2,0:0|0:0|1:0,0:0:0:0:
368,170,62055,1,2,0:0:0:0:
477,154,62228,1,10,1:0:0:0:
493,264,62402,1,2,1:0:0:0:
384,280,62575,6,0,L|296:293,1,77.999997619629,6|2,1:2|0:0,0:0:0:0:
255,372,62922,2,0,L|167:358,1,77.999997619629,10|2,1:0|0:0,0:0:0:0:
83,382,63269,2,0,L|96:294,1,77.999997619629,6|2,1:2|0:0,0:0:0:0:
175,253,63616,2,0,L|162:175,1,77.999997619629,10|0,1:0|0:0,0:0:0:0:
147,78,63962,5,6,1:2:0:0:
241,99,64136,2,0,P|217:147|162:175,1,116.999996429443,2|0,0:0|0:0,0:0:0:0:
162,175,64482,1,2,0:0:0:0:
46,205,64656,2,0,L|38:166,1,38.9999988098145,6|0,1:2|0:0,0:0:0:0:
28,109,64829,2,0,L|20:70,1,38.9999988098145,6|0,1:2|0:0,0:0:0:0:
9,12,65003,5,8,1:0:0:0:
38,37,65089,1,0,1:0:0:0:
71,57,65176,1,0,1:0:0:0:
108,70,65263,1,0,1:0:0:0:
146,77,65349,5,6,1:0:0:0:
285,31,65523,2,0,L|278:69,1,38.9999988098145,2|2,0:0|0:0,0:0:0:0:
224,91,65696,2,0,L|236:166,1,77.999997619629,10|0,1:0|0:0,0:0:0:0:
347,221,66043,2,0,L|334:144,1,77.999997619629,2|0,1:0|0:0,0:0:0:0:
335,145,66390,1,8,1:0:0:0:
444,197,66563,2,0,L|430:272,1,77.999997619629,2|0,0:0|1:0,0:0:0:0:
312,363,66910,5,2,0:0:0:0:
312,363,66997,1,2,0:0:0:0:
312,363,67084,2,0,L|297:279,1,77.999997619629,10|0,1:0|0:0,0:0:0:0:
215,352,67430,2,0,L|209:311,3,38.9999988098145,2|2|2|2,1:0|0:0|0:0|0:0,0:0:0:0:
154,291,67777,2,0,L|160:250,3,38.9999988098145,10|2|2|2,1:0|0:0|1:0|0:0,0:0:0:0:
93,230,68124,5,2,1:0:0:0:
47,135,68298,2,0,L|84:144,1,38.9999988098145,2|2,0:0|0:0,0:0:0:0:
140,159,68471,2,0,P|177:165|216:161,1,77.999997619629,10|2,1:0|0:0,0:0:0:0:
259,54,68818,2,0,P|221:47|182:51,1,77.999997619629,2|0,1:0|0:0,0:0:0:0:
216,161,69165,1,8,1:0:0:0:
331,144,69339,2,0,P|355:114|370:78,1,77.999997619629,2|0,0:0|1:0,0:0:0:0:
486,12,69685,6,0,L|476:49,1,38.9999988098145,2|2,0:0|0:0,0:0:0:0:
460,107,69859,2,0,P|453:144|457:183,1,77.999997619629,10|0,1:0|0:0,0:0:0:0:
401,286,70205,2,0,L|390:244,2,38.9999988098145,2|2|2,1:0|0:0|0:0,0:0:0:0:
487,366,70552,1,10,1:0:0:0:
371,356,70725,1,2,1:0:0:0:
254,345,70899,6,0,P|221:278|148:260,1,155.999995239258,6|8,1:0|1:0,0:0:0:0:
43,317,71419,1,2,1:0:0:0:
174,147,71766,1,10,1:0:0:0:
254,345,72113,1,2,1:0:0:0:
30,221,72459,6,0,L|24:177,1,38.9999988098145,2|2,1:0|0:0,0:0:0:0:
16,124,72633,2,0,L|10:80,1,38.9999988098145,2|2,1:0|0:0,0:0:0:0:
2,27,72806,1,2,1:0:0:0:
43,317,73153,2,0,L|119:326,1,77.999997619629,8|4,0:3|0:3,0:0:0:0:
201,241,73500,1,4,0:3:0:0:
254,345,73673,6,0,P|287:278|360:260,1,155.999995239258,6|10,1:0|1:0,0:0:0:0:
469,317,74193,1,2,1:0:0:0:
338,147,74540,1,10,1:0:0:0:
254,345,74887,1,2,1:0:0:0:
469,317,75234,6,0,L|473:278,1,38.9999988098145,2|2,1:0|0:0,0:0:0:0:
482,221,75408,2,0,L|486:182,1,38.9999988098145,10|2,1:0|0:0,0:0:0:0:
496,124,75581,2,0,L|500:84,1,38.9999988098145,2|2,1:0|0:0,0:0:0:0:
510,27,75754,5,2,1:0:0:0:
510,27,75928,1,2,1:0:0:0:
148,260,86159,5,6,1:0:0:0:
366,120,86506,5,6,1:0:0:0:
186,81,86852,5,6,1:0:0:0:
327,299,87199,5,6,1:0:0:0:
256,192,87546,5,6,1:0:0:0:
240,307,87719,2,0,L|197:300,1,38.9999988098145,2|2,0:0|0:0,0:0:0:0:
177,247,87892,2,0,L|83:263,1,77.999997619629,10|2,1:0|0:0,0:0:0:0:
0,277,88239,2,0,L|13:192,1,77.999997619629,2|0,1:0|0:0,0:0:0:0:
29,103,88586,1,8,1:0:0:0:
29,103,88759,2,0,L|113:118,1,77.999997619629,2|0,0:0|1:0,0:0:0:0:
211,190,89106,5,2,0:0:0:0:
211,190,89193,1,2,0:0:0:0:
211,190,89280,2,0,L|226:106,1,77.999997619629,10|0,1:0|0:0,0:0:0:0:
308,31,89626,2,0,L|314:72,3,38.9999988098145,2|2|2|2,1:0|0:0|0:0|0:0,0:0:0:0:
365,97,89973,2,0,L|359:138,3,38.9999988098145,10|2|2|2,1:0|0:0|1:0|0:0,0:0:0:0:
422,163,90320,5,2,1:0:0:0:
475,249,90494,2,0,L|437:241,1,38.9999988098145,2|2,0:0|0:0,0:0:0:0:
381,230,90667,2,0,P|342:225|305:231,1,77.999997619629,10|2,1:0|0:0,0:0:0:0:
271,342,91014,2,0,P|309:346|346:340,1,77.999997619629,2|0,1:0|0:0,0:0:0:0:
304,231,91361,1,8,1:0:0:0:
190,257,91535,2,0,P|167:288|154:324,1,77.999997619629,2|0,0:0|1:0,0:0:0:0:
28,377,91881,6,0,L|42:341,1,38.9999988098145,2|2,0:0|0:0,0:0:0:0:
63,285,92054,2,0,P|75:247|76:210,1,77.999997619629,10|0,1:0|0:0,0:0:0:0:
110,97,92402,2,0,L|123:138,2,38.9999988098145,2|2|2,1:2|0:0|1:2,0:0:0:0:
25,18,92748,1,10,1:0:0:0:
141,28,92921,1,2,1:2:0:0:
256,37,93095,6,0,P|308:92|313:168,1,155.999995239258,14|2,1:0|0:0,0:0:0:0:
209,137,93615,1,10,1:0:0:0:
391,56,93962,1,10,1:0:0:0:
209,137,94309,1,10,1:0:0:0:
391,56,94656,6,0,L|385:94,1,38.9999988098145,2|2,1:0|0:0,0:0:0:0:
378,153,94830,2,0,L|372:191,1,38.9999988098145,2|2,0:0|0:0,0:0:0:0:
366,250,95003,2,0,P|438:228|506:261,1,155.999995239258,2|4,1:0|0:3,0:0:0:0:
487,366,95523,1,4,0:3:0:0:
371,356,95696,1,4,0:3:0:0:
256,347,95870,6,0,P|204:292|198:215,1,155.999995239258,14|2,1:0|0:0,0:0:0:0:
303,247,96390,1,10,1:0:0:0:
121,328,96737,1,10,1:0:0:0:
303,247,97084,1,10,1:0:0:0:
142,130,97430,6,0,L|123:71,2,38.9999988098145,2|2|2,1:0|0:0|0:0,0:0:0:0:
242,93,97777,2,0,L|241:31,2,38.9999988098145,2|2|2,1:0|0:0|0:0,0:0:0:0:
349,82,98124,2,0,L|371:-4,2,77.999997619629,4|4|4,0:3|0:3|0:3,0:0:0:0:
320,195,98644,6,0,P|394:210|447:266,1,155.999995239258,14|2,1:0|0:0,0:0:0:0:
429,367,99165,1,10,1:0:0:0:
256,264,99511,1,10,1:0:0:0:
83,367,99858,2,0,P|108:314|115:257,1,116.999996429443,10|0,1:0|0:0,0:0:0:0:
75,213,100205,6,0,L|82:157,6,38.9999988098145,2|2|2|2|2|2|2,0:0|0:0|0:0|0:0|1:0|0:0|0:0,0:0:0:0:
193,207,100899,1,4,0:3:0:0:
136,106,101072,2,0,L|148:23,1,77.999997619629,4|4,0:3|0:3,0:0:0:0:
256,72,101419,5,2,1:0:0:0:
365,29,101592,2,0,L|418:37,2,38.9999988098145,2|2|10,0:0|0:0|1:0,0:0:0:0:
387,131,101939,2,0,L|440:139,2,38.9999988098145,2|0|2,0:0|0:0|1:0,0:0:0:0:
278,174,102286,1,2,0:0:0:0:
409,233,102459,2,0,L|456:239,2,38.9999988098145,10|0|2,1:0|0:0|0:0,0:0:0:0:
300,276,102806,6,0,L|246:270,1,38.9999988098145,2|2,1:0|0:0,0:0:0:0:
202,264,102980,2,0,P|213:300|213:339,2,77.999997619629,8|2|2,1:0|0:0|0:0,0:0:0:0:
117,131,103500,6,0,L|110:69,2,51.999998413086,2|2|2,1:0|0:0|0:0,0:0:0:0:
84,202,103847,2,0,L|34:238,2,51.999998413086,2|2|2,1:0|0:0|0:0,0:0:0:0:
162,196,104193,5,6,1:0:0:0:
351,86,104714,2,0,L|344:49,2,26,2|2|2,0:0|0:0|0:0,0:0:0:0:
423,223,105407,2,0,L|416:260,2,26,2|2|2,0:0|0:0|0:0,0:0:0:0:
256,192,105667,12,0,109743,0:0:0:0:
