osu file format v14

[General]
AudioFilename: Curtain Call Memories.mp3
AudioLeadIn: 0
PreviewTime: 53384
Countdown: 1
SampleSet: Soft
StackLeniency: 0.6
Mode: 0
LetterboxInBreaks: 0
WidescreenStoryboard: 1

[Editor]
Bookmarks: 15407,26506,32055,37604,54251,65350,101939
DistanceSpacing: 1.25
BeatDivisor: 2
GridSize: 8
TimelineZoom: 2.700005

[Metadata]
Title:Curtain Call Memories
TitleUnicode:カーテンコール・メモリーズ
Artist:DJ TOTTO & Qrispy Joybox
ArtistUnicode:DJ TOTTO & Qrispy Joybox
Creator:Scaltinof
Version:Hard
Source:REFLEC BEAT groovin'!! Upper
Tags:repl4y joker- konami volzza
BeatmapID:1415934
BeatmapSetID:667307

[Difficulty]
HPDrainRate:5
CircleSize:3.5
OverallDifficulty:5
ApproachRate:7
SliderMultiplier:1.3
SliderTickRate:1

[Events]
//Background and Video events
0,0,"bg.jpg",0,0
//Break Periods
2,76448,85259
//Storyboard Layer 0 (Background)
//Storyboard Layer 1 (Fail)
//Storyboard Layer 2 (Pass)
//Storyboard Layer 3 (Foreground)
//Storyboard Sound Samples

[TimingPoints]
1535,346.820809248555,4,2,1,35,1,0
1535,-100,4,2,1,35,0,0
9858,-100,4,2,1,70,0,0
14020,-100,4,2,1,70,0,0
15407,-100,4,2,1,80,0,1
15494,-100,4,2,1,80,0,0
17662,-100,4,2,2,80,0,0
18182,-100,4,2,1,80,0,0
23731,-100,4,2,1,70,0,0
24251,-100,4,2,1,70,0,0
24771,-100,4,2,1,70,0,0
26159,-100,4,2,1,70,0,0
26506,-100,4,2,1,80,0,1
26592,-100,4,2,1,80,0,0
28760,-100,4,2,2,80,0,0
29280,-100,4,2,1,80,0,0
34829,-100,4,2,1,70,0,0
35350,-100,4,2,1,70,0,0
35870,-100,4,2,1,70,0,0
37604,-100,4,2,1,80,0,0
41809,-100,4,2,1,5,0,0
41939,-100,4,2,1,80,0,0
41982,-100,4,2,1,5,0,0
42113,-100,4,2,1,80,0,0
42156,-100,4,2,1,5,0,0
42286,-100,4,2,1,80,0,0
42329,-100,4,2,1,5,0,0
42459,-100,4,2,1,80,0,0
42503,-100,4,2,1,5,0,0
42633,-100,4,2,1,80,0,0
42676,-100,4,2,1,5,0,0
42806,-100,4,2,1,80,0,0
42850,-100,4,2,1,5,0,0
42980,-100,4,2,1,80,0,0
43023,-100,4,2,1,5,0,0
43153,-100,4,2,1,80,0,0
52777,-100,4,2,1,80,0,0
54251,-100,4,2,1,85,0,1
76448,-100,4,2,1,60,0,0
86159,-100,4,2,1,90,0,0
87546,-100,4,2,1,85,0,1
103500,-100,4,2,1,85,0,1
104193,-100,4,2,1,85,0,0
104714,-100,4,2,1,60,0,0
105407,-100,4,2,1,50,0,0
105928,-100,4,2,1,65,0,0
106274,-100,4,2,1,60,0,0
106621,-100,4,2,1,50,0,0
106968,-100,4,2,1,35,0,0
107315,-100,4,2,1,20,0,0
107662,-100,4,2,1,15,0,0
108008,-100,4,2,1,10,0,0
108355,-100,4,2,1,5,0,0

[Colours]
Combo1 : 0,128,64
Combo2 : 0,128,255
Combo3 : 255,0,255

[HitObjects]
95,144,1535,5,2,0:0:0:0:
173,94,1708,2,0,L|182:224,1,130,0|0,0:0|0:0,0:0:0:0:
135,289,2228,1,2,0:0:0:0:
260,196,2575,1,0,0:0:0:0:
256,192,2748,1,2,0:0:0:0:
135,289,3095,2,0,L|131:230,2,32.5,2|0|2,0:0|0:0|0:0,0:0:0:0:
191,348,3442,1,0,0:0:0:0:
262,310,3615,6,0,P|347:368|416:291,1,195,2|0,0:0|0:0,0:0:0:0:
417,240,4309,5,2,0:0:0:0:
339,290,4482,2,0,L|330:160,1,130,0|0,0:0|0:0,0:0:0:0:
377,95,5003,1,2,0:0:0:0:
256,192,5350,1,0,0:0:0:0:
256,192,5523,1,2,0:0:0:0:
377,95,5870,2,0,L|379:127,2,32.5,2|0|2,0:0|0:0|0:0,0:0:0:0:
321,36,6217,1,0,0:0:0:0:
250,74,6390,6,0,L|247:106,2,32.5,2|0|0,0:0|0:0|0:0,0:0:0:0:
191,16,6737,1,2,0:0:0:0:
113,41,6910,1,2,0:0:0:0:
98,125,7084,6,0,L|162:129,1,65,2|0,0:0|0:0,0:0:0:0:
200,201,7430,2,0,L|135:205,2,65,0|0|2,0:0|0:0|0:0,0:0:0:0:
30,214,8124,1,2,0:0:0:0:
30,214,8298,1,2,0:0:0:0:
173,290,8644,6,0,L|300:263,1,130,2|2,0:0|0:0,0:0:0:0:
381,252,9165,2,0,L|370:316,1,65,2|2,0:0|0:0,0:0:0:0:
290,327,9511,2,0,L|300:262,1,65,2|2,0:0|0:0,0:0:0:0:
316,175,9858,6,0,P|396:134|377:46,1,195,6|6,1:0|1:0,0:0:0:0:
195,175,10899,2,0,P|115:134|134:46,1,195,6|6,1:0|1:0,0:0:0:0:
165,290,11939,6,0,P|256:258|345:290,1,195,6|0,1:0|0:0,0:0:0:0:
416,329,12633,6,0,P|255:237|93:329,1,390,6|2,1:0|0:0,0:0:0:0:
256,366,14020,6,0,L|256:171,1,195,6|2,1:0|0:0,0:0:0:0:
255,138,14627,1,2,0:0:0:0:
255,138,14714,1,2,0:0:0:0:
256,56,14887,1,0,0:0:0:0:
456,56,15407,6,0,L|448:120,1,65,6|2,1:0|0:0,0:0:0:0:
368,133,15754,2,0,L|375:197,1,65,2|0,1:0|0:0,0:0:0:0:
456,210,16101,2,0,L|448:274,1,65,2|2,1:0|0:0,0:0:0:0:
406,344,16448,1,0,1:0:0:0:
351,283,16621,1,2,0:0:0:0:
351,283,16708,1,2,0:0:0:0:
351,283,16795,6,0,L|286:290,1,65,2|2,1:0|0:0,0:0:0:0:
208,313,17141,2,0,L|215:248,1,65,2|2,1:0|0:0,0:0:0:0:
226,167,17488,1,0,1:0:0:0:
296,206,17662,2,0,P|307:176|304:144,2,65,10|10|10,0:0|1:2|1:2,0:0:0:0:
215,248,18182,6,0,L|150:240,1,65,0|2,1:0|0:0,0:0:0:0:
161,159,18529,2,0,L|225:166,1,65,2|2,1:0|0:0,0:0:0:0:
235,84,18876,2,0,L|171:77,1,65,2|2,1:0|0:0,0:0:0:0:
90,66,19222,1,0,1:0:0:0:
16,112,19396,1,2,0:0:0:0:
16,112,19482,1,2,0:0:0:0:
16,112,19569,6,0,L|23:176,1,65,2|2,1:2|0:0,0:0:0:0:
1,254,19916,2,0,L|65:246,1,65,2|2,1:2|0:0,0:0:0:0:
144,236,20263,1,0,1:0:0:0:
119,313,20436,1,2,0:0:0:0:
119,313,20523,1,2,0:0:0:0:
119,313,20610,2,0,L|183:305,1,65,2|2,1:0|1:0,0:0:0:0:
256,352,20956,6,0,L|266:288,1,65,2|0,1:0|0:0,0:0:0:0:
280,207,21303,2,0,L|290:143,1,65,2|0,1:0|0:0,0:0:0:0:
302,61,21650,2,0,P|333:71|356:94,2,65,2|0|0,1:0|0:0|1:0,0:0:0:0:
209,62,22170,1,2,0:0:0:0:
221,142,22344,6,0,L|231:206,1,65,2|0,1:0|0:0,0:0:0:0:
245,287,22691,2,0,L|255:351,1,65,2|0,1:0|0:0,0:0:0:0:
335,360,23037,2,0,L|324:296,1,65,2|2,1:0|0:0,0:0:0:0:
414,368,23384,2,0,L|403:304,1,65,2|2,1:0|1:0,0:0:0:0:
389,223,23731,6,0,P|444:203|426:147,1,130,6|2,1:0|0:0,0:0:0:0:
344,155,24251,6,0,P|346:93|293:62,1,130,2|2,1:0|0:0,0:0:0:0:
231,115,24771,6,0,P|139:91|61:145,1,195,2|2,1:0|1:0,0:0:0:0:
61,146,25639,5,2,0:0:0:0:
138,187,25812,2,0,L|127:251,1,65,2|2,1:0|0:0,0:0:0:0:
47,235,26159,2,0,L|50:299,1,65,2|2,0:0|0:0,0:0:0:0:
130,342,26506,6,0,L|194:331,1,65,4|2,1:0|0:0,0:0:0:0:
233,261,26852,2,0,L|297:271,1,65,2|2,1:0|0:0,0:0:0:0:
336,342,27199,2,0,L|400:331,1,65,2|2,1:0|0:0,0:0:0:0:
471,292,27546,1,0,1:0:0:0:
420,228,27719,1,2,0:0:0:0:
420,228,27806,1,2,0:0:0:0:
420,228,27893,6,0,L|430:163,1,65,2|2,1:0|0:0,0:0:0:0:
452,85,28240,2,0,L|387:95,1,65,2|2,1:0|0:0,0:0:0:0:
307,107,28587,1,0,1:0:0:0:
273,180,28760,2,0,P|304:187|335:180,2,65,10|10|10,0:0|1:2|1:2,0:0:0:0:
185,113,29280,6,0,L|177:177,1,65,0|2,1:0|0:0,0:0:0:0:
96,167,29627,2,0,L|103:102,1,65,2|2,1:0|0:0,0:0:0:0:
21,93,29974,2,0,L|14:157,1,65,2|2,1:0|0:0,0:0:0:0:
4,238,30321,1,0,1:0:0:0:
86,247,30494,1,2,0:0:0:0:
86,247,30581,1,0,0:0:0:0:
86,247,30667,6,0,L|93:311,1,65,2|2,1:2|0:0,0:0:0:0:
173,304,31014,2,0,L|166:240,1,65,2|2,1:2|0:0,0:0:0:0:
156,159,31361,1,0,1:0:0:0:
115,87,31535,1,2,0:0:0:0:
115,87,31621,1,2,0:0:0:0:
115,87,31708,2,0,L|179:79,1,65,2|2,1:0|1:0,0:0:0:0:
256,32,32055,6,0,L|266:96,1,65,2|0,1:0|0:0,0:0:0:0:
280,177,32402,2,0,L|290:241,1,65,2|0,1:0|0:0,0:0:0:0:
302,322,32748,2,0,P|333:312|356:289,2,65,2|0|0,1:0|0:0|1:0,0:0:0:0:
209,322,33269,1,2,0:0:0:0:
221,242,33442,6,0,L|231:177,1,65,2|0,1:0|0:0,0:0:0:0:
245,97,33789,2,0,L|255:32,1,65,2|0,1:0|0:0,0:0:0:0:
335,24,34136,2,0,L|324:88,1,65,2|2,1:0|0:0,0:0:0:0:
414,16,34482,2,0,L|403:80,1,65,2|2,1:0|1:0,0:0:0:0:
387,159,34829,6,0,P|341:123|303:168,1,130,6|2,1:0|0:0,0:0:0:0:
304,250,35350,6,0,P|351:211|408:234,1,130,2|2,1:0|0:0,0:0:0:0:
450,304,35870,6,0,P|361:275|280:325,1,195,2|2,1:0|1:0,0:0:0:0:
280,326,36737,5,2,0:0:0:0:
350,365,36910,2,0,P|361:335|357:303,1,65,2|2,1:0|0:0,0:0:0:0:
365,224,37257,2,0,P|333:225|305:240,1,65,2|2,0:0|0:0,0:0:0:0:
199,288,37604,5,6,1:0:0:0:
187,212,37777,2,0,L|122:222,1,65,2|2,0:0|1:0,0:0:0:0:
174,135,38124,2,0,L|109:145,1,65,2|2,0:0|1:0,0:0:0:0:
161,58,38471,2,0,L|96:68,1,65,2|2,0:0|1:0,0:0:0:0:
34,120,38818,1,2,0:0:0:0:
109,145,38991,6,0,L|174:135,1,65,2|2,1:0|0:0,0:0:0:0:
256,104,39338,2,0,L|256:169,1,65,2|2,1:0|0:0,0:0:0:0:
338,135,39685,2,0,L|403:145,1,65,0|2,1:0|0:0,0:0:0:0:
478,120,40032,1,2,1:0:0:0:
478,120,40205,1,2,0:0:0:0:
417,65,40378,5,6,1:0:0:0:
402,144,40552,2,0,L|392:209,1,65,2|2,0:0|1:0,0:0:0:0:
320,254,40899,2,0,L|310:189,1,65,2|2,0:0|1:0,0:0:0:0:
238,234,41245,2,0,L|228:299,1,65,2|2,0:0|1:0,0:0:0:0:
153,331,41592,1,2,0:0:0:0:
153,331,41679,1,2,0:0:0:0:
153,331,41766,6,0,L|88:321,1,65,2|2,1:0|0:0,0:0:0:0:
109,242,42113,2,0,L|44:232,1,65,2|2,1:0|0:0,0:0:0:0:
44,152,42459,2,0,L|109:142,1,65,0|2,1:0|0:0,0:0:0:0:
88,63,42806,2,0,L|153:53,1,65,2|2,1:0|0:0,0:0:0:0:
242,37,43153,5,4,1:0:0:0:
254,117,43326,2,0,L|264:181,1,65,2|2,0:0|1:0,0:0:0:0:
331,105,43673,2,0,L|341:169,1,65,2|2,0:0|1:0,0:0:0:0:
408,94,44020,2,0,L|418:158,1,65,2|2,0:0|1:0,0:0:0:0:
429,238,44367,1,2,0:0:0:0:
402,315,44540,6,0,L|337:305,1,65,2|2,1:0|0:0,0:0:0:0:
256,272,44887,2,0,L|256:337,1,65,2|2,1:0|0:0,0:0:0:0:
175,305,45234,2,0,L|110:315,1,65,0|2,1:0|0:0,0:0:0:0:
30,329,45581,5,2,1:0:0:0:
30,329,45754,1,2,0:0:0:0:
58,253,45928,5,6,1:0:0:0:
111,315,46101,2,0,L|176:305,1,65,2|2,0:0|0:0,0:0:0:0:
221,233,46448,2,0,L|156:223,1,65,2|2,1:0|0:0,0:0:0:0:
201,151,46795,2,0,L|266:141,1,65,2|2,0:0|1:0,0:0:0:0:
311,69,47141,1,2,0:0:0:0:
311,69,47315,6,0,L|268:62,3,43.3333333333333,2|2|2|2,1:3|0:3|0:3|0:3,0:0:0:0:
384,35,47835,2,0,P|391:67|384:98,1,65,2|0,0:0|1:0,0:0:0:0:
341,169,48182,1,2,0:0:0:0:
421,180,48355,2,0,P|410:211|388:235,1,65,2|0,1:0|0:0,0:0:0:0:
308,288,48702,6,0,P|341:234|341:170,1,130,6|0,1:2|1:0,0:0:0:0:
297,86,49222,1,2,0:0:0:0:
297,86,49309,1,2,0:0:0:0:
296,85,49396,6,0,P|351:119|415:120,1,130,6|0,1:2|1:0,0:0:0:0:
499,75,49916,1,2,0:0:0:0:
499,75,50003,1,2,0:0:0:0:
499,74,50089,6,0,P|465:130|466:194,1,130,6|0,1:2|1:0,0:0:0:0:
510,277,50610,1,2,0:0:0:0:
510,277,50696,1,2,0:0:0:0:
509,276,50783,6,0,P|455:243|390:244,1,130,6|0,1:2|1:0,0:0:0:0:
308,288,51303,1,2,0:0:0:0:
308,288,51390,1,2,0:0:0:0:
308,288,51477,5,6,1:2:0:0:
256,192,51563,12,0,52777,0:0:0:0:
117,103,54251,5,6,1:0:0:0:
176,158,54425,2,0,L|170:190,1,32.5,2|2,0:0|0:0,0:0:0:0:
132,203,54598,2,0,L|141:267,1,65,10|2,1:0|0:0,0:0:0:0:
154,347,54945,1,0,1:0:0:0:
220,298,55118,6,0,P|252:302|279:319,1,65,2|8,0:0|1:0,0:0:0:0:
315,245,55465,2,0,P|341:265|357:293,1,65,2|0,0:0|1:0,0:0:0:0:
436,309,55812,1,2,0:0:0:0:
436,309,55899,1,2,0:0:0:0:
435,309,55985,2,0,P|436:276|423:246,1,65,10|0,1:0|0:0,0:0:0:0:
376,182,56332,6,0,L|380:149,3,32.5,2|2|2|2,1:0|0:0|0:0|0:0,0:0:0:0:
421,153,56679,2,0,L|425:120,3,32.5,10|2|2|2,1:0|0:0|1:0|0:0,0:0:0:0:
433,80,57026,5,2,1:0:0:0:
362,40,57199,2,0,L|329:44,1,32.5,2|2,0:0|0:0,0:0:0:0:
317,84,57373,2,0,L|252:74,1,65,10|2,1:0|0:0,0:0:0:0:
172,62,57719,6,0,P|173:94|187:123,1,65,2|0,1:0|0:0,0:0:0:0:
233,190,58066,1,8,1:0:0:0:
109,150,58240,2,0,P|126:178|153:197,1,65,2|0,0:0|1:0,0:0:0:0:
159,277,58587,1,2,0:0:0:0:
159,277,58673,1,2,0:0:0:0:
158,277,58760,2,0,P|126:274|98:258,1,65,10|0,1:0|0:0,0:0:0:0:
39,204,59107,6,0,L|33:171,2,32.5,2|2|2,1:0|0:0|0:0,0:0:0:0:
21,282,59454,1,10,1:0:0:0:
98,258,59627,1,2,1:0:0:0:
151,319,59800,6,0,L|215:328,1,65,2|2,1:0|0:0,0:0:0:0:
296,328,60147,2,0,L|361:319,1,65,10|2,1:0|0:0,0:0:0:0:
441,330,60494,2,0,P|440:298|426:269,1,65,2|0,1:0|0:0,0:0:0:0:
351,238,60841,1,10,1:0:0:0:
270,244,61014,2,0,L|283:147,1,97.5,2|0,0:0|0:0,0:0:0:0:
288,115,61361,1,2,0:0:0:0:
462,81,61708,5,2,0:0:0:0:
462,81,61795,1,2,0:0:0:0:
462,81,61881,2,0,L|471:146,1,65,2|2,1:0|0:0,0:0:0:0:
408,197,62228,2,0,L|417:262,1,65,10|2,1:0|1:0,0:0:0:0:
354,313,62575,6,0,L|289:304,1,65,6|2,1:2|0:0,0:0:0:0:
208,292,62922,2,0,L|143:283,1,65,10|2,1:0|0:0,0:0:0:0:
64,302,63269,6,0,L|73:237,1,65,6|2,1:2|0:0,0:0:0:0:
85,156,63615,2,0,L|94:91,1,65,10|0,1:0|0:0,0:0:0:0:
143,27,63962,1,6,1:2:0:0:
142,26,64136,2,0,P|164:51|172:82,1,65,2|8,0:0|1:0,0:0:0:0:
163,162,64482,1,2,0:0:0:0:
239,132,64656,5,6,1:2:0:0:
319,145,64829,1,6,1:2:0:0:
398,158,65003,2,0,P|392:111|359:76,1,97.5,8|0,1:0|2:0,0:0:0:0:
320,65,65350,5,6,1:0:0:0:
239,132,65523,2,0,L|244:164,1,32.5,2|2,0:0|0:0,0:0:0:0:
283,177,65696,2,0,L|273:241,1,65,10|0,1:0|0:0,0:0:0:0:
263,321,66043,6,0,P|296:320|325:306,1,65,2|0,1:0|0:0,0:0:0:0:
372,241,66390,1,8,1:0:0:0:
435,290,66563,2,0,P|450:262|452:230,1,65,2|0,0:0|1:0,0:0:0:0:
493,127,66910,1,2,0:0:0:0:
493,127,66997,1,2,0:0:0:0:
492,126,67084,2,0,P|476:99|449:81,1,65,10|0,1:0|0:0,0:0:0:0:
419,157,67430,6,0,L|386:152,3,32.5,2|2|2|2,1:0|0:0|0:0|0:0,0:0:0:0:
373,113,67777,2,0,L|340:108,3,32.5,10|2|2|2,1:0|0:0|1:0|0:0,0:0:0:0:
299,103,68124,5,2,1:0:0:0:
262,176,68298,2,0,L|229:171,1,32.5,2|2,0:0|0:0,0:0:0:0:
217,132,68471,2,0,L|152:141,1,65,10|2,1:0|0:0,0:0:0:0:
71,131,68818,6,0,P|72:164|86:193,1,65,2|0,1:0|0:0,0:0:0:0:
152,240,69165,1,8,1:0:0:0:
102,303,69338,2,0,P|130:318|162:320,1,65,2|0,0:0|1:0,0:0:0:0:
266,361,69685,1,2,0:0:0:0:
266,361,69771,1,2,0:0:0:0:
266,360,69858,2,0,P|293:344|311:317,1,65,10|0,1:0|0:0,0:0:0:0:
237,287,70205,6,0,L|231:254,2,32.5,2|2|2,1:0|0:0|0:0,0:0:0:0:
307,234,70552,1,10,1:0:0:0:
387,246,70725,1,2,1:0:0:0:
467,257,70899,6,0,P|453:196|398:165,1,130,6|8,1:0|1:0,0:0:0:0:
398,165,71419,1,2,1:0:0:0:
256,224,71766,1,10,1:0:0:0:
113,164,72113,6,0,P|57:196|44:257,1,130,2|2,1:0|1:0,0:0:0:0:
95,322,72633,1,2,1:0:0:0:
125,246,72806,1,2,1:0:0:0:
124,246,73153,2,0,P|155:234|179:212,2,65,8|4|4,0:3|0:3|0:3,0:0:0:0:
42,163,73673,6,0,P|104:150|137:96,1,130,6|10,1:0|1:0,0:0:0:0:
137,97,74193,1,2,1:0:0:0:
256,224,74540,1,10,1:0:0:0:
373,96,74887,6,0,P|406:150|468:164,1,130,2|2,1:0|1:0,0:0:0:0:
468,163,75407,1,10,1:0:0:0:
455,87,75581,1,2,1:0:0:0:
393,178,75754,5,2,1:0:0:0:
393,178,75928,1,2,1:0:0:0:
256,192,86159,5,6,1:0:0:0:
256,192,86506,5,6,1:0:0:0:
256,192,86852,5,6,1:0:0:0:
256,192,87199,5,6,1:0:0:0:
331,53,87546,5,6,1:0:0:0:
422,89,87719,2,0,L|416:121,1,32.5,2|2,0:0|0:0,0:0:0:0:
378,134,87893,2,0,L|387:198,1,65,10|2,1:0|0:0,0:0:0:0:
427,269,88240,6,0,P|398:281|366:277,1,65,2|0,1:0|0:0,0:0:0:0:
274,260,88587,1,8,1:0:0:0:
366,359,88760,2,0,P|334:354|307:336,1,65,2|0,0:0|1:0,0:0:0:0:
202,302,89107,1,2,0:0:0:0:
202,302,89193,1,2,0:0:0:0:
201,301,89280,2,0,P|190:271|192:239,1,65,10|0,1:0|0:0,0:0:0:0:
222,158,89627,6,0,L|189:153,3,32.5,2|2|2|2,1:0|0:0|0:0|0:0,0:0:0:0:
176,114,89974,2,0,L|143:109,3,32.5,10|2|2|2,1:0|0:0|1:0|0:0,0:0:0:0:
102,104,90321,5,2,1:0:0:0:
83,204,90494,2,0,L|115:209,1,32.5,2|2,0:0|0:0,0:0:0:0:
128,248,90667,2,0,L|192:238,1,65,10|2,1:0|0:0,0:0:0:0:
274,259,91014,6,0,P|278:228|266:197,1,65,2|0,1:0|0:0,0:0:0:0:
224,110,91361,1,8,1:0:0:0:
344,174,91535,2,0,P|331:145|307:124,1,65,2|0,0:0|1:0,0:0:0:0:
246,32,91881,1,2,0:0:0:0:
246,32,91968,1,2,0:0:0:0:
245,31,92055,2,0,P|213:28|183:38,1,65,10|0,1:0|0:0,0:0:0:0:
104,59,92402,2,0,L|71:53,2,32.5,2|2|2,1:2|0:0|1:2,0:0:0:0:
133,134,92748,1,10,1:0:0:0:
121,214,92922,1,2,1:2:0:0:
109,294,93095,6,0,P|165:284|202:214,1,130,14|2,1:0|0:0,0:0:0:0:
201,225,93615,1,10,1:0:0:0:
256,78,93962,1,10,1:0:0:0:
311,225,94309,6,0,P|342:280|404:294,1,130,10|2,1:0|1:0,0:0:0:0:
380,134,95003,1,2,1:0:0:0:
403,294,95350,2,0,L|474:282,2,65,4|4|4,0:3|0:3|0:3,0:0:0:0:
303,332,95870,6,0,P|255:294|208:332,1,130,14|2,1:0|0:0,0:0:0:0:
208,331,96390,1,10,1:0:0:0:
144,192,96737,1,10,1:0:0:0:
208,52,97084,6,0,P|255:89|303:52,1,130,10|2,1:0|1:0,0:0:0:0:
368,192,97777,1,2,1:0:0:0:
303,51,98124,2,0,L|291:122,2,65,4|4|4,0:3|0:3|0:3,0:0:0:0:
387,63,98644,6,0,L|367:192,1,130,14|2,1:0|0:0,0:0:0:0:
367,191,99165,1,10,1:0:0:0:
257,301,99511,1,10,1:0:0:0:
145,193,99858,6,0,L|125:322,2,130,10|2|2,1:0|0:0|1:0,0:0:0:0:
145,193,100899,2,0,L|216:205,2,65,4|4|4,0:3|0:3|0:3,0:0:0:0:
55,173,101419,5,2,1:0:0:0:
114,118,101592,2,0,L|108:82,2,32.5,2|2|10,0:0|0:0|1:0,0:0:0:0:
192,95,101939,2,0,L|195:59,2,32.5,2|0|2,0:0|0:0|1:0,0:0:0:0:
256,145,102286,1,2,0:0:0:0:
320,95,102459,5,10,1:0:0:0:
320,95,102546,1,0,0:0:0:0:
320,95,102633,2,0,L|316:62,2,32.5,2|2|2,0:0|0:0|1:0,0:0:0:0:
403,84,102980,2,0,L|380:231,1,130,8|2,1:0|0:0,0:0:0:0:
304,288,103500,6,0,L|369:298,2,43.3333333333333,2|2|2,1:0|0:0|0:0,0:0:0:0:
208,288,103847,2,0,L|144:298,2,43.3333333333333,2|2|2,1:0|0:0|0:0,0:0:0:0:
256,353,104193,5,6,1:0:0:0:
146,184,104714,2,0,L|151:216,2,32.5,2|2|2,0:0|0:0|0:0,0:0:0:0:
64,346,105407,2,0,L|59:313,2,32.5,2|2|2,0:0|0:0|0:0,0:0:0:0:
256,192,105667,12,0,109743,0:0:0:0:
