osu file format v14

[General]
AudioFilename: Curtain Call Memories.mp3
AudioLeadIn: 0
PreviewTime: 53384
Countdown: 1
SampleSet: Soft
StackLeniency: 0.3
Mode: 0
LetterboxInBreaks: 0
WidescreenStoryboard: 1

[Editor]
Bookmarks: 15407,26506,32055,37604,54251,65350,101939
DistanceSpacing: 1.25
BeatDivisor: 4
GridSize: 4
TimelineZoom: 1.800005

[Metadata]
Title:Curtain Call Memories
TitleUnicode:カーテンコール・メモリーズ
Artist:DJ TOTTO & Qrispy Joybox
ArtistUnicode:DJ TOTTO & Qrispy Joybox
Creator:Scaltinof
Version:Extra
Source:REFLEC BEAT groovin'!! Upper
Tags:repl4y joker- konami volzza
BeatmapID:1412011
BeatmapSetID:667307

[Difficulty]
HPDrainRate:7
CircleSize:4.2
OverallDifficulty:8
ApproachRate:9.3
SliderMultiplier:2.3
SliderTickRate:1

[Events]
//Background and Video events
0,0,"bg.jpg",0,0
//Break Periods
//Storyboard Layer 0 (Background)
//Storyboard Layer 1 (Fail)
//Storyboard Layer 2 (Pass)
//Storyboard Layer 3 (Foreground)
//Storyboard Sound Samples

[TimingPoints]
1535,346.820809248555,4,2,1,35,1,0
1535,-166.666666666667,4,2,1,35,0,0
9858,-125,4,2,1,70,0,0
14020,-166.666666666667,4,2,1,70,0,0
15407,-100,4,2,1,80,0,1
15494,-100,4,2,1,80,0,0
17662,-100,4,2,2,80,0,0
18182,-100,4,2,1,80,0,0
23731,-200,4,2,1,70,0,0
24251,-142.857142857143,4,2,1,70,0,0
24771,-100,4,2,1,70,0,0
25812,-111.111111111111,4,2,1,70,0,0
26159,-142.857142857143,4,2,1,70,0,0
26506,-100,4,2,1,80,0,1
26592,-100,4,2,1,80,0,0
28760,-100,4,2,2,80,0,0
29280,-100,4,2,1,80,0,0
34829,-200,4,2,1,70,0,0
35350,-142.857142857143,4,2,1,70,0,0
35870,-100,4,2,1,70,0,0
37604,-100,4,2,1,80,0,0
41809,-100,4,2,1,5,0,0
41939,-100,4,2,1,80,0,0
41982,-100,4,2,1,5,0,0
42113,-100,4,2,1,80,0,0
42156,-100,4,2,1,5,0,0
42286,-100,4,2,1,80,0,0
42329,-100,4,2,1,5,0,0
42459,-100,4,2,1,80,0,0
42503,-100,4,2,1,5,0,0
42633,-100,4,2,1,80,0,0
42676,-100,4,2,1,5,0,0
42806,-100,4,2,1,80,0,0
42850,-100,4,2,1,5,0,0
42980,-100,4,2,1,80,0,0
43023,-100,4,2,1,5,0,0
43153,-100,4,2,1,80,0,0
52864,-100,4,2,1,80,0,0
54251,-83.3333333333333,4,2,1,85,0,1
58240,-66.6666666666667,4,2,1,85,0,1
58760,-71.4285714285714,4,2,1,85,0,1
59107,-83.3333333333333,4,2,1,85,0,1
59800,-83.3333333333333,4,2,1,85,0,1
65306,-83.3333333333333,4,2,1,85,0,0
65350,-83.3333333333333,4,2,1,85,0,1
69338,-66.6666666666667,4,2,1,85,0,1
69858,-71.4285714285714,4,2,1,85,0,1
70205,-83.3333333333333,4,2,1,85,0,1
70899,-76.9230769230769,4,2,1,85,0,1
76448,-166.666666666667,4,2,1,60,0,0
86159,-71.4285714285715,4,2,1,90,0,0
87546,-83.3333333333333,4,2,1,85,0,1
91535,-66.6666666666667,4,2,1,85,0,1
92055,-71.4285714285714,4,2,1,85,0,1
92402,-83.3333333333333,4,2,1,85,0,1
93008,-83.3333333333333,4,2,1,85,0,0
93095,-76.9230769230769,4,2,1,85,0,1
101419,-83.3333333333333,4,2,1,85,0,1
102980,-66.6666666666667,4,2,1,85,0,1
103500,-83.3333333333333,4,2,1,85,0,1
104714,-100,4,2,1,60,0,0
105407,-100,4,2,1,50,0,0
105928,-100,4,2,1,65,0,0
106274,-100,4,2,1,60,0,0
106621,-100,4,2,1,50,0,0
106968,-100,4,2,1,35,0,0
107315,-100,4,2,1,20,0,0
107662,-100,4,2,1,15,0,0
108008,-100,4,2,1,10,0,0
108355,-100,4,2,1,5,0,0

[Colours]
Combo1 : 0,128,64
Combo2 : 0,128,255
Combo3 : 255,0,255

[HitObjects]
80,172,1535,5,2,0:0:0:0:
95,275,1708,1,0,0:0:0:0:
107,243,1795,1,0,0:0:0:0:
73,249,1881,1,0,0:0:0:0:
27,308,2055,1,0,0:0:0:0:
169,284,2228,6,0,P|181:251|178:217,1,68.9999978942872,2|0,0:0|0:0,0:0:0:0:
107,243,2575,1,0,0:0:0:0:
254,222,2748,2,0,P|249:189|230:161,1,68.9999978942872,2|0,0:0|0:0,0:0:0:0:
243,342,3095,5,2,0:0:0:0:
243,342,3182,1,0,0:0:0:0:
243,342,3269,1,2,0:0:0:0:
340,228,3442,1,0,0:0:0:0:
364,355,3615,5,2,0:0:0:0:
336,357,3702,1,0,0:0:0:0:
326,333,3789,1,0,0:0:0:0:
346,315,3876,1,0,0:0:0:0:
369,329,3962,5,0,0:0:0:0:
404,328,4049,1,0,0:0:0:0:
436,317,4136,1,0,0:0:0:0:
463,296,4222,1,0,0:0:0:0:
482,267,4309,5,2,0:0:0:0:
409,194,4482,1,0,0:0:0:0:
417,227,4569,1,0,0:0:0:0:
442,203,4656,1,0,0:0:0:0:
443,126,4829,1,0,0:0:0:0:
340,228,5003,6,0,P|333:195|340:162,1,68.9999978942872,2|0,0:0|0:0,0:0:0:0:
409,194,5350,1,0,0:0:0:0:
262,157,5523,2,0,P|271:124|294:99,1,68.9999978942872,2|0,0:0|0:0,0:0:0:0:
388,32,5870,5,2,0:0:0:0:
388,32,5956,1,0,0:0:0:0:
388,32,6043,1,2,0:0:0:0:
339,162,6217,1,0,0:0:0:0:
286,23,6390,5,2,0:0:0:0:
253,33,6477,1,0,0:0:0:0:
229,57,6563,1,0,0:0:0:0:
191,130,6737,1,2,0:0:0:0:
116,95,6910,1,2,0:0:0:0:
266,165,7084,5,2,0:0:0:0:
271,61,7257,1,0,0:0:0:0:
371,34,7430,1,0,0:0:0:0:
428,121,7604,1,0,0:0:0:0:
362,201,7777,1,2,0:0:0:0:
371,34,8124,5,2,0:0:0:0:
271,61,8298,1,2,0:0:0:0:
362,201,8644,1,2,0:0:0:0:
271,61,8991,6,0,L|261:20,2,34.4999989471436,2|2|2,0:0|0:0|0:0,0:0:0:0:
371,34,9338,1,2,0:0:0:0:
428,121,9511,1,2,0:0:0:0:
362,201,9685,1,2,0:0:0:0:
161,240,9858,5,6,1:0:0:0:
206,243,9945,1,2,0:0:0:0:
250,255,10032,1,2,0:0:0:0:
72,313,10205,2,0,P|94:318|117:317,1,46,2|0,0:0|0:0,0:0:0:0:
250,255,10378,5,6,1:0:0:0:
252,210,10465,1,2,0:0:0:0:
264,165,10552,1,2,0:0:0:0:
323,344,10725,2,0,P|328:322|327:299,1,46,2|0,0:0|0:0,0:0:0:0:
264,165,10899,6,0,P|217:163|169:148,1,92,6|2,1:0|0:0,0:0:0:0:
341,102,11159,1,2,0:0:0:0:
353,92,11245,2,0,P|331:87|308:88,1,46,2|2,0:0|0:0,0:0:0:0:
174,150,11419,6,0,P|172:197|158:246,1,92,6|2,1:0|0:0,0:0:0:0:
104,61,11766,2,0,P|99:83|100:106,1,46,2|0,0:0|0:0,0:0:0:0:
160,240,11939,5,6,1:0:0:0:
246,206,12055,1,2,0:0:0:0:
174,150,12170,1,2,0:0:0:0:
178,259,12286,5,6,1:0:0:0:
247,232,12402,1,2,0:0:0:0:
305,279,12517,1,2,0:0:0:0:
382,191,12633,6,0,L|378:222,5,30.6666666666667,6|0|0|0|0|0,1:0|0:0|0:0|0:0|0:0|0:0,0:0:0:0:
374,252,12980,1,0,0:0:0:0:
307,149,13153,6,0,L|300:103,2,46,2|2|2,0:0|0:0|0:0,0:0:0:0:
467,176,13500,1,2,0:0:0:0:
464,200,13587,1,2,0:0:0:0:
461,223,13673,1,2,0:0:0:0:
383,335,13847,2,0,P|358:333|338:327,1,46,2|2,0:0|0:0,0:0:0:0:
264,284,14020,6,0,B|171:245|155:322|63:284,1,206.999993682861,6|2,1:0|0:0,0:0:0:0:
46,280,14627,1,2,0:0:0:0:
28,281,14714,1,2,0:0:0:0:
39,355,14887,1,0,0:0:0:0:
251,164,15407,5,6,1:0:0:0:
55,95,15581,1,2,0:0:0:0:
40,150,15667,1,2,0:0:0:0:
95,135,15754,2,0,P|172:152|198:183,1,115,2|0,1:0|0:0,0:0:0:0:
206,233,16014,1,0,0:0:0:0:
194,176,16101,2,0,P|245:117|286:110,1,115,2|2,1:0|0:0,0:0:0:0:
336,108,16361,1,0,0:0:0:0:
392,118,16448,2,0,P|444:99|475:52,1,57.5,0|0,1:0|0:0,0:0:0:0:
231,38,16621,1,2,0:0:0:0:
231,38,16708,1,2,0:0:0:0:
231,38,16795,6,0,P|217:63|214:92,1,57.5,2|0,1:0|0:0,0:0:0:0:
100,103,16968,2,0,P|112:128|115:157,1,57.5,2|0,0:0|0:0,0:0:0:0:
270,245,17141,2,0,L|212:252,1,57.5,2|0,1:0|0:0,0:0:0:0:
39,355,17315,1,2,0:0:0:0:
213,252,17488,1,0,1:0:0:0:
58,218,17662,6,0,P|68:245|81:271,1,57.5,10|0,0:0|0:0,0:0:0:0:
150,343,17835,2,0,P|177:352|205:358,1,57.5,10|0,1:2|0:0,0:0:0:0:
307,358,18008,2,0,P|335:352|363:343,1,57.5,10|0,1:2|0:0,0:0:0:0:
454,218,18182,5,0,1:0:0:0:
255,191,18355,1,2,0:0:0:0:
271,246,18442,1,2,0:0:0:0:
311,204,18529,2,0,P|358:173|414:177,1,115,2|2,1:0|0:0,0:0:0:0:
454,218,18789,1,0,0:0:0:0:
414,177,18876,2,0,P|409:120|440:73,1,115,2|2,1:0|0:0,0:0:0:0:
490,46,19136,1,0,0:0:0:0:
490,46,19222,1,0,1:0:0:0:
285,17,19396,1,2,0:0:0:0:
285,17,19482,1,2,0:0:0:0:
285,17,19569,6,0,P|297:42|301:71,1,57.5,2|0,1:2|0:0,0:0:0:0:
311,204,19743,2,0,P|282:201|256:190,1,57.5,2|0,0:0|0:0,0:0:0:0:
136,133,19916,2,0,P|152:109|174:91,1,57.5,2|0,1:2|0:0,0:0:0:0:
243,117,20089,1,2,0:0:0:0:
65,196,20263,1,0,1:0:0:0:
175,223,20436,5,2,0:0:0:0:
183,265,20523,1,2,0:0:0:0:
166,304,20610,1,2,1:0:0:0:
128,325,20696,1,2,0:0:0:0:
86,320,20783,1,2,1:0:0:0:
54,289,20870,1,2,0:0:0:0:
65,196,20956,6,0,B|99:216|142:209|142:209|173:222,1,115,2|0,1:0|0:0,0:0:0:0:
227,246,21217,1,0,0:0:0:0:
227,246,21303,1,2,1:0:0:0:
115,127,21477,1,0,0:0:0:0:
200,113,21650,2,0,B|202:152|176:187|176:187|174:222,1,115,2|0,1:0|0:0,0:0:0:0:
172,279,21910,1,0,0:0:0:0:
172,279,21997,1,0,1:0:0:0:
315,178,22170,2,0,L|305:122,1,57.5,2|0,0:0|0:0,0:0:0:0:
390,130,22344,6,0,L|369:16,1,115,2|0,1:0|0:0,0:0:0:0:
505,163,22691,2,0,L|484:276,1,115,2|0,1:0|0:0,0:0:0:0:
369,16,23037,1,2,1:0:0:0:
484,276,23211,1,2,0:0:0:0:
390,130,23384,1,2,1:0:0:0:
505,163,23558,1,2,1:0:0:0:
463,336,23731,6,0,P|469:280|429:241,1,115,6|2,1:0|0:0,0:0:0:0:
463,336,24251,6,0,P|470:258|414:203,1,160.99999508667,2|2,1:0|0:0,0:0:0:0:
463,336,24771,6,0,P|480:170|363:51,1,345,2|2,1:0|1:0,0:0:0:0:
463,336,25639,5,2,0:0:0:0:
362,50,25812,2,0,L|343:188,1,103.499996841431,2|2,1:0|0:0,0:0:0:0:
266,112,26159,6,0,L|254:191,1,80.499997543335,2|2,0:0|0:0,0:0:0:0:
177,298,26506,5,4,1:0:0:0:
380,239,26679,1,2,0:0:0:0:
388,296,26766,1,2,0:0:0:0:
335,275,26852,2,0,P|277:279|234:314,1,115,2|2,1:0|0:0,0:0:0:0:
226,373,27113,1,0,0:0:0:0:
234,314,27199,2,0,P|200:266|148:247,1,115,2|2,1:0|0:0,0:0:0:0:
91,250,27459,1,0,0:0:0:0:
44,284,27546,2,0,P|28:307|20:335,1,57.5,0|0,1:0|0:0,0:0:0:0:
58,166,27719,1,2,0:0:0:0:
58,166,27806,1,2,0:0:0:0:
58,166,27893,6,0,P|85:174|113:175,1,57.5,2|0,1:0|0:0,0:0:0:0:
200,109,28066,2,0,P|228:109|255:118,1,57.5,2|0,0:0|0:0,0:0:0:0:
331,237,28240,2,0,L|338:179,1,57.5,2|0,1:0|0:0,0:0:0:0:
455,19,28413,1,2,0:0:0:0:
255,118,28587,1,0,1:0:0:0:
454,166,28760,6,0,P|444:139|431:113,1,57.5,10|0,0:0|0:0,0:0:0:0:
362,41,28933,2,0,P|335:32|307:26,1,57.5,10|0,1:2|0:0,0:0:0:0:
205,26,29107,2,0,P|177:32|149:41,1,57.5,10|0,1:2|0:0,0:0:0:0:
58,166,29280,5,0,1:0:0:0:
242,180,29454,1,2,0:0:0:0:
230,123,29540,1,2,0:0:0:0:
187,162,29627,2,0,P|170:238|189:274,1,115,2|2,1:0|0:0,0:0:0:0:
234,299,29887,1,0,0:0:0:0:
185,268,29974,2,0,P|109:292|87:326,1,115,2|2,1:0|0:0,0:0:0:0:
81,375,30234,1,0,0:0:0:0:
81,375,30321,1,0,1:0:0:0:
58,166,30494,1,2,0:0:0:0:
58,166,30581,1,0,0:0:0:0:
58,166,30667,6,0,P|71:191|92:210,1,57.5,2|0,1:2|0:0,0:0:0:0:
238,190,30841,2,0,P|253:165|259:137,1,57.5,2|0,0:0|0:0,0:0:0:0:
169,23,31014,2,0,P|140:22|112:30,1,57.5,2|0,1:2|0:0,0:0:0:0:
153,125,31188,1,2,0:0:0:0:
314,50,31361,1,0,1:0:0:0:
387,237,31535,5,2,0:0:0:0:
424,217,31621,1,2,0:0:0:0:
448,183,31708,1,2,1:0:0:0:
454,140,31795,1,2,0:0:0:0:
436,102,31881,1,2,1:0:0:0:
402,77,31968,1,2,0:0:0:0:
314,50,32055,6,0,B|315:90|289:124|289:124|286:159,1,115,2|0,1:0|0:0,0:0:0:0:
278,214,32315,1,0,0:0:0:0:
278,214,32402,1,2,1:0:0:0:
369,154,32575,1,0,0:0:0:0:
165,225,32748,2,0,B|166:184|140:150|140:150|137:115,1,115,2|0,1:0|0:0,0:0:0:0:
129,61,33008,1,0,0:0:0:0:
129,61,33095,1,0,1:0:0:0:
220,121,33269,2,0,L|276:111,1,57.5,2|0,0:0|0:0,0:0:0:0:
236,39,33442,6,0,L|350:18,1,115,2|0,1:0|0:0,0:0:0:0:
495,154,33789,2,0,L|382:133,1,115,2|0,1:0|0:0,0:0:0:0:
350,18,34136,1,2,1:0:0:0:
381,132,34309,1,2,0:0:0:0:
236,39,34482,1,2,1:0:0:0:
495,154,34656,1,2,1:0:0:0:
439,33,34829,6,0,P|444:88|404:127,1,115,6|2,1:0|0:0,0:0:0:0:
439,33,35350,6,0,P|382:87|389:164,1,160.99999508667,2|2,1:0|0:0,0:0:0:0:
439,33,35870,6,0,P|456:199|339:318,1,345,2|2,1:0|1:0,0:0:0:0:
439,33,36737,5,2,0:0:0:0:
338,318,36910,2,0,P|279:295|214:290,2,115,2|2|2,1:0|0:0|0:0,0:0:0:0:
278,168,37430,2,0,P|303:157|331:151,2,57.5,2|2|6,0:0|0:0|1:0,0:0:0:0:
62,21,37777,5,2,0:0:0:0:
59,95,37864,1,2,0:0:0:0:
91,162,37951,1,2,1:0:0:0:
278,168,38124,5,2,0:0:0:0:
233,140,38211,1,2,0:0:0:0:
183,136,38298,1,2,1:0:0:0:
97,285,38471,5,2,0:0:0:0:
136,263,38558,1,2,0:0:0:0:
160,228,38644,1,2,1:0:0:0:
158,43,38818,1,2,0:0:0:0:
301,50,38991,5,2,1:0:0:0:
256,264,39165,1,2,0:0:0:0:
309,74,39338,1,2,1:0:0:0:
477,122,39511,1,2,0:0:0:0:
317,98,39685,1,0,1:0:0:0:
491,214,39858,5,2,0:0:0:0:
453,215,39945,1,2,0:0:0:0:
416,206,40032,1,2,1:0:0:0:
382,189,40118,1,2,0:0:0:0:
353,164,40205,1,2,0:0:0:0:
331,133,40292,1,2,0:0:0:0:
317,98,40378,1,6,1:0:0:0:
150,267,40552,5,2,0:0:0:0:
174,302,40639,1,2,0:0:0:0:
213,324,40725,1,2,1:0:0:0:
127,175,40899,5,2,0:0:0:0:
77,179,40985,1,2,0:0:0:0:
32,207,41072,1,2,1:0:0:0:
218,202,41245,5,2,0:0:0:0:
250,135,41332,1,2,0:0:0:0:
246,60,41419,1,2,1:0:0:0:
98,106,41592,1,2,0:0:0:0:
98,106,41679,1,2,0:0:0:0:
98,106,41766,6,0,L|126:99,1,28.75,2|0,1:0|0:0,0:0:0:0:
274,54,41939,2,0,L|219:64,1,28.75,2|0,0:0|0:0,0:0:0:0:
73,26,42113,2,0,L|101:31,1,28.75,2|0,1:0|0:0,0:0:0:0:
250,135,42286,2,0,L|195:123,1,28.75,2|0,0:0|0:0,0:0:0:0:
44,179,42459,6,0,L|99:169,1,28.75,0|0,1:0|0:0,0:0:0:0:
278,129,42633,2,0,L|249:135,1,28.75,2|0,0:0|0:0,0:0:0:0:
69,99,42806,2,0,L|124:111,1,28.75,2|0,1:0|0:0,0:0:0:0:
303,208,42980,2,0,L|274:202,1,28.75,2|0,0:0|0:0,0:0:0:0:
19,259,43153,5,4,1:0:0:0:
173,223,43326,5,2,0:0:0:0:
205,290,43413,1,2,0:0:0:0:
202,364,43500,1,2,1:0:0:0:
303,208,43673,5,2,0:0:0:0:
330,264,43760,1,2,0:0:0:0:
328,327,43847,1,2,1:0:0:0:
406,196,44020,5,2,0:0:0:0:
428,243,44107,1,2,0:0:0:0:
427,297,44193,1,2,1:0:0:0:
457,104,44367,1,2,0:0:0:0:
303,208,44540,5,2,1:0:0:0:
231,32,44714,1,2,0:0:0:0:
279,200,44887,1,2,1:0:0:0:
89,253,45061,1,2,0:0:0:0:
255,192,45234,1,0,1:0:0:0:
85,66,45407,5,2,0:0:0:0:
123,68,45494,1,2,0:0:0:0:
159,79,45581,1,2,1:0:0:0:
192,98,45667,1,2,0:0:0:0:
220,124,45754,1,2,0:0:0:0:
242,156,45841,1,2,0:0:0:0:
255,192,45928,1,6,1:0:0:0:
438,300,46101,5,2,0:0:0:0:
391,278,46188,1,2,0:0:0:0:
337,279,46274,1,2,0:0:0:0:
468,195,46448,5,2,1:0:0:0:
412,168,46535,1,2,0:0:0:0:
349,170,46621,1,2,0:0:0:0:
505,63,46795,5,2,0:0:0:0:
438,31,46881,1,2,0:0:0:0:
364,34,46968,1,2,1:0:0:0:
412,168,47141,2,0,L|400:224,1,57.5,2|2,0:0|0:0,0:0:0:0:
293,365,47315,5,2,1:3:0:0:
201,349,47430,5,2,0:3:0:0:
187,256,47546,5,2,0:3:0:0:
271,213,47662,5,2,0:3:0:0:
120,183,47835,6,0,P|94:238|97:299,1,115,2|0,0:0|1:0,0:0:0:0:
337,279,48182,1,2,0:0:0:0:
132,118,48355,2,0,P|85:152|55:202,1,115,2|0,1:0|0:0,0:0:0:0:
58,29,48702,6,0,L|228:55,1,172.5,6|0,1:2|0:0,0:0:0:0:
228,55,49049,1,0,1:0:0:0:
120,202,49222,1,2,0:0:0:0:
120,202,49309,1,2,0:0:0:0:
120,202,49396,6,0,L|280:139,1,172.5,6|0,1:2|0:0,0:0:0:0:
280,139,49743,1,0,1:0:0:0:
260,320,49916,1,2,0:0:0:0:
260,320,50003,1,2,0:0:0:0:
260,320,50089,6,0,L|368:185,1,172.5,6|0,1:2|0:0,0:0:0:0:
368,185,50436,1,0,1:0:0:0:
440,352,50610,1,2,0:0:0:0:
440,352,50696,1,2,0:0:0:0:
440,352,50783,6,0,L|466:181,1,172.5,6|0,1:2|0:0,0:0:0:0:
466,181,51130,1,0,1:0:0:0:
374,30,51303,1,2,0:0:0:0:
374,30,51390,1,2,0:0:0:0:
374,30,51477,5,6,1:2:0:0:
358,86,51563,1,0,0:0:0:0:
414,101,51650,1,0,0:0:0:0:
430,44,51737,1,0,0:0:0:0:
377,33,51824,5,0,1:0:0:0:
361,89,51910,1,0,0:0:0:0:
417,104,51997,1,0,0:0:0:0:
433,47,52084,1,0,0:0:0:0:
380,36,52170,5,0,1:0:0:0:
364,92,52257,1,0,0:0:0:0:
420,107,52344,1,0,0:0:0:0:
436,50,52430,1,0,0:0:0:0:
383,39,52517,5,0,1:0:0:0:
367,95,52604,1,0,0:0:0:0:
423,110,52691,1,0,0:0:0:0:
439,53,52777,1,0,0:0:0:0:
439,53,53384,5,0,0:0:0:0:
225,23,53558,2,0,L|250:146,1,115,0|0,0:0|0:0,0:0:0:0:
255,173,53789,5,0,0:0:0:0:
253,192,53847,5,0,0:0:0:0:
250,211,53904,6,0,P|190:232|137:230,1,115,0|0,0:0|0:0,0:0:0:0:
10,92,54251,5,6,1:0:0:0:
32,364,54425,2,0,L|49:297,1,68.9999978942872,2|2,0:0|0:0,0:0:0:0:
140,231,54598,2,0,P|142:162|113:100,1,137.999995788574,10|2,1:0|0:0,0:0:0:0:
35,186,54945,1,0,1:0:0:0:
247,135,55118,6,0,L|219:0,1,137.999995788574,2|8,0:0|1:0,0:0:0:0:
345,216,55465,2,0,L|242:306,1,137.999995788574,2|0,0:0|1:0,0:0:0:0:
503,227,55812,2,0,L|437:205,1,68.9999978942872,2|2,0:0|0:0,0:0:0:0:
367,91,55985,2,0,L|497:134,1,137.999995788574,10|0,1:0|0:0,0:0:0:0:
508,320,56332,5,2,1:0:0:0:
486,312,56419,1,2,0:0:0:0:
464,305,56506,1,2,0:0:0:0:
442,298,56592,1,2,0:0:0:0:
370,247,56679,5,10,1:0:0:0:
358,279,56766,1,2,0:0:0:0:
337,306,56852,1,2,1:0:0:0:
309,326,56939,1,2,0:0:0:0:
276,336,57026,5,2,1:0:0:0:
94,207,57199,2,0,L|162:217,1,68.9999978942872,2|2,0:0|0:0,0:0:0:0:
267,232,57373,1,10,1:0:0:0:
117,288,57546,1,2,0:0:0:0:
71,126,57719,2,0,L|209:147,1,137.999995788574,2|0,1:0|0:0,0:0:0:0:
117,288,58066,1,8,1:0:0:0:
64,45,58240,6,0,L|268:76,1,172.500006580353,2|0,0:0|1:0,0:0:0:0:
450,285,58587,6,0,L|466:182,1,86.2500032901765,2|2,0:0|0:0,0:0:0:0:
411,80,58760,2,0,B|430:134|430:134|413:236,1,160.99999508667,10|0,1:0|0:0,0:0:0:0:
181,308,59107,6,0,L|116:287,2,68.9999978942872,2|2|2,1:0|0:0|0:0,0:0:0:0:
304,352,59454,1,10,1:0:0:0:
257,175,59627,1,2,1:0:0:0:
177,220,59800,5,2,1:0:0:0:
335,220,59974,1,2,0:0:0:0:
256,84,60147,1,10,1:0:0:0:
81,123,60321,2,0,L|100:246,1,68.9999978942872,2|2,0:0|0:0,0:0:0:0:
114,328,60494,6,0,L|92:191,1,137.999995788574,2|0,1:0|0:0,0:0:0:0:
256,84,60841,1,10,1:0:0:0:
397,327,61014,2,0,L|419:190,1,137.999995788574,2|0,0:0|1:0,0:0:0:0:
468,34,61361,6,0,L|478:102,1,68.9999978942872,2|0,0:0|0:0,0:0:0:0:
419,191,61535,1,8,1:0:0:0:
252,52,61708,1,2,0:0:0:0:
256,84,61795,1,2,0:0:0:0:
261,116,61881,5,2,1:0:0:0:
358,46,62055,1,2,0:0:0:0:
266,148,62228,1,10,1:0:0:0:
98,53,62402,1,2,1:0:0:0:
220,303,62575,6,0,P|165:261|102:235,1,137.999995788574,6|2,1:2|0:0,0:0:0:0:
36,209,62835,1,2,0:0:0:0:
36,209,62922,1,10,1:0:0:0:
169,172,63095,1,2,0:0:0:0:
349,260,63269,6,0,P|287:289|220:302,1,137.999995788574,6|2,1:2|0:0,0:0:0:0:
151,314,63529,1,2,0:0:0:0:
151,314,63615,1,10,1:0:0:0:
271,376,63789,1,0,0:0:0:0:
256,192,63962,5,6,1:2:0:0:
465,346,64136,2,0,P|470:277|493:212,1,137.999995788574,2|8,0:0|1:0,0:0:0:0:
349,260,64482,1,2,0:0:0:0:
396,49,64656,6,0,L|313:64,1,68.9999978942872,6|0,1:2|0:0,0:0:0:0:
220,120,64829,2,0,L|137:105,1,68.9999978942872,6|0,1:2|0:0,0:0:0:0:
38,61,65003,5,8,1:0:0:0:
45,129,65089,1,0,1:0:0:0:
53,198,65176,1,0,1:0:0:0:
60,266,65263,1,0,1:0:0:0:
68,334,65350,6,0,P|29:327|-1:301,1,68.9999978942872,6|2,1:0|0:0,0:0:0:0:
160,253,65523,1,2,0:0:0:0:
173,285,65610,1,2,0:0:0:0:
199,307,65696,2,0,P|265:324|334:326,1,137.999995788574,10|0,1:0|0:0,0:0:0:0:
363,109,66043,6,0,P|315:157|280:216,2,137.999995788574,2|0|8,1:0|0:0|1:0,0:0:0:0:
452,351,66563,2,0,P|434:284|400:223,1,137.999995788574,2|0,0:0|1:0,0:0:0:0:
212,203,66910,2,0,L|279:217,1,68.9999978942872,2|2,0:0|0:0,0:0:0:0:
335,327,67084,2,0,P|266:325|200:308,1,137.999995788574,10|0,1:0|0:0,0:0:0:0:
2,245,67430,5,2,1:0:0:0:
7,221,67517,1,2,0:0:0:0:
12,197,67604,1,2,0:0:0:0:
17,173,67691,1,2,0:0:0:0:
104,176,67777,5,10,1:0:0:0:
116,144,67864,1,2,0:0:0:0:
139,118,67951,1,2,1:0:0:0:
168,100,68037,1,2,0:0:0:0:
201,91,68124,5,2,1:0:0:0:
385,174,68298,2,0,L|317:185,1,68.9999978942872,2|2,0:0|0:0,0:0:0:0:
212,203,68471,1,10,1:0:0:0:
338,104,68644,1,2,0:0:0:0:
431,243,68818,2,0,L|293:265,1,137.999995788574,2|0,1:0|0:0,0:0:0:0:
338,104,69165,1,8,1:0:0:0:
460,317,69338,6,0,L|256:350,1,172.500006580353,2|0,0:0|1:0,0:0:0:0:
71,171,69685,6,0,L|51:293,1,86.2500032901765,2|2,0:0|0:0,0:0:0:0:
110,377,69858,2,0,B|91:323|91:323|108:221,1,160.99999508667,10|0,1:0|0:0,0:0:0:0:
262,111,70205,6,0,B|159:94,2,68.9999978942872,2|2|2,1:0|0:0|0:0,0:0:0:0:
321,207,70552,1,10,1:0:0:0:
282,9,70725,1,2,1:0:0:0:
476,72,70899,6,0,L|455:247,1,149.499993156433,6|0,1:0|0:0,0:0:0:0:
494,356,71245,1,8,1:0:0:0:
248,312,71419,2,0,P|320:331|394:335,1,149.499993156433,2|0,1:0|0:0,0:0:0:0:
321,207,71766,2,0,P|246:209|174:230,1,149.499993156433,10|0,1:0|0:0,0:0:0:0:
106,350,72113,2,0,P|85:278|81:203,1,149.499993156433,2|0,1:0|0:0,0:0:0:0:
97,24,72459,5,2,1:0:0:0:
106,46,72546,1,2,0:0:0:0:
114,71,72633,1,2,1:0:0:0:
118,96,72719,1,2,0:0:0:0:
119,123,72806,2,0,P|191:102|265:98,1,149.499993156433,2|0,1:0|0:0,0:0:0:0:
511,152,73153,5,8,0:3:0:0:
284,252,73326,1,4,0:3:0:0:
408,37,73500,1,4,0:3:0:0:
433,286,73673,6,0,L|412:85,1,149.499993156433,6|0,1:0|0:0,0:0:0:0:
504,8,74020,1,10,1:0:0:0:
335,118,74193,2,0,P|262:137|188:141,1,149.499993156433,2|0,1:0|0:0,0:0:0:0:
261,13,74540,2,0,P|336:16|408:37,1,149.499993156433,10|0,1:0|0:0,0:0:0:0:
480,154,74887,2,0,P|500:81|503:7,1,149.499993156433,2|0,1:0|0:0,0:0:0:0:
265,168,75234,5,2,1:0:0:0:
267,190,75321,1,2,0:0:0:0:
272,219,75407,1,10,1:0:0:0:
285,253,75494,1,2,0:0:0:0:
312,287,75581,1,2,1:0:0:0:
352,319,75667,1,2,0:0:0:0:
408,338,75754,5,2,1:0:0:0:
104,338,75928,1,2,1:0:0:0:
216,57,76448,5,2,0:0:0:0:
143,129,76621,1,0,0:0:0:0:
152,96,76708,1,0,0:0:0:0:
176,120,76795,1,0,0:0:0:0:
176,195,76968,1,0,0:0:0:0:
76,91,77141,6,0,P|65:123|72:157,1,68.9999978942872,2|0,0:0|0:0,0:0:0:0:
143,129,77488,1,0,0:0:0:0:
35,27,77662,2,0,P|10:50|0:83,1,68.9999978942872,2|0,0:0|0:0,0:0:0:0:
184,9,78008,5,2,0:0:0:0:
184,9,78095,1,0,0:0:0:0:
184,9,78182,1,2,0:0:0:0:
268,130,78355,1,0,0:0:0:0:
364,18,78529,5,2,0:0:0:0:
338,14,78615,1,0,0:0:0:0:
327,37,78702,1,0,0:0:0:0:
345,55,78789,1,0,0:0:0:0:
369,44,78876,5,0,0:0:0:0:
404,45,78962,1,0,0:0:0:0:
436,56,79049,1,0,0:0:0:0:
463,77,79136,1,0,0:0:0:0:
482,106,79222,5,2,0:0:0:0:
402,172,79396,1,0,0:0:0:0:
415,140,79482,1,0,0:0:0:0:
436,166,79569,1,0,0:0:0:0:
431,241,79743,1,0,0:0:0:0:
338,128,79916,6,0,P|323:160|327:194,1,68.9999978942872,2|0,0:0|0:0,0:0:0:0:
402,172,80263,1,0,0:0:0:0:
251,188,80436,2,0,P|254:222|274:250,1,68.9999978942872,2|0,0:0|0:0,0:0:0:0:
378,323,80783,5,2,0:0:0:0:
378,323,80870,1,0,0:0:0:0:
378,323,80956,1,2,0:0:0:0:
327,194,81130,1,0,0:0:0:0:
256,325,81303,5,2,0:0:0:0:
225,311,81390,1,0,0:0:0:0:
204,283,81477,1,0,0:0:0:0:
158,189,81650,1,2,0:0:0:0:
82,232,81824,1,2,0:0:0:0:
244,188,81997,5,2,0:0:0:0:
239,292,82170,1,0,0:0:0:0:
139,319,82344,1,0,0:0:0:0:
82,232,82517,1,0,0:0:0:0:
148,152,82691,1,2,0:0:0:0:
139,319,83037,5,2,0:0:0:0:
239,292,83211,1,2,0:0:0:0:
148,152,83558,1,2,0:0:0:0:
239,292,83904,6,0,L|249:333,2,34.4999989471436,2|2|2,0:0|0:0|0:0,0:0:0:0:
139,319,84251,1,2,0:0:0:0:
82,232,84425,1,2,0:0:0:0:
148,152,84598,1,2,0:0:0:0:
244,188,84771,6,0,P|279:183|310:167,1,68.9999978942872,2|0,0:0|0:0,0:0:0:0:
271,40,85118,2,0,P|258:72|256:107,1,68.9999978942872,2|0,0:0|0:0,0:0:0:0:
384,137,85465,2,0,P|362:109|334:90,1,68.9999978942872,2|0,0:0|0:0,0:0:0:0:
179,53,85812,6,0,L|191:1,2,34.4999989471436,2|2|2,0:0|0:0|0:0,0:0:0:0:
60,192,86159,6,0,L|64:256,1,40.2499987716675,6|0,1:0|0:0,0:0:0:0:
452,192,86506,6,0,L|448:256,1,40.2499987716675,6|0,1:0|0:0,0:0:0:0:
60,192,86852,6,0,L|63:151,1,40.2499987716675,6|0,1:0|0:0,0:0:0:0:
452,192,87199,6,0,L|450:151,1,40.2499987716675,6|0,1:0|0:0,0:0:0:0:
256,76,87546,5,6,1:0:0:0:
388,286,87719,2,0,L|317:276,1,68.9999978942872,2|2,0:0|0:0,0:0:0:0:
179,253,87893,2,0,P|236:212|317:189,1,137.999995788574,10|2,1:0|0:0,0:0:0:0:
450,151,88240,6,0,L|403:22,2,137.999995788574,2|0|8,1:0|0:0|1:0,0:0:0:0:
300,192,88760,2,0,L|180:118,1,137.999995788574,2|0,0:0|1:0,0:0:0:0:
12,254,89107,2,0,L|80:245,1,68.9999978942872,2|2,0:0|0:0,0:0:0:0:
266,343,89280,2,0,L|128:320,1,137.999995788574,10|0,1:0|0:0,0:0:0:0:
29,169,89627,5,2,1:0:0:0:
56,164,89714,1,2,0:0:0:0:
81,160,89800,1,2,0:0:0:0:
107,156,89887,1,2,0:0:0:0:
182,225,89974,5,10,1:0:0:0:
215,217,90061,1,2,0:0:0:0:
243,200,90147,1,2,1:0:0:0:
268,176,90234,1,2,0:0:0:0:
284,146,90321,5,2,1:0:0:0:
408,32,90494,2,0,L|394:118,1,68.9999978942872,2|2,0:0|0:0,0:0:0:0:
379,207,90667,1,10,1:0:0:0:
480,80,90841,1,2,0:0:0:0:
182,119,91014,2,0,L|322:141,1,137.999995788574,2|0,1:0|0:0,0:0:0:0:
480,326,91361,1,8,1:0:0:0:
230,379,91535,6,0,L|263:174,1,172.500006580353,2|0,0:0|1:0,0:0:0:0:
443,76,91881,6,0,L|459:179,1,86.2500032901765,2|2,0:0|0:0,0:0:0:0:
480,326,92055,2,0,B|424:343|424:343|324:321,1,160.99999508667,10|0,1:0|0:0,0:0:0:0:
86,163,92402,6,2,L|95:231,2,68.9999978942872,2|2|2,1:2|0:0|1:2,0:0:0:0:
67,26,92748,1,10,1:0:0:0:
171,186,92922,1,2,1:2:0:0:
16,353,93095,6,0,L|189:326,1,149.499993156433,14|0,1:0|0:0,0:0:0:0:
164,330,93442,1,2,0:0:0:0:
416,141,93615,6,0,P|435:212|438:286,1,149.499993156433,10|0,1:0|0:0,0:0:0:0:
257,61,93962,2,0,P|298:122|324:191,1,149.499993156433,10|0,1:0|0:0,0:0:0:0:
495,25,94309,2,0,P|422:45|349:48,1,149.499993156433,10|0,1:0|0:0,0:0:0:0:
172,86,94656,5,2,1:0:0:0:
171,111,94743,1,2,0:0:0:0:
172,140,94829,1,2,0:0:0:0:
179,167,94916,1,2,0:0:0:0:
187,193,95003,2,0,P|256:167|325:193,1,149.499993156433,2|0,1:0|0:0,0:0:0:0:
96,141,95350,5,4,0:3:0:0:
256,251,95523,1,4,0:3:0:0:
416,141,95696,1,4,0:3:0:0:
496,353,95870,6,0,L|323:326,1,149.499993156433,14|0,1:0|0:0,0:0:0:0:
347,330,96217,1,2,0:0:0:0:
96,141,96390,6,0,P|76:212|73:286,1,149.499993156433,10|0,1:0|0:0,0:0:0:0:
255,61,96737,2,0,P|213:122|187:191,1,149.499993156433,10|0,1:0|0:0,0:0:0:0:
17,25,97084,2,0,P|89:45|162:48,1,149.499993156433,10|0,1:0|0:0,0:0:0:0:
419,28,97430,5,2,1:0:0:0:
382,30,97517,1,2,0:0:0:0:
349,48,97604,1,2,0:0:0:0:
256,243,97777,5,2,1:0:0:0:
330,236,97864,1,2,0:0:0:0:
390,192,97951,1,2,0:0:0:0:
119,192,98124,5,4,0:3:0:0:
340,351,98298,1,4,0:3:0:0:
256,94,98471,1,4,0:3:0:0:
171,351,98644,6,0,P|147:231|119:193,1,149.499993156433,14|0,1:0|0:0,0:0:0:0:
133,209,98991,1,2,0:0:0:0:
175,40,99165,6,0,P|66:93|18:94,1,149.499993156433,10|0,1:0|0:0,0:0:0:0:
256,94,99511,2,0,L|256:250,1,149.499993156433,10|0,1:0|0:0,0:0:0:0:
337,40,99858,2,0,P|446:93|494:94,1,149.499993156433,10|0,1:0|0:0,0:0:0:0:
378,209,100205,5,2,0:0:0:0:
359,241,100292,1,2,0:0:0:0:
346,276,100378,1,2,0:0:0:0:
340,313,100465,1,2,0:0:0:0:
341,351,100552,2,0,P|378:371|428:372,1,74.7499965782167,2|2,1:0|0:0,0:0:0:0:
473,283,100725,5,2,0:0:0:0:
171,351,100899,1,4,0:3:0:0:
256,192,101072,1,4,0:3:0:0:
341,351,101245,1,4,0:3:0:0:
39,283,101419,6,0,P|58:224|60:170,1,68.9999978942872,2|0,1:0|0:0,0:0:0:0:
14,50,101592,1,2,0:0:0:0:
35,76,101679,1,2,0:0:0:0:
59,99,101766,2,0,P|88:116|120:129,1,68.9999978942872,10|0,1:0|0:0,0:0:0:0:
222,159,101939,2,0,P|256:161|290:158,1,68.9999978942872,2|0,0:0|0:0,0:0:0:0:
453,99,102113,5,2,1:0:0:0:
256,46,102286,1,2,0:0:0:0:
453,218,102459,6,0,P|423:200|391:187,1,68.9999978942872,10|0,1:0|0:0,0:0:0:0:
290,158,102633,2,0,P|255:155|221:158,1,68.9999978942872,2|2,0:0|0:0,0:0:0:0:
121,186,102806,2,0,P|88:199|59:217,1,68.9999978942872,2|2,1:0|0:0,0:0:0:0:
144,384,102980,6,0,P|197:336|176:217,1,172.500006580353,8|2,1:0|0:0,0:0:0:0:
142,87,103326,1,2,0:0:0:0:
371,356,103500,5,2,1:0:0:0:
348,267,103615,1,2,0:0:0:0:
283,332,103731,1,2,0:0:0:0:
367,343,103847,5,2,1:0:0:0:
338,276,103962,1,2,0:0:0:0:
295,335,104078,1,2,0:0:0:0:
423,288,104193,5,6,1:0:0:0:
248,249,104714,5,2,0:0:0:0:
256,221,104800,1,2,0:0:0:0:
256,192,104887,1,2,0:0:0:0:
419,303,105407,5,2,0:0:0:0:
416,319,105494,1,2,0:0:0:0:
418,334,105581,1,2,0:0:0:0:
256,192,105667,12,0,109743,0:0:0:0:
