osu file format v14

[General]
AudioFilename: Curtain Call Memories.mp3
AudioLeadIn: 0
PreviewTime: 53384
Countdown: 1
SampleSet: Soft
StackLeniency: 0.7
Mode: 0
LetterboxInBreaks: 0
WidescreenStoryboard: 1

[Editor]
Bookmarks: 15407,26506,32055,54251,65350,101939
DistanceSpacing: 1.1
BeatDivisor: 4
GridSize: 8
TimelineZoom: 1.400005

[Metadata]
Title:Curtain Call Memories
TitleUnicode:カーテンコール・メモリーズ
Artist:DJ TOTTO & Qrispy Joybox
ArtistUnicode:DJ TOTTO & Qrispy Joybox
Creator:Scaltinof
Version:Easy
Source:REFLEC BEAT groovin'!! Upper
Tags:repl4y joker- konami volzza
BeatmapID:1418322
BeatmapSetID:667307

[Difficulty]
HPDrainRate:3
CircleSize:3
OverallDifficulty:3
ApproachRate:3
SliderMultiplier:0.8
SliderTickRate:1

[Events]
//Background and Video events
0,0,"bg.jpg",0,0
//Break Periods
2,76448,84719
//Storyboard Layer 0 (Background)
//Storyboard Layer 1 (Fail)
//Storyboard Layer 2 (Pass)
//Storyboard Layer 3 (Foreground)
//Storyboard Sound Samples

[TimingPoints]
1535,346.820809248555,4,2,1,35,1,0
1535,-100,4,2,1,35,0,0
9858,-100,4,2,1,70,0,0
14020,-100,4,2,1,70,0,0
15407,-100,4,2,1,80,0,1
15494,-100,4,2,1,80,0,0
17662,-100,4,2,2,80,0,0
18182,-100,4,2,1,80,0,0
23731,-100,4,2,1,70,0,0
24251,-100,4,2,1,70,0,0
24771,-100,4,2,1,70,0,0
26159,-100,4,2,1,70,0,0
26506,-100,4,2,1,80,0,1
26592,-100,4,2,1,80,0,0
28760,-100,4,2,2,80,0,0
29280,-100,4,2,1,80,0,0
34829,-100,4,2,1,70,0,0
35350,-100,4,2,1,70,0,0
35870,-100,4,2,1,70,0,0
37604,-100,4,2,1,80,0,0
41809,-100,4,2,1,5,0,0
41939,-100,4,2,1,80,0,0
41982,-100,4,2,1,5,0,0
42113,-100,4,2,1,80,0,0
42156,-100,4,2,1,5,0,0
42286,-100,4,2,1,80,0,0
42329,-100,4,2,1,5,0,0
42459,-100,4,2,1,80,0,0
42503,-100,4,2,1,5,0,0
42633,-100,4,2,1,80,0,0
42676,-100,4,2,1,5,0,0
42806,-100,4,2,1,80,0,0
42850,-100,4,2,1,5,0,0
42980,-100,4,2,1,80,0,0
43023,-100,4,2,1,5,0,0
43153,-100,4,2,1,80,0,0
52864,-100,4,2,1,80,0,0
54251,-100,4,2,1,85,0,1
76448,-100,4,2,1,60,0,0
86159,-100,4,2,1,90,0,0
87546,-100,4,2,1,85,0,1
103500,-100,4,2,1,85,0,1
104193,-100,4,2,1,85,0,0
104714,-100,4,2,1,60,0,0
105407,-100,4,2,1,50,0,0
105928,-100,4,2,1,65,0,0
106274,-100,4,2,1,60,0,0
106621,-100,4,2,1,50,0,0
106968,-100,4,2,1,35,0,0
107315,-100,4,2,1,20,0,0
107662,-100,4,2,1,15,0,0
108008,-100,4,2,1,10,0,0
108355,-100,4,2,1,5,0,0

[Colours]
Combo1 : 0,128,64
Combo2 : 0,128,255
Combo3 : 255,0,255

[HitObjects]
112,191,1535,6,0,P|120:257|32:296,1,160,2|2,0:0|0:0,0:0:0:0:
161,334,2748,2,0,L|287:314,1,120,2|2,0:0|0:0,0:0:0:0:
303,239,3615,1,2,0:0:0:0:
326,162,3962,1,0,0:0:0:0:
400,191,4309,6,0,P|392:257|480:296,1,160,2|2,0:0|0:0,0:0:0:0:
350,334,5523,2,0,L|231:315,1,120,2|2,0:0|0:0,0:0:0:0:
209,239,6390,1,2,0:0:0:0:
186,162,6737,1,2,0:0:0:0:
264,179,7084,6,0,P|314:182|365:150,2,80,2|0|2,0:0|0:0|0:0,0:0:0:0:
296,105,8124,2,0,B|298:63|298:63|256:66|216:55,1,120,2|2,0:0|0:0,0:0:0:0:
101,43,9165,2,0,P|57:44|6:82,1,80,2|2,0:0|0:0,0:0:0:0:
80,123,9858,6,0,P|150:126|206:153,1,120,6|6,1:0|1:0,0:0:0:0:
317,145,10899,2,0,P|372:123|432:122,1,120,6|6,1:0|1:0,0:0:0:0:
393,236,11939,1,6,1:0:0:0:
256,319,12633,6,0,L|256:64,1,240,6|2,1:0|0:0,0:0:0:0:
189,123,14020,2,0,P|256:160|323:123,1,160,6|2,1:0|0:0,0:0:0:0:
439,63,15407,6,0,P|467:138|467:218,1,160,6|2,1:0|1:0,0:0:0:0:
429,288,16448,1,0,1:0:0:0:
350,276,16795,2,0,P|322:201|322:121,1,160,2|0,1:0|1:0,0:0:0:0:
361,52,17836,1,10,1:2:0:0:
281,54,18182,6,0,P|194:65|121:52,1,160,0|2,1:0|1:0,0:0:0:0:
45,33,19222,1,0,1:0:0:0:
67,109,19569,2,0,P|78:195|65:268,1,160,2|0,1:2|1:0,0:0:0:0:
46,345,20610,1,2,1:0:0:0:
123,326,20956,6,0,L|209:338,1,80,2|2,1:0|1:0,0:0:0:0:
257,278,21650,2,0,L|343:290,1,80,2|0,1:0|1:0,0:0:0:0:
391,230,22344,2,0,P|412:264|399:329,2,80,2|2|2,1:0|1:0|1:0,0:0:0:0:
323,186,23384,1,2,1:0:0:0:
313,106,23731,6,0,P|256:120|198:106,2,120,6|2|2,1:0|1:0|1:0,0:0:0:0:
391,21,25292,2,0,L|401:165,1,120,2|2,1:0|1:0,0:0:0:0:
268,181,26506,6,0,P|329:125|416:159,1,160,4|2,1:0|1:0,0:0:0:0:
427,215,27547,1,0,1:0:0:0:
347,205,27893,2,0,L|362:367,1,160,2|0,1:0|1:0,0:0:0:0:
282,365,28933,1,10,1:2:0:0:
204,346,29280,6,0,B|234:271|234:271|234:178,1,160,0|2,1:0|1:0,0:0:0:0:
235,111,30321,1,0,1:0:0:0:
283,46,30667,2,0,B|208:16|208:16|115:16,1,160,2|0,1:2|1:0,0:0:0:0:
48,15,31708,1,2,1:0:0:0:
70,93,32055,6,0,L|81:194,1,80,2|2,1:0|1:0,0:0:0:0:
31,239,32748,2,0,L|42:340,1,80,2|0,1:0|1:0,0:0:0:0:
120,314,33442,2,0,P|114:353|89:384,2,80,2|2|2,1:0|1:0|1:0,0:0:0:0:
137,235,34482,1,2,1:0:0:0:
197,290,34829,6,0,P|256:303|313:290,2,120,6|2|2,1:0|1:0|1:0,0:0:0:0:
196,169,36390,2,0,L|316:169,1,120,2|2,1:0|1:0,0:0:0:0:
470,126,37604,6,0,P|466:87|442:54,2,80,6|2|2,1:0|1:0|1:0,0:0:0:0:
454,205,38644,1,2,1:0:0:0:
374,197,38991,2,0,L|386:306,1,80,2|2,1:0|1:0,0:0:0:0:
305,299,39685,2,0,L|293:190,1,80,0|2,1:0|1:0,0:0:0:0:
314,140,40378,6,0,P|275:140|241:160,2,80,6|2|2,1:0|1:0|1:0,0:0:0:0:
387,106,41419,1,2,1:0:0:0:
338,42,41766,2,0,L|229:54,1,80,2|2,1:0|1:0,0:0:0:0:
190,93,42459,2,0,L|81:81,1,80,0|2,1:0|1:0,0:0:0:0:
39,120,43153,6,0,P|30:79|45:38,2,80,4|2|2,1:0|1:0|1:0,0:0:0:0:
87,183,44193,1,2,1:0:0:0:
70,261,44540,2,0,L|78:340,1,80,2|2,1:0|1:0,0:0:0:0:
156,318,45234,2,0,L|147:238,1,80,0|2,1:0|1:0,0:0:0:0:
224,216,45928,6,0,P|195:172|161:158,2,80,6|2|2,1:0|0:0|0:0,0:0:0:0:
258,288,46968,1,2,1:0:0:0:
336,271,47315,2,0,P|418:307|431:353,2,120,2|2|2,1:3|0:0|1:0,0:0:0:0:
336,191,48702,6,0,P|373:146|375:113,1,80,6|0,1:2|1:0,0:0:0:0:
296,120,49396,2,0,L|296:40,1,80,6|0,1:2|1:0,0:0:0:0:
216,40,50089,2,0,L|216:120,1,80,6|0,1:2|1:0,0:0:0:0:
136,126,50783,2,0,P|147:164|176:191,1,80,6|0,1:2|1:0,0:0:0:0:
229,250,51477,6,0,P|93:290|59:152,1,300,6|0,1:2|0:0,0:0:0:0:
320,74,54251,6,0,P|262:44|196:42,1,120,6|2,1:0|0:0,0:0:0:0:
128,33,55118,2,0,L|135:134,1,80,2|2,0:0|0:0,0:0:0:0:
55,122,55812,2,0,L|66:265,1,120,2|2,0:0|1:0,0:0:0:0:
52,320,56679,1,10,1:0:0:0:
117,365,57026,6,0,L|218:358,1,80,2|10,1:0|1:0,0:0:0:0:
220,283,57719,2,0,L|344:300,1,120,2|2,1:0|0:0,0:0:0:0:
418,290,58587,2,0,P|407:212|437:140,1,120,2|2,0:0|1:0,0:0:0:0:
454,101,59454,1,10,1:0:0:0:
392,50,59800,6,0,L|303:56,1,80,2|10,1:0|1:0,0:0:0:0:
233,61,60494,1,2,1:0:0:0:
152,57,60841,2,0,P|111:35|60:40,2,80,10|0|8,1:0|1:0|1:0,0:0:0:0:
96,114,61881,2,0,L|102:193,1,80,2|10,1:0|1:0,0:0:0:0:
172,234,62575,6,0,P|219:199|252:198,1,80,6|10,1:2|1:0,0:0:0:0:
242,116,63269,2,0,P|280:125|308:153,1,80,6|10,1:2|1:0,0:0:0:0:
376,194,63962,2,0,P|387:146|362:98,2,80,6|8|6,1:2|1:0|1:2,0:0:0:0:
331,260,65003,1,8,1:0:0:0:
324,339,65350,6,0,L|242:329,1,80,6|10,1:0|1:0,0:0:0:0:
164,319,66043,2,0,P|205:258|253:248,2,120,2|2|10,1:0|0:0|1:0,0:0:0:0:
84,327,67430,2,0,L|79:237,1,80,2|10,1:0|1:0,0:0:0:0:
78,166,68124,6,0,P|122:143|166:149,1,80,2|10,1:0|1:0,0:0:0:0:
231,156,68818,2,0,P|196:75|153:63,2,120,2|2|10,1:0|0:0|1:0,0:0:0:0:
216,234,70205,2,0,L|308:246,1,80,2|10,1:0|1:0,0:0:0:0:
374,255,70899,5,6,1:0:0:0:
453,164,71419,2,0,P|486:215|492:269,2,80,2|10|2,1:0|1:0|1:0,0:0:0:0:
318,78,72806,2,0,P|255:68|200:78,1,120,2|4,1:0|0:3,0:0:0:0:
138,129,73673,5,6,1:0:0:0:
59,220,74193,2,0,P|25:168|19:114,2,80,2|10|2,1:0|1:0|1:0,0:0:0:0:
167,271,75407,1,10,1:0:0:0:
214,206,75754,6,0,L|253:212,1,40,2|2,1:0|1:0,0:0:0:0:
255,134,86159,6,0,L|316:195,1,80,6|6,1:0|1:0,0:0:0:0:
257,250,86852,6,0,L|195:188,1,80,6|6,1:0|1:0,0:0:0:0:
177,116,87546,6,0,P|137:117|102:136,1,80,6|10,1:0|1:0,0:0:0:0:
81,214,88240,2,0,L|60:332,2,120,2|2|10,1:0|0:0|1:0,0:0:0:0:
160,196,89627,2,0,L|239:207,1,80,2|10,1:0|1:0,0:0:0:0:
318,218,90321,6,0,P|320:179|340:144,1,80,2|10,1:0|1:0,0:0:0:0:
404,95,91014,2,0,P|421:155|384:214,2,120,2|2|10,1:0|0:0|1:0,0:0:0:0:
339,46,92402,2,0,L|260:62,1,80,2|10,1:2|1:0,0:0:0:0:
181,76,93095,5,14,1:0:0:0:
170,195,93615,2,0,P|131:185|98:163,2,80,10|10|10,1:0|1:0|1:0,0:0:0:0:
325,229,95003,2,0,P|347:279|400:265,1,120,2|4,1:0|0:3,0:0:0:0:
393,185,95870,5,14,1:0:0:0:
296,116,96390,2,0,P|324:87|359:69,2,80,10|10|10,1:0|1:0|1:0,0:0:0:0:
188,234,97777,2,0,P|134:227|120:280,1,120,2|4,1:0|0:3,0:0:0:0:
193,314,98644,5,14,1:0:0:0:
301,264,99164,2,0,P|312:303|310:342,2,80,10|10|10,1:0|1:0|1:0,0:0:0:0:
253,112,100552,2,0,P|286:69|247:30,1,120,2|4,1:0|0:3,0:0:0:0:
181,76,101419,6,0,P|170:109|189:162,1,80,2|10,1:0|1:0,0:0:0:0:
249,194,102113,2,0,P|260:227|241:280,1,80,2|10,1:0|1:0,0:0:0:0:
184,316,102806,2,0,L|143:305,1,40,2|8,1:0|1:0,0:0:0:0:
50,232,103500,5,2,1:0:0:0:
50,152,103847,1,2,1:0:0:0:
50,71,104193,2,0,B|129:61|129:61|210:95,2,160,6|2|2,1:0|0:0|0:0,0:0:0:0:
256,192,105667,12,0,109743,0:0:0:0:
