osu file format v14

[General]
AudioFilename: audio.mp3
AudioLeadIn: 0
PreviewTime: 53381
Countdown: 0
SampleSet: Normal
StackLeniency: 0.7
Mode: 1
LetterboxInBreaks: 0
WidescreenStoryboard: 0

[Editor]
DistanceSpacing: 0.8
BeatDivisor: 4
GridSize: 32
TimelineZoom: 2.999999

[Metadata]
Title:Curtain Call Memories
TitleUnicode:カーテンコール・メモリーズ
Artist:DJ TOTTO & Qrispy Joybox
ArtistUnicode:DJ TOTTO & Qrispy Joybox
Creator:Q____X
Version:Inner Oni
Source:REFLEC BEAT groovin'!! Upper
Tags:gaston_2199 volzza yoshihiro tagawa tatsuya
BeatmapID:1205482
BeatmapSetID:568600

[Difficulty]
HPDrainRate:5
CircleSize:5
OverallDifficulty:6
ApproachRate:6
SliderMultiplier:1.4
SliderTickRate:1

[Events]
//Background and Video events
0,0,"BG.png",0,0
//Break Periods
//Storyboard Layer 0 (Background)
//Storyboard Layer 1 (Fail)
//Storyboard Layer 2 (Pass)
//Storyboard Layer 3 (Foreground)
//Storyboard Sound Samples

[TimingPoints]
1532,346.820809248555,4,1,0,100,1,0
54248,-100,4,1,0,100,0,1
75925,-100,4,1,0,100,0,0
87543,-100,4,1,0,100,0,1
104190,-100,4,1,0,100,0,0
105664,-100,4,1,0,40,0,0

[HitObjects]
256,192,1532,5,0,0:0:0:0:
256,192,1705,1,8,0:0:0:0:
256,192,1792,1,8,0:0:0:0:
256,192,1878,1,0,0:0:0:0:
256,192,2052,1,0,0:0:0:0:
256,192,2225,1,8,0:0:0:0:
256,192,2572,1,0,0:0:0:0:
256,192,2745,1,8,0:0:0:0:
256,192,3092,1,0,0:0:0:0:
256,192,3179,1,8,0:0:0:0:
256,192,3266,1,0,0:0:0:0:
256,192,3612,1,0,0:0:0:0:
256,192,3699,1,0,0:0:0:0:
256,192,3786,1,8,0:0:0:0:
256,192,3873,1,8,0:0:0:0:
256,192,3959,1,0,0:0:0:0:
256,192,4046,1,0,0:0:0:0:
256,192,4133,1,8,0:0:0:0:
256,192,4219,1,8,0:0:0:0:
256,192,4306,1,0,0:0:0:0:
256,192,4479,1,8,0:0:0:0:
256,192,4566,1,8,0:0:0:0:
256,192,4653,1,0,0:0:0:0:
256,192,4826,1,0,0:0:0:0:
256,192,5000,1,8,0:0:0:0:
256,192,5347,1,0,0:0:0:0:
256,192,5520,1,8,0:0:0:0:
256,192,5867,1,8,0:0:0:0:
256,192,5953,1,8,0:0:0:0:
256,192,6040,1,0,0:0:0:0:
256,192,6387,1,0,0:0:0:0:
256,192,6474,1,8,0:0:0:0:
256,192,6560,1,0,0:0:0:0:
256,192,6734,1,0,0:0:0:0:
256,192,6907,1,8,0:0:0:0:
256,192,7081,1,0,0:0:0:0:
256,192,7254,1,0,0:0:0:0:
256,192,7427,1,8,0:0:0:0:
256,192,7601,1,8,0:0:0:0:
256,192,7774,1,0,0:0:0:0:
256,192,8121,1,8,0:0:0:0:
256,192,8295,1,0,0:0:0:0:
256,192,8641,1,8,0:0:0:0:
256,192,8988,1,8,0:0:0:0:
256,192,9075,1,8,0:0:0:0:
256,192,9162,1,0,0:0:0:0:
256,192,9335,1,0,0:0:0:0:
256,192,9508,1,8,0:0:0:0:
256,192,9682,1,0,0:0:0:0:
256,192,9855,1,12,0:0:0:0:
256,192,10029,1,0,0:0:0:0:
256,192,10115,1,0,0:0:0:0:
256,192,10202,1,0,0:0:0:0:
256,192,10375,1,8,0:0:0:0:
256,192,10462,1,0,0:0:0:0:
256,192,10549,1,0,0:0:0:0:
256,192,10722,1,0,0:0:0:0:
256,192,10896,1,8,0:0:0:0:
256,192,11069,1,0,0:0:0:0:
256,192,11156,1,0,0:0:0:0:
256,192,11242,1,8,0:0:0:0:
256,192,11329,1,0,0:0:0:0:
256,192,11416,1,8,0:0:0:0:
256,192,11589,1,8,0:0:0:0:
256,192,11763,1,0,0:0:0:0:
256,192,11936,1,0,0:0:0:0:
256,192,12052,1,8,0:0:0:0:
256,192,12167,1,0,0:0:0:0:
256,192,12283,1,8,0:0:0:0:
256,192,12399,1,0,0:0:0:0:
256,192,12514,1,0,0:0:0:0:
256,192,12630,1,8,0:0:0:0:
256,192,12977,1,0,0:0:0:0:
256,192,13150,1,0,0:0:0:0:
256,192,13237,1,0,0:0:0:0:
256,192,13323,1,8,0:0:0:0:
256,192,13497,1,8,0:0:0:0:
256,192,13584,1,8,0:0:0:0:
256,192,13670,1,0,0:0:0:0:
256,192,13844,1,0,0:0:0:0:
256,192,13930,1,8,0:0:0:0:
256,192,14017,1,0,0:0:0:0:
256,192,14537,1,8,0:0:0:0:
256,192,14624,1,8,0:0:0:0:
256,192,14711,1,0,0:0:0:0:
256,192,14884,1,0,0:0:0:0:
256,192,15404,1,4,0:0:0:0:
256,192,15578,1,0,0:0:0:0:
256,192,15664,1,0,0:0:0:0:
256,192,15751,1,8,0:0:0:0:
256,192,15925,1,8,0:0:0:0:
256,192,16011,1,0,0:0:0:0:
256,192,16098,1,8,0:0:0:0:
256,192,16271,1,8,0:0:0:0:
256,192,16358,1,0,0:0:0:0:
256,192,16445,1,0,0:0:0:0:
256,192,16618,1,8,0:0:0:0:
256,192,16705,1,0,0:0:0:0:
256,192,16792,1,8,0:0:0:0:
256,192,16965,1,8,0:0:0:0:
256,192,17052,1,0,0:0:0:0:
256,192,17138,1,8,0:0:0:0:
256,192,17312,1,8,0:0:0:0:
256,192,17399,1,8,0:0:0:0:
256,192,17485,1,0,0:0:0:0:
256,192,17659,1,8,0:0:0:0:
256,192,17832,1,8,0:0:0:0:
256,192,18005,1,0,0:0:0:0:
256,192,18179,1,8,0:0:0:0:
256,192,18352,1,0,0:0:0:0:
256,192,18439,1,0,0:0:0:0:
256,192,18526,1,8,0:0:0:0:
256,192,18699,1,8,0:0:0:0:
256,192,18786,1,0,0:0:0:0:
256,192,18873,1,8,0:0:0:0:
256,192,19046,1,8,0:0:0:0:
256,192,19133,1,0,0:0:0:0:
256,192,19219,1,0,0:0:0:0:
256,192,19393,1,0,0:0:0:0:
256,192,19479,1,0,0:0:0:0:
256,192,19566,1,8,0:0:0:0:
256,192,19740,1,0,0:0:0:0:
256,192,19913,1,8,0:0:0:0:
256,192,20086,1,8,0:0:0:0:
256,192,20173,1,8,0:0:0:0:
256,192,20260,1,0,0:0:0:0:
256,192,20433,1,0,0:0:0:0:
256,192,20520,1,0,0:0:0:0:
256,192,20607,1,8,0:0:0:0:
256,192,20693,1,8,0:0:0:0:
256,192,20780,1,0,0:0:0:0:
256,192,20867,1,0,0:0:0:0:
256,192,20953,1,8,0:0:0:0:
256,192,21127,1,0,0:0:0:0:
256,192,21214,1,0,0:0:0:0:
256,192,21300,1,8,0:0:0:0:
256,192,21474,1,0,0:0:0:0:
256,192,21560,1,0,0:0:0:0:
256,192,21647,1,8,0:0:0:0:
256,192,21821,1,0,0:0:0:0:
256,192,21907,1,0,0:0:0:0:
256,192,21994,1,0,0:0:0:0:
256,192,22167,1,8,0:0:0:0:
256,192,22341,1,0,0:0:0:0:
256,192,22514,1,0,0:0:0:0:
256,192,22601,1,0,0:0:0:0:
256,192,22688,1,8,0:0:0:0:
256,192,22774,1,8,0:0:0:0:
256,192,22861,1,0,0:0:0:0:
256,192,23034,1,8,0:0:0:0:
256,192,23121,1,0,0:0:0:0:
256,192,23208,1,8,0:0:0:0:
256,192,23381,1,0,0:0:0:0:
256,192,23555,1,0,0:0:0:0:
256,192,23728,1,12,0:0:0:0:
256,192,24075,1,0,0:0:0:0:
256,192,24249,1,12,0:0:0:0:
256,192,24595,1,0,0:0:0:0:
256,192,24768,1,12,0:0:0:0:
256,192,25289,1,12,0:0:0:0:
256,192,25636,1,0,0:0:0:0:
256,192,25809,1,8,0:0:0:0:
256,192,25982,1,0,0:0:0:0:
256,192,26156,1,8,0:0:0:0:
256,192,26329,1,8,0:0:0:0:
256,192,26503,1,4,0:0:0:0:
256,192,26676,1,0,0:0:0:0:
256,192,26762,1,0,0:0:0:0:
256,192,26849,1,8,0:0:0:0:
256,192,27023,1,8,0:0:0:0:
256,192,27109,1,0,0:0:0:0:
256,192,27196,1,8,0:0:0:0:
256,192,27369,1,8,0:0:0:0:
256,192,27456,1,0,0:0:0:0:
256,192,27543,1,0,0:0:0:0:
256,192,27716,1,8,0:0:0:0:
256,192,27803,1,0,0:0:0:0:
256,192,27890,1,8,0:0:0:0:
256,192,28063,1,8,0:0:0:0:
256,192,28150,1,0,0:0:0:0:
256,192,28236,1,8,0:0:0:0:
256,192,28410,1,8,0:0:0:0:
256,192,28497,1,8,0:0:0:0:
256,192,28583,1,0,0:0:0:0:
256,192,28757,1,8,0:0:0:0:
256,192,28930,1,8,0:0:0:0:
256,192,29103,1,0,0:0:0:0:
256,192,29277,1,8,0:0:0:0:
256,192,29450,1,0,0:0:0:0:
256,192,29537,1,0,0:0:0:0:
256,192,29624,1,8,0:0:0:0:
256,192,29797,1,8,0:0:0:0:
256,192,29884,1,0,0:0:0:0:
256,192,29971,1,8,0:0:0:0:
256,192,30144,1,8,0:0:0:0:
256,192,30231,1,0,0:0:0:0:
256,192,30317,1,0,0:0:0:0:
256,192,30491,1,0,0:0:0:0:
256,192,30577,1,0,0:0:0:0:
256,192,30664,1,8,0:0:0:0:
256,192,30838,1,0,0:0:0:0:
256,192,31011,1,8,0:0:0:0:
256,192,31185,1,8,0:0:0:0:
256,192,31271,1,8,0:0:0:0:
256,192,31358,1,0,0:0:0:0:
256,192,31531,1,0,0:0:0:0:
256,192,31618,1,0,0:0:0:0:
256,192,31705,1,8,0:0:0:0:
256,192,31791,1,8,0:0:0:0:
256,192,31878,1,0,0:0:0:0:
256,192,31965,1,0,0:0:0:0:
256,192,32051,1,8,0:0:0:0:
256,192,32225,1,0,0:0:0:0:
256,192,32312,1,0,0:0:0:0:
256,192,32398,1,8,0:0:0:0:
256,192,32572,1,0,0:0:0:0:
256,192,32658,1,0,0:0:0:0:
256,192,32745,1,8,0:0:0:0:
256,192,32919,1,0,0:0:0:0:
256,192,33005,1,0,0:0:0:0:
256,192,33092,1,0,0:0:0:0:
256,192,33265,1,8,0:0:0:0:
256,192,33439,1,0,0:0:0:0:
256,192,33612,1,0,0:0:0:0:
256,192,33699,1,0,0:0:0:0:
256,192,33786,1,8,0:0:0:0:
256,192,33872,1,8,0:0:0:0:
256,192,33959,1,0,0:0:0:0:
256,192,34132,1,8,0:0:0:0:
256,192,34219,1,0,0:0:0:0:
256,192,34306,1,8,0:0:0:0:
256,192,34479,1,0,0:0:0:0:
256,192,34653,1,0,0:0:0:0:
256,192,34826,1,12,0:0:0:0:
256,192,35173,1,0,0:0:0:0:
256,192,35347,1,12,0:0:0:0:
256,192,35693,1,0,0:0:0:0:
256,192,35867,1,12,0:0:0:0:
256,192,36387,1,8,0:0:0:0:
256,192,36734,1,0,0:0:0:0:
256,192,37081,1,8,0:0:0:0:
256,192,37254,1,0,0:0:0:0:
256,192,37427,1,8,0:0:0:0:
256,192,37514,1,8,0:0:0:0:
256,192,37601,1,0,0:0:0:0:
256,192,37774,1,8,0:0:0:0:
256,192,37948,1,0,0:0:0:0:
256,192,38121,1,8,0:0:0:0:
256,192,38208,1,8,0:0:0:0:
256,192,38295,1,0,0:0:0:0:
256,192,38468,1,8,0:0:0:0:
256,192,38641,1,0,0:0:0:0:
256,192,38815,1,8,0:0:0:0:
256,192,38988,1,8,0:0:0:0:
256,192,39162,1,0,0:0:0:0:
256,192,39335,1,8,0:0:0:0:
256,192,39508,1,0,0:0:0:0:
256,192,39855,1,8,0:0:0:0:
256,192,39942,1,0,0:0:0:0:
256,192,40029,1,8,0:0:0:0:
256,192,40115,1,8,0:0:0:0:
256,192,40202,1,0,0:0:0:0:
256,192,40289,1,0,0:0:0:0:
256,192,40375,1,8,0:0:0:0:
256,192,40549,1,0,0:0:0:0:
256,192,40636,1,0,0:0:0:0:
256,192,40722,1,8,0:0:0:0:
256,192,40896,1,8,0:0:0:0:
256,192,40982,1,8,0:0:0:0:
256,192,41069,1,0,0:0:0:0:
256,192,41242,1,8,0:0:0:0:
256,192,41329,1,0,0:0:0:0:
256,192,41416,1,8,0:0:0:0:
256,192,41589,1,0,0:0:0:0:
256,192,41676,1,0,0:0:0:0:
256,192,41763,1,8,0:0:0:0:
256,192,41936,1,0,0:0:0:0:
256,192,42110,1,0,0:0:0:0:
256,192,42283,1,8,0:0:0:0:
256,192,42630,1,0,0:0:0:0:
256,192,42803,1,8,0:0:0:0:
256,192,42977,1,0,0:0:0:0:
256,192,43150,1,12,0:0:0:0:
256,192,43323,1,8,0:0:0:0:
256,192,43410,1,8,0:0:0:0:
256,192,43497,1,0,0:0:0:0:
256,192,43670,1,0,0:0:0:0:
256,192,43757,1,0,0:0:0:0:
256,192,43844,1,8,0:0:0:0:
256,192,44017,1,8,0:0:0:0:
256,192,44104,1,8,0:0:0:0:
256,192,44190,1,0,0:0:0:0:
256,192,44364,1,0,0:0:0:0:
256,192,44537,1,8,0:0:0:0:
256,192,44711,1,8,0:0:0:0:
256,192,44884,1,0,0:0:0:0:
256,192,45058,1,8,0:0:0:0:
256,192,45404,1,8,0:0:0:0:
256,192,45491,1,0,0:0:0:0:
256,192,45578,1,8,0:0:0:0:
256,192,45664,1,8,0:0:0:0:
256,192,45751,1,0,0:0:0:0:
256,192,45838,1,0,0:0:0:0:
256,192,45925,1,8,0:0:0:0:
256,192,46098,1,0,0:0:0:0:
256,192,46185,1,0,0:0:0:0:
256,192,46271,1,8,0:0:0:0:
256,192,46445,1,8,0:0:0:0:
256,192,46532,1,8,0:0:0:0:
256,192,46618,1,0,0:0:0:0:
256,192,46792,1,0,0:0:0:0:
256,192,46878,1,0,0:0:0:0:
256,192,46965,1,8,0:0:0:0:
256,192,47138,1,8,0:0:0:0:
256,192,47225,1,0,0:0:0:0:
256,192,47312,1,8,0:0:0:0:
256,192,47399,1,8,0:0:0:0:
256,192,47485,1,8,0:0:0:0:
256,192,47572,1,0,0:0:0:0:
256,192,47659,1,8,0:0:0:0:
256,192,47832,1,8,0:0:0:0:
256,192,48179,1,8,0:0:0:0:
256,192,48352,1,8,0:0:0:0:
256,192,48526,1,0,0:0:0:0:
256,192,48699,1,4,0:0:0:0:
256,192,48873,1,0,0:0:0:0:
256,192,49046,1,8,0:0:0:0:
256,192,49219,1,8,0:0:0:0:
256,192,49306,1,8,0:0:0:0:
256,192,49393,1,0,0:0:0:0:
256,192,49566,1,0,0:0:0:0:
256,192,49740,1,8,0:0:0:0:
256,192,49826,1,8,0:0:0:0:
256,192,49913,1,0,0:0:0:0:
256,192,50000,1,0,0:0:0:0:
256,192,50086,1,8,0:0:0:0:
256,192,50260,1,0,0:0:0:0:
256,192,50433,1,8,0:0:0:0:
256,192,50520,1,0,0:0:0:0:
256,192,50607,1,8,0:0:0:0:
256,192,50693,1,8,0:0:0:0:
256,192,50780,1,0,0:0:0:0:
256,192,50953,1,0,0:0:0:0:
256,192,51127,1,8,0:0:0:0:
256,192,51214,1,8,0:0:0:0:
256,192,51300,1,0,0:0:0:0:
256,192,51387,1,0,0:0:0:0:
256,192,51474,1,8,0:0:0:0:
256,192,51560,1,0,0:0:0:0:
256,192,51647,1,0,0:0:0:0:
256,192,51734,1,0,0:0:0:0:
256,192,51821,1,8,0:0:0:0:
256,192,51907,1,0,0:0:0:0:
256,192,51994,1,0,0:0:0:0:
256,192,52081,1,0,0:0:0:0:
256,192,52167,1,8,0:0:0:0:
256,192,52254,1,0,0:0:0:0:
256,192,52341,1,8,0:0:0:0:
256,192,52427,1,0,0:0:0:0:
256,192,52514,1,8,0:0:0:0:
256,192,52688,1,8,0:0:0:0:
256,192,53381,1,0,0:0:0:0:
256,192,53555,1,8,0:0:0:0:
256,192,53728,1,8,0:0:0:0:
256,192,53815,1,8,0:0:0:0:
256,192,53901,1,0,0:0:0:0:
256,192,54075,1,8,0:0:0:0:
256,192,54248,1,12,0:0:0:0:
256,192,54422,1,0,0:0:0:0:
256,192,54508,1,0,0:0:0:0:
256,192,54595,1,8,0:0:0:0:
256,192,54768,1,0,0:0:0:0:
256,192,54942,1,8,0:0:0:0:
256,192,55115,1,8,0:0:0:0:
256,192,55202,1,8,0:0:0:0:
256,192,55289,1,0,0:0:0:0:
256,192,55462,1,8,0:0:0:0:
256,192,55636,1,0,0:0:0:0:
256,192,55809,1,0,0:0:0:0:
256,192,55896,1,0,0:0:0:0:
256,192,55982,1,8,0:0:0:0:
256,192,56156,1,0,0:0:0:0:
256,192,56329,1,8,0:0:0:0:
256,192,56416,1,8,0:0:0:0:
256,192,56503,1,0,0:0:0:0:
256,192,56589,1,0,0:0:0:0:
256,192,56676,1,8,0:0:0:0:
256,192,56763,1,8,0:0:0:0:
256,192,56849,1,0,0:0:0:0:
256,192,56936,1,0,0:0:0:0:
256,192,57023,1,8,0:0:0:0:
256,192,57196,1,8,0:0:0:0:
256,192,57283,1,8,0:0:0:0:
256,192,57370,1,0,0:0:0:0:
256,192,57543,1,0,0:0:0:0:
256,192,57716,1,8,0:0:0:0:
256,192,57890,1,0,0:0:0:0:
256,192,57977,1,0,0:0:0:0:
256,192,58063,1,8,0:0:0:0:
256,192,58237,1,8,0:0:0:0:
256,192,58410,1,0,0:0:0:0:
256,192,58584,1,8,0:0:0:0:
256,192,58670,1,0,0:0:0:0:
256,192,58757,1,8,0:0:0:0:
256,192,58930,1,0,0:0:0:0:
256,192,59017,1,0,0:0:0:0:
256,192,59104,1,8,0:0:0:0:
256,192,59190,1,8,0:0:0:0:
256,192,59277,1,0,0:0:0:0:
256,192,59451,1,8,0:0:0:0:
256,192,59624,1,0,0:0:0:0:
256,192,59797,1,8,0:0:0:0:
256,192,59971,1,8,0:0:0:0:
256,192,60144,1,0,0:0:0:0:
256,192,60318,1,8,0:0:0:0:
256,192,60404,1,8,0:0:0:0:
256,192,60491,1,0,0:0:0:0:
256,192,60838,1,0,0:0:0:0:
256,192,60925,1,0,0:0:0:0:
256,192,61011,1,8,0:0:0:0:
256,192,61185,1,0,0:0:0:0:
256,192,61358,1,8,0:0:0:0:
256,192,61532,1,0,0:0:0:0:
256,192,61705,1,8,0:0:0:0:
256,192,61792,1,0,0:0:0:0:
256,192,61878,1,8,0:0:0:0:
256,192,62052,1,0,0:0:0:0:
256,192,62225,1,8,0:0:0:0:
256,192,62399,1,8,0:0:0:0:
256,192,62572,1,0,0:0:0:0:
256,192,62745,1,0,0:0:0:0:
256,192,62832,1,0,0:0:0:0:
256,192,62919,1,8,0:0:0:0:
256,192,63092,1,0,0:0:0:0:
256,192,63266,1,8,0:0:0:0:
256,192,63439,1,0,0:0:0:0:
256,192,63526,1,8,0:0:0:0:
256,192,63612,1,0,0:0:0:0:
256,192,63786,1,8,0:0:0:0:
256,192,63959,1,0,0:0:0:0:
256,192,64133,1,8,0:0:0:0:
256,192,64219,1,8,0:0:0:0:
256,192,64306,1,8,0:0:0:0:
256,192,64479,1,8,0:0:0:0:
256,192,64653,1,8,0:0:0:0:
256,192,64826,1,0,0:0:0:0:
256,192,65000,1,0,0:0:0:0:
256,192,65173,1,0,0:0:0:0:
256,192,65347,1,12,0:0:0:0:
256,192,65521,1,0,0:0:0:0:
256,192,65607,1,0,0:0:0:0:
256,192,65694,1,8,0:0:0:0:
256,192,65867,1,0,0:0:0:0:
256,192,66041,1,8,0:0:0:0:
256,192,66214,1,8,0:0:0:0:
256,192,66301,1,8,0:0:0:0:
256,192,66388,1,0,0:0:0:0:
256,192,66561,1,8,0:0:0:0:
256,192,66735,1,0,0:0:0:0:
256,192,66908,1,0,0:0:0:0:
256,192,66995,1,0,0:0:0:0:
256,192,67081,1,8,0:0:0:0:
256,192,67255,1,0,0:0:0:0:
256,192,67427,1,8,0:0:0:0:
256,192,67514,1,8,0:0:0:0:
256,192,67601,1,0,0:0:0:0:
256,192,67688,1,0,0:0:0:0:
256,192,67774,1,8,0:0:0:0:
256,192,67861,1,8,0:0:0:0:
256,192,67947,1,0,0:0:0:0:
256,192,68034,1,0,0:0:0:0:
256,192,68121,1,8,0:0:0:0:
256,192,68294,1,8,0:0:0:0:
256,192,68381,1,8,0:0:0:0:
256,192,68468,1,0,0:0:0:0:
256,192,68641,1,0,0:0:0:0:
256,192,68814,1,8,0:0:0:0:
256,192,68988,1,0,0:0:0:0:
256,192,69075,1,0,0:0:0:0:
256,192,69161,1,8,0:0:0:0:
256,192,69335,1,8,0:0:0:0:
256,192,69508,1,0,0:0:0:0:
256,192,69682,1,8,0:0:0:0:
256,192,69768,1,0,0:0:0:0:
256,192,69855,1,8,0:0:0:0:
256,192,70029,1,0,0:0:0:0:
256,192,70115,1,0,0:0:0:0:
256,192,70202,1,8,0:0:0:0:
256,192,70288,1,8,0:0:0:0:
256,192,70375,1,0,0:0:0:0:
256,192,70549,1,8,0:0:0:0:
256,192,70722,1,0,0:0:0:0:
256,192,70896,1,12,0:0:0:0:
256,192,71242,1,0,0:0:0:0:
256,192,71416,1,8,0:0:0:0:
256,192,71763,1,8,0:0:0:0:
256,192,72110,1,0,0:0:0:0:
256,192,72456,1,8,0:0:0:0:
256,192,72543,1,0,0:0:0:0:
256,192,72630,1,8,0:0:0:0:
256,192,72716,1,8,0:0:0:0:
256,192,72803,1,0,0:0:0:0:
256,192,73150,1,0,0:0:0:0:
256,192,73323,1,8,0:0:0:0:
256,192,73497,1,0,0:0:0:0:
256,192,73670,1,12,0:0:0:0:
256,192,74017,1,8,0:0:0:0:
256,192,74190,1,0,0:0:0:0:
256,192,74537,1,0,0:0:0:0:
256,192,74884,1,8,0:0:0:0:
256,192,75231,1,0,0:0:0:0:
256,192,75318,1,0,0:0:0:0:
256,192,75404,1,8,0:0:0:0:
256,192,75491,1,8,0:0:0:0:
256,192,75578,1,0,0:0:0:0:
256,192,75664,1,0,0:0:0:0:
256,192,75751,1,8,0:0:0:0:
256,192,75925,1,12,0:0:0:0:
256,192,76445,1,0,0:0:0:0:
256,192,76618,1,8,0:0:0:0:
256,192,76705,1,8,0:0:0:0:
256,192,76791,1,0,0:0:0:0:
256,192,76965,1,0,0:0:0:0:
256,192,77138,1,8,0:0:0:0:
256,192,77485,1,0,0:0:0:0:
256,192,77658,1,8,0:0:0:0:
256,192,78005,1,0,0:0:0:0:
256,192,78092,1,8,0:0:0:0:
256,192,78179,1,0,0:0:0:0:
256,192,78525,1,0,0:0:0:0:
256,192,78612,1,0,0:0:0:0:
256,192,78699,1,8,0:0:0:0:
256,192,78786,1,8,0:0:0:0:
256,192,78872,1,0,0:0:0:0:
256,192,78959,1,0,0:0:0:0:
256,192,79046,1,8,0:0:0:0:
256,192,79132,1,8,0:0:0:0:
256,192,79219,1,0,0:0:0:0:
256,192,79392,1,8,0:0:0:0:
256,192,79479,1,8,0:0:0:0:
256,192,79566,1,0,0:0:0:0:
256,192,79739,1,0,0:0:0:0:
256,192,79913,1,8,0:0:0:0:
256,192,80260,1,0,0:0:0:0:
256,192,80433,1,8,0:0:0:0:
256,192,80780,1,8,0:0:0:0:
256,192,80867,1,8,0:0:0:0:
256,192,80953,1,0,0:0:0:0:
256,192,81300,1,0,0:0:0:0:
256,192,81387,1,0,0:0:0:0:
256,192,81473,1,8,0:0:0:0:
256,192,81647,1,0,0:0:0:0:
256,192,81820,1,8,0:0:0:0:
256,192,81994,1,0,0:0:0:0:
256,192,82167,1,0,0:0:0:0:
256,192,82340,1,8,0:0:0:0:
256,192,82514,1,8,0:0:0:0:
256,192,82687,1,0,0:0:0:0:
256,192,83034,1,8,0:0:0:0:
256,192,83208,1,0,0:0:0:0:
256,192,83554,1,8,0:0:0:0:
256,192,83901,1,8,0:0:0:0:
256,192,83988,1,8,0:0:0:0:
256,192,84075,1,0,0:0:0:0:
256,192,84248,1,0,0:0:0:0:
256,192,84421,1,8,0:0:0:0:
256,192,84595,1,8,0:0:0:0:
256,192,84768,1,0,0:0:0:0:
256,192,85115,1,8,0:0:0:0:
256,192,85462,1,0,0:0:0:0:
256,192,85809,1,8,0:0:0:0:
256,192,85896,1,8,0:0:0:0:
256,192,85982,1,8,0:0:0:0:
256,192,86156,1,12,0:0:0:0:
256,192,86503,1,4,0:0:0:0:
256,192,86849,1,12,0:0:0:0:
256,192,87196,1,12,0:0:0:0:
256,192,87543,1,4,0:0:0:0:
256,192,87716,1,8,0:0:0:0:
256,192,87803,1,8,0:0:0:0:
256,192,87889,1,0,0:0:0:0:
256,192,88063,1,0,0:0:0:0:
256,192,88236,1,8,0:0:0:0:
256,192,88583,1,0,0:0:0:0:
256,192,88756,1,8,0:0:0:0:
256,192,88930,1,0,0:0:0:0:
256,192,89103,1,0,0:0:0:0:
256,192,89190,1,0,0:0:0:0:
256,192,89277,1,8,0:0:0:0:
256,192,89450,1,0,0:0:0:0:
256,192,89624,1,8,0:0:0:0:
256,192,89710,1,8,0:0:0:0:
256,192,89797,1,0,0:0:0:0:
256,192,89884,1,0,0:0:0:0:
256,192,89971,1,8,0:0:0:0:
256,192,90057,1,8,0:0:0:0:
256,192,90144,1,0,0:0:0:0:
256,192,90230,1,0,0:0:0:0:
256,192,90318,1,8,0:0:0:0:
256,192,90490,1,8,0:0:0:0:
256,192,90577,1,8,0:0:0:0:
256,192,90664,1,0,0:0:0:0:
256,192,90837,1,0,0:0:0:0:
256,192,91011,1,8,0:0:0:0:
256,192,91358,1,0,0:0:0:0:
256,192,91531,1,8,0:0:0:0:
256,192,91705,1,0,0:0:0:0:
256,192,91878,1,8,0:0:0:0:
256,192,91964,1,8,0:0:0:0:
256,192,92051,1,0,0:0:0:0:
256,192,92225,1,0,0:0:0:0:
256,192,92398,1,0,0:0:0:0:
256,192,92485,1,8,0:0:0:0:
256,192,92571,1,0,0:0:0:0:
256,192,92745,1,0,0:0:0:0:
256,192,92918,1,0,0:0:0:0:
256,192,93092,1,12,0:0:0:0:
256,192,93612,1,4,0:0:0:0:
256,192,93959,1,12,0:0:0:0:
256,192,94306,1,4,0:0:0:0:
256,192,94653,1,8,0:0:0:0:
256,192,94740,1,0,0:0:0:0:
256,192,94826,1,8,0:0:0:0:
256,192,94913,1,8,0:0:0:0:
256,192,95000,1,0,0:0:0:0:
256,192,95347,1,8,0:0:0:0:
256,192,95520,1,0,0:0:0:0:
256,192,95693,1,0,0:0:0:0:
256,192,95867,1,12,0:0:0:0:
256,192,96214,1,0,0:0:0:0:
256,192,96387,1,12,0:0:0:0:
256,192,96734,1,12,0:0:0:0:
256,192,97081,1,4,0:0:0:0:
256,192,97427,1,8,0:0:0:0:
256,192,97514,1,8,0:0:0:0:
256,192,97601,1,0,0:0:0:0:
256,192,97774,1,8,0:0:0:0:
256,192,97861,1,0,0:0:0:0:
256,192,97948,1,8,0:0:0:0:
256,192,98121,1,0,0:0:0:0:
256,192,98295,1,8,0:0:0:0:
256,192,98468,1,0,0:0:0:0:
256,192,98641,1,12,0:0:0:0:
256,192,99162,1,4,0:0:0:0:
256,192,99508,1,12,0:0:0:0:
256,192,99855,1,4,0:0:0:0:
256,192,100202,1,0,0:0:0:0:
256,192,100289,1,0,0:0:0:0:
256,192,100375,1,8,0:0:0:0:
256,192,100462,1,8,0:0:0:0:
256,192,100549,1,0,0:0:0:0:
256,192,100636,1,0,0:0:0:0:
256,192,100722,1,8,0:0:0:0:
256,192,100896,1,0,0:0:0:0:
256,192,101069,1,8,0:0:0:0:
256,192,101242,1,0,0:0:0:0:
256,192,101416,1,8,0:0:0:0:
256,192,101589,1,0,0:0:0:0:
256,192,101676,1,0,0:0:0:0:
256,192,101763,1,8,0:0:0:0:
256,192,101936,1,8,0:0:0:0:
256,192,102110,1,0,0:0:0:0:
256,192,102196,1,0,0:0:0:0:
256,192,102283,1,8,0:0:0:0:
256,192,102456,1,8,0:0:0:0:
256,192,102630,1,0,0:0:0:0:
256,192,102716,1,0,0:0:0:0:
256,192,102803,1,8,0:0:0:0:
256,192,102977,1,8,0:0:0:0:
256,192,103063,1,8,0:0:0:0:
256,192,103150,1,0,0:0:0:0:
256,192,103323,1,0,0:0:0:0:
256,192,103497,1,0,0:0:0:0:
256,192,103612,1,8,0:0:0:0:
256,192,103728,1,0,0:0:0:0:
256,192,103844,1,8,0:0:0:0:
256,192,103959,1,0,0:0:0:0:
256,192,104075,1,0,0:0:0:0:
256,192,104190,1,12,0:0:0:0:
256,192,104711,1,0,0:0:0:0:
256,192,104797,1,0,0:0:0:0:
256,192,104884,1,8,0:0:0:0:
256,192,105404,1,8,0:0:0:0:
256,192,105491,1,8,0:0:0:0:
256,192,105578,1,0,0:0:0:0:
256,192,105664,12,0,109046,0:0:0:0:
