osu file format v14

[General]
AudioFilename: DJ TOTTO & Qrispy Joybox - Curtain Call Memories.mp3
AudioLeadIn: 0
PreviewTime: 53550
Countdown: 1
SampleSet: Soft
StackLeniency: 0.7
Mode: 0
LetterboxInBreaks: 1
WidescreenStoryboard: 1

[Editor]
Bookmarks: 9850,15400,29272,45400,47220,54417,64475,86151,100197
DistanceSpacing: 1
BeatDivisor: 4
GridSize: 4
TimelineZoom: 2.1

[Metadata]
Title:Curtain Call Memories
TitleUnicode:カーテンコール・メモリーズ
Artist:DJ TOTTO & Qrispy Joybox
ArtistUnicode:DJ TOTTO & Qrispy Joybox
Creator:Dextersydney
Version:Everlasting.
Source:REFLEC BEAT groovin'!! Upper
Tags:Starfy Regou Bemani Konami VOLZZA
BeatmapID:1080645
BeatmapSetID:507271

[Difficulty]
HPDrainRate:7
CircleSize:4
OverallDifficulty:7
ApproachRate:9
SliderMultiplier:1.4
SliderTickRate:1

[Events]
//Background and Video events
0,0,"background.jpg",0,0
//Break Periods
2,76120,85551
//Storyboard Layer 0 (Background)
//Storyboard Layer 1 (Fail)
//Storyboard Layer 2 (Pass)
//Storyboard Layer 3 (Foreground)
//Storyboard Sound Samples

[TimingPoints]
140,346.820809248555,4,2,0,100,1,0
9764,-100,4,2,0,100,0,0
11758,-133.333333333333,4,2,0,100,0,0
15400,-133.333333333333,4,2,0,100,0,1
16093,-100,4,2,0,100,0,1
28492,-66.6666666666667,4,2,0,100,0,0
34388,-100,4,2,0,100,0,0
37423,-66.6666666666667,4,2,0,100,0,0
37683,-100,4,2,0,100,0,0
53203,-100,4,2,0,70,0,0
53550,-100,4,2,0,85,0,0
54244,-100,4,2,0,85,0,1
61700,-66.6666666666667,4,2,0,100,0,1
62914,-100,4,2,0,100,0,1
63608,-66.6666666666667,4,2,0,100,0,1
64648,-100,4,2,0,100,0,1
65862,-66.6666666666667,4,2,0,100,0,1
67770,-100,4,2,0,100,0,1
69157,-66.6666666666667,4,2,0,100,0,1
71411,-100,4,2,0,100,0,0
74012,-66.6666666666667,4,2,0,100,0,0
75313,-100,4,2,0,100,0,0
87538,-100,4,2,0,100,0,1
90140,-66.6666666666667,4,2,0,100,0,1
92394,-100,4,2,0,100,0,1
95775,-66.6666666666667,4,2,0,100,0,1
95862,-100,4,2,0,100,0,0
98290,-66.6666666666667,4,2,0,100,0,0
98723,-100,4,2,0,100,0,0
100978,-66.6666666666667,4,2,0,100,0,0
101411,-100,4,2,0,100,0,0
102798,-66.6666666666667,4,2,0,100,0,0
103492,-100,4,2,0,100,0,0
104706,-66.6666666666667,4,2,0,100,0,0

[HitObjects]
40,148,9850,6,0,P|136:120|200:120,1,140
256,244,10371,1,0,0:0:0:0:
256,244,10457,1,0,0:0:0:0:
256,244,10544,1,0,0:0:0:0:
296,304,10718,2,0,P|286:295|260:220,1,70
252,160,11064,2,0,P|252:220|264:256,2,70
256,68,11585,1,0,0:0:0:0:
364,116,11758,2,0,P|384:148|380:176,1,52.5000020027161
272,228,12105,2,0,P|264:196|272:172,1,52.5000020027161
436,204,12452,1,0,0:0:0:0:
436,204,12625,6,0,P|432:240|420:260,1,52.5000020027161
376,296,12972,2,0,B|344:280|292:280|272:296,1,105.000004005432
148,316,13492,2,0,P|136:344|144:380,1,52.5000020027161
244,304,13839,2,0,P|256:272|240:240,1,52.5000020027161
164,280,14186,2,0,P|140:296|116:332,1,52.5000020027161
132,200,14533,1,0,0:0:0:0:
132,200,14619,1,0,0:0:0:0:
132,200,14706,1,0,0:0:0:0:
152,92,14879,6,0,B|176:112|200:96|232:120|232:120|256:104|288:128|288:128,1,131.25000500679
400,208,15400,2,0,L|400:256,1,26.2500010013581
332,312,15573,1,0,0:0:0:0:
328,128,15746,2,0,L|328:176,1,26.2500010013581
260,232,15919,1,0,0:0:0:0:
192,352,16093,2,0,B|184:320|184:320|184:312|196:312|192:268,1,70
84,244,16440,1,0,0:0:0:0:
84,244,16527,1,0,0:0:0:0:
84,244,16613,1,0,0:0:0:0:
184,88,16787,6,0,B|232:120|232:120|256:108|248:132|248:132,1,70
340,96,17134,1,0,0:0:0:0:
344,216,17307,1,0,0:0:0:0:
204,244,17481,1,0,0:0:0:0:
96,136,17654,2,0,L|96:88,1,26.2500010013581
164,32,17827,1,0,0:0:0:0:
212,160,18001,2,0,B|244:200|244:200|272:188|280:220,1,70
400,192,18348,2,0,L|380:224,1,26.2500010013581
292,304,18521,1,0,0:0:0:0:
180,292,18694,1,0,0:0:0:0:
180,292,18781,1,0,0:0:0:0:
180,292,18868,1,0,0:0:0:0:
280,124,19041,6,0,L|288:160,1,26.2500010013581
136,192,19215,1,0,0:0:0:0:
288,240,19388,1,0,0:0:0:0:
288,240,19475,1,0,0:0:0:0:
288,240,19561,1,0,0:0:0:0:
284,120,19735,6,0,P|324:92|368:84,1,70
436,200,20082,2,0,P|396:228|352:236,1,70
368,136,20429,1,0,0:0:0:0:
368,136,20515,1,0,0:0:0:0:
368,136,20602,1,0,0:0:0:0:
288,260,20775,2,0,L|244:276,1,35
120,256,20949,1,0,0:0:0:0:
224,240,21122,5,0,0:0:0:0:
128,264,21296,1,0,0:0:0:0:
144,180,21469,1,0,0:0:0:0:
216,268,21642,1,0,0:0:0:0:
116,280,21816,1,0,0:0:0:0:
204,340,21989,2,0,L|248:344,1,35
92,364,22163,1,0,0:0:0:0:
280,268,22336,1,0,0:0:0:0:
280,268,22423,1,0,0:0:0:0:
280,268,22509,1,0,0:0:0:0:
184,160,22683,6,0,P|224:132|268:124,1,70
312,236,23030,1,0,0:0:0:0:
336,100,23203,1,0,0:0:0:0:
336,100,23290,1,0,0:0:0:0:
336,100,23376,2,0,L|368:120,1,35
388,164,23550,1,0,0:0:0:0:
368,288,23723,2,0,B|332:320|332:320|304:328|288:296|288:296|288:256|272:228|272:228|228:248|228:248|200:272|208:320|208:320|220:352|220:352|172:352,1,350
16,352,24764,1,0,0:0:0:0:
152,220,25111,6,0,B|176:180|176:180|184:160|216:176|216:176|244:256|244:256|248:304|288:304|308:280|308:280|308:252|332:228|280:216|296:184|296:184|296:184,1,350
328,276,26151,1,0,0:0:0:0:
216,168,26324,2,0,L|216:212,1,35
372,204,26498,1,0,0:0:0:0:
372,116,26671,6,0,L|372:72,1,35
264,80,26845,1,0,0:0:0:0:
472,80,27018,2,0,L|432:80,1,35
360,184,27192,1,0,0:0:0:0:
356,36,27365,1,0,0:0:0:0:
356,36,27452,1,0,0:0:0:0:
356,36,27538,1,0,0:0:0:0:
296,124,27712,6,0,L|236:144,1,35
212,52,27885,1,0,0:0:0:0:
144,144,28059,1,0,0:0:0:0:
144,144,28145,1,0,0:0:0:0:
144,144,28232,1,0,0:0:0:0:
208,212,28405,1,0,0:0:0:0:
252,236,28492,2,0,B|300:264|300:264|352:272|384:248|384:248,1,105.000004005432
368,296,28752,1,0,0:0:0:0:
400,176,28926,1,0,0:0:0:0:
260,268,29099,6,0,B|216:260|216:260|176:284|176:284|144:268|144:268|168:248,1,157.500006008148
80,136,29446,2,0,L|80:200,1,52.5000020027161
224,236,29619,1,0,0:0:0:0:
372,224,29793,2,0,L|428:268,1,52.5000020027161
324,348,29966,1,0,0:0:0:0:
324,348,30053,1,0,0:0:0:0:
324,348,30140,1,0,0:0:0:0:
236,348,30313,5,0,0:0:0:0:
176,316,30400,1,0,0:0:0:0:
112,344,30486,1,0,0:0:0:0:
48,316,30573,1,0,0:0:0:0:
104,280,30660,2,0,P|132:232|184:240,1,105.000004005432
264,260,31007,1,0,0:0:0:0:
200,200,31180,1,0,0:0:0:0:
172,276,31353,1,0,0:0:0:0:
264,264,31527,1,0,0:0:0:0:
264,264,31613,1,0,0:0:0:0:
264,264,31700,1,0,0:0:0:0:
288,316,31874,6,0,L|356:352,1,52.5000020027161
376,280,32047,2,0,L|436:256,1,52.5000020027161
472,332,32220,1,0,0:0:0:0:
420,196,32394,1,0,0:0:0:0:
368,324,32567,1,0,0:0:0:0:
296,200,32741,2,0,L|296:260,1,52.5000020027161
200,316,32914,1,0,0:0:0:0:
64,232,33087,2,0,L|136:232,1,52.5000020027161
248,232,33261,1,0,0:0:0:0:
248,232,33348,1,0,0:0:0:0:
248,232,33434,1,0,0:0:0:0:
248,232,33608,6,0,P|304:244|336:296,2,105.000004005432
248,232,34128,2,0,P|192:200|172:140,1,105.000004005432
168,120,34388,1,0,0:0:0:0:
192,80,34475,1,0,0:0:0:0:
232,60,34561,1,0,0:0:0:0:
276,60,34648,1,0,0:0:0:0:
312,88,34735,1,0,0:0:0:0:
316,132,34822,5,0,0:0:0:0:
424,280,35342,1,0,0:0:0:0:
188,252,35862,2,0,B|168:248|168:248|160:224|136:240|136:240|96:260|96:260|96:288|128:308|128:308|116:336|68:320,1,210
92,124,36556,1,0,0:0:0:0:
276,288,36729,1,0,0:0:0:0:
88,348,36903,1,0,0:0:0:0:
88,348,36989,1,0,0:0:0:0:
88,348,37076,1,0,0:0:0:0:
204,264,37249,2,0,L|140:264,1,35
136,228,37423,6,0,L|116:192,3,35
148,264,37770,6,0,L|232:288,1,70
380,176,38116,2,0,L|304:160,1,70
128,300,38463,6,0,L|212:324,1,70
404,144,38809,2,0,L|328:128,1,70
335,129,39157,1,0,0:0:0:0:
280,340,39330,1,0,0:0:0:0:
128,300,39504,1,0,0:0:0:0:
128,300,39590,1,0,0:0:0:0:
128,300,39677,1,0,0:0:0:0:
96,268,39764,1,0,0:0:0:0:
76,232,39850,1,0,0:0:0:0:
60,192,39937,1,0,0:0:0:0:
64,176,40024,5,0,0:0:0:0:
72,160,40111,1,0,0:0:0:0:
80,144,40197,1,0,0:0:0:0:
88,128,40284,1,0,0:0:0:0:
104,120,40371,6,0,L|188:120,1,70
220,124,40631,1,0,0:0:0:0:
220,124,40717,1,0,0:0:0:0:
220,124,40804,1,0,0:0:0:0:
264,124,40891,1,0,0:0:0:0:
308,136,40978,1,0,0:0:0:0:
352,136,41064,1,0,0:0:0:0:
388,108,41151,1,0,0:0:0:0:
424,132,41238,5,0,0:0:0:0:
440,148,41324,1,0,0:0:0:0:
456,168,41411,1,0,0:0:0:0:
472,188,41498,1,0,0:0:0:0:
488,220,41585,5,0,0:0:0:0:
484,256,41671,1,0,0:0:0:0:
476,292,41758,1,0,0:0:0:0:
468,328,41845,1,0,0:0:0:0:
420,336,41931,5,0,0:0:0:0:
372,340,42018,1,0,0:0:0:0:
324,344,42105,1,0,0:0:0:0:
276,348,42192,1,0,0:0:0:0:
224,352,42278,6,0,L|136:344,1,70
72,148,42625,2,0,L|164:148,1,70
280,180,42972,6,0,L|272:268,1,70
180,304,43319,1,0,0:0:0:0:
180,304,43405,1,0,0:0:0:0:
180,304,43492,1,0,0:0:0:0:
84,284,43666,1,0,0:0:0:0:
84,236,43752,1,0,0:0:0:0:
88,188,43839,1,0,0:0:0:0:
92,140,43926,1,0,0:0:0:0:
112,96,44012,5,0,0:0:0:0:
152,96,44099,1,0,0:0:0:0:
192,96,44186,1,0,0:0:0:0:
232,96,44272,1,0,0:0:0:0:
264,116,44359,1,0,0:0:0:0:
292,144,44446,1,0,0:0:0:0:
324,164,44533,1,0,0:0:0:0:
360,168,44619,1,0,0:0:0:0:
392,144,44706,5,0,0:0:0:0:
408,108,44793,1,0,0:0:0:0:
392,72,44879,1,0,0:0:0:0:
416,100,44966,1,0,0:0:0:0:
444,124,45053,1,0,0:0:0:0:
468,152,45140,1,0,0:0:0:0:
468,192,45226,1,0,0:0:0:0:
440,220,45313,1,0,0:0:0:0:
408,260,45400,2,0,L|360:276,1,35
348,244,45573,2,0,L|304:232,1,35
288,264,45746,2,0,L|224:280,1,35
220,256,45920,2,0,L|164:232,1,35
144,260,46093,5,0,0:0:0:0:
112,292,46180,1,0,0:0:0:0:
88,328,46267,1,0,0:0:0:0:
92,372,46353,1,0,0:0:0:0:
136,368,46440,1,0,0:0:0:0:
180,364,46527,1,0,0:0:0:0:
224,352,46613,1,0,0:0:0:0:
268,348,46700,1,0,0:0:0:0:
312,340,46787,1,0,0:0:0:0:
356,352,46874,1,0,0:0:0:0:
400,364,46960,1,0,0:0:0:0:
444,372,47047,5,0,0:0:0:0:
412,340,47134,1,0,0:0:0:0:
392,300,47220,1,0,0:0:0:0:
392,256,47307,1,0,0:0:0:0:
408,212,47394,1,0,0:0:0:0:
440,176,47481,1,0,0:0:0:0:
464,136,47567,1,0,0:0:0:0:
488,100,47654,1,0,0:0:0:0:
504,56,47741,1,0,0:0:0:0:
500,12,47827,2,0,P|440:16|408:36,1,70
328,132,48174,2,0,P|388:128|420:108,1,70
264,52,48521,6,0,P|204:56|172:76,1,70
64,180,48868,1,0,0:0:0:0:
156,184,49041,1,0,0:0:0:0:
248,188,49215,1,0,0:0:0:0:
340,196,49388,1,0,0:0:0:0:
412,248,49561,1,0,0:0:0:0:
416,332,49735,5,0,0:0:0:0:
336,348,49908,1,0,0:0:0:0:
276,288,50082,1,0,0:0:0:0:
344,240,50255,1,0,0:0:0:0:
268,204,50429,1,0,0:0:0:0:
204,260,50602,1,0,0:0:0:0:
284,344,50775,6,0,P|344:340|376:320,1,70
440,200,51122,2,0,P|380:204|348:224,1,70
284,344,51469,6,0,P|344:340|376:320,1,70
440,200,51816,2,0,P|380:204|348:224,1,70
332,224,52076,1,0,0:0:0:0:
292,232,52163,1,0,0:0:0:0:
252,224,52249,1,0,0:0:0:0:
220,196,52336,1,0,0:0:0:0:
204,156,52423,1,0,0:0:0:0:
196,116,52509,1,0,0:0:0:0:
208,76,52596,1,0,0:0:0:0:
220,116,52683,1,0,0:0:0:0:
248,148,52770,1,0,0:0:0:0:
276,176,52856,6,0,B|320:188|320:188|332:228|308:260|308:260|244:272|244:272|232:304|212:316|212:316|168:288|76:320|76:320|92:212,1,490
247,276,54244,1,0,0:0:0:0:
176,228,54417,1,0,0:0:0:0:
176,228,54504,1,0,0:0:0:0:
176,228,54590,1,0,0:0:0:0:
256,132,54764,2,0,L|232:180,1,35
364,172,54937,1,0,0:0:0:0:
400,232,55111,1,0,0:0:0:0:
400,232,55197,1,0,0:0:0:0:
400,232,55284,1,0,0:0:0:0:
400,92,55457,6,0,P|360:100|328:128,1,70
316,252,55804,2,0,P|356:244|388:216,1,70
408,256,56151,1,0,0:0:0:0:
364,152,56324,1,0,0:0:0:0:
328,264,56498,1,0,0:0:0:0:
432,216,56671,1,0,0:0:0:0:
324,160,56845,2,0,L|276:128,1,35
184,136,57018,1,0,0:0:0:0:
184,136,57105,1,0,0:0:0:0:
184,136,57192,1,0,0:0:0:0:
104,216,57365,6,0,L|124:252,1,35
224,264,57538,1,0,0:0:0:0:
292,224,57712,1,0,0:0:0:0:
292,224,57798,1,0,0:0:0:0:
292,224,57885,1,0,0:0:0:0:
384,292,58059,6,0,L|344:300,1,35
220,248,58232,2,0,L|276:240,1,35
356,232,58405,1,0,0:0:0:0:
296,152,58579,1,0,0:0:0:0:
296,152,58666,1,0,0:0:0:0:
296,152,58752,1,0,0:0:0:0:
128,116,58926,6,0,P|152:80|208:72,1,70
343,105,59272,2,0,P|319:141|263:149,1,70
216,236,59619,1,0,0:0:0:0:
112,200,59793,1,0,0:0:0:0:
152,112,59966,1,0,0:0:0:0:
152,112,60053,1,0,0:0:0:0:
152,112,60140,1,0,0:0:0:0:
244,56,60313,2,0,L|272:92,1,35
320,196,60486,1,0,0:0:0:0:
208,212,60660,1,0,0:0:0:0:
208,212,60746,1,0,0:0:0:0:
208,212,60833,1,0,0:0:0:0:
120,156,61007,6,0,L|164:112,1,35
260,80,61180,1,0,0:0:0:0:
276,192,61354,1,0,0:0:0:0:
276,192,61440,1,0,0:0:0:0:
276,192,61527,1,0,0:0:0:0:
247,295,61700,2,0,P|199:283|163:243,1,105.000004005432
300,212,62047,2,0,P|288:260|229:300,1,105.000004005432
156,200,62394,1,0,0:0:0:0:
276,152,62567,1,0,0:0:0:0:
276,152,62654,1,0,0:0:0:0:
276,152,62741,1,0,0:0:0:0:
376,200,62914,6,0,L|412:240,1,35
452,336,63087,1,0,0:0:0:0:
296,348,63261,1,0,0:0:0:0:
256,328,63348,1,0,0:0:0:0:
244,284,63434,1,0,0:0:0:0:
376,200,63608,2,0,P|416:260|432:324,1,105.000004005432
420,312,63955,1,0,0:0:0:0:
288,268,64128,1,0,0:0:0:0:
288,268,64215,1,0,0:0:0:0:
288,268,64301,1,0,0:0:0:0:
392,180,64475,2,0,P|356:132|292:112,1,105.000004005432
248,68,64822,6,0,L|280:104,1,35
368,84,64995,1,0,0:0:0:0:
384,208,65168,2,0,L|328:208,1,35
364,84,65342,1,0,0:0:0:0:
240,180,65515,1,0,0:0:0:0:
240,180,65602,1,0,0:0:0:0:
240,180,65689,1,0,0:0:0:0:
116,232,65862,2,0,P|184:272|244:276,1,105.000004005432
352,160,66209,2,0,P|300:128|248:124,1,105.000004005432
284,68,66556,6,0,P|312:112|288:200,1,105.000004005432
200,348,66903,2,0,P|172:304|196:216,1,105.000004005432
200,268,67249,1,0,0:0:0:0:
256,152,67423,1,0,0:0:0:0:
304,268,67596,1,0,0:0:0:0:
156,188,67770,2,0,L|124:172,1,35
116,288,67943,1,0,0:0:0:0:
212,344,68116,2,0,P|264:344|304:328,1,70
240,220,68463,1,0,0:0:0:0:
368,172,68637,1,0,0:0:0:0:
356,296,68810,1,0,0:0:0:0:
356,296,68897,1,0,0:0:0:0:
356,296,68983,1,0,0:0:0:0:
384,184,69157,6,0,P|420:212|440:272,1,105.000004005432
256,304,69504,2,0,P|220:276|200:212,1,105.000004005432
172,212,69850,1,0,0:0:0:0:
316,264,70024,1,0,0:0:0:0:
316,264,70111,1,0,0:0:0:0:
316,264,70197,1,0,0:0:0:0:
356,160,70371,2,0,P|292:140|232:156,1,105.000004005432
152,312,70718,2,0,P|220:328|276:316,1,105.000004005432
264,220,71064,5,0,0:0:0:0:
340,308,71238,1,0,0:0:0:0:
432,232,71411,2,0,L|480:232,1,35
408,152,71585,1,0,0:0:0:0:
480,288,71758,1,0,0:0:0:0:
348,264,71931,1,0,0:0:0:0:
348,264,72018,1,0,0:0:0:0:
348,264,72105,1,0,0:0:0:0:
244,280,72278,2,0,P|200:292|148:280,1,70
132,288,72538,5,0,0:0:0:0:
104,252,72625,1,0,0:0:0:0:
76,216,72712,1,0,0:0:0:0:
56,176,72798,1,0,0:0:0:0:
100,180,72885,1,0,0:0:0:0:
144,176,72972,1,0,0:0:0:0:
184,156,73059,1,0,0:0:0:0:
216,124,73145,1,0,0:0:0:0:
244,88,73232,5,0,0:0:0:0:
244,132,73319,1,0,0:0:0:0:
208,160,73405,1,0,0:0:0:0:
164,156,73492,1,0,0:0:0:0:
128,124,73579,1,0,0:0:0:0:
116,80,73666,1,0,0:0:0:0:
344,72,74012,6,0,P|380:128|396:192,1,105
228,288,74359,2,0,P|192:232|176:168,1,105
296,196,74706,1,0,0:0:0:0:
156,140,74879,1,0,0:0:0:0:
152,276,75053,1,0,0:0:0:0:
152,276,75140,1,0,0:0:0:0:
152,276,75226,1,0,0:0:0:0:
184,308,75313,1,0,0:0:0:0:
228,324,75400,1,0,0:0:0:0:
272,328,75486,1,0,0:0:0:0:
308,356,75573,1,0,0:0:0:0:
352,360,75660,1,0,0:0:0:0:
388,336,75746,5,0,0:0:0:0:
296,204,75920,1,0,0:0:0:0:
96,168,86151,6,0,P|128:232|152:252,1,70
336,256,86498,2,0,P|304:192|280:172,1,70
100,172,86845,1,0,0:0:0:0:
305,193,87192,1,0,0:0:0:0:
232,256,87538,6,0,L|192:288,1,35
92,308,87712,1,0,0:0:0:0:
56,200,87885,1,0,0:0:0:0:
48,156,87972,1,0,0:0:0:0:
68,116,88059,1,0,0:0:0:0:
124,256,88232,2,0,L|172:216,1,35
196,232,88405,1,0,0:0:0:0:
232,260,88492,1,0,0:0:0:0:
276,268,88579,1,0,0:0:0:0:
384,256,88752,5,0,0:0:0:0:
380,152,88926,2,0,L|348:184,1,35
308,184,89099,1,0,0:0:0:0:
272,156,89186,1,0,0:0:0:0:
268,112,89272,1,0,0:0:0:0:
124,68,89446,6,0,L|104:104,1,35
88,240,89619,1,0,0:0:0:0:
224,276,89793,1,0,0:0:0:0:
268,272,89879,1,0,0:0:0:0:
308,296,89966,1,0,0:0:0:0:
440,348,90140,2,0,P|384:360|336:352,1,105
160,204,90486,2,0,P|216:192|264:200,2,105
152,208,91007,6,0,P|136:148|148:92,1,105.000004005432
192,48,91353,1,0,0:0:0:0:
280,156,91527,1,0,0:0:0:0:
324,172,91613,1,0,0:0:0:0:
372,168,91700,1,0,0:0:0:0:
464,240,91874,1,0,0:0:0:0:
392,316,92047,1,0,0:0:0:0:
388,332,92134,1,0,0:0:0:0:
380,344,92220,1,0,0:0:0:0:
272,344,92394,2,0,L|244:320,1,35
104,348,92567,2,0,L|72:320,1,35
128,224,92741,2,0,L|160:192,1,35
296,232,92914,2,0,L|328:204,1,35
412,168,93087,6,0,P|432:216|428:256,1,70
424,288,93434,2,0,P|388:308|356:348,2,70
364,196,93955,2,0,P|328:200|280:184,1,70
376,120,94301,2,0,P|424:152|436:188,1,70
480,232,94648,5,0,0:0:0:0:
448,264,94735,1,0,0:0:0:0:
412,292,94822,1,0,0:0:0:0:
368,296,94908,1,0,0:0:0:0:
324,284,94995,1,0,0:0:0:0:
288,252,95082,1,0,0:0:0:0:
244,244,95168,1,0,0:0:0:0:
204,268,95255,1,0,0:0:0:0:
168,296,95342,1,0,0:0:0:0:
128,304,95429,2,0,L|96:288,1,35
64,256,95602,2,0,L|92:224,1,35
128,216,95775,2,0,L|100:128,1,52.5000020027161
100,120,95949,1,0,0:0:0:0:
92,72,96035,6,0,P|132:60|180:56,1,70
304,152,96382,2,0,P|316:208|308:236,2,70
180,148,96903,1,0,0:0:0:0:
176,264,97076,2,0,P|212:296|256:312,1,70
320,328,97423,5,0,0:0:0:0:
360,304,97509,1,0,0:0:0:0:
400,280,97596,1,0,0:0:0:0:
420,240,97683,1,0,0:0:0:0:
428,196,97770,1,0,0:0:0:0:
432,152,97856,1,0,0:0:0:0:
404,188,97943,1,0,0:0:0:0:
364,208,98030,1,0,0:0:0:0:
320,208,98116,1,0,0:0:0:0:
280,184,98203,1,0,0:0:0:0:
236,164,98290,6,0,L|184:120,1,52.5000020027161
164,140,98463,2,0,L|120:176,1,52.5000020027161
96,236,98637,2,0,P|156:252|216:252,1,105.000004005432
308,332,98983,1,0,0:0:0:0:
396,184,99157,2,0,P|412:232|408:280,1,70
343,253,99504,2,0,P|403:249|443:261,2,70
184,256,100024,1,0,0:0:0:0:
76,180,100197,5,0,0:0:0:0:
100,140,100284,1,0,0:0:0:0:
140,120,100371,1,0,0:0:0:0:
176,148,100457,1,0,0:0:0:0:
216,172,100544,1,0,0:0:0:0:
260,172,100631,1,0,0:0:0:0:
304,156,100718,1,0,0:0:0:0:
336,124,100804,1,0,0:0:0:0:
356,84,100891,1,0,0:0:0:0:
408,96,100978,6,0,L|456:60,1,52.5000020027161
472,108,101151,2,0,L|424:152,1,52.5000020027161
484,156,101324,2,0,L|436:200,1,52.5000020027161
412,224,101498,1,0,0:0:0:0:
376,252,101585,1,0,0:0:0:0:
336,272,101671,1,0,0:0:0:0:
292,276,101758,1,0,0:0:0:0:
248,264,101845,1,0,0:0:0:0:
212,236,101931,1,0,0:0:0:0:
168,240,102018,5,0,0:0:0:0:
140,276,102105,1,0,0:0:0:0:
128,320,102192,1,0,0:0:0:0:
140,364,102278,1,0,0:0:0:0:
184,376,102365,1,0,0:0:0:0:
228,372,102452,1,0,0:0:0:0:
268,352,102538,1,0,0:0:0:0:
292,312,102625,1,0,0:0:0:0:
292,268,102712,1,0,0:0:0:0:
292,224,102798,2,0,L|360:172,1,52.5000020027161
280,188,102972,2,0,L|348:136,1,52.5000020027161
268,148,103145,2,0,L|336:96,1,52.5000020027161
300,64,103319,2,0,L|232:116,1,52.5000020027161
208,88,103492,5,0,0:0:0:0:
172,128,103579,1,0,0:0:0:0:
152,176,103666,1,0,0:0:0:0:
140,228,103752,1,0,0:0:0:0:
144,280,103839,1,0,0:0:0:0:
168,328,103926,1,0,0:0:0:0:
216,352,104012,1,0,0:0:0:0:
268,360,104099,1,0,0:0:0:0:
312,332,104186,1,0,0:0:0:0:
80,56,104706,5,0,0:0:0:0:
88,88,104793,1,0,0:0:0:0:
116,108,104879,1,0,0:0:0:0:
152,116,104966,2,0,L|216:156,1,52.5000020027161
432,328,105400,5,0,0:0:0:0:
424,296,105487,1,0,0:0:0:0:
396,276,105573,1,0,0:0:0:0:
360,268,105660,2,0,L|296:228,1,52.5000020027161
