osu file format v14

[General]
AudioFilename: audio.mp3
AudioLeadIn: 0
PreviewTime: 34562
Countdown: 1
SampleSet: Soft
StackLeniency: 0.7
Mode: 0
LetterboxInBreaks: 0
WidescreenStoryboard: 1

[Editor]
Bookmarks: 42523
DistanceSpacing: 0.99
BeatDivisor: 4
GridSize: 4
TimelineZoom: 1.7

[Metadata]
Title:Live 2 Dance (Nightcore Mix)
TitleUnicode:Live 2 Dance (Nightcore Mix)
Artist:DJ THT meets Scarlet
ArtistUnicode:DJ THT meets Scarlet
Creator:Naotoshi
Version:Normal
Source:
Tags:nao tomori doj regraz mkguh techno dance party rave remix
BeatmapID:1398370
BeatmapSetID:659854

[Difficulty]
HPDrainRate:4
CircleSize:2.7
OverallDifficulty:4
ApproachRate:5.7
SliderMultiplier:1.1
SliderTickRate:1

[Events]
//Background and Video events
0,0,"kantoku beach loli.jpg",0,0
//Break Periods
2,57303,66394
//Storyboard Layer 0 (Background)
//Storyboard Layer 1 (Fail)
//Storyboard Layer 2 (Pass)
//Storyboard Layer 3 (Foreground)
//Storyboard Sound Samples

[TimingPoints]
2897,338.791643139469,4,2,0,37,1,0
24579,-90.9090909090909,4,2,0,45,0,0
35420,-83.3333333333333,4,1,1,84,0,1
44907,-83.3333333333333,4,1,0,84,0,0
46262,-83.3333333333333,4,1,1,84,0,1
55748,-66.6666666666667,4,2,0,50,0,0
57103,-66.6666666666667,4,2,0,84,0,1
57273,-66.6666666666667,4,2,0,67,0,0
69977,-90.9090909090909,4,2,0,67,0,0
70655,-90.9090909090909,4,2,0,39,0,0
76075,-90.9090909090909,4,2,0,53,0,0
81496,-83.3333333333333,4,1,1,84,0,1
90982,-100,4,2,0,50,0,0
92337,-83.3333333333333,4,1,1,84,0,1
101824,-100,4,2,0,84,0,0
102840,-76.9230769230769,4,2,0,84,0,0
103179,-83.3333333333333,4,1,1,84,0,1
111310,-90.9090909090909,4,1,1,84,0,1
112665,-76.9230769230769,4,2,0,50,0,0
114020,-76.9230769230769,4,2,0,67,0,1
114105,-76.9230769230769,4,2,0,67,0,0

[Colours]
Combo1 : 114,233,129
Combo2 : 54,199,241
Combo3 : 233,124,101
Combo4 : 252,228,173

[HitObjects]
254,192,271,5,2,0:0:0:0:
254,190,2897,6,0,P|307:180|388:195,1,110,2|0,0:0|0:0,0:0:0:0:
456,241,3574,2,0,P|483:187|482:120,1,110,2|0,0:0|0:0,0:0:0:0:
407,63,4252,1,2,0:0:0:0:
407,63,4929,6,0,P|332:82|280:66,1,110,2|0,0:0|0:0,0:0:0:0:
256,44,5437,2,0,B|188:32|135:53|135:53|191:94,1,165,2|0,0:0|0:0,0:0:0:0:
212,177,6284,6,0,P|220:247|196:296,1,110,2|2,0:0|0:0,0:0:0:0:
104,311,6962,1,2,0:0:0:0:
104,311,7640,6,0,P|167:298|217:317,1,110,2|0,0:0|0:0,0:0:0:0:
257,336,8148,2,0,B|316:371|382:341|382:341|360:334|334:319,1,165,2|0,0:0|0:0,0:0:0:0:
292,235,8995,6,0,P|284:171|300:124,1,110,2|0,0:0|0:0,0:0:0:0:
389,186,9672,2,0,B|524:183,1,110,2|0,0:0|0:0,0:0:0:0:
497,74,10350,6,0,L|374:77,1,110,2|0,0:0|0:0,0:0:0:0:
336,97,10858,2,0,B|286:109|231:88|231:88|194:112|189:132,1,165,2|0,0:0|0:0,0:0:0:0:
173,240,11705,5,2,0:0:0:0:
68,209,12044,1,0,0:0:0:0:
36,313,12383,2,0,P|87:342|137:345,1,110,2|0,0:0|0:0,0:0:0:0:
239,308,13060,2,0,P|301:300|359:321,1,110,2|0,0:0|0:0,0:0:0:0:
446,356,13738,6,0,B|463:306|463:306|450:239,2,110,0|0|2,3:0|3:0|0:3,0:0:0:0:
311,277,14924,1,2,0:3:0:0:
311,277,15093,2,0,B|252:263|252:263|167:277,2,110,0|0|2,3:0|3:0|0:3,0:0:0:0:
116,179,16448,2,0,L|97:62,1,110,0|0,3:0|3:0,0:0:0:0:
190,11,17126,2,0,P|260:5|356:63,2,165,2|0|0,0:3|3:0|3:0,0:0:0:0:
245,100,18481,1,2,0:3:0:0:
358,164,19158,6,0,L|377:308,2,110,0|0|2,3:0|3:0|0:3,0:0:0:0:
194,159,20344,1,2,0:3:0:0:
194,159,20514,2,0,L|175:303,2,110,0|0|2,3:0|3:0|0:3,0:0:0:0:
402,223,21869,2,0,P|346:234|293:223,2,110,0|0|2,3:0|3:0|0:3,0:0:0:0:
357,65,23055,1,2,0:3:0:0:
357,65,23224,2,0,P|419:54|477:69,2,110,0|0|2,3:0|3:0|0:3,0:0:0:0:
154,199,24579,6,0,P|150:278|167:335,1,121.000003692627,0|0,1:0|1:0,0:0:0:0:
257,315,25257,2,0,P|268:255|263:195,1,121.000003692627,0|0,1:0|1:0,0:0:0:0:
240,153,25765,1,0,1:0:0:0:
258,108,25934,6,0,P|331:100|399:111,2,121.000003692627,0|0|0,1:0|1:0|1:0,0:0:0:0:
192,36,26951,2,0,L|105:42,1,60.5000018463135,0|0,1:0|1:0,0:0:0:0:
93,69,27289,2,0,B|82:125|82:125|94:206,2,121.000003692627,0|0|0,1:0|1:0|1:0,0:0:0:0:
171,126,28306,1,0,1:0:0:0:
215,211,28645,6,0,P|289:225|342:206,1,121.000003692627,0|0,1:0|1:0,0:0:0:0:
419,171,29322,1,0,1:0:0:0:
461,258,29661,1,0,1:0:0:0:
394,328,30000,6,0,B|333:319|333:319|246:332,1,121.000003692627,0|0,1:0|1:0,0:0:0:0:
226,337,30508,1,0,1:0:0:0:
177,332,30677,2,0,B|118:340|118:340|57:331,1,121.000003692627,0|0,1:0|1:0,0:0:0:0:
12,245,31355,6,0,P|-2:178|13:115,1,121.000003692627,0|0,1:0|1:0,0:0:0:0:
70,53,32033,2,0,P|137:39|200:54,1,121.000003692627,0|0,1:0|1:0,0:0:0:0:
237,71,32541,1,0,1:0:0:0:
287,50,32710,5,0,1:0:0:0:
256,192,32795,12,8,34065,0:3:0:0:
252,190,35420,6,0,P|153:174|98:184,1,131.99999597168,0|8,0:0|0:0,0:0:0:0:
13,225,36098,2,0,L|10:322,2,65.9999979858399,0|0|8,0:0|0:0|0:0,0:0:0:0:
23,106,36776,2,0,P|82:74|151:65,1,131.99999597168,0|8,0:0|0:0,0:0:0:0:
253,115,37453,2,0,L|265:253,1,131.99999597168,0|8,0:0|0:0,0:0:0:0:
233,297,37961,1,8,0:0:0:0:
233,297,38131,6,0,P|151:314|100:294,1,131.99999597168,4|8,0:3|0:0,0:0:0:0:
168,196,38808,1,0,0:0:0:0:
286,196,39147,1,8,0:0:0:0:
359,289,39486,2,0,P|428:290|507:259,1,131.99999597168,0|8,0:0|0:0,0:0:0:0:
509,153,40164,2,0,P|442:154|369:144,1,131.99999597168,0|8,0:0|0:0,0:0:0:0:
341,98,40672,1,8,0:0:0:0:
341,98,40841,6,0,P|244:113|210:123,1,131.99999597168,4|8,0:3|0:0,0:0:0:0:
98,86,41519,2,0,L|50:34,2,65.9999979858399,0|0|8,0:0|0:0|0:0,0:0:0:0:
68,201,42196,2,0,P|58:257|87:338,1,131.99999597168,0|8,0:0|0:0,0:0:0:0:
198,308,42874,2,0,P|268:287|351:294,1,131.99999597168,0|8,0:0|0:0,0:0:0:0:
380,313,43382,1,8,0:0:0:0:
380,313,43551,6,0,P|405:233|391:172,1,131.99999597168,4|8,0:3|0:0,0:0:0:0:
338,83,44229,2,0,P|263:61|204:76,1,131.99999597168,0|8,0:0|0:0,0:0:0:0:
174,118,44737,1,0,0:0:0:0:
114,112,44907,5,4,0:3:0:0:
101,349,45584,2,0,P|85:298|110:209,1,131.99999597168
157,202,46092,1,0,0:0:0:0:
220,217,46262,6,0,P|240:285|211:360,1,131.99999597168,4|8,0:3|0:0,0:0:0:0:
342,347,46939,2,0,P|402:362|489:344,1,131.99999597168,0|8,0:0|0:0,0:0:0:0:
508,307,47448,1,0,0:0:0:0:
481,253,47617,2,0,P|468:201|498:125,1,131.99999597168,0|8,0:0|0:0,0:0:0:0:
424,32,48295,2,0,P|364:36|302:76,1,131.99999597168,0|8,0:0|0:0,0:0:0:0:
272,124,48803,1,8,0:0:0:0:
272,124,48972,6,0,P|286:194|271:262,1,131.99999597168,4|8,0:3|0:0,0:0:0:0:
248,305,49480,1,0,0:0:0:0:
192,284,49650,1,0,0:0:0:0:
90,222,49989,1,8,0:0:0:0:
193,164,50327,1,0,0:0:0:0:
99,90,50666,1,8,0:0:0:0:
212,55,51005,2,0,P|271:88|350:85,1,131.99999597168,0|8,0:0|0:0,0:0:0:0:
386,60,51513,1,8,0:0:0:0:
445,60,51682,6,0,P|418:133|411:198,1,131.99999597168,4|8,0:3|0:0,0:0:0:0:
509,255,52360,2,0,P|453:299|434:301,1,65.9999979858399,0|0,0:0|0:0,0:0:0:0:
401,307,52699,2,0,P|359:290|320:283,1,65.9999979858399,8|0,0:0|0:0,0:0:0:0:
285,311,53038,2,0,L|257:166,2,131.99999597168,0|8|0,0:0|0:0|0:0,0:0:0:0:
179,366,54054,1,8,0:0:0:0:
78,303,54393,6,0,L|68:230,1,65.9999979858399,4|0,3:0|0:0,0:0:0:0:
116,202,54732,2,0,L|126:129,1,65.9999979858399,4|0,0:3|0:0,0:0:0:0:
169,97,55070,5,8,0:0:0:0:
256,192,55155,12,4,57103,0:1:0:0:
256,192,67606,12,4,69977,0:0:0:0:
171,238,70655,6,0,P|177:312|133:378,1,121.000003692627,0|0,1:0|1:0,0:0:0:0:
49,344,71332,1,0,1:0:0:0:
42,235,71671,1,0,1:0:0:0:
111,148,72010,2,0,P|187:135|264:170,2,121.000003692627,0|0|0,1:0|1:0|1:0,0:0:0:0:
33,71,73026,1,0,1:0:0:0:
80,44,73196,6,0,P|150:30|277:48,1,181.500005538941,0|0,0:0|1:0,0:0:0:0:
338,116,74043,1,0,1:0:0:0:
424,49,74382,1,0,1:0:0:0:
492,133,74720,2,0,P|490:200|496:288,2,121.000003692627,0|0|0,1:0|1:0|1:0,0:0:0:0:
388,167,75737,1,0,1:0:0:0:
279,160,76075,6,0,P|202:146|127:153,1,121.000003692627,8|0,1:3|1:0,0:0:0:0:
57,185,76753,1,0,1:0:0:0:
7,281,77092,1,0,1:0:0:0:
76,366,77431,2,0,P|152:355|234:373,1,121.000003692627,0|0,1:0|1:0,0:0:0:0:
297,322,78108,2,0,P|390:323|436:308,1,121.000003692627,0|0,1:0|1:0,0:0:0:0:
463,217,78786,6,0,L|478:55,2,121.000003692627,0|0|0,1:0|1:0|1:0,0:0:0:0:
360,180,79802,1,0,1:0:0:0:
268,239,80141,1,8,1:3:0:0:
268,239,80819,5,0,1:0:0:0:
170,191,81157,2,0,L|95:180,1,60.5000018463135,0|8,1:0|0:3,0:0:0:0:
61,216,81496,6,0,P|32:137|50:58,1,131.99999597168,4|8,0:3|0:0,0:0:0:0:
153,66,82174,2,0,L|237:48,1,65.9999979858399,0|0,0:0|0:0,0:0:0:0:
258,9,82513,2,0,L|362:32,1,65.9999979858399,8|0,0:0|0:0,0:0:0:0:
364,66,82851,5,0,0:0:0:0:
434,161,83190,1,8,0:0:0:0:
365,257,83529,1,0,0:0:0:0:
267,189,83868,1,8,0:0:0:0:
218,222,84037,6,0,B|148:268|94:218|95:219|95:219|130:205|154:165,1,197.99999395752,8|8,0:0|0:0,0:0:0:0:
187,66,84884,2,0,P|113:60|43:119,1,131.99999597168,0|8,0:0|0:0,0:0:0:0:
3,190,85562,2,0,L|20:324,1,131.99999597168,0|8,0:0|0:0,0:0:0:0:
133,358,86239,1,0,0:0:0:0:
233,293,86578,1,8,0:0:0:0:
289,310,86747,6,0,B|386:315|421:290|421:290|413:245|376:213,1,197.99999395752,8|8,0:0|0:0,0:0:0:0:
352,122,87594,2,0,L|464:97,1,65.9999979858399,0|0,0:0|0:0,0:0:0:0:
416,48,87933,2,0,L|324:23,1,65.9999979858399,8|0,0:0|0:0,0:0:0:0:
295,14,88272,5,0,0:0:0:0:
245,122,88611,1,8,0:0:0:0:
151,47,88950,1,0,0:0:0:0:
48,105,89288,1,8,0:0:0:0:
79,156,89458,6,0,B|69:220|69:220|151:204|214:246,1,197.99999395752,8|8,0:0|0:0,0:0:0:0:
291,310,90305,1,0,0:0:0:0:
326,196,90644,1,8,0:0:0:0:
422,277,90982,5,4,0:3:0:0:
422,277,91660,5,2,0:0:0:0:
326,251,91999,1,2,0:0:0:0:
331,353,92337,6,0,P|251:382|173:364,1,131.99999597168,0|8,0:0|0:0,0:0:0:0:
88,358,93015,2,0,L|-2:336,1,65.9999979858399,0|0,0:0|0:0,0:0:0:0:
30,284,93354,2,0,L|104:269,1,65.9999979858399,8|0,0:0|0:0,0:0:0:0:
142,235,93692,5,0,0:0:0:0:
97,124,94031,1,8,0:0:0:0:
208,82,94370,1,0,0:0:0:0:
262,187,94709,1,8,0:0:0:0:
298,138,94878,6,0,B|368:92|422:142|421:141|421:141|386:155|370:181,1,197.99999395752,8|8,0:0|0:0,0:0:0:0:
329,294,95725,2,0,P|403:300|473:241,1,131.99999597168,0|8,0:0|0:0,0:0:0:0:
512,170,96403,2,0,L|495:36,1,131.99999597168,0|8,0:0|0:0,0:0:0:0:
383,2,97080,1,0,0:0:0:0:
283,67,97419,1,8,0:0:0:0:
227,50,97588,6,0,B|130:45|95:70|95:70|103:115|140:147,1,197.99999395752,8|8,0:0|0:0,0:0:0:0:
138,243,98435,2,0,L|26:268,1,65.9999979858399,0|0,0:0|0:0,0:0:0:0:
67,316,98774,2,0,L|159:341,1,65.9999979858399,8|0,0:0|0:0,0:0:0:0:
188,348,99113,5,0,0:0:0:0:
257,251,99452,1,8,0:0:0:0:
358,312,99791,1,0,0:0:0:0:
463,257,100129,1,8,0:0:0:0:
437,204,100299,6,0,B|433:177|447:140|447:140|365:156|302:114,1,197.99999395752,8|8,0:0|0:0,0:0:0:0:
225,50,101146,1,0,0:0:0:0:
174,157,101485,1,8,0:0:0:0:
61,152,101824,2,4,L|35:266,1,110,4|8,1:3|1:0,0:0:0:0:
125,302,102501,2,0,P|184:273|251:271,1,110,4|8,1:3|1:3,0:0:0:0:
347,289,103179,6,0,L|361:133,1,131.99999597168,0|8,0:0|0:0,0:0:0:0:
466,107,103856,2,0,L|476:180,1,65.9999979858399,0|0,0:0|0:0,0:0:0:0:
450,226,104195,2,0,L|463:318,1,65.9999979858399,8|0,0:0|0:0,0:0:0:0:
489,342,104534,2,0,P|374:330|349:353,1,131.99999597168,0|8,0:0|0:0,0:0:0:0:
256,375,105212,2,0,P|184:379|123:336,1,131.99999597168,0|8,0:0|0:0,0:0:0:0:
111,294,105720,1,8,0:0:0:0:
111,294,105889,6,0,P|134:230|116:162,1,131.99999597168,4|8,0:3|0:0,0:0:0:0:
32,88,106567,1,0,0:0:0:0:
142,45,106906,1,8,0:0:0:0:
230,123,107244,2,0,P|302:138|365:109,1,131.99999597168,0|8,0:0|0:0,0:0:0:0:
416,15,107922,2,0,P|331:3|281:31,1,131.99999597168,0|8,0:0|0:0,0:0:0:0:
230,123,108599,6,0,P|167:143|97:121,1,131.99999597168,4|8,0:3|0:0,0:0:0:0:
13,202,109277,2,0,P|13:245|27:297,1,65.9999979858399
69,277,109616,2,0,P|71:329|66:359,1,65.9999979858399,8|0,0:0|0:0,0:0:0:0:
111,375,109955,2,0,P|174:353|250:360,1,131.99999597168,0|8,0:0|0:0,0:0:0:0:
341,374,110632,2,0,P|411:378|470:351,1,131.99999597168,0|8,0:0|0:0,0:0:0:0:
490,298,111140,1,8,0:0:0:0:
468,247,111310,6,0,P|458:191|466:124,2,121.000003692627,4|8|8,0:3|0:0|0:3,0:0:0:0:
413,341,112326,1,4,0:3:0:0:
287,317,112665,1,4,0:2:0:0:
256,192,112750,12,4,114020,0:1:0:0:
