osu file format v14

[General]
AudioFilename: audio.mp3
AudioLeadIn: 0
PreviewTime: 34562
Countdown: 1
SampleSet: Soft
StackLeniency: 0.7
Mode: 0
LetterboxInBreaks: 0
WidescreenStoryboard: 0

[Editor]
Bookmarks: 42523
DistanceSpacing: 1
BeatDivisor: 4
GridSize: 4
TimelineZoom: 1.7

[Metadata]
Title:Live 2 Dance (Nightcore Mix)
TitleUnicode:Live 2 Dance (Nightcore Mix)
Artist:DJ THT meets Scarlet
ArtistUnicode:DJ THT meets Scarlet
Creator:Naotoshi
Version:Insane
Source:
Tags:nao tomori doj regraz mkguh techno dance party rave remix
BeatmapID:1397316
BeatmapSetID:659854

[Difficulty]
HPDrainRate:6
CircleSize:4
OverallDifficulty:8
ApproachRate:9
SliderMultiplier:1.6
SliderTickRate:1

[Events]
//Background and Video events
0,0,"kantoku beach loli.jpg",0,0
//Break Periods
//Storyboard Layer 0 (Background)
//Storyboard Layer 1 (Fail)
//Storyboard Layer 2 (Pass)
//Storyboard Layer 3 (Foreground)
//Storyboard Sound Samples

[TimingPoints]
2897,338.791643139469,4,2,0,37,1,0
5437,-133.333333333333,4,2,0,37,0,0
6284,-100,4,2,0,37,0,0
8148,-133.333333333333,4,2,0,37,0,0
8995,-100,4,2,0,37,0,0
10858,-133.333333333333,4,2,0,37,0,0
11705,-100,4,2,0,37,0,0
24579,-90.9090909090909,4,2,0,45,0,0
35420,-71.4285714285714,4,1,1,84,0,1
44907,-71.4285714285714,4,1,0,84,0,0
46262,-66.6666666666667,4,1,1,84,0,1
55748,-66.6666666666667,4,2,0,50,0,0
57103,-66.6666666666667,4,2,0,84,0,1
57273,-66.6666666666667,4,2,0,67,0,0
70655,-100,4,2,0,39,0,0
76075,-90.9090909090909,4,2,0,53,0,0
81496,-71.4285714285714,4,1,1,84,0,1
90982,-71.4285714285714,4,2,0,50,0,0
92337,-71.4285714285714,4,1,1,84,0,1
101824,-83.3333333333333,4,2,0,84,0,0
102840,-76.9230769230769,4,2,0,84,0,0
103179,-66.6666666666667,4,1,1,84,0,1
111310,-76.9230769230769,4,1,1,84,0,1
112665,-76.9230769230769,4,2,0,50,0,0
114020,-76.9230769230769,4,2,0,67,0,1
114105,-76.9230769230769,4,2,0,67,0,0

[Colours]
Combo1 : 114,233,129
Combo2 : 54,199,241
Combo3 : 233,124,101
Combo4 : 252,228,173

[HitObjects]
246,168,271,5,2,0:0:0:0:
68,123,1880,5,0,0:0:0:0:
165,151,2219,1,0,3:0:0:0:
88,220,2558,1,0,0:0:0:0:
177,329,2897,6,0,P|233:297|340:312,1,160,2|0,0:0|0:0,0:0:0:0:
471,371,3574,2,0,L|500:208,1,160,2|0,0:0|0:0,0:0:0:0:
389,213,4252,2,0,B|391:178|421:97|513:106|513:106|503:64|469:62|469:62,1,240,2|0,0:0|0:0,0:0:0:0:
378,44,4929,6,0,P|317:115|297:178,1,160,2|0,0:0|0:0,0:0:0:0:
214,177,5437,2,0,P|187:102|104:40,1,180.000006866455,2|0,0:0|0:0,0:0:0:0:
82,191,6284,2,0,P|18:203|-19:206,1,80,2|0,0:0|0:0,0:0:0:0:
149,263,6623,2,0,P|213:275|250:278,1,80,2|0,0:0|0:0,0:0:0:0:
336,220,6962,6,0,P|304:151|271:251,1,240,2|0,0:0|0:0,0:0:0:0:
338,319,7640,2,0,P|397:307|441:201,1,160,2|0,0:0|0:0,0:0:0:0:
362,164,8148,2,0,P|378:107|477:144,1,180.000006866455,2|0,0:0|0:0,0:0:0:0:
309,50,8995,6,0,P|224:42|155:69,1,160,2|0,0:0|0:0,0:0:0:0:
175,192,9672,2,0,P|260:200|329:173,1,160,2|0,0:0|0:0,0:0:0:0:
97,145,10350,2,0,L|97:320,1,160,2|0,0:0|0:0,0:0:0:0:
175,352,10858,2,0,B|172:233|172:233|199:262|233:268,1,180.000006866455,2|0,0:0|0:0,0:0:0:0:
384,295,11705,6,0,P|439:263|463:221,1,80,2|0,0:0|0:0,0:0:0:0:
357,123,12044,2,8,P|357:186|381:228,1,80,0|0,0:0|0:0,0:0:0:0:
444,156,12383,2,0,P|444:89|353:30,1,160,2|0,0:0|0:0,0:0:0:0:
260,128,13060,2,0,P|167:110|188:50,1,160,2|0,0:0|0:0,0:0:0:0:
264,37,13568,1,0,0:0:0:0:
335,178,13738,5,0,3:0:0:0:
164,251,14077,1,0,3:0:0:0:
353,310,14415,1,2,0:3:0:0:
353,310,14924,1,2,0:3:0:0:
277,229,15093,5,0,3:0:0:0:
446,249,15432,1,0,3:0:0:0:
269,345,15771,1,2,0:3:0:0:
269,345,15940,1,2,0:3:0:0:
269,345,16448,5,0,3:0:0:0:
117,278,16787,1,0,3:0:0:0:
284,214,17126,1,2,0:3:0:0:
284,214,17295,1,2,0:3:0:0:
284,214,17634,1,0,3:0:0:0:
182,176,17803,5,0,3:0:0:0:
291,315,18142,1,0,3:0:0:0:
357,158,18481,1,2,0:3:0:0:
357,158,19158,5,0,3:0:0:0:
218,82,19497,1,0,3:0:0:0:
384,36,19836,1,2,0:3:0:0:
384,36,20005,1,2,0:3:0:0:
384,36,20344,1,2,0:3:0:0:
298,96,20514,5,0,3:0:0:0:
462,166,20852,1,0,3:0:0:0:
280,235,21191,1,2,0:3:0:0:
388,278,21361,1,2,0:3:0:0:
200,296,21699,1,2,0:3:0:0:
308,339,21869,5,0,3:0:0:0:
273,144,22208,1,0,3:0:0:0:
204,214,22377,1,0,3:0:0:0:
362,151,22546,1,2,1:3:0:0:
362,151,22716,1,2,0:3:0:0:
362,151,23055,1,2,0:3:0:0:
253,64,23224,5,0,3:0:0:0:
446,53,23563,1,0,3:0:0:0:
367,205,23902,1,2,1:3:0:0:
379,218,24410,1,0,0:0:0:0:
379,218,24494,1,0,0:0:0:0:
379,218,24579,6,0,L|272:234,1,88.000002685547,0|0,1:0|0:0,0:0:0:0:
109,220,24918,2,0,L|197:207,1,88.000002685547,0|0,1:0|0:0,0:0:0:0:
207,24,25257,2,0,L|220:111,1,88.000002685547,0|0,1:0|0:0,0:0:0:0:
291,231,25596,1,0,1:0:0:0:
350,130,25765,1,0,1:0:0:0:
446,247,25934,6,0,P|448:301|424:360,1,88.000002685547,0|0,1:0|0:0,0:0:0:0:
287,379,26273,2,0,P|247:359|215:329,1,88.000002685547,0|0,1:0|0:0,0:0:0:0:
306,196,26612,2,0,L|348:313,1,88.000002685547,0|0,1:0|0:0,0:0:0:0:
202,161,26951,1,0,1:0:0:0:
361,114,27120,1,0,1:0:0:0:
189,70,27289,6,0,P|142:86|111:132,1,88.000002685547,0|0,1:0|0:0,0:0:0:0:
211,258,27628,2,0,P|258:242|288:196,1,88.000002685547,0|0,1:0|0:0,0:0:0:0:
202,161,27967,2,0,L|119:219,1,88.000002685547,0|0,1:0|0:0,0:0:0:0:
108,104,28306,1,0,1:0:0:0:
280,87,28475,1,0,1:0:0:0:
322,101,28560,1,0,1:0:0:0:
361,123,28645,6,0,P|383:181|373:231,1,88.000002685547,0|0,1:0|0:0,0:0:0:0:
262,275,28983,2,0,P|263:232|283:193,1,88.000002685547,0|0,1:0|0:0,0:0:0:0:
422,310,29322,2,0,L|512:284,1,88.000002685547,0|0,1:0|0:0,0:0:0:0:
361,383,29661,2,0,L|271:357,1,88.000002685547,0|0,1:0|0:0,0:0:0:0:
125,260,30000,6,0,P|118:315|134:365,1,88.000002685547,0|0,1:0|0:0,0:0:0:0:
28,209,30339,2,0,P|35:165|28:122,1,88.000002685547,0|0,1:0|0:0,0:0:0:0:
133,166,30677,2,0,L|229:144,1,88.000002685547,0|0,1:0|0:0,0:0:0:0:
294,324,31016,2,0,L|208:304,1,88.000002685547,0|0,1:0|0:0,0:0:0:0:
199,266,31270,1,0,1:0:0:0:
197,226,31355,6,0,L|291:183,1,88.000002685547,0|0,1:0|0:0,0:0:0:0:
405,244,31694,2,0,L|509:278,1,88.000002685547,0|0,1:0|0:0,0:0:0:0:
509,234,31948,1,0,1:0:0:0:
501,193,32033,2,0,P|488:140|498:78,1,88.000002685547,0|0,1:0|0:0,0:0:0:0:
425,13,32371,2,0,P|385:50|326:73,1,88.000002685547,0|0,1:0|0:0,0:0:0:0:
319,69,32625,1,0,1:0:0:0:
282,66,32710,5,0,1:0:0:0:
179,204,32880,1,0,1:0:0:0:
159,41,33049,1,0,1:0:0:0:
269,152,33219,1,0,1:0:0:0:
114,136,33388,6,0,L|58:137,1,44.0000013427735,0|0,1:0|0:0,0:0:0:0:
179,204,33557,2,0,L|220:153,1,44.0000013427735,2|0,0:0|0:0,0:0:0:0:
97,220,33727,2,0,L|96:291,1,44.0000013427735,0|0,1:0|0:0,0:0:0:0:
167,321,33896,1,2,0:0:0:0:
265,290,34065,5,8,0:3:0:0:
265,290,35082,5,4,0:0:0:0:
410,149,35420,6,0,P|404:207|405:277,1,111.999996582031
310,193,35759,2,0,P|306:137|294:83,1,111.999996582031,8|0,0:0|0:0,0:0:0:0:
104,57,36098,1,0,0:0:0:0:
250,4,36267,1,0,0:0:0:0:
109,144,36437,1,8,0:0:0:0:
203,86,36606,1,0,0:0:0:0:
18,89,36776,6,0,P|12:162|33:223,1,111.999996582031
188,318,37114,2,0,P|199:264|192:209,1,111.999996582031,8|0,0:0|0:0,0:0:0:0:
314,349,37453,2,0,P|371:355|430:338,1,111.999996582031
488,222,37792,1,8,0:0:0:0:
367,166,37961,1,8,0:0:0:0:
367,166,38046,1,0,0:0:0:0:
367,166,38131,6,0,P|356:239|367:294,1,111.999996582031,4|0,0:3|0:0,0:0:0:0:
260,201,38470,2,0,P|187:190|132:201,1,111.999996582031,8|0,0:0|0:0,0:0:0:0:
71,334,38808,2,0,L|53:197,1,111.999996582031
108,16,39147,2,0,L|93:127,1,111.999996582031,8|0,0:0|0:0,0:0:0:0:
260,209,39486,6,0,P|193:217|128:205,1,111.999996582031
328,142,39825,2,0,L|338:21,1,111.999996582031,8|0,0:0|0:0,0:0:0:0:
353,243,40164,2,0,L|370:357,1,111.999996582031
436,182,40502,1,8,0:0:0:0:
272,311,40672,1,8,0:0:0:0:
231,323,40756,1,0,0:0:0:0:
189,331,40841,6,0,L|67:322,1,111.999996582031,4|0,0:3|0:0,0:0:0:0:
198,171,41180,2,0,L|327:153,1,111.999996582031,8|0,0:0|0:0,0:0:0:0:
112,224,41519,1,0,0:0:0:0:
143,82,41688,1,0,0:0:0:0:
0,230,41858,1,8,0:0:0:0:
36,89,42027,1,0,0:0:0:0:
217,253,42196,6,0,P|294:255|358:234,1,111.999996582031
296,89,42535,2,0,P|219:87|155:108,1,111.999996582031,8|0,0:0|0:0,0:0:0:0:
400,147,42874,2,0,L|404:22,1,111.999996582031
501,170,43213,1,8,0:0:0:0:
363,245,43382,1,8,0:0:0:0:
363,245,43467,1,0,0:0:0:0:
363,245,43551,6,0,P|289:228|157:286,1,223.999993164063,4|8,0:3|0:0,0:0:0:0:
287,361,44060,1,0,0:0:0:0:
70,354,44229,2,0,L|59:219,1,111.999996582031
199,100,44568,1,8,0:0:0:0:
174,239,44737,1,0,0:0:0:0:
120,162,44907,5,4,0:3:0:0:
120,162,45415,5,2,0:2:0:0:
149,94,45669,5,2,0:2:0:0:
219,76,45923,5,2,0:2:0:0:
221,181,46092,1,8,0:0:0:0:
248,197,46177,1,0,0:0:0:0:
276,216,46262,6,0,P|340:208|404:218,1,120.000004577637,4|0,0:3|0:0,0:0:0:0:
230,307,46601,2,0,P|166:315|102:305,1,120.000004577637,8|0,0:0|0:0,0:0:0:0:
336,289,46939,1,0,0:0:0:0:
173,227,47109,1,0,0:0:0:0:
307,374,47278,1,8,0:0:0:0:
274,187,47448,1,0,0:0:0:0:
123,309,47617,6,0,P|39:318|-18:292,1,120.000004577637
220,99,47956,2,0,P|304:90|361:116,1,120.000004577637,8|0,0:0|0:0,0:0:0:0:
67,227,48295,1,0,0:0:0:0:
273,179,48464,1,0,0:0:0:0:
284,216,48549,1,0,0:0:0:0:
284,254,48633,1,8,0:0:0:0:
184,225,48803,1,8,0:0:0:0:
372,322,48972,6,0,P|451:322|507:302,1,120.000004577637,4|0,0:3|0:0,0:0:0:0:
368,223,49311,1,8,0:0:0:0:
251,341,49480,1,0,0:0:0:0:
212,353,49565,1,0,0:0:0:0:
174,356,49650,2,0,P|168:264|185:221,1,120.000004577637
319,29,49989,2,0,P|332:88|322:147,1,120.000004577637,8|0,0:0|0:0,0:0:0:0:
105,100,50327,6,0,P|182:83|246:97,1,120.000004577637
397,283,50666,2,0,P|320:300|256:286,1,120.000004577637,8|0,0:0|0:0,0:0:0:0:
322,83,51005,2,0,L|332:226,1,120.000004577637
182,347,51344,1,8,0:0:0:0:
198,205,51513,1,8,0:0:0:0:
198,205,51598,1,0,0:0:0:0:
198,205,51682,6,0,P|112:194|48:219,2,120.000004577637,4|0|8,0:3|0:0|0:0,0:0:0:0:
47,109,52191,1,0,0:0:0:0:
137,283,52360,1,0,0:0:0:0:
302,191,52529,1,0,0:0:0:0:
107,184,52699,1,8,0:0:0:0:
272,276,52868,1,0,0:0:0:0:
311,282,52953,1,0,0:0:0:0:
350,281,53038,6,0,P|420:270|487:275,1,120.000004577637
302,191,53376,2,0,P|232:202|165:197,1,120.000004577637,8|0,0:0|0:0,0:0:0:0:
393,61,53715,2,0,L|388:218,1,120.000004577637
246,109,54054,1,8,0:0:0:0:
102,222,54223,1,8,0:0:0:0:
102,222,54308,1,0,0:0:0:0:
102,222,54393,5,4,3:0:0:0:
163,0,54562,1,0,0:0:0:0:
250,223,54732,1,4,0:3:0:0:
58,68,54901,1,0,0:0:0:0:
280,133,55071,5,8,0:0:0:0:
334,124,55154,1,0,0:0:0:0:
339,69,55240,1,8,0:0:0:0:
286,52,55324,1,0,0:0:0:0:
251,94,55409,1,12,0:1:0:0:
347,193,55748,5,4,0:3:0:0:
254,232,56764,5,0,1:0:0:0:
380,341,57018,1,0,1:0:0:0:
410,326,57103,5,4,0:1:0:0:
421,299,59136,5,2,0:0:0:0:
351,246,59475,1,0,0:0:0:0:
334,336,59813,1,2,0:0:0:0:
189,368,60491,5,2,0:0:0:0:
109,342,60660,1,0,0:0:0:0:
109,258,60830,1,0,0:0:0:0:
189,232,60999,1,0,0:0:0:0:
238,300,61169,5,2,0:0:0:0:
109,258,61507,1,0,0:0:0:0:
189,368,61846,1,2,0:0:0:0:
189,232,62185,1,0,0:0:0:0:
109,342,62354,1,2,0:0:0:0:
109,342,63032,1,2,0:2:0:0:
189,232,63201,5,2,0:2:0:0:
159,151,63540,1,0,0:0:0:0:
252,159,63879,1,2,0:0:0:0:
252,159,64557,5,2,0:0:0:0:
159,151,64895,1,0,0:0:0:0:
189,232,65065,1,2,0:0:0:0:
342,174,65912,5,2,0:2:0:0:
418,140,66081,1,0,0:0:0:0:
475,202,66251,1,0,0:0:0:0:
433,275,66420,1,0,0:0:0:0:
351,258,66589,5,2,0:0:0:0:
475,202,66928,1,0,0:0:0:0:
342,174,67267,1,2,0:0:0:0:
433,275,67606,1,0,0:0:0:0:
418,140,67775,1,2,0:2:0:0:
433,275,68453,1,2,0:2:0:0:
418,140,68622,5,0,0:0:0:0:
353,85,68961,1,0,0:0:0:0:
271,118,69300,2,0,L|224:115,14,30.0000011444092
297,119,69977,5,2,0:0:0:0:
237,229,70147,1,0,0:0:0:0:
237,270,70231,1,0,0:0:0:0:
239,311,70316,1,2,0:0:0:0:
392,329,70485,1,0,0:0:0:0:
394,288,70570,1,0,0:0:0:0:
394,247,70655,6,0,P|459:205|505:264,1,160,0|0,1:0|1:0,0:0:0:0:
314,308,71163,1,0,0:0:0:0:
294,309,71247,1,0,0:0:0:0:
274,311,71332,1,0,1:0:0:0:
198,254,71502,1,0,0:0:0:0:
183,336,71671,1,0,1:0:0:0:
198,254,71841,1,0,0:0:0:0:
72,286,72010,6,0,P|66:326|75:365,1,80,0|0,1:0|0:0,0:0:0:0:
198,254,72349,2,0,P|206:215|202:176,1,80,0|0,1:0|0:0,0:0:0:0:
34,194,72688,2,0,L|120:206,1,80,0|0,1:0|0:0,0:0:0:0:
153,326,73026,1,0,1:0:0:0:
294,258,73196,1,0,0:0:0:0:
294,258,73365,2,0,P|347:250|301:169,1,160,0|0,1:0|1:0,0:0:0:0:
294,345,74043,6,0,P|356:341|402:315,1,80,0|0,1:0|0:0,0:0:0:0:
442,178,74382,2,0,P|426:141|399:111,1,80,0|0,1:0|0:0,0:0:0:0:
269,156,74720,2,0,P|190:164|165:157,1,80,0|0,1:0|0:0,0:0:0:0:
293,5,75059,2,0,L|321:98,1,80,0|0,1:0|0:0,0:0:0:0:
279,240,75398,2,0,L|261:327,1,80,0|0,1:0|0:0,0:0:0:0:
336,374,75737,1,0,1:0:0:0:
176,353,75906,1,0,1:0:0:0:
135,353,75991,1,0,0:0:0:0:
90,353,76075,6,0,P|40:326|90:233,1,176.000005371094,8|0,1:3|1:0,0:0:0:0:
235,235,76584,1,0,0:0:0:0:
225,197,76668,1,0,0:0:0:0:
212,160,76753,2,0,L|198:65,1,88.000002685547,0|0,1:0|0:0,0:0:0:0:
332,17,77092,2,0,L|320:105,1,88.000002685547,0|0,1:0|0:0,0:0:0:0:
373,194,77431,6,0,P|429:206|467:190,1,88.000002685547,0|0,1:0|0:0,0:0:0:0:
287,254,77769,2,0,P|244:243|153:285,1,132.00000402832,0|0,1:0|1:0,0:0:0:0:
150,299,78108,1,0,1:0:0:0:
237,355,78278,1,0,0:0:0:0:
376,301,78447,2,0,B|431:266|483:285|483:285|472:327,1,132.00000402832,0|0,1:0|1:0,0:0:0:0:
468,342,78786,1,0,1:0:0:0:
351,215,79125,5,0,1:0:0:0:
471,234,79294,1,2,0:0:0:0:
308,105,79463,1,2,1:2:0:0:
274,286,79633,1,2,0:0:0:0:
417,139,79802,1,2,1:2:0:0:
157,181,80141,5,8,1:3:0:0:
157,181,80819,5,0,1:0:0:0:
247,87,80988,1,0,0:0:0:0:
226,264,81157,1,0,1:0:0:0:
143,82,81327,1,8,0:3:0:0:
103,69,81411,1,8,1:3:0:0:
49,74,81496,6,0,P|20:127|23:221,1,111.999996582031,4|0,0:3|0:0,0:0:0:0:
129,333,81835,1,8,0:0:0:0:
231,178,82004,1,0,0:0:0:0:
180,158,82089,1,0,0:0:0:0:
131,146,82174,1,0,0:0:0:0:
184,258,82343,1,0,0:0:0:0:
263,93,82513,1,8,0:0:0:0:
307,245,82682,1,0,0:0:0:0:
397,88,82851,6,0,P|399:165|371:213,1,111.999996582031
168,175,83190,2,0,P|233:134|289:135,1,111.999996582031,8|0,0:0|0:0,0:0:0:0:
358,330,83529,2,0,P|290:293|262:244,1,111.999996582031
369,228,83868,1,8,0:0:0:0:
193,344,84037,1,8,0:0:0:0:
193,344,84122,1,0,0:0:0:0:
193,344,84206,6,0,L|56:344,1,111.999996582031,4|0,0:3|0:0,0:0:0:0:
190,260,84545,1,8,0:0:0:0:
65,157,84715,1,0,0:0:0:0:
61,173,84799,1,0,0:0:0:0:
60,190,84884,2,0,P|135:193|191:165,1,111.999996582031
391,87,85223,2,0,P|316:84|260:112,1,111.999996582031,8|0,0:0|0:0,0:0:0:0:
350,305,85562,6,0,L|347:162,1,111.999996582031
170,68,85900,2,0,L|167:179,1,111.999996582031,8|0,0:0|0:0,0:0:0:0:
404,109,86239,2,0,P|351:94|296:100,1,111.999996582031
240,286,86578,1,8,0:0:0:0:
167,179,86747,1,8,0:0:0:0:
167,179,86832,1,0,0:0:0:0:
167,179,86917,6,0,P|244:193|313:180,1,111.999996582031,4|0,0:3|0:0,0:0:0:0:
427,61,87256,1,8,0:0:0:0:
254,72,87425,1,0,0:0:0:0:
290,44,87510,1,0,0:0:0:0:
332,27,87594,1,0,0:0:0:0:
386,223,87764,1,0,0:0:0:0:
258,306,87933,1,8,0:0:0:0:
337,139,88103,1,0,0:0:0:0:
483,289,88272,6,0,P|501:227|496:174,1,111.999996582031
243,90,88611,2,0,P|240:145|257:198,1,111.999996582031,8|0,0:0|0:0,0:0:0:0:
455,91,88950,2,0,L|319:135,1,111.999996582031
147,202,89288,1,8,0:0:0:0:
268,308,89458,1,8,0:0:0:0:
268,308,89542,1,0,0:0:0:0:
268,308,89627,6,0,P|269:235|251:186,1,111.999996582031,4|0,0:3|0:0,0:0:0:0:
174,361,89966,1,8,0:0:0:0:
361,353,90135,1,0,0:0:0:0:
182,259,90305,2,0,L|69:257,1,111.999996582031
194,119,90644,2,0,L|307:117,1,111.999996582031,8|0,0:0|0:0,0:0:0:0:
420,207,90982,5,4,0:3:0:0:
420,207,91491,5,0,1:0:0:0:
332,113,91660,1,2,0:0:0:0:
345,81,91745,1,2,0:0:0:0:
479,83,91914,1,2,0:0:0:0:
492,115,91999,2,0,L|493:177,1,55.9999982910157,2|0,0:0|0:0,0:0:0:0:
350,261,92168,2,0,L|341:191,1,55.9999982910157,4|0,0:3|0:0,0:0:0:0:
456,325,92337,6,0,P|400:373|332:377,1,111.999996582031
205,283,92676,1,8,0:0:0:0:
94,359,92846,1,0,0:0:0:0:
52,362,92930,1,0,0:0:0:0:
13,367,93015,1,0,0:0:0:0:
106,261,93184,1,0,0:0:0:0:
218,372,93354,1,8,0:0:0:0:
275,221,93523,1,0,0:0:0:0:
177,71,93693,6,0,P|170:129|185:211,1,111.999996582031
389,154,94031,2,0,P|344:120|293:97,1,111.999996582031,8|0,0:0|0:0,0:0:0:0:
212,297,94370,2,0,P|265:274|329:220,1,111.999996582031
383,42,94709,1,8,0:0:0:0:
489,147,94878,1,8,0:0:0:0:
489,147,94963,1,0,0:0:0:0:
489,147,95048,6,0,L|505:284,1,111.999996582031,4|0,0:3|0:0,0:0:0:0:
393,378,95387,2,0,L|402:265,1,111.999996582031,8|0,0:0|0:0,0:0:0:0:
273,101,95725,2,0,P|198:89|126:105,1,111.999996582031
0,242,96064,2,0,P|55:245|110:234,1,111.999996582031,8|0,0:0|0:0,0:0:0:0:
40,33,96403,6,0,L|49:173,1,111.999996582031
206,296,96742,2,0,L|213:184,1,111.999996582031,8|0,0:0|0:0,0:0:0:0:
6,335,97081,2,0,P|63:303|139:299,1,111.999996582031
298,328,97419,1,8,0:0:0:0:
392,252,97589,1,8,0:0:0:0:
392,252,97673,1,0,0:0:0:0:
392,252,97758,6,0,P|397:175|379:125,1,111.999996582031,4|0,0:3|0:0,0:0:0:0:
203,59,98097,1,8,0:0:0:0:
257,230,98266,1,0,0:0:0:0:
268,183,98351,1,0,0:0:0:0:
279,137,98436,1,0,0:0:0:0:
142,262,98605,1,0,0:0:0:0:
48,54,98775,1,8,0:0:0:0:
185,179,98944,1,0,0:0:0:0:
12,318,99113,6,0,P|1:249|16:188,1,111.999996582031
253,262,99452,2,0,L|120:261,1,111.999996582031,8|0,0:0|0:0,0:0:0:0:
382,212,99791,2,0,P|389:267|378:321,1,111.999996582031
276,168,100130,1,8,0:0:0:0:
450,138,100299,1,8,0:0:0:0:
450,138,100384,1,0,0:0:0:0:
450,138,100468,6,0,P|459:72|444:26,1,111.999996582031,4|0,0:3|0:0,0:0:0:0:
323,30,100807,2,0,P|308:83|318:138,1,111.999996582031,8|0,0:0|0:0,0:0:0:0:
505,252,101146,2,0,P|428:233|374:238,1,111.999996582031
195,323,101485,2,0,P|139:321|85:305,1,111.999996582031,8|0,0:0|0:0,0:0:0:0:
261,124,101824,6,0,L|295:338,1,191.999994140625,4|8,1:3|1:0,0:0:0:0:
395,234,102332,1,8,0:1:0:0:
153,216,102501,6,0,L|23:202,1,95.9999970703126,4|0,1:3|0:0,0:0:0:0:
261,124,102840,2,0,L|390:118,1,103.999995239258,8|0,1:3|0:0,0:0:0:0:
185,4,103179,6,0,P|121:113|152:215,1,239.999992675781,0|8,0:0|0:0,0:0:0:0:
381,322,103687,1,0,0:0:0:0:
417,323,103772,1,0,0:0:0:0:
462,324,103856,1,0,0:0:0:0:
308,204,104026,1,0,0:0:0:0:
212,350,104195,1,8,0:0:0:0:
430,244,104365,1,0,0:0:0:0:
220,266,104534,6,0,P|160:261|101:247,1,120.000004577637
394,149,104873,2,0,P|452:135|512:130,1,120.000004577637,8|0,0:0|0:0,0:0:0:0:
269,49,105212,2,0,L|271:171,1,120.000004577637
406,341,105550,1,8,0:0:0:0:
236,285,105720,1,8,0:0:0:0:
200,296,105804,1,0,0:0:0:0:
167,314,105889,6,0,P|96:328|40:322,1,120.000004577637,4|0,0:3|0:0,0:0:0:0:
45,178,106228,2,0,P|105:174|164:188,1,120.000004577637,8|0,0:0|0:0,0:0:0:0:
380,340,106567,2,0,L|410:182,1,120.000004577637
268,43,106906,2,0,L|290:160,1,120.000004577637,8|0,0:0|0:0,0:0:0:0:
501,139,107244,6,0,P|440:103|359:104,1,120.000004577637
194,208,107583,2,0,P|123:208|53:167,1,120.000004577637,8|0,0:0|0:0,0:0:0:0:
160,0,107922,2,0,P|165:51|156:121,1,120.000004577637
0,242,108261,1,8,0:0:0:0:
194,208,108430,1,8,0:0:0:0:
223,228,108515,1,0,0:0:0:0:
256,248,108599,6,0,B|317:255|370:217|370:217|442:212|496:244,1,240.000009155274,4|8,0:3|0:0,0:0:0:0:
276,129,109108,1,0,0:0:0:0:
325,103,109192,1,0,0:0:0:0:
379,102,109277,1,0,0:0:0:0:
405,311,109446,1,0,0:0:0:0:
507,131,109616,1,8,0:0:0:0:
481,340,109785,1,0,0:0:0:0:
379,102,109955,6,0,P|296:77|216:76,1,120.000004577637
173,334,110293,2,0,P|236:274|277:205,1,120.000004577637,8|0,0:0|0:0,0:0:0:0:
75,39,110632,2,0,P|94:123|133:193,1,120.000004577637
291,161,110971,1,8,0:0:0:0:
180,73,111140,1,8,0:0:0:0:
180,73,111225,1,0,0:0:0:0:
180,73,111310,6,0,L|199:183,1,103.999995239258,4|0,0:3|0:0,0:0:0:0:
118,334,111649,2,0,L|135:231,1,103.999995239258,8|0,0:0|0:0,0:0:0:0:
352,260,111988,1,8,0:0:0:0:
320,260,112072,1,2,0:2:0:0:
288,260,112157,1,8,0:0:0:0:
256,260,112241,1,2,0:2:0:0:
224,260,112326,1,4,0:3:0:0:
416,299,112665,5,4,0:2:0:0:
416,299,113681,1,0,1:0:0:0:
283,201,113935,1,0,1:0:0:0:
293,173,114020,5,4,0:1:0:0:
