osu file format v14

[General]
AudioFilename: audio.mp3
AudioLeadIn: 0
PreviewTime: 13016
Countdown: 0
SampleSet: Normal
StackLeniency: 0.7
Mode: 1
LetterboxInBreaks: 0
WidescreenStoryboard: 0

[Editor]
Bookmarks: 28522,42236,69665,83379,97094,110808,151951,165665,179379
DistanceSpacing: 0.6
BeatDivisor: 4
GridSize: 32
TimelineZoom: 3.099999

[Metadata]
Title:NOISE feat. Benjazzy & Jin Dogg
TitleUnicode:NOISE feat. Benjazzy & Jin Dogg
Artist:DJ TATSUKI
ArtistUnicode:DJ TATSUKI
Creator:_Rise
Version:Muzukashii
Source:
Tags:japanese hip hop rap ZOT on the WAVE Chewing Gum and Dreams 23
BeatmapID:4280278
BeatmapSetID:2047694

[Difficulty]
HPDrainRate:6.5
CircleSize:5
OverallDifficulty:5
ApproachRate:5
SliderMultiplier:1.4
SliderTickRate:1

[Events]
//Background and Video events
0,0,"bg.jpg",0,0
//Break Periods
//Storyboard Layer 0 (Background)
//Storyboard Layer 1 (Fail)
//Storyboard Layer 2 (Pass)
//Storyboard Layer 3 (Foreground)
//Storyboard Layer 4 (Overlay)
//Storyboard Sound Samples

[TimingPoints]
1052,285.714285714286,6,1,0,80,1,0
1052,-100,6,1,0,80,0,0
14766,-100,6,1,0,80,0,1
28480,-100,6,1,0,80,0,0
83337,-100,4,1,0,80,0,1
97052,-100,4,1,0,80,0,0
151909,-100,4,1,0,80,0,1
165623,-100,4,1,0,80,0,0

[HitObjects]
256,192,1052,5,0,0:0:0:0:
256,192,1909,1,8,0:0:0:0:
256,192,3052,1,0,0:0:0:0:
256,192,3337,1,0,0:0:0:0:
256,192,3623,1,8,0:0:0:0:
256,192,3909,1,0,0:0:0:0:
256,192,4194,1,0,0:0:0:0:
256,192,4480,1,0,0:0:0:0:
256,192,5337,1,8,0:0:0:0:
256,192,5623,1,0,0:0:0:0:
256,192,5909,1,0,0:0:0:0:
256,192,6194,1,0,0:0:0:0:
256,192,6766,1,0,0:0:0:0:
256,192,7052,1,8,0:0:0:0:
256,192,7337,1,0,0:0:0:0:
256,192,7623,1,0,0:0:0:0:
256,192,7909,1,0,0:0:0:0:
256,192,8337,1,0,0:0:0:0:
256,192,8623,1,0,0:0:0:0:
256,192,8766,1,8,0:0:0:0:
256,192,9052,1,0,0:0:0:0:
256,192,9337,1,0,0:0:0:0:
256,192,9623,1,0,0:0:0:0:
256,192,9909,1,0,0:0:0:0:
256,192,10052,1,0,0:0:0:0:
256,192,10194,1,0,0:0:0:0:
256,192,10480,1,8,0:0:0:0:
256,192,10766,1,0,0:0:0:0:
256,192,11052,1,0,0:0:0:0:
256,192,11337,1,0,0:0:0:0:
256,192,11766,1,0,0:0:0:0:
256,192,12052,1,0,0:0:0:0:
256,192,12480,1,0,0:0:0:0:
256,192,12766,1,0,0:0:0:0:
256,192,14766,1,4,0:0:0:0:
256,192,15052,1,8,0:0:0:0:
256,192,15194,1,8,0:0:0:0:
256,192,15337,1,0,0:0:0:0:
256,192,15480,1,0,0:0:0:0:
256,192,15623,1,8,0:0:0:0:
256,192,15909,1,0,0:0:0:0:
256,192,16194,1,8,0:0:0:0:
256,192,16337,1,8,0:0:0:0:
256,192,16480,1,0,0:0:0:0:
256,192,16766,1,0,0:0:0:0:
256,192,16837,1,0,0:0:0:0:
256,192,16909,1,0,0:0:0:0:
256,192,17052,1,8,0:0:0:0:
256,192,17194,1,0,0:0:0:0:
256,192,17337,1,8,0:0:0:0:
256,192,17623,1,0,0:0:0:0:
256,192,17909,1,0,0:0:0:0:
256,192,18194,1,0,0:0:0:0:
256,192,18480,1,0,0:0:0:0:
256,192,18623,1,8,0:0:0:0:
256,192,18766,1,0,0:0:0:0:
256,192,18909,1,0,0:0:0:0:
256,192,19052,1,8,0:0:0:0:
256,192,19337,1,0,0:0:0:0:
256,192,19623,1,8,0:0:0:0:
256,192,19766,1,8,0:0:0:0:
256,192,19909,1,0,0:0:0:0:
256,192,20194,1,8,0:0:0:0:
256,192,20266,1,8,0:0:0:0:
256,192,20337,1,8,0:0:0:0:
256,192,20480,1,0,0:0:0:0:
256,192,20623,1,0,0:0:0:0:
256,192,20766,1,8,0:0:0:0:
256,192,21052,1,0,0:0:0:0:
256,192,21194,1,8,0:0:0:0:
256,192,21337,1,0,0:0:0:0:
256,192,21623,1,0,0:0:0:0:
256,192,22052,1,0,0:0:0:0:
256,192,22337,1,0,0:0:0:0:
256,192,22480,1,8,0:0:0:0:
256,192,22623,1,8,0:0:0:0:
256,192,22766,1,0,0:0:0:0:
256,192,23052,1,0,0:0:0:0:
256,192,23194,1,8,0:0:0:0:
256,192,23337,1,0,0:0:0:0:
256,192,23480,1,0,0:0:0:0:
256,192,23623,1,8,0:0:0:0:
256,192,23694,1,8,0:0:0:0:
256,192,23766,1,8,0:0:0:0:
256,192,23909,1,0,0:0:0:0:
256,192,24194,1,8,0:0:0:0:
256,192,24480,1,0,0:0:0:0:
256,192,24623,1,0,0:0:0:0:
256,192,24766,1,8,0:0:0:0:
256,192,25052,1,0,0:0:0:0:
256,192,25480,1,0,0:0:0:0:
256,192,25766,1,0,0:0:0:0:
256,192,25909,1,8,0:0:0:0:
256,192,26052,1,0,0:0:0:0:
256,192,26194,1,8,0:0:0:0:
256,192,26480,1,8,0:0:0:0:
256,192,26623,1,0,0:0:0:0:
256,192,26766,1,8,0:0:0:0:
256,192,26909,1,8,0:0:0:0:
256,192,27052,1,0,0:0:0:0:
256,192,27123,1,0,0:0:0:0:
256,192,27194,1,0,0:0:0:0:
256,192,27337,1,8,0:0:0:0:
256,192,27623,1,8,0:0:0:0:
256,192,27909,1,8,0:0:0:0:
256,192,28052,1,0,0:0:0:0:
256,192,28194,1,8,0:0:0:0:
256,192,28480,1,4,0:0:0:0:
256,192,29052,1,0,0:0:0:0:
256,192,29337,1,8,0:0:0:0:
256,192,29480,1,8,0:0:0:0:
256,192,29623,1,0,0:0:0:0:
256,192,29909,1,8,0:0:0:0:
256,192,30194,1,0,0:0:0:0:
256,192,30480,1,0,0:0:0:0:
256,192,30623,1,8,0:0:0:0:
256,192,30766,1,0,0:0:0:0:
256,192,30909,1,0,0:0:0:0:
256,192,31052,1,8,0:0:0:0:
256,192,31194,1,8,0:0:0:0:
256,192,31337,1,0,0:0:0:0:
256,192,31623,1,0,0:0:0:0:
256,192,31909,1,0,0:0:0:0:
256,192,32194,1,8,0:0:0:0:
256,192,32337,1,0,0:0:0:0:
256,192,32480,1,8,0:0:0:0:
256,192,32623,1,0,0:0:0:0:
256,192,32766,1,8,0:0:0:0:
256,192,33052,1,8,0:0:0:0:
256,192,33337,1,8,0:0:0:0:
256,192,33623,1,0,0:0:0:0:
256,192,33909,1,8,0:0:0:0:
256,192,33980,1,8,0:0:0:0:
256,192,34052,1,8,0:0:0:0:
256,192,34194,1,0,0:0:0:0:
256,192,34337,1,0,0:0:0:0:
256,192,34480,1,8,0:0:0:0:
256,192,34766,1,8,0:0:0:0:
256,192,34909,1,0,0:0:0:0:
256,192,35052,1,8,0:0:0:0:
256,192,35337,1,0,0:0:0:0:
256,192,35766,1,0,0:0:0:0:
256,192,36052,1,0,0:0:0:0:
256,192,36194,1,8,0:0:0:0:
256,192,36480,1,0,0:0:0:0:
256,192,36766,1,8,0:0:0:0:
256,192,36909,1,8,0:0:0:0:
256,192,37052,1,0,0:0:0:0:
256,192,37337,1,0,0:0:0:0:
256,192,37480,1,8,0:0:0:0:
256,192,37623,1,0,0:0:0:0:
256,192,37766,1,0,0:0:0:0:
256,192,37909,1,8,0:0:0:0:
256,192,38052,1,0,0:0:0:0:
256,192,38194,1,8,0:0:0:0:
256,192,38480,1,8,0:0:0:0:
256,192,38766,1,0,0:0:0:0:
256,192,39194,1,0,0:0:0:0:
256,192,39480,1,0,0:0:0:0:
256,192,39623,1,8,0:0:0:0:
256,192,39909,1,8,0:0:0:0:
256,192,40052,1,0,0:0:0:0:
256,192,40194,1,8,0:0:0:0:
256,192,40480,1,0,0:0:0:0:
256,192,40766,1,8,0:0:0:0:
256,192,40837,1,8,0:0:0:0:
256,192,40909,1,8,0:0:0:0:
256,192,41052,1,0,0:0:0:0:
256,192,41194,1,0,0:0:0:0:
256,192,41337,1,8,0:0:0:0:
256,192,41623,1,0,0:0:0:0:
256,192,41766,1,8,0:0:0:0:
256,192,41909,1,0,0:0:0:0:
256,192,42194,1,4,0:0:0:0:
256,192,43052,1,8,0:0:0:0:
256,192,43909,1,0,0:0:0:0:
256,192,44052,1,8,0:0:0:0:
256,192,44194,1,0,0:0:0:0:
256,192,44337,1,8,0:0:0:0:
256,192,44480,1,8,0:0:0:0:
256,192,44623,1,0,0:0:0:0:
256,192,44766,1,8,0:0:0:0:
256,192,45052,1,0,0:0:0:0:
256,192,45337,1,0,0:0:0:0:
256,192,45480,1,8,0:0:0:0:
256,192,45623,1,0,0:0:0:0:
256,192,45909,1,8,0:0:0:0:
256,192,46052,1,8,0:0:0:0:
256,192,46194,1,0,0:0:0:0:
256,192,46480,1,8,0:0:0:0:
256,192,46766,1,0,0:0:0:0:
256,192,46909,1,8,0:0:0:0:
256,192,47052,1,0,0:0:0:0:
256,192,47194,1,0,0:0:0:0:
256,192,47337,1,8,0:0:0:0:
256,192,47623,1,8,0:0:0:0:
256,192,47766,1,8,0:0:0:0:
256,192,47909,1,0,0:0:0:0:
256,192,48052,1,0,0:0:0:0:
256,192,48194,1,8,0:0:0:0:
256,192,48480,1,0,0:0:0:0:
256,192,48623,1,8,0:0:0:0:
256,192,48766,1,0,0:0:0:0:
256,192,49052,1,0,0:0:0:0:
256,192,49480,1,0,0:0:0:0:
256,192,49766,1,0,0:0:0:0:
256,192,49909,1,8,0:0:0:0:
256,192,50194,1,8,0:0:0:0:
256,192,50266,1,8,0:0:0:0:
256,192,50337,1,8,0:0:0:0:
256,192,50480,1,8,0:0:0:0:
256,192,50766,1,0,0:0:0:0:
256,192,51052,1,8,0:0:0:0:
256,192,51194,1,8,0:0:0:0:
256,192,51337,1,0,0:0:0:0:
256,192,51623,1,8,0:0:0:0:
256,192,51766,1,0,0:0:0:0:
256,192,51909,1,8,0:0:0:0:
256,192,51980,1,8,0:0:0:0:
256,192,52052,1,8,0:0:0:0:
256,192,52194,1,8,0:0:0:0:
256,192,52480,1,0,0:0:0:0:
256,192,52909,1,0,0:0:0:0:
256,192,53194,1,0,0:0:0:0:
256,192,53337,1,8,0:0:0:0:
256,192,53623,1,0,0:0:0:0:
256,192,53694,1,0,0:0:0:0:
256,192,53766,1,0,0:0:0:0:
256,192,53909,1,8,0:0:0:0:
256,192,54052,1,8,0:0:0:0:
256,192,54194,1,0,0:0:0:0:
256,192,54766,1,0,0:0:0:0:
256,192,55052,1,0,0:0:0:0:
256,192,55337,1,0,0:0:0:0:
256,192,55480,1,0,0:0:0:0:
256,192,55623,1,0,0:0:0:0:
256,192,55909,1,4,0:0:0:0:
256,192,56194,1,8,0:0:0:0:
256,192,56337,1,8,0:0:0:0:
256,192,56480,1,0,0:0:0:0:
256,192,56766,1,8,0:0:0:0:
256,192,56909,1,8,0:0:0:0:
256,192,57052,1,8,0:0:0:0:
256,192,57337,1,8,0:0:0:0:
256,192,57623,1,0,0:0:0:0:
256,192,57766,1,8,0:0:0:0:
256,192,57909,1,0,0:0:0:0:
256,192,58052,1,0,0:0:0:0:
256,192,58194,1,8,0:0:0:0:
256,192,58480,1,8,0:0:0:0:
256,192,58623,1,8,0:0:0:0:
256,192,58766,1,0,0:0:0:0:
256,192,59052,1,8,0:0:0:0:
256,192,59337,1,0,0:0:0:0:
256,192,59623,1,0,0:0:0:0:
256,192,59766,1,0,0:0:0:0:
256,192,59909,1,8,0:0:0:0:
256,192,60052,1,0,0:0:0:0:
256,192,60194,1,8,0:0:0:0:
256,192,60337,1,8,0:0:0:0:
256,192,60480,1,0,0:0:0:0:
256,192,60623,1,8,0:0:0:0:
256,192,60766,1,0,0:0:0:0:
256,192,61052,1,0,0:0:0:0:
256,192,61337,1,0,0:0:0:0:
256,192,61480,1,8,0:0:0:0:
256,192,61623,1,0,0:0:0:0:
256,192,61766,1,8,0:0:0:0:
256,192,61909,1,8,0:0:0:0:
256,192,62052,1,8,0:0:0:0:
256,192,62194,1,0,0:0:0:0:
256,192,62480,1,0,0:0:0:0:
256,192,62766,1,8,0:0:0:0:
256,192,63052,1,8,0:0:0:0:
256,192,63194,1,0,0:0:0:0:
256,192,63480,1,0,0:0:0:0:
256,192,63623,1,8,0:0:0:0:
256,192,63766,1,8,0:0:0:0:
256,192,63909,1,0,0:0:0:0:
256,192,64052,1,8,0:0:0:0:
256,192,64194,1,0,0:0:0:0:
256,192,64480,1,8,0:0:0:0:
256,192,64623,1,0,0:0:0:0:
256,192,64766,1,8,0:0:0:0:
256,192,64837,1,8,0:0:0:0:
256,192,64909,1,8,0:0:0:0:
256,192,65052,1,0,0:0:0:0:
256,192,65194,1,0,0:0:0:0:
256,192,65337,1,8,0:0:0:0:
256,192,66194,1,8,0:0:0:0:
256,192,66337,1,0,0:0:0:0:
256,192,66480,1,8,0:0:0:0:
256,192,66623,1,0,0:0:0:0:
256,192,66909,1,0,0:0:0:0:
256,192,67052,1,8,0:0:0:0:
256,192,67194,1,8,0:0:0:0:
256,192,67337,1,8,0:0:0:0:
256,192,67480,1,0,0:0:0:0:
256,192,67623,1,8,0:0:0:0:
256,192,67909,1,8,0:0:0:0:
256,192,68052,1,8,0:0:0:0:
256,192,68194,1,0,0:0:0:0:
256,192,68337,1,8,0:0:0:0:
256,192,68480,1,0,0:0:0:0:
256,192,68552,1,0,0:0:0:0:
256,192,68623,1,0,0:0:0:0:
256,192,68766,1,8,0:0:0:0:
256,192,69623,1,4,0:0:0:0:
256,192,70480,1,8,0:0:0:0:
256,192,71623,1,0,0:0:0:0:
256,192,71909,1,0,0:0:0:0:
256,192,72194,1,8,0:0:0:0:
256,192,72480,1,0,0:0:0:0:
256,192,72766,1,0,0:0:0:0:
256,192,73052,1,0,0:0:0:0:
256,192,73623,1,0,0:0:0:0:
256,192,73909,1,8,0:0:0:0:
256,192,74194,1,0,0:0:0:0:
256,192,74480,1,0,0:0:0:0:
256,192,74766,1,0,0:0:0:0:
256,192,75052,1,8,0:0:0:0:
256,192,75194,1,8,0:0:0:0:
256,192,75337,1,0,0:0:0:0:
256,192,75623,1,8,0:0:0:0:
256,192,75909,1,8,0:0:0:0:
256,192,76194,1,0,0:0:0:0:
256,192,76480,1,0,0:0:0:0:
256,192,76909,1,0,0:0:0:0:
256,192,77194,1,0,0:0:0:0:
256,192,77337,1,0,0:0:0:0:
256,192,77623,1,0,0:0:0:0:
256,192,77909,1,0,0:0:0:0:
256,192,78194,1,0,0:0:0:0:
256,192,78480,1,0,0:0:0:0:
256,192,78623,1,0,0:0:0:0:
256,192,78766,1,0,0:0:0:0:
256,192,79337,1,0,0:0:0:0:
256,192,79623,1,0,0:0:0:0:
256,192,79909,1,0,0:0:0:0:
256,192,80337,1,0,0:0:0:0:
256,192,80623,1,0,0:0:0:0:
256,192,81052,1,0,0:0:0:0:
256,192,81337,1,0,0:0:0:0:
256,192,83337,1,4,0:0:0:0:
256,192,83623,1,8,0:0:0:0:
256,192,83766,1,8,0:0:0:0:
256,192,83909,1,0,0:0:0:0:
256,192,84052,1,0,0:0:0:0:
256,192,84194,1,8,0:0:0:0:
256,192,84480,1,0,0:0:0:0:
256,192,84766,1,8,0:0:0:0:
256,192,84909,1,8,0:0:0:0:
256,192,85052,1,0,0:0:0:0:
256,192,85337,1,0,0:0:0:0:
256,192,85409,1,0,0:0:0:0:
256,192,85480,1,0,0:0:0:0:
256,192,85623,1,8,0:0:0:0:
256,192,85766,1,0,0:0:0:0:
256,192,85909,1,8,0:0:0:0:
256,192,86194,1,0,0:0:0:0:
256,192,86480,1,0,0:0:0:0:
256,192,86766,1,0,0:0:0:0:
256,192,87052,1,0,0:0:0:0:
256,192,87194,1,8,0:0:0:0:
256,192,87337,1,0,0:0:0:0:
256,192,87480,1,0,0:0:0:0:
256,192,87623,1,8,0:0:0:0:
256,192,87909,1,0,0:0:0:0:
256,192,88194,1,8,0:0:0:0:
256,192,88337,1,8,0:0:0:0:
256,192,88480,1,0,0:0:0:0:
256,192,88766,1,8,0:0:0:0:
256,192,88837,1,8,0:0:0:0:
256,192,88909,1,8,0:0:0:0:
256,192,89052,1,0,0:0:0:0:
256,192,89194,1,0,0:0:0:0:
256,192,89337,1,8,0:0:0:0:
256,192,89623,1,0,0:0:0:0:
256,192,89766,1,8,0:0:0:0:
256,192,89909,1,0,0:0:0:0:
256,192,90194,1,0,0:0:0:0:
256,192,90623,1,0,0:0:0:0:
256,192,90909,1,0,0:0:0:0:
256,192,91052,1,8,0:0:0:0:
256,192,91194,1,8,0:0:0:0:
256,192,91337,1,0,0:0:0:0:
256,192,91623,1,0,0:0:0:0:
256,192,91766,1,8,0:0:0:0:
256,192,91909,1,0,0:0:0:0:
256,192,92052,1,0,0:0:0:0:
256,192,92194,1,8,0:0:0:0:
256,192,92266,1,8,0:0:0:0:
256,192,92337,1,8,0:0:0:0:
256,192,92480,1,0,0:0:0:0:
256,192,92766,1,8,0:0:0:0:
256,192,93052,1,0,0:0:0:0:
256,192,93194,1,0,0:0:0:0:
256,192,93337,1,8,0:0:0:0:
256,192,93623,1,0,0:0:0:0:
256,192,94052,1,0,0:0:0:0:
256,192,94337,1,0,0:0:0:0:
256,192,94480,1,8,0:0:0:0:
256,192,94623,1,0,0:0:0:0:
256,192,94766,1,8,0:0:0:0:
256,192,95052,1,8,0:0:0:0:
256,192,95194,1,0,0:0:0:0:
256,192,95337,1,8,0:0:0:0:
256,192,95480,1,8,0:0:0:0:
256,192,95623,1,0,0:0:0:0:
256,192,95694,1,0,0:0:0:0:
256,192,95766,1,0,0:0:0:0:
256,192,95909,1,8,0:0:0:0:
256,192,96194,1,8,0:0:0:0:
256,192,96480,1,8,0:0:0:0:
256,192,96623,1,0,0:0:0:0:
256,192,96766,1,8,0:0:0:0:
256,192,97052,1,4,0:0:0:0:
256,192,99052,1,0,0:0:0:0:
256,192,99194,1,8,0:0:0:0:
256,192,99337,1,0,0:0:0:0:
256,192,99623,1,8,0:0:0:0:
256,192,99766,1,8,0:0:0:0:
256,192,99909,1,0,0:0:0:0:
256,192,100194,1,0,0:0:0:0:
256,192,100480,1,0,0:0:0:0:
256,192,100766,1,8,0:0:0:0:
256,192,100909,1,0,0:0:0:0:
256,192,101052,1,8,0:0:0:0:
256,192,101194,1,0,0:0:0:0:
256,192,101337,1,8,0:0:0:0:
256,192,101623,1,8,0:0:0:0:
256,192,101909,1,8,0:0:0:0:
256,192,102194,1,0,0:0:0:0:
256,192,102480,1,8,0:0:0:0:
256,192,102552,1,8,0:0:0:0:
256,192,102623,1,8,0:0:0:0:
256,192,102766,1,0,0:0:0:0:
256,192,102909,1,0,0:0:0:0:
256,192,103052,1,8,0:0:0:0:
256,192,103337,1,8,0:0:0:0:
256,192,103480,1,0,0:0:0:0:
256,192,103623,1,8,0:0:0:0:
256,192,103909,1,0,0:0:0:0:
256,192,104337,1,0,0:0:0:0:
256,192,104623,1,0,0:0:0:0:
256,192,104766,1,8,0:0:0:0:
256,192,105052,1,0,0:0:0:0:
256,192,105337,1,8,0:0:0:0:
256,192,105480,1,8,0:0:0:0:
256,192,105623,1,0,0:0:0:0:
256,192,105909,1,0,0:0:0:0:
256,192,106052,1,8,0:0:0:0:
256,192,106194,1,0,0:0:0:0:
256,192,106337,1,0,0:0:0:0:
256,192,106480,1,8,0:0:0:0:
256,192,106623,1,0,0:0:0:0:
256,192,106766,1,8,0:0:0:0:
256,192,107052,1,8,0:0:0:0:
256,192,107337,1,0,0:0:0:0:
256,192,107766,1,0,0:0:0:0:
256,192,108052,1,0,0:0:0:0:
256,192,108194,1,8,0:0:0:0:
256,192,108480,1,8,0:0:0:0:
256,192,108623,1,0,0:0:0:0:
256,192,108766,1,8,0:0:0:0:
256,192,109052,1,0,0:0:0:0:
256,192,109337,1,8,0:0:0:0:
256,192,109409,1,8,0:0:0:0:
256,192,109480,1,8,0:0:0:0:
256,192,109623,1,0,0:0:0:0:
256,192,109766,1,0,0:0:0:0:
256,192,109909,1,8,0:0:0:0:
256,192,110194,5,0,0:0:0:0:
256,192,110337,1,8,0:0:0:0:
256,192,110480,1,0,0:0:0:0:
256,192,110766,1,4,0:0:0:0:
256,192,111337,5,0,0:0:0:0:
256,192,111623,1,8,0:0:0:0:
256,192,111909,1,0,0:0:0:0:
256,192,112194,1,8,0:0:0:0:
256,192,112337,1,8,0:0:0:0:
256,192,112480,1,0,0:0:0:0:
256,192,112766,1,0,0:0:0:0:
256,192,114194,1,0,0:0:0:0:
256,192,114337,1,8,0:0:0:0:
256,192,114480,1,8,0:0:0:0:
256,192,114766,1,8,0:0:0:0:
256,192,114909,1,0,0:0:0:0:
256,192,115052,1,8,0:0:0:0:
256,192,115194,1,8,0:0:0:0:
256,192,115337,1,0,0:0:0:0:
256,192,115480,1,8,0:0:0:0:
256,192,115623,1,0,0:0:0:0:
256,192,115909,1,8,0:0:0:0:
256,192,116194,1,8,0:0:0:0:
256,192,116337,1,8,0:0:0:0:
256,192,116480,1,0,0:0:0:0:
256,192,116623,1,0,0:0:0:0:
256,192,116766,1,8,0:0:0:0:
256,192,117052,1,0,0:0:0:0:
256,192,117194,1,8,0:0:0:0:
256,192,117337,1,0,0:0:0:0:
256,192,117623,1,0,0:0:0:0:
256,192,118052,1,0,0:0:0:0:
256,192,118337,1,0,0:0:0:0:
256,192,118480,1,8,0:0:0:0:
256,192,118623,1,8,0:0:0:0:
256,192,118766,1,0,0:0:0:0:
256,192,118837,1,0,0:0:0:0:
256,192,118909,1,0,0:0:0:0:
256,192,119052,1,8,0:0:0:0:
256,192,119337,1,0,0:0:0:0:
256,192,119623,1,0,0:0:0:0:
256,192,119766,1,8,0:0:0:0:
256,192,119909,1,0,0:0:0:0:
256,192,120194,1,8,0:0:0:0:
256,192,120480,1,0,0:0:0:0:
256,192,120766,1,0,0:0:0:0:
256,192,121052,1,0,0:0:0:0:
256,192,121194,1,8,0:0:0:0:
256,192,121480,1,8,0:0:0:0:
256,192,121623,1,0,0:0:0:0:
256,192,121766,1,0,0:0:0:0:
256,192,121909,1,8,0:0:0:0:
256,192,122052,1,0,0:0:0:0:
256,192,122194,1,8,0:0:0:0:
256,192,122266,1,8,0:0:0:0:
256,192,122337,1,8,0:0:0:0:
256,192,122480,1,8,0:0:0:0:
256,192,123623,1,0,0:0:0:0:
256,192,123909,1,0,0:0:0:0:
256,192,124052,1,0,0:0:0:0:
256,192,124194,1,0,0:0:0:0:
256,192,124480,1,4,0:0:0:0:
256,192,124766,1,8,0:0:0:0:
256,192,124909,1,8,0:0:0:0:
256,192,125052,1,8,0:0:0:0:
256,192,125194,1,0,0:0:0:0:
256,192,125337,1,8,0:0:0:0:
256,192,125623,1,0,0:0:0:0:
256,192,125766,1,0,0:0:0:0:
256,192,125909,1,8,0:0:0:0:
256,192,126052,1,8,0:0:0:0:
256,192,126194,1,0,0:0:0:0:
256,192,126480,1,0,0:0:0:0:
256,192,127909,1,4,0:0:0:0:
256,192,128194,1,8,0:0:0:0:
256,192,128337,1,8,0:0:0:0:
256,192,128623,1,0,0:0:0:0:
256,192,128766,1,8,0:0:0:0:
256,192,128909,1,8,0:0:0:0:
256,192,129052,1,0,0:0:0:0:
256,192,129194,1,8,0:0:0:0:
256,192,129337,1,0,0:0:0:0:
256,192,129480,1,8,0:0:0:0:
256,192,129623,1,0,0:0:0:0:
256,192,129909,1,8,0:0:0:0:
256,192,130052,1,8,0:0:0:0:
256,192,130194,1,0,0:0:0:0:
256,192,131337,1,4,0:0:0:0:
256,192,131623,1,8,0:0:0:0:
256,192,131766,1,0,0:0:0:0:
256,192,132052,1,0,0:0:0:0:
256,192,132194,1,8,0:0:0:0:
256,192,132337,1,8,0:0:0:0:
256,192,132480,1,0,0:0:0:0:
256,192,132766,1,8,0:0:0:0:
256,192,133052,1,0,0:0:0:0:
256,192,133194,1,0,0:0:0:0:
256,192,133337,1,8,0:0:0:0:
256,192,133480,1,0,0:0:0:0:
256,192,133623,1,0,0:0:0:0:
256,192,133909,1,8,0:0:0:0:
256,192,134052,1,8,0:0:0:0:
256,192,134123,1,8,0:0:0:0:
256,192,134194,1,8,0:0:0:0:
256,192,134337,1,0,0:0:0:0:
256,192,134480,1,8,0:0:0:0:
256,192,134766,1,0,0:0:0:0:
256,192,135052,1,8,0:0:0:0:
256,192,135194,1,0,0:0:0:0:
256,192,135480,1,0,0:0:0:0:
256,192,135623,1,8,0:0:0:0:
256,192,135766,1,0,0:0:0:0:
256,192,135837,1,0,0:0:0:0:
256,192,135909,1,0,0:0:0:0:
256,192,136052,1,0,0:0:0:0:
256,192,136194,1,8,0:0:0:0:
256,192,136480,1,0,0:0:0:0:
256,192,136766,1,8,0:0:0:0:
256,192,136909,1,0,0:0:0:0:
256,192,137052,1,8,0:0:0:0:
256,192,137194,1,0,0:0:0:0:
256,192,137337,1,8,0:0:0:0:
256,192,137480,1,8,0:0:0:0:
256,192,137552,1,8,0:0:0:0:
256,192,137623,1,8,0:0:0:0:
256,192,137766,1,0,0:0:0:0:
256,192,137909,1,8,0:0:0:0:
256,192,138194,1,4,0:0:0:0:
256,192,139052,1,8,0:0:0:0:
256,192,139909,1,8,0:0:0:0:
256,192,140194,1,0,0:0:0:0:
256,192,140480,1,0,0:0:0:0:
256,192,140623,1,0,0:0:0:0:
256,192,140766,1,8,0:0:0:0:
256,192,141052,1,0,0:0:0:0:
256,192,141337,1,0,0:0:0:0:
256,192,141623,1,0,0:0:0:0:
256,192,142194,1,0,0:0:0:0:
256,192,142480,1,8,0:0:0:0:
256,192,142766,1,0,0:0:0:0:
256,192,143052,1,0,0:0:0:0:
256,192,143337,1,0,0:0:0:0:
256,192,143623,1,8,0:0:0:0:
256,192,143766,1,8,0:0:0:0:
256,192,143909,1,0,0:0:0:0:
256,192,144194,1,8,0:0:0:0:
256,192,144480,1,8,0:0:0:0:
256,192,144766,1,0,0:0:0:0:
256,192,145052,1,0,0:0:0:0:
256,192,145480,1,0,0:0:0:0:
256,192,145766,1,0,0:0:0:0:
256,192,145909,1,0,0:0:0:0:
256,192,146194,1,0,0:0:0:0:
256,192,146480,1,0,0:0:0:0:
256,192,146766,1,0,0:0:0:0:
256,192,147052,1,0,0:0:0:0:
256,192,147194,1,0,0:0:0:0:
256,192,147337,1,0,0:0:0:0:
256,192,147909,1,0,0:0:0:0:
256,192,148194,1,0,0:0:0:0:
256,192,148480,1,0,0:0:0:0:
256,192,148909,1,0,0:0:0:0:
256,192,149194,1,0,0:0:0:0:
256,192,149623,1,0,0:0:0:0:
256,192,149909,1,0,0:0:0:0:
256,192,151909,1,4,0:0:0:0:
256,192,152194,1,8,0:0:0:0:
256,192,152337,1,8,0:0:0:0:
256,192,152480,1,0,0:0:0:0:
256,192,152623,1,0,0:0:0:0:
256,192,152766,1,8,0:0:0:0:
256,192,153052,1,0,0:0:0:0:
256,192,153337,1,8,0:0:0:0:
256,192,153480,1,8,0:0:0:0:
256,192,153623,1,0,0:0:0:0:
256,192,153909,1,0,0:0:0:0:
256,192,153980,1,0,0:0:0:0:
256,192,154052,1,0,0:0:0:0:
256,192,154194,1,8,0:0:0:0:
256,192,154337,1,0,0:0:0:0:
256,192,154480,1,8,0:0:0:0:
256,192,154766,1,0,0:0:0:0:
256,192,155052,1,0,0:0:0:0:
256,192,155337,1,0,0:0:0:0:
256,192,155623,1,0,0:0:0:0:
256,192,155766,1,8,0:0:0:0:
256,192,155909,1,0,0:0:0:0:
256,192,156052,1,0,0:0:0:0:
256,192,156194,1,8,0:0:0:0:
256,192,156480,1,0,0:0:0:0:
256,192,156766,1,8,0:0:0:0:
256,192,156909,1,8,0:0:0:0:
256,192,157052,1,0,0:0:0:0:
256,192,157337,1,8,0:0:0:0:
256,192,157409,1,8,0:0:0:0:
256,192,157480,1,8,0:0:0:0:
256,192,157623,1,0,0:0:0:0:
256,192,157766,1,0,0:0:0:0:
256,192,157909,1,8,0:0:0:0:
256,192,158194,1,0,0:0:0:0:
256,192,158337,1,8,0:0:0:0:
256,192,158480,1,0,0:0:0:0:
256,192,158766,1,0,0:0:0:0:
256,192,159194,1,0,0:0:0:0:
256,192,159480,1,0,0:0:0:0:
256,192,159623,1,8,0:0:0:0:
256,192,159766,1,8,0:0:0:0:
256,192,159909,1,0,0:0:0:0:
256,192,160194,1,0,0:0:0:0:
256,192,160337,1,8,0:0:0:0:
256,192,160480,1,0,0:0:0:0:
256,192,160623,1,0,0:0:0:0:
256,192,160766,1,8,0:0:0:0:
256,192,160837,1,8,0:0:0:0:
256,192,160909,1,8,0:0:0:0:
256,192,161052,1,0,0:0:0:0:
256,192,161337,1,8,0:0:0:0:
256,192,161623,1,0,0:0:0:0:
256,192,161766,1,0,0:0:0:0:
256,192,161909,1,8,0:0:0:0:
256,192,162194,1,0,0:0:0:0:
256,192,162623,1,0,0:0:0:0:
256,192,162909,1,0,0:0:0:0:
256,192,163052,1,8,0:0:0:0:
256,192,163194,1,0,0:0:0:0:
256,192,163337,1,8,0:0:0:0:
256,192,163623,1,8,0:0:0:0:
256,192,163766,1,0,0:0:0:0:
256,192,163909,1,8,0:0:0:0:
256,192,164052,1,8,0:0:0:0:
256,192,164194,1,0,0:0:0:0:
256,192,164266,1,0,0:0:0:0:
256,192,164337,1,0,0:0:0:0:
256,192,164480,1,8,0:0:0:0:
256,192,164766,1,8,0:0:0:0:
256,192,165052,1,8,0:0:0:0:
256,192,165194,1,0,0:0:0:0:
256,192,165337,1,8,0:0:0:0:
256,192,165623,1,4,0:0:0:0:
256,192,166194,1,0,0:0:0:0:
256,192,166480,1,8,0:0:0:0:
256,192,166623,1,8,0:0:0:0:
256,192,166766,1,0,0:0:0:0:
256,192,167052,1,8,0:0:0:0:
256,192,167337,1,0,0:0:0:0:
256,192,167623,1,0,0:0:0:0:
256,192,167766,1,8,0:0:0:0:
256,192,167909,1,0,0:0:0:0:
256,192,168194,1,8,0:0:0:0:
256,192,168337,1,8,0:0:0:0:
256,192,168480,1,0,0:0:0:0:
256,192,168766,1,0,0:0:0:0:
256,192,169052,1,0,0:0:0:0:
256,192,169337,1,8,0:0:0:0:
256,192,169480,1,0,0:0:0:0:
256,192,169623,1,8,0:0:0:0:
256,192,169766,1,0,0:0:0:0:
256,192,169909,1,8,0:0:0:0:
256,192,170194,1,8,0:0:0:0:
256,192,170480,1,8,0:0:0:0:
256,192,170766,1,0,0:0:0:0:
256,192,171052,1,8,0:0:0:0:
256,192,171123,1,8,0:0:0:0:
256,192,171194,1,8,0:0:0:0:
256,192,171337,1,0,0:0:0:0:
256,192,171480,1,0,0:0:0:0:
256,192,171623,1,8,0:0:0:0:
256,192,171909,1,8,0:0:0:0:
256,192,172052,1,0,0:0:0:0:
256,192,172194,1,8,0:0:0:0:
256,192,172480,1,0,0:0:0:0:
256,192,172909,1,0,0:0:0:0:
256,192,173194,1,0,0:0:0:0:
256,192,173337,1,8,0:0:0:0:
256,192,173623,1,0,0:0:0:0:
256,192,173909,1,8,0:0:0:0:
256,192,174052,1,8,0:0:0:0:
256,192,174194,1,0,0:0:0:0:
256,192,174480,1,0,0:0:0:0:
256,192,174623,1,8,0:0:0:0:
256,192,174766,1,0,0:0:0:0:
256,192,174909,1,0,0:0:0:0:
256,192,175052,1,8,0:0:0:0:
256,192,175194,1,0,0:0:0:0:
256,192,175337,1,8,0:0:0:0:
256,192,175623,1,8,0:0:0:0:
256,192,175909,1,0,0:0:0:0:
256,192,176337,1,0,0:0:0:0:
256,192,176623,1,0,0:0:0:0:
256,192,176766,1,8,0:0:0:0:
256,192,177052,1,8,0:0:0:0:
256,192,177194,1,0,0:0:0:0:
256,192,177337,1,8,0:0:0:0:
256,192,177623,1,0,0:0:0:0:
256,192,177909,1,8,0:0:0:0:
256,192,177980,1,8,0:0:0:0:
256,192,178052,1,8,0:0:0:0:
256,192,178194,1,0,0:0:0:0:
256,192,178337,1,0,0:0:0:0:
256,192,178480,1,8,0:0:0:0:
256,192,178766,5,0,0:0:0:0:
256,192,178909,1,8,0:0:0:0:
256,192,179052,1,0,0:0:0:0:
256,192,179337,1,4,0:0:0:0:
