osu file format v14

[General]
AudioFilename: audio.mp3
AudioLeadIn: 0
PreviewTime: 13016
Countdown: 0
SampleSet: Normal
StackLeniency: 0.7
Mode: 1
LetterboxInBreaks: 0
WidescreenStoryboard: 0

[Editor]
Bookmarks: 28522,42236,69665,83379,97094,110808,151951,165665,179379
DistanceSpacing: 0.6
BeatDivisor: 4
GridSize: 32
TimelineZoom: 3.099999

[Metadata]
Title:NOISE feat. Benjazzy & Jin Dogg
TitleUnicode:NOISE feat. Benjazzy & Jin Dogg
Artist:DJ TATSUKI
ArtistUnicode:DJ TATSUKI
Creator:_Rise
Version:Kantan
Source:
Tags:japanese hip hop rap ZOT on the WAVE Chewing Gum and Dreams 23
BeatmapID:4280161
BeatmapSetID:2047694

[Difficulty]
HPDrainRate:7.5
CircleSize:5
OverallDifficulty:3
ApproachRate:5
SliderMultiplier:1.4
SliderTickRate:1

[Events]
//Background and Video events
0,0,"bg.jpg",0,0
//Break Periods
//Storyboard Layer 0 (Background)
//Storyboard Layer 1 (Fail)
//Storyboard Layer 2 (Pass)
//Storyboard Layer 3 (Foreground)
//Storyboard Layer 4 (Overlay)
//Storyboard Sound Samples

[TimingPoints]
1052,285.714285714286,6,1,0,80,1,0
1052,-133.333333333333,6,1,0,80,0,0
14766,-133.333333333333,6,1,0,80,0,1
28480,-133.333333333333,6,1,0,80,0,0
83337,-133.333333333333,4,1,0,80,0,1
97052,-133.333333333333,4,1,0,80,0,0
151909,-133.333333333333,4,1,0,80,0,1
165623,-133.333333333333,4,1,0,80,0,0

[HitObjects]
256,192,1052,5,0,0:0:0:0:
256,192,1909,1,8,0:0:0:0:
256,192,3052,1,0,0:0:0:0:
256,192,3337,1,0,0:0:0:0:
256,192,3623,1,8,0:0:0:0:
256,192,4480,1,0,0:0:0:0:
256,192,5337,1,8,0:0:0:0:
256,192,6480,1,8,0:0:0:0:
256,192,6766,1,0,0:0:0:0:
256,192,7052,1,8,0:0:0:0:
256,192,7909,1,0,0:0:0:0:
256,192,8766,1,8,0:0:0:0:
256,192,9909,1,0,0:0:0:0:
256,192,10194,1,0,0:0:0:0:
256,192,10480,1,8,0:0:0:0:
256,192,11337,1,0,0:0:0:0:
256,192,14766,1,4,0:0:0:0:
256,192,15337,1,0,0:0:0:0:
256,192,15623,1,8,0:0:0:0:
256,192,16480,1,0,0:0:0:0:
256,192,16766,1,0,0:0:0:0:
256,192,17052,1,0,0:0:0:0:
256,192,17337,1,8,0:0:0:0:
256,192,18194,1,0,0:0:0:0:
256,192,18766,1,0,0:0:0:0:
256,192,19052,1,8,0:0:0:0:
256,192,19909,1,8,0:0:0:0:
256,192,20194,1,0,0:0:0:0:
256,192,20480,1,0,0:0:0:0:
256,192,20766,1,8,0:0:0:0:
256,192,21623,1,0,0:0:0:0:
256,192,22194,1,0,0:0:0:0:
256,192,22480,1,8,0:0:0:0:
256,192,23052,1,8,0:0:0:0:
256,192,23337,1,0,0:0:0:0:
256,192,23623,1,0,0:0:0:0:
256,192,23909,1,0,0:0:0:0:
256,192,24194,1,8,0:0:0:0:
256,192,25052,1,0,0:0:0:0:
256,192,25623,1,0,0:0:0:0:
256,192,25909,1,8,0:0:0:0:
256,192,26480,1,0,0:0:0:0:
256,192,26766,1,8,0:0:0:0:
256,192,27052,1,0,0:0:0:0:
256,192,27337,1,0,0:0:0:0:
256,192,27623,1,8,0:0:0:0:
256,192,28480,1,4,0:0:0:0:
256,192,29337,1,8,0:0:0:0:
256,192,30194,1,0,0:0:0:0:
256,192,30766,1,0,0:0:0:0:
256,192,31052,1,8,0:0:0:0:
256,192,31909,1,0,0:0:0:0:
256,192,32766,1,8,0:0:0:0:
256,192,33623,1,8,0:0:0:0:
256,192,34194,1,0,0:0:0:0:
256,192,34480,1,8,0:0:0:0:
256,192,35337,1,0,0:0:0:0:
256,192,35909,1,0,0:0:0:0:
256,192,36194,1,8,0:0:0:0:
256,192,37052,1,0,0:0:0:0:
256,192,37337,1,0,0:0:0:0:
256,192,37623,1,0,0:0:0:0:
256,192,37909,1,8,0:0:0:0:
256,192,38766,1,0,0:0:0:0:
256,192,39337,1,0,0:0:0:0:
256,192,39623,1,8,0:0:0:0:
256,192,40480,1,8,0:0:0:0:
256,192,40766,1,0,0:0:0:0:
256,192,41052,1,0,0:0:0:0:
256,192,41337,1,8,0:0:0:0:
256,192,42194,1,4,0:0:0:0:
256,192,43909,1,0,0:0:0:0:
256,192,44194,1,0,0:0:0:0:
256,192,44480,1,0,0:0:0:0:
256,192,44766,1,8,0:0:0:0:
256,192,45337,1,8,0:0:0:0:
256,192,45623,1,0,0:0:0:0:
256,192,46194,1,0,0:0:0:0:
256,192,46480,1,8,0:0:0:0:
256,192,47052,1,8,0:0:0:0:
256,192,47337,1,0,0:0:0:0:
256,192,47623,1,8,0:0:0:0:
256,192,47909,1,0,0:0:0:0:
256,192,48194,1,8,0:0:0:0:
256,192,49052,1,0,0:0:0:0:
256,192,49909,1,8,0:0:0:0:
256,192,50194,1,8,0:0:0:0:
256,192,50480,1,8,0:0:0:0:
256,192,50766,1,0,0:0:0:0:
256,192,51623,1,8,0:0:0:0:
256,192,51909,1,8,0:0:0:0:
256,192,52194,1,8,0:0:0:0:
256,192,52480,1,0,0:0:0:0:
256,192,53052,1,0,0:0:0:0:
256,192,53337,1,8,0:0:0:0:
256,192,53909,1,8,0:0:0:0:
256,192,54194,1,0,0:0:0:0:
256,192,55909,1,4,0:0:0:0:
256,192,56766,1,8,0:0:0:0:
256,192,57623,1,0,0:0:0:0:
256,192,58194,1,0,0:0:0:0:
256,192,58480,1,8,0:0:0:0:
256,192,59337,1,0,0:0:0:0:
256,192,59909,1,0,0:0:0:0:
256,192,60194,1,8,0:0:0:0:
256,192,60766,1,8,0:0:0:0:
256,192,61052,1,0,0:0:0:0:
256,192,61337,1,8,0:0:0:0:
256,192,61623,1,0,0:0:0:0:
256,192,61909,1,8,0:0:0:0:
256,192,62766,1,8,0:0:0:0:
256,192,63337,1,0,0:0:0:0:
256,192,63623,1,8,0:0:0:0:
256,192,64194,1,0,0:0:0:0:
256,192,64480,1,8,0:0:0:0:
256,192,64766,1,8,0:0:0:0:
256,192,65052,1,0,0:0:0:0:
256,192,65337,1,8,0:0:0:0:
256,192,66194,1,8,0:0:0:0:
256,192,66766,1,0,0:0:0:0:
256,192,67052,1,8,0:0:0:0:
256,192,67623,1,0,0:0:0:0:
256,192,67909,1,8,0:0:0:0:
256,192,68194,1,8,0:0:0:0:
256,192,68480,1,0,0:0:0:0:
256,192,68766,1,8,0:0:0:0:
256,192,69623,1,4,0:0:0:0:
256,192,71337,1,8,0:0:0:0:
256,192,73052,1,8,0:0:0:0:
256,192,74766,1,8,0:0:0:0:
256,192,76480,1,0,0:0:0:0:
256,192,78194,1,0,0:0:0:0:
256,192,79909,1,0,0:0:0:0:
256,192,83337,1,4,0:0:0:0:
256,192,83909,1,0,0:0:0:0:
256,192,84194,1,8,0:0:0:0:
256,192,85052,1,0,0:0:0:0:
256,192,85337,1,0,0:0:0:0:
256,192,85623,1,0,0:0:0:0:
256,192,85909,1,8,0:0:0:0:
256,192,86766,1,0,0:0:0:0:
256,192,87337,1,0,0:0:0:0:
256,192,87623,1,8,0:0:0:0:
256,192,88480,1,8,0:0:0:0:
256,192,88766,1,0,0:0:0:0:
256,192,89052,1,0,0:0:0:0:
256,192,89337,1,8,0:0:0:0:
256,192,90194,1,0,0:0:0:0:
256,192,90766,1,0,0:0:0:0:
256,192,91052,1,8,0:0:0:0:
256,192,91623,1,8,0:0:0:0:
256,192,91909,1,0,0:0:0:0:
256,192,92194,1,0,0:0:0:0:
256,192,92480,1,0,0:0:0:0:
256,192,92766,1,8,0:0:0:0:
256,192,93623,1,0,0:0:0:0:
256,192,94194,1,0,0:0:0:0:
256,192,94480,1,8,0:0:0:0:
256,192,95052,1,0,0:0:0:0:
256,192,95337,1,8,0:0:0:0:
256,192,95623,1,0,0:0:0:0:
256,192,95909,1,0,0:0:0:0:
256,192,96194,1,8,0:0:0:0:
256,192,97052,1,4,0:0:0:0:
256,192,99337,1,0,0:0:0:0:
256,192,99623,1,8,0:0:0:0:
256,192,100480,1,0,0:0:0:0:
256,192,101337,1,8,0:0:0:0:
256,192,102194,1,8,0:0:0:0:
256,192,102766,1,0,0:0:0:0:
256,192,103052,1,8,0:0:0:0:
256,192,103909,1,0,0:0:0:0:
256,192,104480,1,0,0:0:0:0:
256,192,104766,1,8,0:0:0:0:
256,192,105623,1,0,0:0:0:0:
256,192,105909,1,0,0:0:0:0:
256,192,106194,1,0,0:0:0:0:
256,192,106480,1,8,0:0:0:0:
256,192,107337,1,0,0:0:0:0:
256,192,107909,1,0,0:0:0:0:
256,192,108194,1,8,0:0:0:0:
256,192,109052,1,8,0:0:0:0:
256,192,109337,1,0,0:0:0:0:
256,192,109623,1,0,0:0:0:0:
256,192,109909,1,8,0:0:0:0:
256,192,110766,1,4,0:0:0:0:
256,192,111623,1,8,0:0:0:0:
256,192,112480,1,0,0:0:0:0:
256,192,114194,1,0,0:0:0:0:
256,192,114766,1,0,0:0:0:0:
256,192,115052,1,8,0:0:0:0:
256,192,115623,1,8,0:0:0:0:
256,192,115909,1,0,0:0:0:0:
256,192,116194,1,8,0:0:0:0:
256,192,116480,1,0,0:0:0:0:
256,192,116766,1,8,0:0:0:0:
256,192,117623,1,0,0:0:0:0:
256,192,118194,1,8,0:0:0:0:
256,192,118480,1,0,0:0:0:0:
256,192,119052,1,0,0:0:0:0:
256,192,119337,1,8,0:0:0:0:
256,192,119623,1,0,0:0:0:0:
256,192,119909,1,8,0:0:0:0:
256,192,120194,1,0,0:0:0:0:
256,192,121052,1,0,0:0:0:0:
256,192,121623,1,0,0:0:0:0:
256,192,121909,1,8,0:0:0:0:
256,192,122480,1,8,0:0:0:0:
256,192,124480,1,4,0:0:0:0:
256,192,125337,1,8,0:0:0:0:
256,192,126194,1,0,0:0:0:0:
256,192,126480,1,0,0:0:0:0:
256,192,127909,1,4,0:0:0:0:
256,192,128766,1,8,0:0:0:0:
256,192,129623,1,0,0:0:0:0:
256,192,129909,1,0,0:0:0:0:
256,192,130194,1,0,0:0:0:0:
256,192,131337,1,4,0:0:0:0:
256,192,132194,1,8,0:0:0:0:
256,192,132480,1,8,0:0:0:0:
256,192,132766,1,8,0:0:0:0:
256,192,133052,1,0,0:0:0:0:
256,192,133909,1,8,0:0:0:0:
256,192,134194,1,8,0:0:0:0:
256,192,134480,1,8,0:0:0:0:
256,192,134766,1,0,0:0:0:0:
256,192,135337,1,0,0:0:0:0:
256,192,135623,1,8,0:0:0:0:
256,192,135909,1,8,0:0:0:0:
256,192,136194,1,8,0:0:0:0:
256,192,136480,1,0,0:0:0:0:
256,192,137052,1,0,0:0:0:0:
256,192,137337,1,8,0:0:0:0:
256,192,137623,1,8,0:0:0:0:
256,192,137909,1,8,0:0:0:0:
256,192,138194,1,4,0:0:0:0:
256,192,139909,1,8,0:0:0:0:
256,192,141623,1,8,0:0:0:0:
256,192,143337,1,8,0:0:0:0:
256,192,145052,1,0,0:0:0:0:
256,192,146766,1,0,0:0:0:0:
256,192,148480,1,0,0:0:0:0:
256,192,151909,1,4,0:0:0:0:
256,192,152480,1,0,0:0:0:0:
256,192,152766,1,8,0:0:0:0:
256,192,153623,1,0,0:0:0:0:
256,192,153909,1,0,0:0:0:0:
256,192,154194,1,0,0:0:0:0:
256,192,154480,1,8,0:0:0:0:
256,192,155337,1,0,0:0:0:0:
256,192,155909,1,0,0:0:0:0:
256,192,156194,1,8,0:0:0:0:
256,192,157052,1,8,0:0:0:0:
256,192,157337,1,0,0:0:0:0:
256,192,157623,1,0,0:0:0:0:
256,192,157909,1,8,0:0:0:0:
256,192,158766,1,0,0:0:0:0:
256,192,159337,1,0,0:0:0:0:
256,192,159623,1,8,0:0:0:0:
256,192,160194,1,8,0:0:0:0:
256,192,160480,1,0,0:0:0:0:
256,192,160766,1,0,0:0:0:0:
256,192,161052,1,0,0:0:0:0:
256,192,161337,1,8,0:0:0:0:
256,192,162194,1,0,0:0:0:0:
256,192,162766,1,0,0:0:0:0:
256,192,163052,1,8,0:0:0:0:
256,192,163623,1,0,0:0:0:0:
256,192,163909,1,8,0:0:0:0:
256,192,164194,1,0,0:0:0:0:
256,192,164480,1,0,0:0:0:0:
256,192,164766,1,8,0:0:0:0:
256,192,165623,1,4,0:0:0:0:
256,192,166480,1,8,0:0:0:0:
256,192,167337,1,0,0:0:0:0:
256,192,167909,1,0,0:0:0:0:
256,192,168194,1,8,0:0:0:0:
256,192,169052,1,0,0:0:0:0:
256,192,169909,1,8,0:0:0:0:
256,192,170766,1,8,0:0:0:0:
256,192,171337,1,0,0:0:0:0:
256,192,171623,1,8,0:0:0:0:
256,192,172480,1,0,0:0:0:0:
256,192,173052,1,0,0:0:0:0:
256,192,173337,1,8,0:0:0:0:
256,192,174194,1,0,0:0:0:0:
256,192,174480,1,0,0:0:0:0:
256,192,174766,1,0,0:0:0:0:
256,192,175052,1,8,0:0:0:0:
256,192,175909,1,0,0:0:0:0:
256,192,176480,1,0,0:0:0:0:
256,192,176766,1,8,0:0:0:0:
256,192,177623,1,8,0:0:0:0:
256,192,177909,1,0,0:0:0:0:
256,192,178194,1,0,0:0:0:0:
256,192,178480,1,8,0:0:0:0:
256,192,179337,1,4,0:0:0:0:
