osu file format v14

[General]
AudioFilename: audio.mp3
AudioLeadIn: 0
PreviewTime: 13016
Countdown: 0
SampleSet: Normal
StackLeniency: 0.7
Mode: 1
LetterboxInBreaks: 0
WidescreenStoryboard: 0

[Editor]
Bookmarks: 28522,42236,69665,83379,97094,110808,151951,165665,179379
DistanceSpacing: 0.6
BeatDivisor: 8
GridSize: 32
TimelineZoom: 3.099999

[Metadata]
Title:NOISE feat. Benjazzy & Jin Dogg
TitleUnicode:NOISE feat. Benjazzy & Jin Dogg
Artist:DJ TATSUKI
ArtistUnicode:DJ TATSUKI
Creator:_Rise
Version:Inner Oni
Source:
Tags:japanese hip hop rap ZOT on the WAVE Chewing Gum and Dreams 23
BeatmapID:4275263
BeatmapSetID:2047694

[Difficulty]
HPDrainRate:6
CircleSize:5
OverallDifficulty:6.5
ApproachRate:5
SliderMultiplier:1.4
SliderTickRate:1

[Events]
//Background and Video events
0,0,"bg.jpg",0,0
//Break Periods
//Storyboard Layer 0 (Background)
//Storyboard Layer 1 (Fail)
//Storyboard Layer 2 (Pass)
//Storyboard Layer 3 (Foreground)
//Storyboard Layer 4 (Overlay)
//Storyboard Sound Samples

[TimingPoints]
1052,285.714285714286,6,1,0,80,1,0
1052,-133.333333333333,6,1,0,80,0,0
13047,-90.9090909090909,6,1,0,80,0,0
14766,-90.9090909090909,6,1,0,80,0,1
28480,-90.9090909090909,6,1,0,80,0,0
28689,-100,6,1,0,80,0,0
43047,-111.111111111111,6,1,0,80,0,0
43904,-83.3333333333333,4,1,0,80,0,0
44047,-83.6240050084966,4,1,0,80,0,0
44118,-83.769079150988,4,1,0,80,0,0
44189,-83.9146575286583,4,1,0,80,0,0
44261,-84.0628039460887,4,1,0,80,0,0
44332,-84.209405908168,4,1,0,80,0,0
44404,-84.3585958005249,4,1,0,80,0,0
44475,-84.5062321805648,4,1,0,80,0,0
44618,-84.8051583964116,4,1,0,80,0,0
44761,-85.1062069193787,4,1,0,80,0,0
44904,-85.409400431822,4,1,0,80,0,0
44975,-85.5607410550134,4,1,0,80,0,0
45047,-85.7147619404789,4,1,0,80,0,0
45118,-85.8671876304497,4,1,0,80,0,0
45261,-86.1758372504169,4,1,0,80,0,0
45332,-86.3299086757991,4,1,0,80,0,0
45404,-86.4867137571477,4,1,0,80,0,0
45475,-86.6418998037184,4,1,0,80,0,0
45547,-86.7998413381607,4,1,0,80,0,0
45618,-86.9561541453187,4,1,0,80,0,0
45761,-87.2726964166009,4,1,0,80,0,0
45832,-87.4307184875378,4,1,0,80,0,0
45904,-87.5915516947709,4,1,0,80,0,0
45975,-87.7507316115932,4,1,0,80,0,0
46047,-87.9127454248617,4,1,0,80,0,0
46118,-88.0730959598555,4,1,0,80,0,0
46189,-88.234032514048,4,1,0,80,0,0
46261,-88.3978375405031,4,1,0,80,0,0
46332,-88.559964179927,4,1,0,80,0,0
46475,-88.8883127209244,4,1,0,80,0,0
46618,-89.2191051197974,4,1,0,80,0,0
46689,-89.3842610698301,4,1,0,80,0,0
46761,-89.552368762462,4,1,0,80,0,0
46904,-89.8881314455515,4,1,0,80,0,0
47047,-90.2264213841444,4,1,0,80,0,0
47118,-90.3953312591186,4,1,0,80,0,0
47261,-90.7374568809606,4,1,0,80,0,0
47332,-90.9082873709518,4,1,0,80,0,0
47475,-91.2543142839398,4,1,0,80,0,0
47547,-91.429536585149,4,1,0,80,0,0
47618,-91.6029854468373,4,1,0,80,0,0
47689,-91.7770936510061,4,1,0,80,0,0
47761,-91.9543312859302,4,1,0,80,0,0
47832,-92.1297789243613,4,1,0,80,0,0
47904,-92.3083826961048,4,1,0,80,0,0
48047,-92.665171049905,4,1,0,80,0,0
48118,-92.8433443463504,4,1,0,80,0,0
48189,-93.0222041333152,4,1,0,80,0,0
48332,-93.384542747149,4,1,0,80,0,0
48404,-93.5680494905386,4,1,0,80,0,0
48475,-93.7497151503551,4,1,0,80,0,0
48547,-93.9346612963623,4,1,0,80,0,0
48618,-94.1177547173265,4,1,0,80,0,0
48689,-94.3015632879476,4,1,0,80,0,0
48761,-94.4886953486022,4,1,0,80,0,0
48832,-94.6739570676387,4,1,0,80,0,0
48904,-94.8625714812765,4,1,0,80,0,0
48975,-95.0493036494867,4,1,0,80,0,0
49047,-95.2394180996565,4,1,0,80,0,0
49189,-95.6166039139125,4,1,0,80,0,0
49261,-95.808996823445,4,1,0,80,0,0
49332,-95.9994772998805,4,1,0,80,0,0
49404,-96.1934156378601,4,1,0,80,0,0
49475,-96.3854292595612,4,1,0,80,0,0
49547,-96.5809317219296,4,1,0,80,0,0
49689,-96.9688398623486,4,1,0,80,0,0
49761,-97.1667186274788,4,1,0,80,0,0
49904,-97.5621324226902,4,1,0,80,0,0
50047,-97.9607775904601,4,1,0,80,0,0
50189,-98.3598718500454,4,1,0,80,0,0
50237,-98.4955133545934,4,1,0,80,0,0
50285,-98.6315294839706,4,1,0,80,0,0
50332,-98.7650764385035,4,1,0,80,0,0
50475,-99.1736334095095,4,1,0,80,0,0
50761,-100.000972299196,4,1,0,80,0,0
50904,-100.419839875024,4,1,0,80,0,0
50975,-100.629115422623,4,1,0,80,0,0
51047,-100.842231177261,4,1,0,80,0,0
51118,-101.053272809448,4,1,0,80,0,0
51189,-101.265199625855,4,1,0,80,0,0
51261,-101.481021026354,4,1,0,80,0,0
51332,-101.694747666508,4,1,0,80,0,0
51475,-102.127955355636,4,1,0,80,0,0
51618,-102.564869662339,4,1,0,80,0,0
51761,-103.005538362928,4,1,0,80,0,0
51808,-103.151201508405,4,1,0,80,0,0
51856,-103.300389699088,4,1,0,80,0,0
51904,-103.450010058338,4,1,0,80,0,0
52047,-103.898334191997,4,1,0,80,0,0
52189,-104.347384974382,4,1,0,80,0,0
52237,-104.500055882383,4,1,0,80,0,0
52285,-104.653174191316,4,1,0,80,0,0
52332,-104.803537947338,4,1,0,80,0,0
52475,-105.263696562171,4,1,0,80,0,0
52618,-105.727913814018,4,1,0,80,0,0
52689,-105.959923762427,4,1,0,80,0,0
52761,-106.196243637002,4,1,0,80,0,0
52832,-106.43031582433,4,1,0,80,0,0
52904,-106.668740925119,4,1,0,80,0,0
52975,-106.904902969638,4,1,0,80,0,0
53118,-107.383741569045,4,1,0,80,0,0
53189,-107.623083764977,4,1,0,80,0,0
53332,-108.108392196435,4,1,0,80,0,0
53475,-108.598097289535,4,1,0,80,0,0
53547,-108.846345154565,4,1,0,80,0,0
53618,-109.09225906362,4,1,0,80,0,0
53689,-109.339286663477,4,1,0,80,0,0
53761,-109.590938635468,4,1,0,80,0,0
53832,-109.840232389252,4,1,0,80,0,0
53904,-110.094198244487,4,1,0,80,0,0
53975,-110.345789479331,4,1,0,80,0,0
54047,-110.602101278618,4,1,0,80,0,0
54118,-110.856021901744,4,1,0,80,0,0
54189,-111.111111111111,4,1,0,80,0,0
55904,-83.3333333333333,4,1,0,80,0,0
56047,-83.6366876256905,4,1,0,80,0,0
56118,-83.7881260838519,4,1,0,80,0,0
56189,-83.9401139470121,4,1,0,80,0,0
56332,-84.2479101492384,4,1,0,80,0,0
56475,-84.5579719469824,4,1,0,80,0,0
56547,-84.71495242761,4,1,0,80,0,0
56618,-84.8703244471998,4,1,0,80,0,0
56761,-85.184993129197,4,1,0,80,0,0
56904,-85.5020038515588,4,1,0,80,0,0
56975,-85.6602789727545,4,1,0,80,0,0
57047,-85.8213828592326,4,1,0,80,0,0
57118,-85.9808437140166,4,1,0,80,0,0
57189,-86.140898245982,4,1,0,80,0,0
57332,-86.4650771093216,4,1,0,80,0,0
57475,-86.7917051908599,4,1,0,80,0,0
57618,-87.1208103521426,4,1,0,80,0,0
57761,-87.4524208789161,4,1,0,80,0,0
57832,-87.618006293669,4,1,0,80,0,0
57904,-87.7865654892321,4,1,0,80,0,0
57975,-87.9534198902423,4,1,0,80,0,0
58047,-88.1232733417375,4,1,0,80,0,0
58118,-88.2914113726755,4,1,0,80,0,0
58189,-88.4601922403813,4,1,0,80,0,0
58332,-88.8020974106709,4,1,0,80,0,0
58475,-89.1466558133225,4,1,0,80,0,0
58618,-89.493898452822,4,1,0,80,0,0
58689,-89.6673125733468,4,1,0,80,0,0
58761,-89.8438568186169,4,1,0,80,0,0
58904,-90.1965628946357,4,1,0,80,0,0
59047,-90.5520491690323,4,1,0,80,0,0
59118,-90.7295924003093,4,1,0,80,0,0
59189,-90.907833208821,4,1,0,80,0,0
59332,-91.2689593866326,4,1,0,80,0,0
59475,-91.6329661135128,4,1,0,80,0,0
59547,-91.8173434312383,4,1,0,80,0,0
59618,-91.9998879928315,4,1,0,80,0,0
59689,-92.1831598439999,4,1,0,80,0,0
59761,-92.3697601844303,4,1,0,80,0,0
59832,-92.5545101132458,4,1,0,80,0,0
59904,-92.7426184158528,4,1,0,80,0,0
59975,-92.9288643756187,4,1,0,80,0,0
60047,-93.1184989938497,4,1,0,80,0,0
60118,-93.306259229808,4,1,0,80,0,0
60189,-93.4947781793347,4,1,0,80,0,0
60332,-93.8767929595977,4,1,0,80,0,0
60475,-94.2619423325205,4,1,0,80,0,0
60547,-94.4570623580485,4,1,0,80,0,0
60689,-94.8442596922722,4,1,0,80,0,0
60761,-95.0418004570569,4,1,0,80,0,0
60832,-95.2374050669604,4,1,0,80,0,0
60904,-95.4365886248766,4,1,0,80,0,0
60975,-95.6338233153835,4,1,0,80,0,0
61047,-95.8346702447277,4,1,0,80,0,0
61189,-96.2332679183387,4,1,0,80,0,0
61261,-96.4366432827497,4,1,0,80,0,0
61332,-96.6380375316195,4,1,0,80,0,0
61404,-96.8431291634734,4,1,0,80,0,0
61475,-97.0462265544233,4,1,0,80,0,0
61547,-97.2530562709055,4,1,0,80,0,0
61618,-97.4578785002373,4,1,0,80,0,0
61761,-97.8730376239983,4,1,0,80,0,0
61832,-98.0804824168607,4,1,0,80,0,0
61904,-98.2917489379525,4,1,0,80,0,0
62047,-98.7140582279242,4,1,0,80,0,0
62189,-99.1370206089134,4,1,0,80,0,0
62332,-99.5666404024486,4,1,0,80,0,0
62475,-100,4,1,0,80,0,0
62725,-83.3333333333333,6,1,0,80,0,0
69618,-83.3333333333333,6,1,0,80,0,0
69904,-90.9090909090909,4,1,0,80,0,0
70047,-91.3816291665152,4,1,0,80,0,0
70189,-91.8557492053053,4,1,0,80,0,0
70332,-92.3382061264967,4,1,0,80,0,0
70475,-92.8257578554813,4,1,0,80,0,0
70618,-93.3184855233853,4,1,0,80,0,0
70761,-93.8164719931336,4,1,0,80,0,0
70904,-94.3198019059053,4,1,0,80,0,0
71047,-94.8285617290936,4,1,0,80,0,0
71189,-95.3392240888923,4,1,0,80,0,0
71332,-95.8590711507664,4,1,0,80,0,0
71404,-96.1229639825648,4,1,0,80,0,0
71475,-96.3846183337806,4,1,0,80,0,0
71618,-96.9159599074788,4,1,0,80,0,0
71761,-97.4531922316548,4,1,0,80,0,0
71904,-97.9964138146098,4,1,0,80,0,0
72047,-98.5457253733684,4,1,0,80,0,0
72189,-99.0973235050652,4,1,0,80,0,0
72332,-99.6590818996274,4,1,0,80,0,0
72475,-100.227245544791,4,1,0,80,0,0
72618,-100.801924619086,4,1,0,80,0,0
72761,-101.383231842562,4,1,0,80,0,0
72904,-101.971282550499,4,1,0,80,0,0
73047,-102.566194769695,4,1,0,80,0,0
73189,-103.163855718331,4,1,0,80,0,0
73332,-103.772806076117,4,1,0,80,0,0
73475,-104.38898808288,4,1,0,80,0,0
73618,-105.012531328321,4,1,0,80,0,0
73761,-105.64356851704,4,1,0,80,0,0
73904,-106.282235562696,4,1,0,80,0,0
74047,-106.928671685594,4,1,0,80,0,0
74189,-107.578415850058,4,1,0,80,0,0
74332,-108.240764660295,4,1,0,80,0,0
74475,-108.911320019062,4,1,0,80,0,0
74618,-109.590235396687,4,1,0,80,0,0
74761,-110.277668114226,4,1,0,80,0,0
74856,-110.739141925822,4,1,0,80,0,0
74951,-111.204494183218,4,1,0,80,0,0
75047,-111.678734840745,4,1,0,80,0,0
75189,-112.38767937771,4,1,0,80,0,0
75332,-113.110771168901,4,1,0,80,0,0
75475,-113.843227822307,4,1,0,80,0,0
75618,-114.585232452142,4,1,0,80,0,0
75761,-115.336972977933,4,1,0,80,0,0
75904,-116.098642283181,4,1,0,80,0,0
76047,-116.870438380364,4,1,0,80,0,0
76189,-117.647058823529,4,1,0,80,0,0
76475,-133.333333333333,4,1,0,80,0,0
81618,-90.9090909090909,4,1,0,80,0,0
83337,-90.9090909090909,4,1,0,80,0,1
97052,-90.9090909090909,4,1,0,80,0,0
98761,-100,4,1,0,80,0,0
111189,-111.111111111111,4,1,0,80,0,0
114189,-83.3333333333333,4,1,0,80,0,0
114332,-83.6823351393567,4,1,0,80,0,0
114404,-83.8591651258572,4,1,0,80,0,0
114475,-84.0342724937749,4,1,0,80,0,0
114547,-84.2125945574221,4,1,0,80,0,0
114618,-84.3891825905471,4,1,0,80,0,0
114689,-84.5665127658735,4,1,0,80,0,0
114761,-84.7471032546368,4,1,0,80,0,0
114904,-85.1080729554503,4,1,0,80,0,0
115047,-85.4721308206202,4,1,0,80,0,0
115189,-85.8367379636305,4,1,0,80,0,0
115261,-86.0228002569043,4,1,0,80,0,0
115332,-86.2070699451903,4,1,0,80,0,0
115475,-86.5806112760843,4,1,0,80,0,0
115618,-86.9574038568835,4,1,0,80,0,0
115689,-87.1457037127404,4,1,0,80,0,0
115832,-87.5274416704957,4,1,0,80,0,0
115904,-87.7209140494684,4,1,0,80,0,0
116047,-88.1077191900504,4,1,0,80,0,0
116118,-88.3010393811099,4,1,0,80,0,0
116189,-88.4952097786587,4,1,0,80,0,0
116261,-88.6929889909776,4,1,0,80,0,0
116332,-88.8888888888889,4,1,0,80,0,0
116404,-89.0884336773402,4,1,0,80,0,0
116475,-89.2860862862738,4,1,0,80,0,0
116547,-89.487420398789,4,1,0,80,0,0
116618,-89.6868493466001,4,1,0,80,0,0
116761,-90.0912263000799,4,1,0,80,0,0
116904,-90.4992662506994,4,1,0,80,0,0
116975,-90.7032357733901,4,1,0,80,0,0
117047,-90.9110191960971,4,1,0,80,0,0
117189,-91.3236171482144,4,1,0,80,0,0
117332,-91.7429228875689,4,1,0,80,0,0
117404,-91.9555026335833,4,1,0,80,0,0
117475,-92.1660968109584,4,1,0,80,0,0
117547,-92.3806444659985,4,1,0,80,0,0
117618,-92.5931926936496,4,1,0,80,0,0
117761,-93.0242653123237,4,1,0,80,0,0
117832,-93.2397889813455,4,1,0,80,0,0
117904,-93.4593704684962,4,1,0,80,0,0
117975,-93.6769173606102,4,1,0,80,0,0
118047,-93.8985650125972,4,1,0,80,0,0
118118,-94.1181637515509,4,1,0,80,0,0
118261,-94.5635866207749,4,1,0,80,0,0
118332,-94.7863106098303,4,1,0,80,0,0
118475,-95.2380952380952,4,1,0,80,0,0
118618,-95.6942072183708,4,1,0,80,0,0
118761,-96.1547090231974,4,1,0,80,0,0
118808,-96.3070320311886,4,1,0,80,0,0
118856,-96.4630948763828,4,1,0,80,0,0
118904,-96.6196643334573,4,1,0,80,0,0
119047,-97.0891380677314,4,1,0,80,0,0
119189,-97.5598652462897,4,1,0,80,0,0
119261,-97.8002920774005,4,1,0,80,0,0
119332,-98.0385429175959,4,1,0,80,0,0
119404,-98.2813377819053,4,1,0,80,0,0
119475,-98.5219410155621,4,1,0,80,0,0
119547,-98.7671390713216,4,1,0,80,0,0
119618,-99.0101297111242,4,1,0,80,0,0
119689,-99.2543189291835,4,1,0,80,0,0
119761,-99.5031805729674,4,1,0,80,0,0
119904,-100.001166602504,4,1,0,80,0,0
120047,-100.504162269903,4,1,0,80,0,0
120118,-100.755785935094,4,1,0,80,0,0
120189,-101.008672699849,4,1,0,80,0,0
120332,-101.521880736661,4,1,0,80,0,0
120404,-101.782258160273,4,1,0,80,0,0
120475,-102.040330452587,4,1,0,80,0,0
120618,-102.564102564103,4,1,0,80,0,0
120761,-103.093279453505,4,1,0,80,0,0
120832,-103.358051486104,4,1,0,80,0,0
120904,-103.627945212104,4,1,0,80,0,0
121047,-104.168185684773,4,1,0,80,0,0
121118,-104.438515052938,4,1,0,80,0,0
121189,-104.710251148246,4,1,0,80,0,0
121261,-104.98726239467,4,1,0,80,0,0
121332,-105.261865291337,4,1,0,80,0,0
121475,-105.819322025529,4,1,0,80,0,0
121547,-106.102240376284,4,1,0,80,0,0
121689,-106.664675725449,4,1,0,80,0,0
121761,-106.952138543694,4,1,0,80,0,0
121904,-107.527691014689,4,1,0,80,0,0
122047,-108.109471560096,4,1,0,80,0,0
122118,-108.400672761991,4,1,0,80,0,0
122189,-108.693446946642,4,1,0,80,0,0
122261,-108.991964194894,4,1,0,80,0,0
122332,-109.287945432524,4,1,0,80,0,0
122475,-109.888982898751,4,1,0,80,0,0
122523,-110.092214430659,4,1,0,80,0,0
122570,-110.291941688861,4,1,0,80,0,0
122618,-110.496667826804,4,1,0,80,0,0
122761,-111.111111111111,4,1,0,80,0,0
124475,-83.3333333333333,4,1,0,80,0,0
124618,-84.0848416051796,4,1,0,80,0,0
124689,-84.4630263102327,4,1,0,80,0,0
124761,-84.850027576259,4,1,0,80,0,0
124904,-85.6292680838311,4,1,0,80,0,0
125047,-86.4229539365656,4,1,0,80,0,0
125189,-87.2257839417332,4,1,0,80,0,0
125261,-87.6385785022567,4,1,0,80,0,0
125332,-88.0494838099012,4,1,0,80,0,0
125404,-88.4701302722668,4,1,0,80,0,0
125475,-88.8888888888889,4,1,0,80,0,0
125547,-89.3176134333691,4,1,0,80,0,0
125618,-89.7444526710193,4,1,0,80,0,0
125761,-90.6166462779213,4,1,0,80,0,0
125904,-91.5059593256011,4,1,0,80,0,0
126047,-92.4129008409574,4,1,0,80,0,0
126118,-92.8699124701075,4,1,0,80,0,0
126189,-93.3314667039993,4,1,0,80,0,0
126332,-94.2751420019326,4,1,0,80,0,0
126475,-95.2380952380952,4,1,0,80,0,0
127904,-83.3333333333333,4,1,0,80,0,0
128047,-83.9903695943835,4,1,0,80,0,0
128118,-84.3204546293221,4,1,0,80,0,0
128189,-84.6531443919607,4,1,0,80,0,0
128261,-84.99321170191,4,1,0,80,0,0
128332,-85.3312420643812,4,1,0,80,0,0
128404,-85.6767904011999,4,1,0,80,0,0
128475,-86.0202910008094,4,1,0,80,0,0
128618,-86.7205586549774,4,1,0,80,0,0
128761,-87.4323212611682,4,1,0,80,0,0
128904,-88.1558641975309,4,1,0,80,0,0
129047,-88.8914823675867,4,1,0,80,0,0
129118,-89.2612992695027,4,1,0,80,0,0
129261,-90.015560676791,4,1,0,80,0,0
129332,-90.3948097159585,4,1,0,80,0,0
129404,-90.7826777910211,4,1,0,80,0,0
129475,-91.1684321822571,4,1,0,80,0,0
129547,-91.5629821081525,4,1,0,80,0,0
129618,-91.9554106805103,4,1,0,80,0,0
129761,-92.7560940956788,4,1,0,80,0,0
129904,-93.5708435708436,4,1,0,80,0,0
129975,-93.9807103049746,4,1,0,80,0,0
130047,-94.4000330503398,4,1,0,80,0,0
130189,-95.2380952380952,4,1,0,80,0,0
131332,-100,4,1,0,80,0,0
131475,-99.309714209178,4,1,0,80,0,0
131547,-98.9657523219318,4,1,0,80,0,0
131618,-98.6288929753243,4,1,0,80,0,0
131761,-97.9573429700006,4,1,0,80,0,0
131832,-97.6273020438091,4,1,0,80,0,0
131975,-96.969276662793,4,1,0,80,0,0
132047,-96.6413093044074,4,1,0,80,0,0
132189,-96.0009439649476,4,1,0,80,0,0
132332,-95.3645884038218,4,1,0,80,0,0
132475,-94.7366136315252,4,1,0,80,0,0
132523,-94.5276747654657,4,1,0,80,0,0
132570,-94.3239798848507,4,1,0,80,0,0
132618,-94.1168551689424,4,1,0,80,0,0
132689,-93.8121456725724,4,1,0,80,0,0
132761,-93.5051528130153,4,1,0,80,0,0
132904,-92.9013504986812,4,1,0,80,0,0
132975,-92.6044483168659,4,1,0,80,0,0
133047,-92.3052961661264,4,1,0,80,0,0
133189,-91.7209306481551,4,1,0,80,0,0
133332,-91.1398798447552,4,1,0,80,0,0
133380,-90.9464886087302,4,1,0,80,0,0
133427,-90.7579199587149,4,1,0,80,0,0
133475,-90.5661445947339,4,1,0,80,0,0
133618,-89.9995876057981,4,1,0,80,0,0
133761,-89.4400749997486,4,1,0,80,0,0
133832,-89.1648515978024,4,1,0,80,0,0
133904,-88.8874762070121,4,1,0,80,0,0
133975,-88.6156380250336,4,1,0,80,0,0
134047,-88.3416638650579,4,1,0,80,0,0
134118,-88.073148828157,4,1,0,80,0,0
134189,-87.8062611511359,4,1,0,80,0,0
134261,-87.5372612622904,4,1,0,80,0,0
134332,-87.2736066387507,4,1,0,80,0,0
134404,-87.0078555518854,4,1,0,80,0,0
134475,-86.7473755882663,4,1,0,80,0,0
134618,-86.2274525020284,4,1,0,80,0,0
134689,-85.9716173801385,4,1,0,80,0,0
134761,-85.7137246348407,4,1,0,80,0,0
134832,-85.4609244037864,4,1,0,80,0,0
134904,-85.2060819124574,4,1,0,80,0,0
134975,-84.956262887857,4,1,0,80,0,0
135047,-84.7044168529548,4,1,0,80,0,0
135189,-84.2120714178789,4,1,0,80,0,0
135261,-83.964611824326,4,1,0,80,0,0
135404,-83.4774171977553,4,1,0,80,0,0
135475,-83.2376177609872,4,1,0,80,0,0
135618,-82.758799147979,4,1,0,80,0,0
135761,-82.2854577691698,4,1,0,80,0,0
135904,-81.8175001774284,4,1,0,80,0,0
135951,-81.664855934774,4,1,0,80,0,0
135999,-81.5095506976508,4,1,0,80,0,0
136047,-81.3548350393388,4,1,0,80,0,0
136118,-81.1270586982014,4,1,0,80,0,0
136189,-80.9005542472549,4,1,0,80,0,0
136332,-80.4481726990086,4,1,0,80,0,0
136404,-80.2223097436143,4,1,0,80,0,0
136475,-80.0008222922496,4,1,0,80,0,0
136547,-79.7774607905764,4,1,0,80,0,0
136618,-79.558419560683,4,1,0,80,0,0
136689,-79.3405778597485,4,1,0,80,0,0
136761,-79.1208828741274,4,1,0,80,0,0
136808,-78.9781260191887,4,1,0,80,0,0
136856,-78.8328625128665,4,1,0,80,0,0
136904,-78.6881323883015,4,1,0,80,0,0
136975,-78.4750241648026,4,1,0,80,0,0
137047,-78.2600899962502,4,1,0,80,0,0
137118,-78.0492908646543,4,1,0,80,0,0
137189,-77.8396242874204,4,1,0,80,0,0
137261,-77.6281519143876,4,1,0,80,0,0
137332,-77.420738867311,4,1,0,80,0,0
137475,-77.0063376878506,4,1,0,80,0,0
137547,-76.7993627568115,4,1,0,80,0,0
137618,-76.5963491255561,4,1,0,80,0,0
137654,-76.4938221616915,4,1,0,80,0,0
137689,-76.3944059686525,4,1,0,80,0,0
137761,-76.1907030741854,4,1,0,80,0,0
137904,-75.7893309047736,4,1,0,80,0,0
138047,-75.3921654269253,4,1,0,80,0,0
138189,-75.0001875004688,4,1,0,80,0,0
139047,-90.9090909090909,4,1,0,80,0,0
139904,-94.1172594977887,4,1,0,80,0,0
140189,-95.2349205820097,4,1,0,80,0,0
140475,-96.3835098846232,4,1,0,80,0,0
140618,-96.968257066006,4,1,0,80,0,0
140761,-97.5601427376257,4,1,0,80,0,0
141047,-98.7658588861617,4,1,0,80,0,0
141332,-99.9973749376548,4,1,0,80,0,0
141475,-100.626937165399,4,1,0,80,0,0
141618,-101.26447679725,4,1,0,80,0,0
141761,-101.910146426724,4,1,0,80,0,0
141904,-102.564102564103,4,1,0,80,0,0
142047,-103.226505762908,4,1,0,80,0,0
142189,-103.892798050874,4,1,0,80,0,0
142332,-104.572531866805,4,1,0,80,0,0
142475,-105.26121877533,4,1,0,80,0,0
142618,-105.959036837177,4,1,0,80,0,0
142761,-106.666168866322,4,1,0,80,0,0
142904,-107.382802589666,4,1,0,80,0,0
143047,-108.109130813183,4,1,0,80,0,0
143332,-109.586413892964,4,1,0,80,0,0
143475,-110.342963077398,4,1,0,80,0,0
143618,-111.110030820686,4,1,0,80,0,0
143761,-111.887838023067,4,1,0,80,0,0
143904,-112.676611813888,4,1,0,80,0,0
144047,-113.476585772729,4,1,0,80,0,0
144189,-114.282285645713,4,1,0,80,0,0
144475,-115.940264588913,4,1,0,80,0,0
144761,-117.647058823529,4,1,0,80,0,0
145046,-133.333333333333,4,1,0,80,0,0
150189,-90.9090909090909,4,1,0,80,0,0
151909,-90.9090909090909,4,1,0,80,0,1
165623,-90.9090909090909,4,1,0,80,0,0
165832,-100,4,1,0,80,0,0

[HitObjects]
256,192,1052,5,0,0:0:0:0:
256,192,1337,1,0,0:0:0:0:
256,192,1480,1,0,0:0:0:0:
256,192,1623,1,0,0:0:0:0:
256,192,1909,1,8,0:0:0:0:
256,192,2194,1,0,0:0:0:0:
256,192,2480,1,0,0:0:0:0:
256,192,3052,1,0,0:0:0:0:
256,192,3337,1,0,0:0:0:0:
256,192,3623,1,8,0:0:0:0:
256,192,3909,1,0,0:0:0:0:
256,192,4194,1,0,0:0:0:0:
256,192,4480,1,0,0:0:0:0:
256,192,4766,1,0,0:0:0:0:
256,192,4909,1,0,0:0:0:0:
256,192,5052,1,0,0:0:0:0:
256,192,5337,1,8,0:0:0:0:
256,192,5623,1,0,0:0:0:0:
256,192,5909,1,0,0:0:0:0:
256,192,6194,1,0,0:0:0:0:
256,192,6480,1,8,0:0:0:0:
256,192,6623,1,8,0:0:0:0:
256,192,6766,1,0,0:0:0:0:
256,192,7052,1,8,0:0:0:0:
256,192,7337,1,0,0:0:0:0:
256,192,7623,1,0,0:0:0:0:
256,192,7909,1,0,0:0:0:0:
256,192,8337,1,0,0:0:0:0:
256,192,8623,1,0,0:0:0:0:
256,192,8766,1,8,0:0:0:0:
256,192,9052,1,0,0:0:0:0:
256,192,9337,1,0,0:0:0:0:
256,192,9623,1,0,0:0:0:0:
256,192,9909,1,0,0:0:0:0:
256,192,10052,1,0,0:0:0:0:
256,192,10194,1,0,0:0:0:0:
256,192,10480,1,8,0:0:0:0:
256,192,10766,1,0,0:0:0:0:
256,192,11052,1,0,0:0:0:0:
256,192,11337,1,0,0:0:0:0:
256,192,11766,1,0,0:0:0:0:
256,192,12052,1,0,0:0:0:0:
256,192,12480,1,0,0:0:0:0:
256,192,12766,1,0,0:0:0:0:
256,192,14766,5,4,0:0:0:0:
256,192,14909,1,0,0:0:0:0:
256,192,14980,1,0,0:0:0:0:
256,192,15052,1,8,0:0:0:0:
256,192,15194,1,8,0:0:0:0:
256,192,15337,1,0,0:0:0:0:
256,192,15480,1,0,0:0:0:0:
256,192,15623,1,8,0:0:0:0:
256,192,15766,1,8,0:0:0:0:
256,192,15837,1,8,0:0:0:0:
256,192,15909,1,0,0:0:0:0:
256,192,15980,1,8,0:0:0:0:
256,192,16052,1,0,0:0:0:0:
256,192,16194,1,8,0:0:0:0:
256,192,16337,1,0,0:0:0:0:
256,192,16480,1,8,0:0:0:0:
256,192,16623,1,8,0:0:0:0:
256,192,16766,1,0,0:0:0:0:
256,192,16813,1,0,0:0:0:0:
256,192,16861,1,0,0:0:0:0:
256,192,16909,1,8,0:0:0:0:
256,192,17052,1,0,0:0:0:0:
256,192,17194,1,0,0:0:0:0:
256,192,17337,1,8,0:0:0:0:
256,192,17480,1,0,0:0:0:0:
256,192,17552,1,8,0:0:0:0:
256,192,17623,1,0,0:0:0:0:
256,192,17694,1,0,0:0:0:0:
256,192,17766,1,8,0:0:0:0:
256,192,17837,1,8,0:0:0:0:
256,192,17909,1,0,0:0:0:0:
256,192,18052,1,8,0:0:0:0:
256,192,18194,1,0,0:0:0:0:
256,192,18337,1,0,0:0:0:0:
256,192,18409,1,0,0:0:0:0:
256,192,18480,1,8,0:0:0:0:
256,192,18623,1,8,0:0:0:0:
256,192,18766,1,0,0:0:0:0:
256,192,18909,1,0,0:0:0:0:
256,192,19052,1,8,0:0:0:0:
256,192,19123,1,0,0:0:0:0:
256,192,19194,1,8,0:0:0:0:
256,192,19266,1,8,0:0:0:0:
256,192,19337,1,0,0:0:0:0:
256,192,19480,1,8,0:0:0:0:
256,192,19623,1,0,0:0:0:0:
256,192,19694,1,0,0:0:0:0:
256,192,19766,1,8,0:0:0:0:
256,192,19909,1,0,0:0:0:0:
256,192,20052,1,0,0:0:0:0:
256,192,20194,1,8,0:0:0:0:
256,192,20242,1,8,0:0:0:0:
256,192,20290,1,8,0:0:0:0:
256,192,20337,1,0,0:0:0:0:
256,192,20409,1,8,0:0:0:0:
256,192,20480,1,0,0:0:0:0:
256,192,20623,1,0,0:0:0:0:
256,192,20766,1,8,0:0:0:0:
256,192,20909,1,8,0:0:0:0:
256,192,20980,1,8,0:0:0:0:
256,192,21052,1,0,0:0:0:0:
256,192,21194,1,8,0:0:0:0:
256,192,21337,1,0,0:0:0:0:
256,192,21409,1,8,0:0:0:0:
256,192,21480,1,8,0:0:0:0:
256,192,21623,1,0,0:0:0:0:
256,192,21766,1,0,0:0:0:0:
256,192,21837,1,0,0:0:0:0:
256,192,21909,1,8,0:0:0:0:
256,192,22052,1,0,0:0:0:0:
256,192,22123,1,8,0:0:0:0:
256,192,22266,1,8,0:0:0:0:
256,192,22337,1,0,0:0:0:0:
256,192,22480,1,8,0:0:0:0:
256,192,22623,1,8,0:0:0:0:
256,192,22694,1,8,0:0:0:0:
256,192,22766,1,0,0:0:0:0:
256,192,22837,1,0,0:0:0:0:
256,192,22909,1,8,0:0:0:0:
256,192,23052,1,0,0:0:0:0:
256,192,23194,1,0,0:0:0:0:
256,192,23337,1,8,0:0:0:0:
256,192,23480,1,8,0:0:0:0:
256,192,23552,1,8,0:0:0:0:
256,192,23623,1,0,0:0:0:0:
256,192,23671,1,8,0:0:0:0:
256,192,23718,1,8,0:0:0:0:
256,192,23766,1,0,0:0:0:0:
256,192,23909,1,0,0:0:0:0:
256,192,24052,1,0,0:0:0:0:
256,192,24123,1,0,0:0:0:0:
256,192,24194,1,8,0:0:0:0:
256,192,24337,1,8,0:0:0:0:
256,192,24480,1,0,0:0:0:0:
256,192,24552,1,8,0:0:0:0:
256,192,24623,1,8,0:0:0:0:
256,192,24694,1,8,0:0:0:0:
256,192,24766,1,0,0:0:0:0:
256,192,24837,1,0,0:0:0:0:
256,192,24909,1,8,0:0:0:0:
256,192,25052,1,0,0:0:0:0:
256,192,25194,1,0,0:0:0:0:
256,192,25337,1,8,0:0:0:0:
256,192,25409,1,8,0:0:0:0:
256,192,25480,1,0,0:0:0:0:
256,192,25552,1,8,0:0:0:0:
256,192,25694,1,8,0:0:0:0:
256,192,25766,1,0,0:0:0:0:
256,192,25909,1,8,0:0:0:0:
256,192,25980,1,8,0:0:0:0:
256,192,26052,1,0,0:0:0:0:
256,192,26123,1,8,0:0:0:0:
256,192,26194,1,0,0:0:0:0:
256,192,26337,1,8,0:0:0:0:
256,192,26480,1,0,0:0:0:0:
256,192,26552,1,0,0:0:0:0:
256,192,26623,1,8,0:0:0:0:
256,192,26766,1,0,0:0:0:0:
256,192,26909,1,8,0:0:0:0:
256,192,27052,1,0,0:0:0:0:
256,192,27099,1,0,0:0:0:0:
256,192,27147,1,0,0:0:0:0:
256,192,27194,1,8,0:0:0:0:
256,192,27266,1,0,0:0:0:0:
256,192,27337,1,8,0:0:0:0:
256,192,27409,1,8,0:0:0:0:
256,192,27480,1,0,0:0:0:0:
256,192,27623,1,8,0:0:0:0:
256,192,27766,1,0,0:0:0:0:
256,192,27837,1,8,0:0:0:0:
256,192,27909,1,0,0:0:0:0:
256,192,27944,1,0,0:0:0:0:
256,192,27980,1,0,0:0:0:0:
256,192,28052,1,0,0:0:0:0:
256,192,28194,1,8,0:0:0:0:
256,192,28337,1,0,0:0:0:0:
256,192,28480,1,4,0:0:0:0:
256,192,28694,1,0,0:0:0:0:
256,192,28766,1,8,0:0:0:0:
256,192,28909,1,8,0:0:0:0:
256,192,29052,1,0,0:0:0:0:
256,192,29194,1,0,0:0:0:0:
256,192,29266,1,0,0:0:0:0:
256,192,29337,1,8,0:0:0:0:
256,192,29480,1,8,0:0:0:0:
256,192,29552,1,8,0:0:0:0:
256,192,29623,1,0,0:0:0:0:
256,192,29766,1,0,0:0:0:0:
256,192,29909,1,8,0:0:0:0:
256,192,30052,1,0,0:0:0:0:
256,192,30194,1,8,0:0:0:0:
256,192,30337,1,8,0:0:0:0:
256,192,30480,1,0,0:0:0:0:
256,192,30528,1,0,0:0:0:0:
256,192,30575,1,0,0:0:0:0:
256,192,30623,1,8,0:0:0:0:
256,192,30766,1,0,0:0:0:0:
256,192,30909,1,0,0:0:0:0:
256,192,31052,1,8,0:0:0:0:
256,192,31123,1,0,0:0:0:0:
256,192,31194,1,8,0:0:0:0:
256,192,31266,1,8,0:0:0:0:
256,192,31337,1,0,0:0:0:0:
256,192,31480,1,8,0:0:0:0:
256,192,31623,1,0,0:0:0:0:
256,192,31694,1,8,0:0:0:0:
256,192,31766,1,8,0:0:0:0:
256,192,31909,1,0,0:0:0:0:
256,192,32052,1,8,0:0:0:0:
256,192,32123,1,8,0:0:0:0:
256,192,32194,1,8,0:0:0:0:
256,192,32337,1,0,0:0:0:0:
256,192,32409,1,0,0:0:0:0:
256,192,32480,1,8,0:0:0:0:
256,192,32552,1,8,0:0:0:0:
256,192,32623,1,0,0:0:0:0:
256,192,32766,1,8,0:0:0:0:
256,192,32909,1,0,0:0:0:0:
256,192,33052,1,8,0:0:0:0:
256,192,33087,1,8,0:0:0:0:
256,192,33123,1,8,0:0:0:0:
256,192,33194,1,0,0:0:0:0:
256,192,33337,1,8,0:0:0:0:
256,192,33480,1,0,0:0:0:0:
256,192,33552,1,8,0:0:0:0:
256,192,33623,1,0,0:0:0:0:
256,192,33766,1,8,0:0:0:0:
256,192,33837,1,8,0:0:0:0:
256,192,33909,1,0,0:0:0:0:
256,192,33956,1,0,0:0:0:0:
256,192,34004,1,0,0:0:0:0:
256,192,34052,1,8,0:0:0:0:
256,192,34194,1,0,0:0:0:0:
256,192,34337,1,8,0:0:0:0:
256,192,34480,1,8,0:0:0:0:
256,192,34623,1,0,0:0:0:0:
256,192,34694,1,8,0:0:0:0:
256,192,34766,1,0,0:0:0:0:
256,192,34837,1,0,0:0:0:0:
256,192,34909,1,8,0:0:0:0:
256,192,34980,1,8,0:0:0:0:
256,192,35052,1,0,0:0:0:0:
256,192,35123,1,0,0:0:0:0:
256,192,35194,1,8,0:0:0:0:
256,192,35337,1,0,0:0:0:0:
256,192,35480,1,0,0:0:0:0:
256,192,35552,1,0,0:0:0:0:
256,192,35623,1,8,0:0:0:0:
256,192,35766,1,0,0:0:0:0:
256,192,35980,1,8,0:0:0:0:
256,192,36052,1,0,0:0:0:0:
256,192,36194,1,8,0:0:0:0:
256,192,36337,1,8,0:0:0:0:
256,192,36409,1,8,0:0:0:0:
256,192,36480,1,0,0:0:0:0:
256,192,36623,1,8,0:0:0:0:
256,192,36766,1,0,0:0:0:0:
256,192,36837,1,8,0:0:0:0:
256,192,36909,1,8,0:0:0:0:
256,192,37052,1,0,0:0:0:0:
256,192,37194,1,8,0:0:0:0:
256,192,37337,1,0,0:0:0:0:
256,192,37385,1,8,0:0:0:0:
256,192,37432,1,8,0:0:0:0:
256,192,37480,1,0,0:0:0:0:
256,192,37623,1,0,0:0:0:0:
256,192,37766,1,0,0:0:0:0:
256,192,37837,1,0,0:0:0:0:
256,192,37909,1,8,0:0:0:0:
256,192,38052,1,0,0:0:0:0:
256,192,38194,1,8,0:0:0:0:
256,192,38230,1,8,0:0:0:0:
256,192,38266,1,8,0:0:0:0:
256,192,38337,1,0,0:0:0:0:
256,192,38480,1,8,0:0:0:0:
256,192,38552,1,0,0:0:0:0:
256,192,38623,1,8,0:0:0:0:
256,192,38766,1,0,0:0:0:0:
256,192,38909,1,8,0:0:0:0:
256,192,38980,1,8,0:0:0:0:
256,192,39052,1,8,0:0:0:0:
256,192,39194,1,0,0:0:0:0:
256,192,39266,1,8,0:0:0:0:
256,192,39409,1,8,0:0:0:0:
256,192,39480,1,0,0:0:0:0:
256,192,39623,1,8,0:0:0:0:
256,192,39766,1,0,0:0:0:0:
256,192,39909,1,8,0:0:0:0:
256,192,39944,1,8,0:0:0:0:
256,192,39980,1,8,0:0:0:0:
256,192,40052,1,0,0:0:0:0:
256,192,40194,1,8,0:0:0:0:
256,192,40337,1,0,0:0:0:0:
256,192,40409,1,8,0:0:0:0:
256,192,40480,1,0,0:0:0:0:
256,192,40623,1,8,0:0:0:0:
256,192,40694,1,8,0:0:0:0:
256,192,40766,1,0,0:0:0:0:
256,192,40813,1,8,0:0:0:0:
256,192,40861,1,8,0:0:0:0:
256,192,40909,1,0,0:0:0:0:
256,192,40980,1,0,0:0:0:0:
256,192,41052,1,8,0:0:0:0:
256,192,41194,1,0,0:0:0:0:
256,192,41337,1,8,0:0:0:0:
256,192,41480,1,0,0:0:0:0:
256,192,41552,1,8,0:0:0:0:
256,192,41623,1,0,0:0:0:0:
256,192,41659,1,0,0:0:0:0:
256,192,41694,1,0,0:0:0:0:
256,192,41766,1,0,0:0:0:0:
256,192,41909,1,8,0:0:0:0:
256,192,42052,1,0,0:0:0:0:
256,192,42194,1,4,0:0:0:0:
256,192,43052,5,8,0:0:0:0:
256,192,43909,5,0,0:0:0:0:
256,192,44052,1,8,0:0:0:0:
256,192,44123,1,8,0:0:0:0:
256,192,44194,1,8,0:0:0:0:
256,192,44266,1,0,0:0:0:0:
256,192,44337,1,8,0:0:0:0:
256,192,44409,1,8,0:0:0:0:
256,192,44480,1,0,0:0:0:0:
256,192,44623,1,0,0:0:0:0:
256,192,44766,1,8,0:0:0:0:
256,192,44909,1,8,0:0:0:0:
256,192,44980,1,8,0:0:0:0:
256,192,45052,1,0,0:0:0:0:
256,192,45123,1,8,0:0:0:0:
256,192,45266,1,8,0:0:0:0:
256,192,45337,1,0,0:0:0:0:
256,192,45409,1,0,0:0:0:0:
256,192,45480,1,8,0:0:0:0:
256,192,45552,1,8,0:0:0:0:
256,192,45623,1,0,0:0:0:0:
256,192,45766,1,0,0:0:0:0:
256,192,45837,1,8,0:0:0:0:
256,192,45909,1,0,0:0:0:0:
256,192,45980,1,0,0:0:0:0:
256,192,46052,1,8,0:0:0:0:
256,192,46123,1,0,0:0:0:0:
256,192,46194,1,8,0:0:0:0:
256,192,46266,1,8,0:0:0:0:
256,192,46337,1,0,0:0:0:0:
256,192,46480,1,8,0:0:0:0:
256,192,46623,1,8,0:0:0:0:
256,192,46694,1,8,0:0:0:0:
256,192,46766,1,0,0:0:0:0:
256,192,46909,1,8,0:0:0:0:
256,192,47052,1,0,0:0:0:0:
256,192,47123,1,8,0:0:0:0:
256,192,47266,1,8,0:0:0:0:
256,192,47337,1,0,0:0:0:0:
256,192,47480,1,0,0:0:0:0:
256,192,47552,1,0,0:0:0:0:
256,192,47623,1,8,0:0:0:0:
256,192,47694,1,8,0:0:0:0:
256,192,47766,1,8,0:0:0:0:
256,192,47837,1,8,0:0:0:0:
256,192,47909,1,0,0:0:0:0:
256,192,48052,1,0,0:0:0:0:
256,192,48123,1,0,0:0:0:0:
256,192,48194,1,8,0:0:0:0:
256,192,48337,1,0,0:0:0:0:
256,192,48409,1,8,0:0:0:0:
256,192,48480,1,0,0:0:0:0:
256,192,48552,1,0,0:0:0:0:
256,192,48623,1,8,0:0:0:0:
256,192,48694,1,8,0:0:0:0:
256,192,48766,1,0,0:0:0:0:
256,192,48837,1,8,0:0:0:0:
256,192,48909,1,8,0:0:0:0:
256,192,48980,1,8,0:0:0:0:
256,192,49052,1,0,0:0:0:0:
256,192,49194,1,8,0:0:0:0:
256,192,49266,1,0,0:0:0:0:
256,192,49337,1,8,0:0:0:0:
256,192,49409,1,8,0:0:0:0:
256,192,49480,1,0,0:0:0:0:
256,192,49552,1,8,0:0:0:0:
256,192,49694,1,8,0:0:0:0:
256,192,49766,1,0,0:0:0:0:
256,192,49909,1,8,0:0:0:0:
256,192,50052,1,0,0:0:0:0:
256,192,50194,1,8,0:0:0:0:
256,192,50242,1,8,0:0:0:0:
256,192,50290,1,8,0:0:0:0:
256,192,50337,1,0,0:0:0:0:
256,192,50480,1,8,0:0:0:0:
256,192,50766,1,0,0:0:0:0:
256,192,50909,1,8,0:0:0:0:
256,192,50980,1,8,0:0:0:0:
256,192,51052,1,0,0:0:0:0:
256,192,51123,1,8,0:0:0:0:
256,192,51194,1,0,0:0:0:0:
256,192,51266,1,8,0:0:0:0:
256,192,51337,1,8,0:0:0:0:
256,192,51480,1,0,0:0:0:0:
256,192,51623,1,8,0:0:0:0:
256,192,51766,1,0,0:0:0:0:
256,192,51813,1,0,0:0:0:0:
256,192,51861,1,0,0:0:0:0:
256,192,51909,1,8,0:0:0:0:
256,192,52052,1,0,0:0:0:0:
256,192,52194,1,8,0:0:0:0:
256,192,52242,1,8,0:0:0:0:
256,192,52290,1,8,0:0:0:0:
256,192,52337,1,0,0:0:0:0:
256,192,52480,1,0,0:0:0:0:
256,192,52623,1,0,0:0:0:0:
256,192,52694,1,0,0:0:0:0:
256,192,52766,1,8,0:0:0:0:
256,192,52837,1,8,0:0:0:0:
256,192,52909,1,0,0:0:0:0:
256,192,52980,1,8,0:0:0:0:
256,192,53123,1,8,0:0:0:0:
256,192,53194,1,0,0:0:0:0:
256,192,53337,1,8,0:0:0:0:
256,192,53480,1,8,0:0:0:0:
256,192,53552,1,8,0:0:0:0:
256,192,53623,1,0,0:0:0:0:
256,192,53694,1,8,0:0:0:0:
256,192,53766,1,8,0:0:0:0:
256,192,53837,1,8,0:0:0:0:
256,192,53909,1,0,0:0:0:0:
256,192,53980,1,0,0:0:0:0:
256,192,54052,1,8,0:0:0:0:
256,192,54123,1,8,0:0:0:0:
256,192,54194,1,0,0:0:0:0:
256,192,54480,1,0,0:0:0:0:
256,192,54623,1,8,0:0:0:0:
256,192,54766,1,0,0:0:0:0:
256,192,54909,1,0,0:0:0:0:
256,192,55052,1,8,0:0:0:0:
256,192,55194,1,0,0:0:0:0:
256,192,55337,1,0,0:0:0:0:
256,192,55373,1,0,0:0:0:0:
256,192,55409,1,0,0:0:0:0:
256,192,55480,1,0,0:0:0:0:
256,192,55623,1,8,0:0:0:0:
256,192,55766,1,0,0:0:0:0:
256,192,55909,1,4,0:0:0:0:
256,192,56052,1,0,0:0:0:0:
256,192,56123,1,0,0:0:0:0:
256,192,56194,1,8,0:0:0:0:
256,192,56337,1,8,0:0:0:0:
256,192,56480,1,0,0:0:0:0:
256,192,56552,1,0,0:0:0:0:
256,192,56623,1,0,0:0:0:0:
256,192,56766,1,8,0:0:0:0:
256,192,56909,1,8,0:0:0:0:
256,192,56980,1,8,0:0:0:0:
256,192,57052,1,0,0:0:0:0:
256,192,57123,1,8,0:0:0:0:
256,192,57194,1,0,0:0:0:0:
256,192,57337,1,8,0:0:0:0:
256,192,57480,1,8,0:0:0:0:
256,192,57623,1,0,0:0:0:0:
256,192,57766,1,0,0:0:0:0:
256,192,57837,1,8,0:0:0:0:
256,192,57909,1,0,0:0:0:0:
256,192,57980,1,0,0:0:0:0:
256,192,58052,1,8,0:0:0:0:
256,192,58123,1,8,0:0:0:0:
256,192,58194,1,0,0:0:0:0:
256,192,58337,1,0,0:0:0:0:
256,192,58480,1,8,0:0:0:0:
256,192,58623,1,8,0:0:0:0:
256,192,58694,1,8,0:0:0:0:
256,192,58766,1,0,0:0:0:0:
256,192,58909,1,8,0:0:0:0:
256,192,59052,1,0,0:0:0:0:
256,192,59123,1,8,0:0:0:0:
256,192,59194,1,8,0:0:0:0:
256,192,59337,1,0,0:0:0:0:
256,192,59480,1,8,0:0:0:0:
256,192,59552,1,8,0:0:0:0:
256,192,59623,1,0,0:0:0:0:
256,192,59694,1,8,0:0:0:0:
256,192,59766,1,8,0:0:0:0:
256,192,59837,1,0,0:0:0:0:
256,192,59909,1,8,0:0:0:0:
256,192,59980,1,8,0:0:0:0:
256,192,60052,1,0,0:0:0:0:
256,192,60123,1,0,0:0:0:0:
256,192,60194,1,8,0:0:0:0:
256,192,60337,1,0,0:0:0:0:
256,192,60480,1,8,0:0:0:0:
256,192,60552,1,0,0:0:0:0:
256,192,60694,1,0,0:0:0:0:
256,192,60766,1,8,0:0:0:0:
256,192,60837,1,0,0:0:0:0:
256,192,60909,1,8,0:0:0:0:
256,192,60980,1,8,0:0:0:0:
256,192,61052,1,0,0:0:0:0:
256,192,61194,1,8,0:0:0:0:
256,192,61266,1,0,0:0:0:0:
256,192,61337,1,8,0:0:0:0:
256,192,61409,1,8,0:0:0:0:
256,192,61480,1,8,0:0:0:0:
256,192,61552,1,8,0:0:0:0:
256,192,61623,1,0,0:0:0:0:
256,192,61766,1,8,0:0:0:0:
256,192,61837,1,8,0:0:0:0:
256,192,61909,1,8,0:0:0:0:
256,192,62052,1,8,0:0:0:0:
256,192,62194,1,0,0:0:0:0:
256,192,62337,1,8,0:0:0:0:
256,192,62480,1,0,0:0:0:0:
256,192,62766,1,8,0:0:0:0:
256,192,62909,1,0,0:0:0:0:
256,192,63052,1,8,0:0:0:0:
256,192,63123,1,8,0:0:0:0:
256,192,63194,1,0,0:0:0:0:
256,192,63266,1,8,0:0:0:0:
256,192,63409,1,8,0:0:0:0:
256,192,63480,1,0,0:0:0:0:
256,192,63623,1,8,0:0:0:0:
256,192,63766,1,0,0:0:0:0:
256,192,63837,1,8,0:0:0:0:
256,192,63909,1,8,0:0:0:0:
256,192,63980,1,8,0:0:0:0:
256,192,64052,1,0,0:0:0:0:
256,192,64194,1,8,0:0:0:0:
256,192,64337,1,0,0:0:0:0:
256,192,64409,1,8,0:0:0:0:
256,192,64480,1,8,0:0:0:0:
256,192,64623,1,0,0:0:0:0:
256,192,64766,1,8,0:0:0:0:
256,192,64813,1,8,0:0:0:0:
256,192,64861,1,8,0:0:0:0:
256,192,64909,1,8,0:0:0:0:
256,192,64980,1,0,0:0:0:0:
256,192,65052,1,8,0:0:0:0:
256,192,65194,1,0,0:0:0:0:
256,192,65337,1,8,0:0:0:0:
256,192,65480,1,0,0:0:0:0:
256,192,65623,1,8,0:0:0:0:
256,192,65659,1,8,0:0:0:0:
256,192,65694,1,8,0:0:0:0:
256,192,65766,1,0,0:0:0:0:
256,192,65909,1,8,0:0:0:0:
256,192,66194,1,8,0:0:0:0:
256,192,66337,1,8,0:0:0:0:
256,192,66409,1,0,0:0:0:0:
256,192,66480,1,8,0:0:0:0:
256,192,66552,1,8,0:0:0:0:
256,192,66623,1,0,0:0:0:0:
256,192,66694,1,8,0:0:0:0:
256,192,66837,1,8,0:0:0:0:
256,192,66909,1,0,0:0:0:0:
256,192,67052,1,8,0:0:0:0:
256,192,67194,1,0,0:0:0:0:
256,192,67337,1,8,0:0:0:0:
256,192,67385,1,8,0:0:0:0:
256,192,67432,1,8,0:0:0:0:
256,192,67480,1,0,0:0:0:0:
256,192,67623,1,8,0:0:0:0:
256,192,67671,1,8,0:0:0:0:
256,192,67718,1,8,0:0:0:0:
256,192,67766,1,0,0:0:0:0:
256,192,67909,1,8,0:0:0:0:
256,192,68052,1,0,0:0:0:0:
256,192,68123,1,8,0:0:0:0:
256,192,68194,1,8,0:0:0:0:
256,192,68242,5,8,0:0:0:0:
256,192,68290,1,8,0:0:0:0:
256,192,68337,1,8,0:0:0:0:
256,192,68409,1,0,0:0:0:0:
256,192,68480,1,8,0:0:0:0:
256,192,68623,1,0,0:0:0:0:
256,192,68766,1,8,0:0:0:0:
256,192,68909,1,0,0:0:0:0:
256,192,68980,1,8,0:0:0:0:
256,192,69052,1,0,0:0:0:0:
256,192,69087,1,0,0:0:0:0:
256,192,69123,1,0,0:0:0:0:
256,192,69194,1,0,0:0:0:0:
256,192,69337,1,8,0:0:0:0:
256,192,69480,1,0,0:0:0:0:
256,192,69623,1,4,0:0:0:0:
256,192,69909,1,8,0:0:0:0:
256,192,70052,1,8,0:0:0:0:
256,192,70194,1,8,0:0:0:0:
256,192,70337,1,0,0:0:0:0:
256,192,70480,1,8,0:0:0:0:
256,192,70623,1,8,0:0:0:0:
256,192,70766,1,0,0:0:0:0:
256,192,70909,1,0,0:0:0:0:
256,192,71052,1,8,0:0:0:0:
256,192,71194,1,0,0:0:0:0:
256,192,71337,1,8,0:0:0:0:
256,192,71409,1,8,0:0:0:0:
256,192,71480,1,8,0:0:0:0:
256,192,71623,1,0,0:0:0:0:
256,192,71766,1,8,0:0:0:0:
256,192,71909,1,0,0:0:0:0:
256,192,72052,1,0,0:0:0:0:
256,192,72194,1,8,0:0:0:0:
256,192,72337,1,8,0:0:0:0:
256,192,72480,1,0,0:0:0:0:
256,192,72623,1,8,0:0:0:0:
256,192,72766,1,0,0:0:0:0:
256,192,72909,1,8,0:0:0:0:
256,192,73052,1,0,0:0:0:0:
256,192,73194,1,8,0:0:0:0:
256,192,73337,1,8,0:0:0:0:
256,192,73480,1,0,0:0:0:0:
256,192,73623,1,8,0:0:0:0:
256,192,73766,1,0,0:0:0:0:
256,192,73909,1,8,0:0:0:0:
256,192,74052,1,8,0:0:0:0:
256,192,74194,1,0,0:0:0:0:
256,192,74337,1,8,0:0:0:0:
256,192,74480,1,0,0:0:0:0:
256,192,74623,1,8,0:0:0:0:
256,192,74766,1,0,0:0:0:0:
256,192,74861,1,8,0:0:0:0:
256,192,74956,1,8,0:0:0:0:
256,192,75052,1,0,0:0:0:0:
256,192,75194,1,0,0:0:0:0:
256,192,75337,1,8,0:0:0:0:
256,192,75480,1,8,0:0:0:0:
256,192,75623,1,0,0:0:0:0:
256,192,75766,1,8,0:0:0:0:
256,192,75909,1,0,0:0:0:0:
256,192,76052,1,8,0:0:0:0:
256,192,76194,1,0,0:0:0:0:
256,192,76480,5,0,0:0:0:0:
256,192,76909,1,0,0:0:0:0:
256,192,77194,1,0,0:0:0:0:
256,192,77337,1,0,0:0:0:0:
256,192,77623,1,0,0:0:0:0:
256,192,77909,1,0,0:0:0:0:
256,192,78194,1,0,0:0:0:0:
256,192,78480,1,0,0:0:0:0:
256,192,78623,1,0,0:0:0:0:
256,192,78766,1,0,0:0:0:0:
256,192,79337,1,0,0:0:0:0:
256,192,79623,1,0,0:0:0:0:
256,192,79909,1,0,0:0:0:0:
256,192,80337,1,0,0:0:0:0:
256,192,80623,1,0,0:0:0:0:
256,192,81052,1,0,0:0:0:0:
256,192,81337,1,0,0:0:0:0:
256,192,83337,1,4,0:0:0:0:
256,192,83480,1,0,0:0:0:0:
256,192,83552,1,0,0:0:0:0:
256,192,83623,1,8,0:0:0:0:
256,192,83766,1,8,0:0:0:0:
256,192,83909,1,0,0:0:0:0:
256,192,84052,1,0,0:0:0:0:
256,192,84194,1,8,0:0:0:0:
256,192,84337,1,8,0:0:0:0:
256,192,84409,1,8,0:0:0:0:
256,192,84480,1,0,0:0:0:0:
256,192,84552,1,8,0:0:0:0:
256,192,84623,1,0,0:0:0:0:
256,192,84766,1,8,0:0:0:0:
256,192,84909,1,0,0:0:0:0:
256,192,85052,1,8,0:0:0:0:
256,192,85194,1,8,0:0:0:0:
256,192,85337,1,0,0:0:0:0:
256,192,85385,1,0,0:0:0:0:
256,192,85432,1,0,0:0:0:0:
256,192,85480,1,8,0:0:0:0:
256,192,85623,1,0,0:0:0:0:
256,192,85766,1,0,0:0:0:0:
256,192,85909,1,8,0:0:0:0:
256,192,86052,1,8,0:0:0:0:
256,192,86123,1,8,0:0:0:0:
256,192,86194,1,0,0:0:0:0:
256,192,86337,1,8,0:0:0:0:
256,192,86480,1,0,0:0:0:0:
256,192,86552,1,8,0:0:0:0:
256,192,86623,1,8,0:0:0:0:
256,192,86766,1,0,0:0:0:0:
256,192,86909,1,0,0:0:0:0:
256,192,86980,1,0,0:0:0:0:
256,192,87052,1,8,0:0:0:0:
256,192,87194,1,8,0:0:0:0:
256,192,87337,1,0,0:0:0:0:
256,192,87480,1,0,0:0:0:0:
256,192,87623,1,8,0:0:0:0:
256,192,87694,1,0,0:0:0:0:
256,192,87766,1,8,0:0:0:0:
256,192,87837,1,8,0:0:0:0:
256,192,87909,1,0,0:0:0:0:
256,192,88052,1,8,0:0:0:0:
256,192,88194,1,0,0:0:0:0:
256,192,88266,1,0,0:0:0:0:
256,192,88337,1,8,0:0:0:0:
256,192,88480,1,0,0:0:0:0:
256,192,88623,1,0,0:0:0:0:
256,192,88766,1,8,0:0:0:0:
256,192,88813,1,8,0:0:0:0:
256,192,88861,1,8,0:0:0:0:
256,192,88909,1,0,0:0:0:0:
256,192,88980,1,8,0:0:0:0:
256,192,89052,1,0,0:0:0:0:
256,192,89194,1,0,0:0:0:0:
256,192,89337,1,8,0:0:0:0:
256,192,89480,1,0,0:0:0:0:
256,192,89552,1,8,0:0:0:0:
256,192,89623,1,0,0:0:0:0:
256,192,89694,1,0,0:0:0:0:
256,192,89766,1,8,0:0:0:0:
256,192,89837,1,8,0:0:0:0:
256,192,89909,1,0,0:0:0:0:
256,192,90052,1,8,0:0:0:0:
256,192,90194,1,0,0:0:0:0:
256,192,90337,1,0,0:0:0:0:
256,192,90409,1,0,0:0:0:0:
256,192,90480,1,8,0:0:0:0:
256,192,90623,1,0,0:0:0:0:
256,192,90694,1,8,0:0:0:0:
256,192,90837,1,8,0:0:0:0:
256,192,90909,1,0,0:0:0:0:
256,192,91052,1,8,0:0:0:0:
256,192,91194,1,8,0:0:0:0:
256,192,91337,1,0,0:0:0:0:
256,192,91409,1,8,0:0:0:0:
256,192,91480,1,8,0:0:0:0:
256,192,91552,1,8,0:0:0:0:
256,192,91623,1,0,0:0:0:0:
256,192,91766,1,0,0:0:0:0:
256,192,91837,1,0,0:0:0:0:
256,192,91909,1,8,0:0:0:0:
256,192,92052,1,8,0:0:0:0:
256,192,92123,1,8,0:0:0:0:
256,192,92194,1,0,0:0:0:0:
256,192,92242,1,8,0:0:0:0:
256,192,92290,1,8,0:0:0:0:
256,192,92337,1,0,0:0:0:0:
256,192,92480,1,0,0:0:0:0:
256,192,92623,1,0,0:0:0:0:
256,192,92694,1,0,0:0:0:0:
256,192,92766,1,8,0:0:0:0:
256,192,92837,1,0,0:0:0:0:
256,192,92909,1,8,0:0:0:0:
256,192,92980,1,8,0:0:0:0:
256,192,93052,1,0,0:0:0:0:
256,192,93194,1,8,0:0:0:0:
256,192,93337,1,0,0:0:0:0:
256,192,93409,1,8,0:0:0:0:
256,192,93480,1,8,0:0:0:0:
256,192,93623,1,0,0:0:0:0:
256,192,93766,1,0,0:0:0:0:
256,192,93909,1,8,0:0:0:0:
256,192,93980,1,8,0:0:0:0:
256,192,94052,1,0,0:0:0:0:
256,192,94123,1,8,0:0:0:0:
256,192,94266,1,8,0:0:0:0:
256,192,94337,1,0,0:0:0:0:
256,192,94480,1,8,0:0:0:0:
256,192,94623,1,8,0:0:0:0:
256,192,94694,1,8,0:0:0:0:
256,192,94766,1,0,0:0:0:0:
256,192,94837,1,8,0:0:0:0:
256,192,94909,1,0,0:0:0:0:
256,192,94980,1,0,0:0:0:0:
256,192,95052,1,8,0:0:0:0:
256,192,95194,1,8,0:0:0:0:
256,192,95337,1,0,0:0:0:0:
256,192,95480,1,0,0:0:0:0:
256,192,95623,1,8,0:0:0:0:
256,192,95671,1,0,0:0:0:0:
256,192,95718,1,0,0:0:0:0:
256,192,95766,1,8,0:0:0:0:
256,192,95837,1,0,0:0:0:0:
256,192,95909,1,8,0:0:0:0:
256,192,95980,1,8,0:0:0:0:
256,192,96052,1,0,0:0:0:0:
256,192,96194,1,8,0:0:0:0:
256,192,96337,1,0,0:0:0:0:
256,192,96409,1,8,0:0:0:0:
256,192,96480,1,0,0:0:0:0:
256,192,96516,1,0,0:0:0:0:
256,192,96552,1,0,0:0:0:0:
256,192,96623,1,0,0:0:0:0:
256,192,96766,1,8,0:0:0:0:
256,192,96909,1,0,0:0:0:0:
256,192,97052,1,4,0:0:0:0:
256,192,98909,1,8,0:0:0:0:
256,192,99052,1,0,0:0:0:0:
256,192,99337,1,0,0:0:0:0:
256,192,99480,1,0,0:0:0:0:
256,192,99623,1,8,0:0:0:0:
256,192,99766,1,8,0:0:0:0:
256,192,99837,1,8,0:0:0:0:
256,192,99909,1,0,0:0:0:0:
256,192,100052,1,8,0:0:0:0:
256,192,100194,1,0,0:0:0:0:
256,192,100266,1,8,0:0:0:0:
256,192,100337,1,8,0:0:0:0:
256,192,100480,1,0,0:0:0:0:
256,192,100623,1,8,0:0:0:0:
256,192,100694,1,8,0:0:0:0:
256,192,100766,1,8,0:0:0:0:
256,192,100909,1,0,0:0:0:0:
256,192,100980,1,0,0:0:0:0:
256,192,101052,1,8,0:0:0:0:
256,192,101123,1,8,0:0:0:0:
256,192,101194,1,0,0:0:0:0:
256,192,101337,1,8,0:0:0:0:
256,192,101480,1,0,0:0:0:0:
256,192,101623,1,8,0:0:0:0:
256,192,101659,1,8,0:0:0:0:
256,192,101694,1,8,0:0:0:0:
256,192,101766,1,0,0:0:0:0:
256,192,101909,1,8,0:0:0:0:
256,192,102052,1,0,0:0:0:0:
256,192,102123,1,8,0:0:0:0:
256,192,102194,1,0,0:0:0:0:
256,192,102337,1,8,0:0:0:0:
256,192,102409,1,8,0:0:0:0:
256,192,102480,1,0,0:0:0:0:
256,192,102528,1,0,0:0:0:0:
256,192,102575,1,0,0:0:0:0:
256,192,102623,1,8,0:0:0:0:
256,192,102766,1,0,0:0:0:0:
256,192,102909,1,8,0:0:0:0:
256,192,102980,1,8,0:0:0:0:
256,192,103052,1,8,0:0:0:0:
256,192,103194,1,8,0:0:0:0:
256,192,103337,1,0,0:0:0:0:
256,192,103409,1,8,0:0:0:0:
256,192,103480,1,8,0:0:0:0:
256,192,103552,1,8,0:0:0:0:
256,192,103623,1,0,0:0:0:0:
256,192,103694,1,0,0:0:0:0:
256,192,103766,1,8,0:0:0:0:
256,192,103837,1,8,0:0:0:0:
256,192,103909,1,0,0:0:0:0:
256,192,104052,1,8,0:0:0:0:
256,192,104194,1,8,0:0:0:0:
256,192,104337,1,0,0:0:0:0:
256,192,104552,1,8,0:0:0:0:
256,192,104623,1,0,0:0:0:0:
256,192,104766,1,8,0:0:0:0:
256,192,104909,1,8,0:0:0:0:
256,192,105052,1,0,0:0:0:0:
256,192,105123,1,0,0:0:0:0:
256,192,105194,1,8,0:0:0:0:
256,192,105337,1,0,0:0:0:0:
256,192,105409,1,8,0:0:0:0:
256,192,105480,1,8,0:0:0:0:
256,192,105623,1,0,0:0:0:0:
256,192,105766,1,8,0:0:0:0:
256,192,105909,1,0,0:0:0:0:
256,192,105956,1,8,0:0:0:0:
256,192,106004,1,8,0:0:0:0:
256,192,106052,1,0,0:0:0:0:
256,192,106194,1,8,0:0:0:0:
256,192,106337,1,0,0:0:0:0:
256,192,106409,1,0,0:0:0:0:
256,192,106480,1,8,0:0:0:0:
256,192,106623,1,0,0:0:0:0:
256,192,106766,1,8,0:0:0:0:
256,192,106802,1,8,0:0:0:0:
256,192,106837,1,8,0:0:0:0:
256,192,106909,1,0,0:0:0:0:
256,192,107052,1,8,0:0:0:0:
256,192,107123,1,0,0:0:0:0:
256,192,107194,1,8,0:0:0:0:
256,192,107337,1,0,0:0:0:0:
256,192,107480,1,8,0:0:0:0:
256,192,107552,1,8,0:0:0:0:
256,192,107623,1,8,0:0:0:0:
256,192,107766,1,0,0:0:0:0:
256,192,107837,1,8,0:0:0:0:
256,192,107980,1,8,0:0:0:0:
256,192,108052,1,0,0:0:0:0:
256,192,108194,1,8,0:0:0:0:
256,192,108337,1,0,0:0:0:0:
256,192,108480,1,8,0:0:0:0:
256,192,108516,1,8,0:0:0:0:
256,192,108552,1,8,0:0:0:0:
256,192,108623,1,0,0:0:0:0:
256,192,108766,1,8,0:0:0:0:
256,192,108909,1,0,0:0:0:0:
256,192,108980,1,8,0:0:0:0:
256,192,109052,1,0,0:0:0:0:
256,192,109194,1,8,0:0:0:0:
256,192,109337,1,0,0:0:0:0:
256,192,109385,1,0,0:0:0:0:
256,192,109432,1,0,0:0:0:0:
256,192,109480,1,8,0:0:0:0:
256,192,109552,1,0,0:0:0:0:
256,192,109623,1,8,0:0:0:0:
256,192,109694,1,8,0:0:0:0:
256,192,109766,1,0,0:0:0:0:
256,192,109909,1,8,0:0:0:0:
256,192,110052,1,0,0:0:0:0:
256,192,110123,1,8,0:0:0:0:
256,192,110194,1,0,0:0:0:0:
256,192,110230,1,0,0:0:0:0:
256,192,110266,1,0,0:0:0:0:
256,192,110337,1,0,0:0:0:0:
256,192,110480,1,8,0:0:0:0:
256,192,110623,1,0,0:0:0:0:
256,192,110766,1,4,0:0:0:0:
256,192,111194,1,0,0:0:0:0:
256,192,111337,1,0,0:0:0:0:
256,192,111623,1,8,0:0:0:0:
256,192,111909,1,0,0:0:0:0:
256,192,112194,1,8,0:0:0:0:
256,192,112337,1,0,0:0:0:0:
256,192,112480,1,8,0:0:0:0:
256,192,112623,1,8,0:0:0:0:
256,192,112766,1,0,0:0:0:0:
256,192,114194,1,0,0:0:0:0:
256,192,114337,1,8,0:0:0:0:
256,192,114409,1,8,0:0:0:0:
256,192,114480,1,8,0:0:0:0:
256,192,114552,1,8,0:0:0:0:
256,192,114623,1,0,0:0:0:0:
256,192,114694,1,0,0:0:0:0:
256,192,114766,1,8,0:0:0:0:
256,192,114909,1,0,0:0:0:0:
256,192,115052,1,8,0:0:0:0:
256,192,115194,1,8,0:0:0:0:
256,192,115266,1,8,0:0:0:0:
256,192,115337,1,0,0:0:0:0:
256,192,115480,1,8,0:0:0:0:
256,192,115623,1,0,0:0:0:0:
256,192,115694,1,8,0:0:0:0:
256,192,115837,1,8,0:0:0:0:
256,192,115909,1,0,0:0:0:0:
256,192,116052,1,0,0:0:0:0:
256,192,116123,1,8,0:0:0:0:
256,192,116194,1,0,0:0:0:0:
256,192,116266,1,0,0:0:0:0:
256,192,116337,1,8,0:0:0:0:
256,192,116409,1,0,0:0:0:0:
256,192,116480,1,8,0:0:0:0:
256,192,116552,1,8,0:0:0:0:
256,192,116623,1,0,0:0:0:0:
256,192,116766,1,8,0:0:0:0:
256,192,116909,1,8,0:0:0:0:
256,192,116980,1,8,0:0:0:0:
256,192,117052,1,0,0:0:0:0:
256,192,117194,1,8,0:0:0:0:
256,192,117337,1,0,0:0:0:0:
256,192,117409,1,8,0:0:0:0:
256,192,117480,1,8,0:0:0:0:
256,192,117552,1,8,0:0:0:0:
256,192,117623,1,0,0:0:0:0:
256,192,117766,1,8,0:0:0:0:
256,192,117837,1,0,0:0:0:0:
256,192,117909,1,8,0:0:0:0:
256,192,117980,1,8,0:0:0:0:
256,192,118052,1,0,0:0:0:0:
256,192,118123,1,8,0:0:0:0:
256,192,118266,1,8,0:0:0:0:
256,192,118337,1,0,0:0:0:0:
256,192,118480,1,8,0:0:0:0:
256,192,118623,1,0,0:0:0:0:
256,192,118766,1,8,0:0:0:0:
256,192,118813,1,8,0:0:0:0:
256,192,118861,1,8,0:0:0:0:
256,192,118909,1,0,0:0:0:0:
256,192,119052,1,8,0:0:0:0:
256,192,119194,1,0,0:0:0:0:
256,192,119266,1,8,0:0:0:0:
256,192,119337,1,0,0:0:0:0:
256,192,119409,1,0,0:0:0:0:
256,192,119480,1,8,0:0:0:0:
256,192,119552,1,8,0:0:0:0:
256,192,119623,1,0,0:0:0:0:
256,192,119694,1,8,0:0:0:0:
256,192,119766,1,0,0:0:0:0:
256,192,119909,1,0,0:0:0:0:
256,192,120052,1,0,0:0:0:0:
256,192,120123,1,0,0:0:0:0:
256,192,120194,1,8,0:0:0:0:
256,192,120337,1,8,0:0:0:0:
256,192,120409,1,8,0:0:0:0:
256,192,120480,1,0,0:0:0:0:
256,192,120623,1,8,0:0:0:0:
256,192,120766,1,0,0:0:0:0:
256,192,120837,1,8,0:0:0:0:
256,192,120909,1,0,0:0:0:0:
256,192,121052,1,0,0:0:0:0:
256,192,121123,1,8,0:0:0:0:
256,192,121194,1,8,0:0:0:0:
256,192,121266,1,0,0:0:0:0:
256,192,121337,1,8,0:0:0:0:
256,192,121480,1,0,0:0:0:0:
256,192,121552,1,8,0:0:0:0:
256,192,121694,1,8,0:0:0:0:
256,192,121766,1,0,0:0:0:0:
256,192,121909,1,8,0:0:0:0:
256,192,122052,1,8,0:0:0:0:
256,192,122123,1,8,0:0:0:0:
256,192,122194,1,0,0:0:0:0:
256,192,122266,1,8,0:0:0:0:
256,192,122337,1,8,0:0:0:0:
256,192,122480,5,0,0:0:0:0:
256,192,122528,1,8,0:0:0:0:
256,192,122575,1,8,0:0:0:0:
256,192,122623,1,0,0:0:0:0:
256,192,123623,5,0,0:0:0:0:
256,192,123766,1,0,0:0:0:0:
256,192,123909,1,0,0:0:0:0:
256,192,123944,1,0,0:0:0:0:
256,192,123980,1,0,0:0:0:0:
256,192,124052,1,0,0:0:0:0:
256,192,124194,1,8,0:0:0:0:
256,192,124337,1,0,0:0:0:0:
256,192,124480,1,4,0:0:0:0:
256,192,124623,1,8,0:0:0:0:
256,192,124694,1,8,0:0:0:0:
256,192,124766,1,8,0:0:0:0:
256,192,124909,1,0,0:0:0:0:
256,192,125052,1,8,0:0:0:0:
256,192,125194,1,0,0:0:0:0:
256,192,125266,1,0,0:0:0:0:
256,192,125337,1,8,0:0:0:0:
256,192,125409,1,0,0:0:0:0:
256,192,125480,1,8,0:0:0:0:
256,192,125552,1,8,0:0:0:0:
256,192,125623,1,0,0:0:0:0:
256,192,125766,1,0,0:0:0:0:
256,192,125909,1,8,0:0:0:0:
256,192,126052,1,8,0:0:0:0:
256,192,126123,1,8,0:0:0:0:
256,192,126194,1,0,0:0:0:0:
256,192,126337,1,8,0:0:0:0:
256,192,126480,1,0,0:0:0:0:
256,192,127909,5,4,0:0:0:0:
256,192,128052,1,8,0:0:0:0:
256,192,128123,1,0,0:0:0:0:
256,192,128194,1,8,0:0:0:0:
256,192,128266,1,8,0:0:0:0:
256,192,128337,1,8,0:0:0:0:
256,192,128409,1,0,0:0:0:0:
256,192,128480,1,8,0:0:0:0:
256,192,128623,1,0,0:0:0:0:
256,192,128766,1,8,0:0:0:0:
256,192,128909,1,0,0:0:0:0:
256,192,129052,1,8,0:0:0:0:
256,192,129123,1,0,0:0:0:0:
256,192,129266,1,0,0:0:0:0:
256,192,129337,1,8,0:0:0:0:
256,192,129409,1,0,0:0:0:0:
256,192,129480,1,8,0:0:0:0:
256,192,129552,1,8,0:0:0:0:
256,192,129623,1,0,0:0:0:0:
256,192,129766,1,8,0:0:0:0:
256,192,129909,1,8,0:0:0:0:
256,192,129980,1,8,0:0:0:0:
256,192,130052,1,8,0:0:0:0:
256,192,130194,5,0,0:0:0:0:
256,192,131337,1,4,0:0:0:0:
256,192,131480,1,8,0:0:0:0:
256,192,131552,1,8,0:0:0:0:
256,192,131623,1,8,0:0:0:0:
256,192,131766,1,0,0:0:0:0:
256,192,131837,1,8,0:0:0:0:
256,192,131980,1,8,0:0:0:0:
256,192,132052,1,0,0:0:0:0:
256,192,132194,1,8,0:0:0:0:
256,192,132337,1,0,0:0:0:0:
256,192,132480,1,8,0:0:0:0:
256,192,132528,1,8,0:0:0:0:
256,192,132575,1,8,0:0:0:0:
256,192,132623,1,0,0:0:0:0:
256,192,132694,1,0,0:0:0:0:
256,192,132766,1,8,0:0:0:0:
256,192,132909,1,8,0:0:0:0:
256,192,132980,1,8,0:0:0:0:
256,192,133052,1,0,0:0:0:0:
256,192,133194,1,8,0:0:0:0:
256,192,133337,1,0,0:0:0:0:
256,192,133385,1,8,0:0:0:0:
256,192,133432,1,8,0:0:0:0:
256,192,133480,1,0,0:0:0:0:
256,192,133623,1,0,0:0:0:0:
256,192,133766,1,0,0:0:0:0:
256,192,133837,1,0,0:0:0:0:
256,192,133909,1,8,0:0:0:0:
256,192,133980,1,8,0:0:0:0:
256,192,134052,1,0,0:0:0:0:
256,192,134123,1,0,0:0:0:0:
256,192,134194,1,8,0:0:0:0:
256,192,134266,1,8,0:0:0:0:
256,192,134337,1,8,0:0:0:0:
256,192,134409,1,0,0:0:0:0:
256,192,134480,1,8,0:0:0:0:
256,192,134623,1,8,0:0:0:0:
256,192,134694,1,8,0:0:0:0:
256,192,134766,1,0,0:0:0:0:
256,192,134837,1,8,0:0:0:0:
256,192,134909,1,8,0:0:0:0:
256,192,134980,1,0,0:0:0:0:
256,192,135052,1,8,0:0:0:0:
256,192,135194,1,0,0:0:0:0:
256,192,135266,1,8,0:0:0:0:
256,192,135409,1,8,0:0:0:0:
256,192,135480,1,0,0:0:0:0:
256,192,135623,1,8,0:0:0:0:
256,192,135766,1,0,0:0:0:0:
256,192,135909,1,8,0:0:0:0:
256,192,135956,1,8,0:0:0:0:
256,192,136004,1,8,0:0:0:0:
256,192,136052,1,0,0:0:0:0:
256,192,136123,1,0,0:0:0:0:
256,192,136194,1,8,0:0:0:0:
256,192,136337,1,8,0:0:0:0:
256,192,136409,1,8,0:0:0:0:
256,192,136480,1,0,0:0:0:0:
256,192,136552,1,8,0:0:0:0:
256,192,136623,1,0,0:0:0:0:
256,192,136694,1,0,0:0:0:0:
256,192,136766,1,8,0:0:0:0:
256,192,136813,1,0,0:0:0:0:
256,192,136861,1,0,0:0:0:0:
256,192,136909,1,8,0:0:0:0:
256,192,136980,1,0,0:0:0:0:
256,192,137052,5,8,0:0:0:0:
256,192,137123,1,8,0:0:0:0:
256,192,137194,1,8,0:0:0:0:
256,192,137266,1,0,0:0:0:0:
256,192,137337,1,8,0:0:0:0:
256,192,137480,1,0,0:0:0:0:
256,192,137552,1,8,0:0:0:0:
256,192,137623,1,0,0:0:0:0:
256,192,137659,1,0,0:0:0:0:
256,192,137694,1,0,0:0:0:0:
256,192,137766,1,0,0:0:0:0:
256,192,137909,1,8,0:0:0:0:
256,192,138052,1,0,0:0:0:0:
256,192,138194,5,4,0:0:0:0:
256,192,139052,1,8,0:0:0:0:
256,192,139909,1,8,0:0:0:0:
256,192,140194,1,0,0:0:0:0:
256,192,140480,1,0,0:0:0:0:
256,192,140623,1,0,0:0:0:0:
256,192,140766,1,8,0:0:0:0:
256,192,141052,1,0,0:0:0:0:
256,192,141337,1,0,0:0:0:0:
256,192,141480,1,8,0:0:0:0:
256,192,141623,1,0,0:0:0:0:
256,192,141766,1,8,0:0:0:0:
256,192,141909,1,8,0:0:0:0:
256,192,142052,1,8,0:0:0:0:
256,192,142194,1,0,0:0:0:0:
256,192,142337,1,0,0:0:0:0:
256,192,142480,1,8,0:0:0:0:
256,192,142623,1,8,0:0:0:0:
256,192,142766,1,0,0:0:0:0:
256,192,142909,1,8,0:0:0:0:
256,192,143052,1,0,0:0:0:0:
256,192,143337,1,0,0:0:0:0:
256,192,143480,1,8,0:0:0:0:
256,192,143623,1,8,0:0:0:0:
256,192,143766,1,0,0:0:0:0:
256,192,143909,1,0,0:0:0:0:
256,192,144052,1,8,0:0:0:0:
256,192,144194,1,0,0:0:0:0:
256,192,144480,1,8,0:0:0:0:
256,192,144766,1,0,0:0:0:0:
256,192,145052,1,0,0:0:0:0:
256,192,145480,1,0,0:0:0:0:
256,192,145766,1,0,0:0:0:0:
256,192,145909,1,0,0:0:0:0:
256,192,146194,1,0,0:0:0:0:
256,192,146480,1,0,0:0:0:0:
256,192,146766,1,0,0:0:0:0:
256,192,147052,1,0,0:0:0:0:
256,192,147194,1,0,0:0:0:0:
256,192,147337,1,0,0:0:0:0:
256,192,147909,1,0,0:0:0:0:
256,192,148194,1,0,0:0:0:0:
256,192,148480,1,0,0:0:0:0:
256,192,148909,1,0,0:0:0:0:
256,192,149194,1,0,0:0:0:0:
256,192,149623,1,0,0:0:0:0:
256,192,149909,1,0,0:0:0:0:
256,192,151909,5,4,0:0:0:0:
256,192,152052,1,0,0:0:0:0:
256,192,152123,1,0,0:0:0:0:
256,192,152194,1,8,0:0:0:0:
256,192,152337,1,8,0:0:0:0:
256,192,152480,1,0,0:0:0:0:
256,192,152552,1,0,0:0:0:0:
256,192,152623,1,0,0:0:0:0:
256,192,152766,1,8,0:0:0:0:
256,192,152909,1,8,0:0:0:0:
256,192,152980,1,8,0:0:0:0:
256,192,153052,1,0,0:0:0:0:
256,192,153123,1,8,0:0:0:0:
256,192,153194,1,0,0:0:0:0:
256,192,153337,1,8,0:0:0:0:
256,192,153480,1,0,0:0:0:0:
256,192,153623,1,8,0:0:0:0:
256,192,153766,1,8,0:0:0:0:
256,192,153909,1,0,0:0:0:0:
256,192,153956,1,0,0:0:0:0:
256,192,154004,1,0,0:0:0:0:
256,192,154052,1,8,0:0:0:0:
256,192,154194,1,0,0:0:0:0:
256,192,154337,1,8,0:0:0:0:
256,192,154409,1,0,0:0:0:0:
256,192,154480,1,8,0:0:0:0:
256,192,154623,1,0,0:0:0:0:
256,192,154694,1,8,0:0:0:0:
256,192,154766,1,0,0:0:0:0:
256,192,154837,1,0,0:0:0:0:
256,192,154909,1,8,0:0:0:0:
256,192,154980,1,8,0:0:0:0:
256,192,155052,1,0,0:0:0:0:
256,192,155194,1,8,0:0:0:0:
256,192,155337,1,0,0:0:0:0:
256,192,155480,1,0,0:0:0:0:
256,192,155552,1,0,0:0:0:0:
256,192,155623,1,8,0:0:0:0:
256,192,155766,1,8,0:0:0:0:
256,192,155909,1,0,0:0:0:0:
256,192,155980,1,0,0:0:0:0:
256,192,156052,1,0,0:0:0:0:
256,192,156194,1,8,0:0:0:0:
256,192,156266,1,0,0:0:0:0:
256,192,156337,1,8,0:0:0:0:
256,192,156409,1,8,0:0:0:0:
256,192,156480,1,0,0:0:0:0:
256,192,156623,1,8,0:0:0:0:
256,192,156766,1,0,0:0:0:0:
256,192,156837,1,0,0:0:0:0:
256,192,156909,1,8,0:0:0:0:
256,192,157052,1,0,0:0:0:0:
256,192,157194,1,0,0:0:0:0:
256,192,157337,1,8,0:0:0:0:
256,192,157385,1,8,0:0:0:0:
256,192,157432,1,8,0:0:0:0:
256,192,157480,1,0,0:0:0:0:
256,192,157552,1,8,0:0:0:0:
256,192,157623,1,0,0:0:0:0:
256,192,157766,1,0,0:0:0:0:
256,192,157837,1,0,0:0:0:0:
256,192,157909,1,8,0:0:0:0:
256,192,157980,1,0,0:0:0:0:
256,192,158052,1,8,0:0:0:0:
256,192,158123,1,8,0:0:0:0:
256,192,158194,1,0,0:0:0:0:
256,192,158337,1,8,0:0:0:0:
256,192,158480,1,0,0:0:0:0:
256,192,158552,1,8,0:0:0:0:
256,192,158623,1,8,0:0:0:0:
256,192,158766,1,0,0:0:0:0:
256,192,158909,1,0,0:0:0:0:
256,192,159052,1,8,0:0:0:0:
256,192,159123,1,8,0:0:0:0:
256,192,159194,1,0,0:0:0:0:
256,192,159266,1,8,0:0:0:0:
256,192,159409,1,8,0:0:0:0:
256,192,159480,1,0,0:0:0:0:
256,192,159623,1,8,0:0:0:0:
256,192,159766,1,8,0:0:0:0:
256,192,159837,1,8,0:0:0:0:
256,192,159909,1,0,0:0:0:0:
256,192,159980,1,0,0:0:0:0:
256,192,160052,1,8,0:0:0:0:
256,192,160194,1,0,0:0:0:0:
256,192,160337,1,0,0:0:0:0:
256,192,160480,1,8,0:0:0:0:
256,192,160623,1,8,0:0:0:0:
256,192,160694,1,8,0:0:0:0:
256,192,160766,1,0,0:0:0:0:
256,192,160813,1,8,0:0:0:0:
256,192,160861,1,8,0:0:0:0:
256,192,160909,1,0,0:0:0:0:
256,192,161052,1,0,0:0:0:0:
256,192,161194,1,0,0:0:0:0:
256,192,161266,1,0,0:0:0:0:
256,192,161337,1,8,0:0:0:0:
256,192,161480,1,8,0:0:0:0:
256,192,161552,1,8,0:0:0:0:
256,192,161623,1,0,0:0:0:0:
256,192,161694,1,8,0:0:0:0:
256,192,161766,1,8,0:0:0:0:
256,192,161837,1,8,0:0:0:0:
256,192,161909,1,0,0:0:0:0:
256,192,161980,1,0,0:0:0:0:
256,192,162052,1,8,0:0:0:0:
256,192,162194,1,0,0:0:0:0:
256,192,162337,1,8,0:0:0:0:
256,192,162409,1,0,0:0:0:0:
256,192,162480,1,8,0:0:0:0:
256,192,162552,1,8,0:0:0:0:
256,192,162623,1,0,0:0:0:0:
256,192,162694,1,8,0:0:0:0:
256,192,162837,1,8,0:0:0:0:
256,192,162909,1,0,0:0:0:0:
256,192,163052,1,8,0:0:0:0:
256,192,163123,1,8,0:0:0:0:
256,192,163194,1,0,0:0:0:0:
256,192,163266,1,8,0:0:0:0:
256,192,163337,1,0,0:0:0:0:
256,192,163480,1,8,0:0:0:0:
256,192,163623,1,0,0:0:0:0:
256,192,163694,1,0,0:0:0:0:
256,192,163766,1,8,0:0:0:0:
256,192,163909,1,0,0:0:0:0:
256,192,164052,1,0,0:0:0:0:
256,192,164123,1,8,0:0:0:0:
256,192,164194,1,0,0:0:0:0:
256,192,164242,1,0,0:0:0:0:
256,192,164290,1,0,0:0:0:0:
256,192,164337,1,8,0:0:0:0:
256,192,164409,1,0,0:0:0:0:
256,192,164480,1,8,0:0:0:0:
256,192,164552,1,8,0:0:0:0:
256,192,164623,1,0,0:0:0:0:
256,192,164766,1,8,0:0:0:0:
256,192,164909,1,0,0:0:0:0:
256,192,164980,1,8,0:0:0:0:
256,192,165052,1,0,0:0:0:0:
256,192,165087,1,0,0:0:0:0:
256,192,165123,1,0,0:0:0:0:
256,192,165194,1,0,0:0:0:0:
256,192,165337,1,8,0:0:0:0:
256,192,165480,1,0,0:0:0:0:
256,192,165623,1,4,0:0:0:0:
256,192,165837,1,0,0:0:0:0:
256,192,165909,1,8,0:0:0:0:
256,192,166052,1,8,0:0:0:0:
256,192,166194,1,0,0:0:0:0:
256,192,166337,1,0,0:0:0:0:
256,192,166409,1,0,0:0:0:0:
256,192,166480,1,8,0:0:0:0:
256,192,166623,1,8,0:0:0:0:
256,192,166694,1,8,0:0:0:0:
256,192,166766,1,0,0:0:0:0:
256,192,166909,1,0,0:0:0:0:
256,192,167052,1,8,0:0:0:0:
256,192,167194,1,0,0:0:0:0:
256,192,167337,1,8,0:0:0:0:
256,192,167480,1,8,0:0:0:0:
256,192,167623,1,0,0:0:0:0:
256,192,167671,1,0,0:0:0:0:
256,192,167718,1,0,0:0:0:0:
256,192,167766,1,8,0:0:0:0:
256,192,167909,1,0,0:0:0:0:
256,192,168052,1,0,0:0:0:0:
256,192,168123,1,0,0:0:0:0:
256,192,168194,1,8,0:0:0:0:
256,192,168266,1,0,0:0:0:0:
256,192,168337,1,8,0:0:0:0:
256,192,168409,1,8,0:0:0:0:
256,192,168480,1,0,0:0:0:0:
256,192,168623,1,8,0:0:0:0:
256,192,168766,1,0,0:0:0:0:
256,192,168837,1,8,0:0:0:0:
256,192,168909,1,8,0:0:0:0:
256,192,168980,1,8,0:0:0:0:
256,192,169052,1,0,0:0:0:0:
256,192,169266,1,0,0:0:0:0:
256,192,169337,1,8,0:0:0:0:
256,192,169480,1,0,0:0:0:0:
256,192,169552,1,0,0:0:0:0:
256,192,169623,1,8,0:0:0:0:
256,192,169694,1,8,0:0:0:0:
256,192,169766,1,0,0:0:0:0:
256,192,169909,1,8,0:0:0:0:
256,192,170052,1,0,0:0:0:0:
256,192,170194,1,8,0:0:0:0:
256,192,170230,1,8,0:0:0:0:
256,192,170266,1,8,0:0:0:0:
256,192,170337,1,0,0:0:0:0:
256,192,170480,1,8,0:0:0:0:
256,192,170516,1,8,0:0:0:0:
256,192,170552,1,8,0:0:0:0:
256,192,170623,1,0,0:0:0:0:
256,192,170766,1,0,0:0:0:0:
256,192,170909,1,8,0:0:0:0:
256,192,170980,1,8,0:0:0:0:
256,192,171052,1,0,0:0:0:0:
256,192,171099,1,0,0:0:0:0:
256,192,171147,1,0,0:0:0:0:
256,192,171194,1,8,0:0:0:0:
256,192,171337,1,0,0:0:0:0:
256,192,171480,1,8,0:0:0:0:
256,192,171623,1,8,0:0:0:0:
256,192,171766,1,0,0:0:0:0:
256,192,171837,1,8,0:0:0:0:
256,192,171909,1,0,0:0:0:0:
256,192,171980,1,0,0:0:0:0:
256,192,172052,1,8,0:0:0:0:
256,192,172123,1,8,0:0:0:0:
256,192,172194,1,0,0:0:0:0:
256,192,172266,1,8,0:0:0:0:
256,192,172337,1,8,0:0:0:0:
256,192,172409,1,8,0:0:0:0:
256,192,172480,1,0,0:0:0:0:
256,192,172623,1,0,0:0:0:0:
256,192,172694,1,0,0:0:0:0:
256,192,172766,1,8,0:0:0:0:
256,192,172909,1,0,0:0:0:0:
256,192,173123,1,8,0:0:0:0:
256,192,173194,1,0,0:0:0:0:
256,192,173337,1,8,0:0:0:0:
256,192,173480,1,8,0:0:0:0:
256,192,173552,1,8,0:0:0:0:
256,192,173623,1,0,0:0:0:0:
256,192,173766,1,8,0:0:0:0:
256,192,173909,1,0,0:0:0:0:
256,192,173980,1,8,0:0:0:0:
256,192,174052,1,8,0:0:0:0:
256,192,174194,1,0,0:0:0:0:
256,192,174337,1,8,0:0:0:0:
256,192,174480,1,0,0:0:0:0:
256,192,174528,1,8,0:0:0:0:
256,192,174575,1,8,0:0:0:0:
256,192,174623,1,0,0:0:0:0:
256,192,174766,1,0,0:0:0:0:
256,192,174909,1,0,0:0:0:0:
256,192,174980,1,0,0:0:0:0:
256,192,175052,1,8,0:0:0:0:
256,192,175194,1,8,0:0:0:0:
256,192,175266,1,0,0:0:0:0:
256,192,175337,1,8,0:0:0:0:
256,192,175373,1,8,0:0:0:0:
256,192,175409,1,8,0:0:0:0:
256,192,175480,1,0,0:0:0:0:
256,192,175623,1,8,0:0:0:0:
256,192,175766,1,8,0:0:0:0:
256,192,175837,1,8,0:0:0:0:
256,192,175909,1,0,0:0:0:0:
256,192,176052,1,8,0:0:0:0:
256,192,176123,1,8,0:0:0:0:
256,192,176194,1,8,0:0:0:0:
256,192,176337,1,0,0:0:0:0:
256,192,176552,1,8,0:0:0:0:
256,192,176623,1,0,0:0:0:0:
256,192,176766,1,8,0:0:0:0:
256,192,176909,1,0,0:0:0:0:
256,192,177052,1,8,0:0:0:0:
256,192,177087,1,8,0:0:0:0:
256,192,177123,1,8,0:0:0:0:
256,192,177194,1,0,0:0:0:0:
256,192,177337,1,8,0:0:0:0:
256,192,177373,1,8,0:0:0:0:
256,192,177409,1,8,0:0:0:0:
256,192,177480,1,0,0:0:0:0:
256,192,177623,1,0,0:0:0:0:
256,192,177766,1,8,0:0:0:0:
256,192,177837,1,8,0:0:0:0:
256,192,177909,1,0,0:0:0:0:
256,192,177956,1,8,0:0:0:0:
256,192,178004,1,8,0:0:0:0:
256,192,178052,1,0,0:0:0:0:
256,192,178123,1,0,0:0:0:0:
256,192,178194,5,8,0:0:0:0:
256,192,178337,1,8,0:0:0:0:
256,192,178409,1,0,0:0:0:0:
256,192,178480,1,8,0:0:0:0:
256,192,178623,1,0,0:0:0:0:
256,192,178694,1,8,0:0:0:0:
256,192,178766,1,0,0:0:0:0:
256,192,178802,1,0,0:0:0:0:
256,192,178837,1,0,0:0:0:0:
256,192,178909,1,0,0:0:0:0:
256,192,179052,1,8,0:0:0:0:
256,192,179194,1,0,0:0:0:0:
256,192,179337,5,4,0:0:0:0:
