osu file format v14

[General]
AudioFilename: audio.mp3
AudioLeadIn: 0
PreviewTime: 72137
Countdown: 0
SampleSet: Soft
StackLeniency: 0.2
Mode: 0
LetterboxInBreaks: 0
WidescreenStoryboard: 1

[Editor]
DistanceSpacing: 1.2
BeatDivisor: 4
GridSize: 32
TimelineZoom: 3.299999

[Metadata]
Title:Limitless (Cut Ver.)
TitleUnicode:Limitless (Cut Ver.)
Artist:DJ Swoon
ArtistUnicode:DJ Swoon
Creator:Raikozen
Version:EX EX EX EX
Source:
Tags:
BeatmapID:1518434
BeatmapSetID:719017

[Difficulty]
HPDrainRate:5
CircleSize:4.1
OverallDifficulty:8
ApproachRate:9.5
SliderMultiplier:2.7
SliderTickRate:1

[Events]
//Background and Video events
0,0,"90b18a4485a5d4e5b3e2b1fd69c916d6.jpg",0,0
//Break Periods
//Storyboard Layer 0 (Background)
//Storyboard Layer 1 (Fail)
//Storyboard Layer 2 (Pass)
//Storyboard Layer 3 (Foreground)
//Storyboard Sound Samples

[TimingPoints]
119.940828402367,363.636363636364,4,2,1,100,1,0
72846,-50,4,2,1,60,0,0
73118,-50,4,2,1,5,0,0
73209,-83.3333333333333,4,2,1,60,0,0
73300,-83.3333333333333,4,2,1,5,0,0
73391,-62.5,4,2,1,60,0,0
73755,-333,4,2,1,60,0,0
74482,-124.953095684803,4,2,1,60,0,0
74664,-50,4,2,1,60,0,0
74800,-55.5555555555556,4,2,1,5,0,0
74846,-333,4,2,1,60,0,0
75028,-50,4,2,1,60,0,0
75391,-333,4,2,1,60,0,0
75756,-50,4,2,1,60,0,0
76119,-76.9230769230769,4,2,1,60,0,0
76301,-50,4,2,1,60,0,0
76665,-333,4,2,1,60,0,0
77392,-100,4,2,1,60,0,0
77574,-52.6315789473684,4,2,1,60,0,0
77938,-66.6666666666667,4,2,1,60,0,0
78119,-83.3333333333333,4,2,1,60,0,0
78301,-111.111111111111,4,2,1,60,0,0
78483,-166.666666666667,4,2,1,60,0,0
78665,-50,4,2,1,60,0,0
79392,-66.6666666666667,4,2,1,60,0,0
79574,-333,4,2,1,60,0,0
80301,-100,4,2,1,60,0,0
80483,-50,4,2,1,60,0,0
80847,-55.5555555555556,4,2,1,60,0,0
81210,-133.333333333333,4,2,1,60,0,0
81574,-50,4,2,1,60,0,0
81938,-83.3333333333333,4,2,1,60,0,0
82119,-44.4444444444445,4,2,1,60,0,0
82574,-50,4,2,1,60,0,0
82847,-50,4,2,1,60,0,0
82938,-66.6666666666667,4,2,1,60,0,0
83119,-66.6666666666667,4,2,1,60,0,0
83392,-100,4,2,1,60,0,0
84483,-50,4,2,1,60,0,0
84847,-76.9230769230769,4,2,1,60,0,0
85210,-58.8235294117647,4,2,1,60,0,0
85392,-333,4,2,1,60,0,0
86119,-100,4,2,1,60,0,0
86301,-50,4,2,1,60,0,0
86438,-50,4,2,1,5,0,0
86483,-333,4,2,1,60,0,0
86665,-50,4,2,1,60,0,0
87029,-333,4,2,1,60,0,0
87392,-50,4,2,1,60,0,0
87756,-66.6666666666667,4,2,1,60,0,0
87938,-50,4,2,1,60,0,0
88301,-333,4,2,1,60,0,0
89029,-100,4,2,1,60,0,0
89210,-50,4,2,1,60,0,0
89574,-66.6666666666667,4,2,1,60,0,0
89756,-83.3333333333333,4,2,1,60,0,0
89938,-111.111111111111,4,2,1,60,0,0
90119,-166.666666666667,4,2,1,60,0,0
90665,-50,4,2,1,60,0,0
91210,-333,4,2,1,60,0,0
91938,-100,4,2,1,60,0,0
92119,-50,4,2,1,60,0,0
92483,-66.6666666666667,4,2,1,60,0,0
92847,-50,4,2,1,60,0,0
93574,-66.6666666666667,4,2,1,60,0,0
93938,-44.4444444444445,4,2,1,60,0,0
94210,-54.054054054054,4,2,1,60,0,0
94483,-50,4,2,1,60,0,0
95029,-44.4444444444445,4,2,1,60,0,0
95392,-133.333333333333,4,2,1,60,0,0
95756,-200,4,2,1,60,0,0
96119,-35.2941176470589,4,2,1,60,0,0
96483,-133.333333333333,4,2,1,60,0,0
96847,-100,4,2,1,60,0,0
98665,-333,4,2,1,60,0,0
99029,-35.2941176470589,4,2,1,60,0,0
99392,-100,4,2,1,60,0,0
99756,-62.5,4,2,1,60,0,0
101392,-76.9230769230769,4,2,1,60,0,0
101574,-142.857142857143,4,2,1,60,0,0
101938,-35.2941176470589,4,2,1,60,0,0
104210,-66.6666666666667,4,2,1,60,0,0
105574,-35.2941176470589,4,2,1,60,0,0
105938,-133.333333333333,4,2,1,60,0,0
106483,-95.2380952380951,4,2,1,60,0,0
106665,-66.6666666666667,4,2,1,60,0,0
107029,-133.333333333333,4,2,1,60,0,0
107392,-200,4,2,1,60,0,0
107756,-35.2941176470589,4,2,1,60,0,0
108119,-200,4,2,1,60,0,0
109574,-133.333333333333,4,2,1,60,0,0
109938,-100,4,2,1,60,0,0
110301,-333,4,2,1,60,0,0
110665,-50,4,2,1,60,0,0
111392,-37.9746835443038,4,2,1,60,0,0
111756,-66.6666666666667,4,2,1,60,0,0
113210,-133.333333333333,4,2,1,60,0,0
113756,-35.2941176470589,4,2,1,60,0,0
116119,-133.333333333333,4,2,1,60,0,0
117210,-35.2941176470589,4,2,1,60,0,0
117938,-42.8571428571429,4,2,1,60,0,0
118665,-51.7241379310346,4,2,1,60,0,0
119029,-111.111111111111,4,2,1,60,0,0

[Colours]
Combo1 : 149,149,149
Combo2 : 96,96,238
Combo3 : 10,10,99

[HitObjects]
326,57,72847,6,0,B|314:-27|448:-46|481:44|467:109|409:144|379:140|337:150|319:237|403:349,1,405,4|0,0:0|0:0,0:0:0:0:
400,362,73210,2,0,P|428:320|402:258,1,80.9999975280763
294,131,73392,1,0,0:0:0:0:
294,131,73483,1,0,2:0:0:0:
294,131,73574,6,0,B|252:160|252:160|265:238,1,108,8|0,0:0|0:0,0:0:0:0:
356,255,73756,22,0,L|364:225,1,20.2702702702703,2|0,0:0|0:0,0:0:0:0:
452,244,73938,2,0,L|436:217,1,20.2702702702703,2|0,0:0|0:0,0:0:0:0:
512,168,74119,2,0,L|481:160,1,20.2702702702703,2|0,0:0|0:0,0:0:0:0:
500,71,74301,2,0,L|473:86,1,20.2702702702703,2|0,0:0|0:0,0:0:0:0:
341,332,74483,6,0,L|348:391,1,54.020270790089
452,244,74665,22,0,P|466:156|470:11,1,202.5,4|0,0:0|0:0,0:0:0:0:
471,42,74847,6,0,L|465:61,1,20.2702702702703,2|0,0:0|0:0,0:0:0:0:
487,370,75029,2,0,B|516:391|576:330|512:259|426:273|437:320|407:379|262:301,1,270,10|2,0:0|0:0,0:0:0:0:
51,211,75392,6,0,L|120:199,1,60.8108108108108
242,243,75756,6,0,B|313:214|302:124|302:124|153:119|102:305,1,405,4|0,0:0|0:0,0:0:0:0:
1,353,76119,2,0,B|52:362|52:362|84:318,1,87.749995983124
36,47,76301,2,0,P|18:118|17:210,1,135,4|0,0:0|0:0,0:0:0:0:
24,275,76483,5,8,0:0:0:0:
110,25,76665,22,0,L|140:22,1,20.2702702702703,2|0,0:0|0:0,0:0:0:0:
153,111,76847,2,0,L|172:86,1,20.2702702702703,2|0,0:0|0:0,0:0:0:0:
245,141,77028,2,0,L|241:109,1,20.2702702702703,2|0,0:0|0:0,0:0:0:0:
332,97,77210,2,0,L|308:76,1,20.2702702702703,2|0,0:0|0:0,0:0:0:0:
409,32,77392,6,0,P|412:70|416:106,1,67.5
483,254,77574,1,0,0:0:0:0:
512,0,77756,1,2,0:0:0:0:
366,354,77938,6,0,P|318:343|255:358,1,101.250003862381,10|0,0:0|0:0,0:0:0:0:
257,256,78119,2,0,P|209:270|162:314,1,80.9999975280763,2|0,0:0|0:0,0:0:0:0:
137,216,78301,2,0,P|103:252|84:314,1,60.7499981460572,2|0,0:0|0:0,0:0:0:0:
29,234,78483,2,0,P|21:264|31:305,1,40.4999987640381,2|0,0:0|0:0,0:0:0:0:
50,384,78665,21,4,0:0:0:0:
50,384,79029,2,0,P|64:302|58:69,1,270
50,4,79301,1,0,0:0:0:0:
50,4,79392,6,0,P|41:49|35:177,1,101.250003862381,8|0,0:0|0:0,0:0:0:0:
50,384,79574,22,0,L|47:354,1,20.2702702702703,2|0,0:0|0:0,0:0:0:0:
136,341,79756,2,0,L|111:322,1,20.2702702702703,2|0,0:0|0:0,0:0:0:0:
166,249,79937,2,0,L|134:253,1,20.2702702702703,2|0,0:0|0:0,0:0:0:0:
122,162,80119,2,0,L|101:186,1,20.2702702702703,2|0,0:0|0:0,0:0:0:0:
32,99,80301,6,0,L|108:89,1,67.5
278,103,80483,22,0,B|159:162|89:59|89:59|132:-1,1,270,4|0,0:0|0:0,0:0:0:0:
191,47,80756,1,0,0:0:0:0:
191,47,80847,6,0,B|275:56|275:56|288:62|288:62|438:82,1,242.999992584229,10|2,0:0|0:0,0:0:0:0:
378,377,81210,6,0,L|371:307,1,50.6250019311906,0|0,3:0|3:0,3:0:0:0:
459,321,81392,2,0,L|466:391,1,50.6250019311906,0|0,3:0|3:0,3:0:0:0:
231,267,81574,6,0,B|347:109|526:193|526:193|499:277,1,405
459,321,81938,2,0,P|429:271|437:228,1,80.9999975280763
483,7,82119,1,0,0:0:0:0:
483,7,82210,1,0,0:0:0:0:
483,7,82301,6,0,B|539:14|539:14|503:266,1,303.750011587143,8|0,0:0|0:0,0:0:0:0:
276,380,82574,2,0,B|188:355|188:355|425:335,1,270,8|0,0:0|0:0,0:0:0:0:
490,331,82847,22,0,B|497:386|408:399|386:339|396:296|434:273|454:275|482:269|494:211|438:136,1,270,4|0,0:0|0:0,0:0:0:0:
412,104,83119,2,0,P|465:84|536:193,1,202.500007724762,8|0,0:0|0:0,0:0:0:0:
372,341,83392,6,0,L|384:262,1,67.5,4|0,0:0|0:0,0:0:0:0:
292,229,83574,2,0,L|302:295,1,67.5
508,375,83756,21,10,0:0:0:0:
508,375,83938,5,2,0:0:0:0:
508,375,84301,5,2,0:0:0:0:
469,64,84483,6,0,B|514:74|514:74|273:135|273:135|237:80|137:96,1,405,4|0,0:0|0:0,0:0:0:0:
107,167,84847,2,0,P|146:185|198:168,1,87.749995983124
212,18,85029,1,0,0:0:0:0:
212,18,85119,1,0,0:0:0:0:
212,18,85210,6,0,B|151:2|151:2|113:37,1,114.750002188683,8|0,0:0|0:0,0:0:0:0:
72,284,85392,22,0,L|80:254,1,20.2702702702703,2|0,0:0|0:0,0:0:0:0:
168,273,85574,2,0,L|152:246,1,20.2702702702703,2|0,0:0|0:0,0:0:0:0:
228,197,85755,2,0,L|197:189,1,20.2702702702703,2|0,0:0|0:0,0:0:0:0:
216,100,85938,2,0,L|189:115,1,20.2702702702703,2|0,0:0|0:0,0:0:0:0:
182,21,86119,6,0,P|227:17|263:21,1,67.5
499,51,86301,22,0,P|399:94|303:184,1,202.5,4|0,0:0|0:0,0:0:0:0:
309,180,86483,6,0,L|315:156,1,20.2702702702703,2|0,0:0|0:0,0:0:0:0:
403,10,86665,22,0,L|366:321,1,270,10|2,0:0|0:0,0:0:0:0:
52,140,87029,22,0,L|47:74,1,60.8108108108108
169,49,87392,6,0,B|191:17|158:-12|130:-25|97:-15|55:17|70:80|103:129|103:129|137:171|119:255|97:279,1,405,4|0,0:0|0:0,0:0:0:0:
49,344,87756,2,0,B|6:307|6:307|25:255,1,101.250003862381
233,123,87938,2,0,P|227:233|213:303,1,135
178,384,88119,5,8,0:0:0:0:
128,122,88301,22,0,L|107:119,1,20.2702702702703,2|0,0:0|0:0,0:0:0:0:
169,49,88483,2,0,L|156:33,1,20.2702702702703,2|0,0:0|0:0,0:0:0:0:
248,29,88664,2,0,L|250:8,1,20.2702702702703,2|0,0:0|0:0,0:0:0:0:
317,70,88846,2,0,L|332:57,1,20.2702702702703,2|0,0:0|0:0,0:0:0:0:
389,141,89029,6,0,L|310:148,1,67.5
245,252,89210,22,0,B|360:228|360:228|373:233|373:233|523:201,1,270,4|2,0:0|0:0,0:0:0:0:
508,204,89483,1,0,0:0:0:0:
508,204,89574,6,0,L|498:322,1,101.250003862381,10|0,0:0|0:0,0:0:0:0:
321,146,89756,2,0,L|311:45,1,80.9999975280763,2|0,0:0|0:0,0:0:0:0:
162,276,89938,2,0,L|156:336,1,60.7499981460572,2|0,0:0|0:0,0:0:0:0:
78,166,90119,2,0,L|74:125,1,40.4999987640381,2|0,0:0|0:0,0:0:0:0:
0,222,90301,21,4,0:0:0:0:
0,222,90665,2,0,P|148:226|290:296,1,270
490,308,90938,1,0,0:0:0:0:
490,308,91029,6,0,P|368:329|311:366,1,135,8|0,0:0|0:0,0:0:0:0:
353,25,91210,22,0,L|345:5,1,20.2702702702703,2|0,0:0|0:0,0:0:0:0:
436,24,91392,2,0,L|443:4,1,20.2702702702703,2|0,0:0|0:0,0:0:0:0:
493,82,91573,2,0,L|512:73,1,20.2702702702703,2|0,0:0|0:0,0:0:0:0:
492,162,91755,2,0,L|510:168,1,20.2702702702703,2|0,0:0|0:0,0:0:0:0:
359,333,91938,6,0,L|374:257,1,67.5
278,70,92119,22,0,P|294:150|300:250,1,135,4|0,0:0|0:0,0:0:0:0:
278,156,92301,6,0,P|270:88|256:22,1,135,2|0,0:0|0:0,0:0:0:0:
245,0,92483,2,0,L|477:15,1,202.500007724762,10|0,0:0|0:0,0:0:0:0:
498,134,93210,22,0,B|445:183|384:161|353:149|353:149|299:131|215:126|161:185|161:185|207:161|196:169,1,405
200,369,93574,2,0,P|279:315|224:171,1,202.500007724762
197,169,93847,1,0,0:0:0:0:
197,169,93938,6,0,B|221:231|221:231|484:245,1,303.750011587143,8|0,0:0|0:0,0:0:0:0:
488,322,94210,2,0,B|225:308,1,249.749999047279,8|0,0:0|0:0,0:0:0:0:
121,371,94483,22,0,B|11:284|11:284|156:215,1,270,4|0,0:0|0:0,0:0:0:0:
284,105,94756,2,0,L|255:416,1,270,8|0,0:0|0:0,0:0:0:0:
422,369,95029,6,0,L|401:171,1,151.875005793572
123,218,95210,2,0,L|106:369,1,151.875005793572
307,319,95392,22,0,L|300:232,1,50.6250019311906,8|0,0:0|0:0,0:0:0:0:
229,258,95574,2,0,L|233:322,1,50.6250019311906
436,276,95756,22,0,L|443:225,1,33.75,0|0,3:0|3:0,3:0:0:0:
434,288,95938,2,0,L|427:339,1,33.75,0|0,3:0|3:0,3:0:0:0:
424,169,96119,6,0,B|524:178|524:178|538:196|538:196|526:204|526:204|351:188|351:188|329:153|329:153|249:146|249:146|237:151|237:151|226:142|226:142|91:128,1,573.750010943413,4|0,0:0|0:0,0:0:0:0:
8,101,96483,6,0,L|0:35,1,50.6250019311906
134,0,96665,2,0,L|164:40,1,50.6250019311906
120,311,96847,2,0,L|74:371,1,67.5,8|0,0:0|0:0,0:0:0:0:
79,365,97029,2,0,L|88:290,1,67.5
130,226,97210,21,0,0:0:0:0:
130,226,97392,1,0,0:0:0:0:
130,226,97574,1,0,0:0:0:0:
130,226,97756,1,0,0:0:0:0:
130,226,97938,6,0,B|170:190|145:131|145:131|148:155|135:173,1,135
149,257,98210,1,0,0:0:0:0:
149,294,98301,2,0,B|200:310|238:259|238:259|197:271,1,135,8|0,0:0|0:0,0:0:0:0:
0,360,98665,6,0,L|75:366,1,60.8108108108108
139,350,99029,6,0,B|134:277|134:277|137:267|137:267|132:259|132:259|125:180|125:180|127:172|127:172|119:162|119:162|119:121|116:99|92:86|65:86|44:101|41:133|41:133|63:397,1,573.750010943413,4|0,0:0|0:0,0:0:0:0:
372,338,99392,6,0,P|323:367|304:395,1,67.5
219,350,99574,2,0,P|208:317|189:290,1,67.5
272,62,99756,22,0,P|309:38|337:5,1,87.749995983124,8|0,0:0|0:0,0:0:0:0:
336,4,99938,2,0,P|354:43|384:74,1,87.749995983124
289,263,100119,5,0,0:0:0:0:
289,263,100301,1,0,0:0:0:0:
289,263,100483,1,0,0:0:0:0:
289,263,100665,1,0,0:0:0:0:
289,263,100847,22,0,B|356:256|356:256|368:261|368:261|532:243,1,216,4|0,0:0|0:0,0:0:0:0:
260,231,101119,1,0,0:0:0:0:
221,219,101210,6,0,L|239:100,1,108,8|0,0:0|0:0,0:0:0:0:
0,296,101392,2,0,L|15:382,1,87.749995983124
219,294,101574,22,0,L|137:290,1,47.2499985580445
117,369,101756,2,0,L|199:373,1,47.2499985580445
252,367,101938,5,4,0:0:0:0:
252,367,102301,2,0,P|357:189|512:58,1,382.500007295609
120,345,102665,21,8,0:0:0:0:
120,345,102847,1,0,0:0:0:0:
120,345,103029,1,0,0:0:0:0:
120,345,103210,1,0,0:0:0:0:
244,317,103392,5,0,0:0:0:0:
244,317,103574,1,0,0:0:0:0:
52,274,103756,21,4,0:0:0:0:
52,274,103938,1,0,0:0:0:0:
50,186,104119,5,8,0:0:0:0:
50,186,104210,2,0,B|113:173|144:236|144:236|95:209,1,135
127,226,104483,22,0,P|119:158|174:2,1,202.500007724762
8,83,104847,5,4,0:0:0:0:
385,40,105029,1,0,0:0:0:0:
8,83,105392,21,0,0:0:0:0:
512,0,105574,2,0,B|505:163|505:163|498:177|498:177|504:184|504:184|497:391,1,382.500007295609,8|0,0:0|0:0,0:0:0:0:
498,378,105847,1,8,0:0:0:0:
495,384,105938,6,0,L|479:292,1,50.6250019311906
512,207,106119,2,0,L|508:259,1,50.6250019311906,8|0,0:0|0:0,0:0:0:0:
379,340,106301,21,0,0:0:0:0:
386,328,106392,1,8,0:0:0:0:
394,314,106483,6,0,L|387:399,1,70.8749978370667
240,241,106665,2,0,B|347:223|303:313|461:279,1,202.500007724762
512,207,106938,1,0,0:0:0:0:
512,207,107029,5,8,0:0:0:0:
430,181,107210,21,0,0:0:0:0:
399,106,107392,5,0,0:0:0:0:
419,30,107574,21,0,0:0:0:0:
491,1,107756,22,0,P|329:131|-78:169,1,573.750010943413,4|0,0:0|0:0,0:0:0:0:
49,37,108119,6,0,L|52:-21,1,33.75
126,9,108301,2,0,L|123:67,1,33.75
65,360,108483,21,8,0:0:0:0:
65,360,108665,1,0,0:0:0:0:
65,360,108847,1,0,0:0:0:0:
65,360,109029,1,0,0:0:0:0:
65,360,109210,1,0,0:0:0:0:
65,360,109392,1,0,0:0:0:0:
65,360,109574,6,0,P|121:373|177:348,1,101.250003862381
56,321,109847,1,0,0:0:0:0:
28,297,109938,2,8,P|58:232|43:159,1,135,8|0,0:0|0:0,0:0:0:0:
8,65,110301,6,0,L|16:4,1,60.8108108108108
16,4,110665,6,0,P|146:138|534:135,1,540,4|0,0:0|0:0,0:0:0:0:
165,264,111210,1,4,0:0:0:0:
484,161,111392,6,0,P|296:168|146:293,1,355.500015821458,8|0,0:0|0:0,0:0:0:0:
102,376,111756,1,0,0:0:0:0:
102,376,111938,1,0,0:0:0:0:
102,376,112119,1,0,0:0:0:0:
102,376,112301,1,0,0:0:0:0:
102,376,112483,22,0,B|176:365|176:365|200:379|200:379|323:356,1,202.500007724762,4|0,0:0|0:0,0:0:0:0:
66,348,112756,1,0,0:0:0:0:
23,343,112847,6,0,L|2:240,1,101.250003862381,8|0,0:0|0:0,0:0:0:0:
81,175,113029,22,0,L|101:75,1,101.250003862381
199,94,113210,6,0,L|261:39,1,50.6250019311906
333,70,113392,22,0,L|408:44,1,50.6250019311906
451,119,113574,5,4,0:0:0:0:
451,119,113938,2,0,B|385:58|316:35|316:35|310:28|310:28|305:29|305:29|232:8|130:24|130:24|119:22|119:22|117:27|117:27|48:61|-4:98,1,382.500007295609
501,38,114301,21,8,0:0:0:0:
501,38,114483,1,0,0:0:0:0:
501,38,114665,1,0,0:0:0:0:
501,38,114847,1,0,0:0:0:0:
501,38,115029,1,0,0:0:0:0:
501,38,115210,1,0,0:0:0:0:
428,373,115392,5,4,0:0:0:0:
428,373,115574,1,0,0:0:0:0:
321,205,115756,21,8,0:0:0:0:
321,205,115847,1,0,0:0:0:0:
270,279,116029,1,0,0:0:0:0:
270,279,116119,2,0,L|280:396,1,101.250003862381
139,236,116483,5,0,0:0:0:0:
392,289,116665,1,0,0:0:0:0:
1,362,117029,21,0,0:0:0:0:
512,181,117210,2,0,B|411:168|411:168|388:155|388:155|294:146|294:146|281:150|281:150|267:139|267:139|196:128|196:128|171:135|171:135|-9:112|-9:112|177:107,2,573.750010943413,8|8|4,0:0|0:0|0:0,0:0:0:0:
5,355,117938,5,0,0:0:0:0:
5,355,118029,1,8,0:0:0:0:
6,359,118119,2,0,B|122:348|122:348|133:354|133:354|433:321,2,314.999995994568,0|4|0,0:0|0:0|0:0,0:0:0:0:
19,257,118574,1,0,0:0:0:0:
19,257,118665,22,0,P|158:261|298:345,1,261.000007965088,8|0,0:0|0:0,0:0:0:0:
500,346,119029,6,0,P|410:354|365:385,1,121.499996292114
