osu file format v14

[General]
AudioFilename: Beautiful Angel.mp3
AudioLeadIn: 0
PreviewTime: 58772
Countdown: 0
SampleSet: Soft
StackLeniency: 0.7
Mode: 0
LetterboxInBreaks: 0
EpilepsyWarning: 1
WidescreenStoryboard: 1

[Editor]
Bookmarks: 34441,87202,100633
DistanceSpacing: 0.9
BeatDivisor: 6
GridSize: 4
TimelineZoom: 2.559999

[Metadata]
Title:Beautiful Angel
TitleUnicode:Beautiful Angel
Artist:DJ Swan
ArtistUnicode:DJ Swan
Creator:rs_fadeaway
Version:Kani's Hyper
Source:beatmania IIDX 15 DJ TROOPERS(CS)
Tags:drum'n'bass dnb KaniNayuta Heatherfield Gordon123
BeatmapID:1262603
BeatmapSetID:556834

[Difficulty]
HPDrainRate:5
CircleSize:4
OverallDifficulty:8
ApproachRate:9
SliderMultiplier:1.8
SliderTickRate:1

[Events]
//Background and Video events
0,0,"BG.jpg",0,0
//Break Periods
//Storyboard Layer 0 (Background)
//Storyboard Layer 1 (Fail)
//Storyboard Layer 2 (Pass)
//Storyboard Layer 3 (Foreground)
//Storyboard Sound Samples

[TimingPoints]
2990,348.837209302326,4,2,1,50,1,0
8571,-100,4,2,1,70,0,0
12059,-100,4,2,1,80,0,0
12757,-100,4,2,1,83,0,0
13455,-100,4,2,1,80,0,0
13803,-66.6666666666667,4,2,1,70,0,0
14152,-100,4,1,2,30,0,0
14327,-100,4,2,1,70,0,0
25315,-100,4,1,2,30,0,0
25402,-100,4,2,1,70,0,0
30548,-83.3333333333333,4,2,1,70,0,0
32292,-83.3333333333333,4,2,1,75,0,0
33687,-100,4,2,1,80,0,0
35083,-100,4,1,1,65,0,0
36129,-83.3333333333333,4,2,1,50,0,0
36478,-100,4,2,1,50,0,0
37524,-100,4,2,3,50,0,0
38047,-100,4,2,1,50,0,0
40315,-100,4,2,4,50,0,0
40838,-100,4,2,1,50,0,0
43105,-100,4,2,3,50,0,0
43629,-100,4,2,1,50,0,0
44850,-83.3333333333333,4,2,0,50,0,0
47640,-83.3333333333333,4,2,1,50,0,0
47641,-100,4,2,1,50,0,0
48686,-100,4,2,3,50,0,0
49210,-100,4,2,1,70,0,0
51478,-100,4,2,4,70,0,0
52001,-100,4,2,1,70,0,0
54269,-100,4,2,3,70,0,0
54792,-100,4,2,1,70,0,0
56012,-100,4,2,0,70,0,0
58803,-133.333333333333,4,2,4,50,0,0
60373,-133.333333333333,4,2,0,70,0,0
60722,-133.333333333333,4,2,2,50,0,0
61071,-133.333333333333,4,2,2,80,0,0
61594,-133.333333333333,4,2,0,50,0,0
63164,-133.333333333333,4,2,0,70,0,0
63513,-133.333333333333,4,2,2,70,0,0
63862,-133.333333333333,4,2,2,50,0,0
64385,-133.333333333333,4,2,0,50,0,0
65955,-133.333333333333,4,2,2,70,0,0
66652,-133.333333333333,4,2,2,80,0,0
67176,-133.333333333333,4,2,4,50,0,0
67524,-133.333333333333,4,2,4,45,0,0
67873,-133.333333333333,4,2,4,35,0,0
68222,-133.333333333333,4,2,4,30,0,0
68571,-133.333333333333,4,2,1,25,0,0
68920,-133.333333333333,4,2,1,20,0,0
69268,-83.3333333333333,4,2,1,70,0,0
69966,-100,4,1,2,30,0,0
70053,-100,4,2,1,70,0,0
78338,-200,4,2,2,60,0,0
79036,-100,4,2,2,60,0,0
79734,-200,4,2,2,60,0,0
80431,-100,4,2,2,60,0,0
80780,-100,4,2,0,60,0,0
81129,-133.333333333333,4,3,0,60,0,0
81827,-100,4,3,0,60,0,0
83222,-100,4,2,0,50,0,0
83920,-200,4,2,0,30,0,0
84617,-100,4,2,0,70,0,0
86710,-83.3333333333333,4,1,2,50,0,1
86798,-83.3333333333333,4,2,1,90,0,1
113222,-83.3333333333333,4,1,1,90,0,1
114269,-100,4,2,0,60,0,0
114617,-100,4,1,2,30,0,0

[Colours]
Combo1 : 172,118,205
Combo2 : 39,216,97
Combo3 : 43,216,230
Combo4 : 105,160,156

[HitObjects]
280,240,2990,5,6,0:1:0:0:
349,180,3164,1,0,0:0:0:0:
303,327,3339,1,0,0:0:0:0:
259,153,3513,1,2,0:0:0:0:
370,270,3687,1,2,0:0:0:0:
209,312,3862,1,0,0:0:0:0:
209,312,3949,1,0,0:0:0:0:
209,312,4036,2,0,L|121:296,1,90,0|0,0:0|0:0,0:0:0:0:
8,247,4385,5,2,0:0:0:0:
31,349,4559,1,0,0:0:0:0:
101,195,4734,2,0,L|189:211,1,90,0|2,0:0|0:0,0:0:0:0:
285,356,5083,2,0,B|301:308|277:260,1,90,2|0,0:0|0:0,0:0:0:0:
185,123,5431,2,0,B|169:171|193:219,1,90
428,148,5780,6,0,B|336:208|320:104|248:176,1,180,2|0,0:0|0:0,0:0:0:0:
372,88,6303,2,0,P|464:76|512:148,1,180,2|0,0:0|0:0,0:0:0:0:
416,312,6827,2,0,P|389:282|392:224,1,90,2|0,0:0|0:0,0:0:0:0:
425,153,7176,1,2,0:0:0:0:
300,267,7350,1,0,0:0:0:0:
256,134,7524,1,2,0:0:0:0:
387,234,7699,1,0,0:0:0:0:
323,66,7873,2,0,P|355:130|347:162,1,90,2|0,0:0|0:0,0:0:0:0:
256,331,8222,2,0,P|224:267|232:235,1,90,2|0,0:0|0:0,0:0:0:0:
85,94,8571,6,0,L|37:86,2,45,6|0|0,0:0|0:0|0:0,0:0:0:0:
173,158,8920,2,0,L|221:150,2,45,2|0|0,0:0|0:0|0:0,0:0:0:0:
71,211,9269,1,2,0:0:0:0:
71,211,9443,1,0,0:0:0:0:
175,270,9617,1,2,0:0:0:0:
175,270,9791,1,0,0:0:0:0:
268,176,9966,6,0,L|288:285,1,90,2|0,0:0|0:0,0:0:0:0:
372,88,10315,2,0,L|379:189,1,90,2|0,0:0|0:0,0:0:0:0:
232,352,10664,2,0,L|250:264,1,90,2|0,2:0|2:0,0:0:0:0:
140,252,11013,2,0,L|148:160,1,90,2|0,2:0|2:0,0:0:0:0:
56,308,11362,5,2,0:0:0:0:
56,308,11536,1,2,0:0:0:0:
28,196,11710,1,2,0:0:0:0:
28,196,11885,1,2,0:0:0:0:
147,162,12059,1,2,0:0:0:0:
147,162,12234,1,2,0:0:0:0:
104,56,12408,1,2,0:0:0:0:
104,56,12583,1,2,0:0:0:0:
224,96,12757,6,0,L|275:79,1,45
288,156,12931,2,0,L|334:157,1,45
240,216,13106,2,0,L|195:215,1,45
296,276,13280,2,0,L|253:290,1,45
372,316,13455,1,8,1:0:0:0:
380,280,13542,1,8,1:0:0:0:
388,248,13629,1,8,1:0:0:0:
396,216,13716,1,8,1:0:0:0:
410,184,13803,6,0,L|447:321,1,135.000005149842,8|2,1:0|0:0,0:0:0:0:
410,184,14152,5,4,0:0:0:0:
492,136,14327,1,2,0:0:0:0:
422,79,14501,2,0,P|366:87|334:119,1,90,8|2,0:0|0:0,0:0:0:0:
304,270,14850,1,2,0:0:0:0:
316,252,14937,1,0,0:0:0:0:
320,232,15024,1,2,0:0:0:0:
200,168,15199,1,8,0:0:0:0:
200,168,15548,6,0,P|176:208|184:264,1,90,0|2,0:0|0:0,0:0:0:0:
323,183,15896,2,0,P|346:143|338:87,1,90,8|2,0:0|0:0,0:0:0:0:
346,101,16158,1,0,0:0:0:0:
346,101,16245,1,0,0:0:0:0:
232,136,16420,1,2,0:0:0:0:
252,24,16594,1,8,0:0:0:0:
346,101,16769,1,2,0:0:0:0:
168,160,16943,6,0,P|156:236|232:304,1,180,0|8,0:0|0:0,0:0:0:0:
336,280,17466,1,2,0:0:0:0:
248,200,17641,1,2,0:0:0:0:
256,176,17728,1,0,0:0:0:0:
256,152,17815,1,2,0:0:0:0:
128,240,17990,2,0,P|128:288|144:344,1,90,8|2,0:0|0:0,0:0:0:0:
160,144,18338,6,0,P|104:136|48:168,1,90,0|2,0:0|0:0,0:0:0:0:
256,232,18687,2,0,P|304:240|368:200,1,90,8|2,0:0|0:0,0:0:0:0:
352,216,18949,1,0,0:0:0:0:
360,204,19036,1,0,0:0:0:0:
376,120,19210,1,2,0:0:0:0:
448,260,19385,2,0,B|476:212|456:172,1,90,8|2,0:0|0:0,0:0:0:0:
280,112,19734,6,0,L|168:104,1,90,0|2,0:0|0:0,0:0:0:0:
264,280,20083,2,0,L|376:264,1,90,8|2,0:0|0:0,0:0:0:0:
264,192,20431,1,2,0:0:0:0:
240,192,20518,1,0,0:0:0:0:
216,192,20606,1,2,0:0:0:0:
120,216,20780,2,0,P|96:256|112:320,1,90,8|2,0:0|0:0,0:0:0:0:
216,360,21129,5,0,0:0:0:0:
272,192,21303,1,2,0:0:0:0:
184,280,21478,1,8,0:0:0:0:
344,288,21652,1,2,0:0:0:0:
296,352,21827,2,0,B|253:323|264:272,1,90,0|2,0:0|0:0,0:0:0:0:
168,136,22176,2,0,B|210:164|200:216,1,90,8|2,0:0|0:0,0:0:0:0:
128,280,22524,6,0,P|184:312|256:296,1,135
288,232,22873,2,0,B|296:208|352:200|392:264|424:192|424:192|392:120|352:184|296:176|288:152,1,315,8|0,0:0|0:0,0:0:0:0:
256,80,23571,2,0,P|183:52|104:112,1,180,8|0,0:0|0:0,0:0:0:0:
104,216,24094,1,2,0:0:0:0:
192,152,24269,5,8,0:0:0:0:
217,191,24356,1,0,0:0:0:0:
216,240,24443,1,2,0:0:0:0:
200,288,24530,1,0,0:0:0:0:
168,312,24617,2,0,L|104:320,2,45,2|0|2,0:0|0:0|0:0,0:0:0:0:
288,144,24966,2,0,L|345:148,2,45,8|0|2,0:0|0:0|0:0,0:0:0:0:
296,240,25315,6,0,L|400:248,1,90,4|2,0:0|0:0,0:0:0:0:
496,256,25664,1,8,0:0:0:0:
408,320,25838,1,2,0:0:0:0:
344,224,26013,1,2,0:0:0:0:
312,221,26100,1,0,0:0:0:0:
272,216,26187,1,2,0:0:0:0:
176,232,26362,2,0,L|112:224,2,45,8|0|4,0:0|0:0|0:0,0:0:0:0:
288,40,26710,6,0,P|296:88|280:136,1,90,0|2,0:0|0:0,0:0:0:0:
104,160,27059,2,0,P|96:112|112:64,1,90,8|2,0:0|0:0,0:0:0:0:
120,56,27321,1,0,0:0:0:0:
144,48,27408,1,2,0:0:0:0:
232,224,27583,1,2,0:0:0:0:
216,72,27757,2,0,L|192:176,1,90,8|2,0:0|0:0,0:0:0:0:
288,320,28106,6,0,P|336:264|320:160,1,180,0|8,0:0|0:0,0:0:0:0:
224,264,28629,2,0,P|192:200|240:240,1,180,2|2,0:0|0:0,0:0:0:0:
344,264,29152,2,0,P|392:264|440:248,1,90,8|2,0:0|0:0,0:0:0:0:
248,136,29501,2,0,P|200:120|160:128,1,90,0|2,0:0|0:0,0:0:0:0:
56,288,29850,2,0,P|112:304|168:288,1,90,8|2,0:0|0:0,0:0:0:0:
128,264,30112,1,0,0:0:0:0:
112,232,30199,1,0,0:0:0:0:
120,192,30286,1,0,0:0:0:0:
136,160,30373,1,2,0:0:0:0:
208,224,30548,6,0,P|248:240|320:224,1,107.999996704102,8|0,0:0|0:0,0:0:0:0:
264,156,30896,2,0,P|272:60|208:124,1,215.999993408203,4|8,1:0|0:0,0:0:0:0:
120,128,31420,2,0,P|168:224|128:328,1,215.999993408203,4|0,0:0|0:0,0:0:0:0:
328,328,31943,2,0,P|272:344|216:328,1,107.999996704102,8|0,0:0|0:0,0:0:0:0:
376,224,32292,2,0,P|448:232|424:344,1,215.999993408203,4|8,1:0|0:0,0:0:0:0:
280,104,32815,2,0,B|240:132|288:180|288:180|248:176|248:176|292:224|268:256,1,215.999993408203,4|0,0:0|0:0,0:3:0:0:
408,280,33338,2,0,P|400:320|344:280,1,135.000005149842,12|0,0:0|0:0,0:0:0:0:
368,88,33687,6,0,B|392:128|376:184,1,90,4|0,1:0|0:0,0:0:0:0:
240,288,34036,2,0,B|216:240|232:192,1,90
248,40,34385,1,0,0:0:0:0:
248,56,34472,1,0,0:0:0:0:
248,72,34559,1,0,0:0:0:0:
144,184,34734,2,0,P|144:128|168:88,1,90,0|0,0:0|0:0,0:0:0:0:
304,144,35083,6,0,B|360:144|360:144|392:160,1,90,0|0,0:0|0:0,0:0:0:0:
160,280,35431,2,0,B|104:280|104:280|72:264,1,90,0|0,0:0|0:0,0:0:0:0:
72,240,35693,1,0,0:0:0:0:
72,218,35780,1,8,1:0:0:0:
72,196,35867,1,8,1:0:0:0:
72,175,35954,1,8,1:0:0:0:
72,153,36041,1,8,1:0:0:0:
72,128,36129,2,0,B|72:72|88:44|88:44|92:68,1,107.999996704102,2|0,1:0|0:0,0:0:0:0:
224,176,36478,6,0,B|312:192|312:192|368:168,1,135,4|0,0:0|0:0,0:0:0:0:
375,199,36827,1,0,0:0:0:0:
202,201,37001,6,0,B|319:223|319:223|392:192,1,180,8|0,0:0|0:0,0:0:0:0:
160,48,37524,2,0,B|96:75|96:75|96:189,1,180,4|0,0:0|0:0,0:0:0:0:
124,323,38048,1,0,0:0:0:0:
173,170,38222,1,8,0:0:0:0:
202,306,38396,1,0,0:0:0:0:
70,263,38571,1,0,0:0:0:0:
226,230,38745,1,0,0:0:0:0:
95,187,38920,1,8,0:0:0:0:
124,323,39094,1,0,0:0:0:0:
264,320,39269,6,0,B|360:312|360:312|392:264,1,135,2|0,2:0|0:0,0:0:0:0:
366,226,39617,1,0,0:0:0:0:
224,304,39792,6,0,B|320:296|320:296|368:224,1,180,8|0,0:0|0:0,0:0:0:0:
256,104,40315,2,0,P|204:40|140:88,1,180,4|0,0:0|0:0,0:0:0:0:
5,116,40839,1,0,0:0:0:0:
158,165,41013,1,8,0:0:0:0:
22,194,41187,1,0,0:0:0:0:
65,62,41362,1,0,0:0:0:0:
98,218,41536,1,0,0:0:0:0:
5,116,41711,1,8,0:0:0:0:
141,87,41885,1,0,0:0:0:0:
224,276,42059,6,0,P|261:323|297:277,1,135,4|0,0:0|0:0,0:0:0:0:
268,211,42408,1,0,0:0:0:0:
370,307,42583,6,0,P|354:227|266:211,1,180,8|0,0:0|0:0,0:0:0:0:
136,272,43106,2,0,B|184:192|104:176|144:96,1,180,4|0,0:0|0:0,0:0:0:0:
192,40,43629,1,0,0:0:0:0:
80,48,43803,1,8,0:0:0:0:
216,136,43978,1,0,0:0:0:0:
80,48,44152,1,0,0:0:0:0:
56,208,44327,1,0,0:0:0:0:
216,136,44501,1,8,0:0:0:0:
136,0,44676,1,0,0:0:0:0:
56,120,44850,6,0,P|136:158|136:240,1,161.999995056153,2|0,0:0|0:0,0:0:0:0:
143,223,45199,2,0,P|160:160|216:128,1,107.999996704102,8|0,0:0|0:0,0:0:0:0:
264,248,45548,1,0,0:0:0:0:
256,232,45635,1,0,0:0:0:0:
240,224,45722,1,0,1:0:0:0:
248,328,45896,6,0,P|328:336|384:280,1,161.999995056153,8|0,0:0|0:0,0:0:0:0:
382,282,46245,1,0,0:0:0:0:
240,224,46420,1,8,0:0:0:0:
360,168,46594,1,0,0:0:0:0:
368,152,46681,1,0,0:0:0:0:
368,136,46768,1,0,0:0:0:0:
272,32,46943,2,0,P|256:80|272:136,1,107.999996704102,8|0,0:0|0:0,0:0:0:0:
464,208,47292,2,0,P|480:160|464:104,1,107.999996704102,10|0,0:0|0:0,0:0:0:0:
368,136,47641,6,0,L|360:288,1,135,2|0,0:0|0:0,0:0:0:0:
288,315,47990,1,0,0:0:0:0:
296,136,48164,6,0,L|288:336,1,180,8|0,0:0|0:0,0:0:0:0:
64,208,48687,2,0,P|136:232|224:184,1,180,4|0,0:0|1:0,0:0:0:0:
64,132,49210,1,0,0:0:0:0:
136,288,49385,1,8,0:0:0:0:
160,136,49559,1,0,0:0:0:0:
40,280,49734,1,0,0:0:0:0:
40,280,49821,1,0,0:0:0:0:
40,280,49908,1,0,0:0:0:0:
160,136,50083,1,8,0:0:0:0:
160,136,50257,1,0,0:0:0:0:
136,288,50431,6,0,L|288:280,1,135,2|0,0:0|0:0,0:0:0:0:
347,208,50780,1,0,0:0:0:0:
168,216,50954,6,0,L|368:208,1,180,8|0,0:0|0:0,0:0:0:0:
88,56,51478,2,0,B|43:155|43:155|72:232,1,180,4|0,0:0|0:0,0:0:0:0:
240,200,52001,1,0,0:0:0:0:
120,304,52176,1,8,0:0:0:0:
168,136,52350,1,0,0:0:0:0:
72,224,52524,1,0,0:0:0:0:
72,224,52612,1,0,0:0:0:0:
72,224,52699,1,0,0:0:0:0:
240,200,52873,1,8,0:0:0:0:
240,200,53048,1,0,0:0:0:0:
160,160,53222,6,0,P|152:232|192:280,1,135,2|0,0:0|0:0,0:0:0:0:
240,336,53571,1,0,0:0:0:0:
90,347,53745,6,0,P|122:259|190:280,1,180,8|0,0:0|0:0,0:0:0:0:
264,192,54269,2,0,B|336:168|336:168|440:176,1,180,4|0,0:0|0:0,0:0:0:0:
384,96,54792,1,0,0:0:0:0:
344,248,54966,1,8,0:0:0:0:
384,96,55141,1,0,0:0:0:0:
432,256,55315,1,0,0:0:0:0:
432,256,55402,1,0,0:0:0:0:
432,256,55490,1,0,0:0:0:0:
288,144,55664,1,8,0:0:0:0:
288,144,55838,1,0,0:0:0:0:
448,168,56013,6,0,P|368:192|344:240,1,135,2|0,0:0|0:0,0:0:0:0:
345,233,56362,2,0,L|249:225,1,90,8|0,0:0|0:0,0:0:0:0:
80,160,56710,2,0,L|8:168,2,45,0|0|0,0:0|0:0|0:0,0:0:0:0:
144,88,57059,2,0,P|176:144|152:224,1,135,8|0,0:0|0:0,0:0:0:0:
144,232,57408,2,0,L|137:276,2,45,0|0|8,0:0|0:0|0:0,0:0:0:0:
232,328,57757,5,0,0:0:0:0:
278,337,57844,1,0,0:0:0:0:
323,317,57931,1,0,0:0:0:0:
347,275,58018,1,0,0:0:0:0:
352,224,58106,2,0,L|406:191,3,45,8|0|0|0,0:0|0:0|0:0|0:0,0:0:0:0:
312,152,58455,2,0,L|256:136,3,45,8|0|0|0,0:0|0:0|0:0|0:0,0:0:0:0:
184,80,58803,6,0,P|120:112|88:184,3,135.000005149842,4|2|0|2,0:0|0:0|0:0|0:0,0:0:0:0:
368,272,60373,2,0,L|376:344,2,67.5000025749208,2|0|8,0:0|0:0|0:0,0:0:0:0:
200,264,61071,2,0,L|192:192,2,67.5000025749208,10|0|10,0:0|0:0|0:0,0:0:0:0:
352,168,61594,6,0,P|424:184|464:248,3,135.000005149842,0|2|0|2,0:0|0:0|0:0|0:0,0:0:0:0:
256,280,63164,2,0,B|282:285|282:285|322:277,2,67.5000025749208,2|0|8,0:0|0:0|0:0,0:0:0:0:
66,205,63862,2,0,B|40:200|40:200|0:208,2,67.5000025749208,8|0|8,0:0|0:0|0:0,0:0:0:0:
170,341,64385,6,0,P|154:277|194:197,3,135.000005149842,0|2|0|2,0:0|0:0|0:0|0:0,0:0:0:0:
360,240,65955,2,0,L|432:248,1,67.5000025749208,10|0,0:0|0:0,0:0:0:0:
472,224,66303,1,10,0:0:0:0:
328,72,66652,2,0,L|256:80,1,67.5000025749208,10|0,0:0|0:0,0:0:0:0:
216,56,67000,1,10,0:0:0:0:
112,88,67176,6,0,P|72:144|64:208,3,135.000005149842,4|2|0|2,0:0|0:0|0:0|0:0,0:0:0:0:
64,208,68571,1,0,0:0:0:0:
64,208,68920,1,0,0:0:0:0:
256,272,69269,6,0,P|240:312|192:280,1,107.999996704102
332,228,69617,2,0,P|371:211|382:267,1,107.999996704102
332,228,69966,5,4,0:0:0:0:
320,320,70141,1,2,0:0:0:0:
232,200,70315,2,0,L|216:104,1,90,8|2,0:0|0:0,0:0:0:0:
232,200,70664,1,0,0:0:0:0:
112,144,70838,1,2,0:0:0:0:
160,48,71013,2,0,L|248:32,1,90,10|2,0:0|0:0,0:0:0:0:
160,48,71362,5,0,0:0:0:0:
300,88,71536,1,2,0:0:0:0:
224,172,71710,2,0,L|216:268,1,90,8|2,0:0|0:0,0:0:0:0:
136,364,72059,2,0,L|28:332,2,90,0|2|8,0:0|0:0|0:0,0:0:0:0:
188,280,72583,5,0,0:0:0:0:
188,280,72670,1,0,0:0:0:0:
188,280,72757,1,0,0:0:0:0:
136,364,72931,1,2,0:0:0:0:
288,336,73106,2,0,L|376:320,1,90,8|2,0:0|0:0,0:0:0:0:
288,336,73455,1,0,0:0:0:0:
360,220,73629,1,2,0:0:0:0:
264,160,73803,2,0,L|240:256,1,90,10|2,0:0|0:0,0:0:0:0:
264,160,74152,5,0,0:0:0:0:
128,264,74327,1,0,0:0:0:0:
160,168,74501,2,0,L|144:72,1,90,8|0,0:0|0:0,0:0:0:0:
160,168,74850,2,0,P|116:172|64:160,2,90,0|2|8,0:0|0:0|0:0,0:0:0:0:
96,288,75373,5,0,0:0:0:0:
96,288,75460,1,0,0:0:0:0:
96,288,75548,1,0,0:0:0:0:
160,168,75722,1,2,0:0:0:0:
272,208,75896,2,0,L|368:200,1,90,8|0,0:0|0:0,0:0:0:0:
272,208,76245,1,0,0:0:0:0:
380,112,76420,1,2,0:0:0:0:
436,200,76594,2,0,L|420:288,1,90,8|2,0:0|0:0,0:0:0:0:
436,200,76943,5,0,0:0:0:0:
320,276,77117,1,2,0:0:0:0:
228,194,77292,2,0,L|228:98,1,90,8|2,0:0|0:0,0:0:0:0:
228,194,77641,1,0,0:0:0:0:
176,188,77728,1,0,0:0:0:0:
120,180,77815,1,2,0:0:0:0:
228,104,77990,2,0,L|348:88,1,90,8|0,0:0|0:0,0:0:0:0:
416,84,78338,6,0,P|472:140|424:172,1,135,2|0,0:3|0:0,0:0:0:0:
328,192,79036,2,0,L|272:184,1,45,2|0,0:3|0:0,0:0:0:0:
272,192,79210,2,0,P|236:186|248:288,1,180,2|8,0:3|0:0,0:0:0:0:
336,280,79734,6,0,P|376:280|352:352,1,135,0|8,0:0|0:0,0:0:0:0:
240,336,80431,2,0,L|192:320,1,45,2|0,0:3|0:0,0:0:0:0:
176,280,80606,2,0,P|192:200|288:168,1,180,2|0,0:3|0:0,0:0:0:0:
392,68,81129,6,0,P|388:32|372:0,1,67.5000025749208
272,68,81478,2,0,P|260:116|268:152,1,67.5000025749208
384,176,81827,2,0,P|356:220|324:244,1,90,2|2,0:0|0:0,0:0:0:0:
496,128,82176,2,0,P|496:172|484:224,1,90
424,328,82524,5,0,3:0:0:0:
394,295,82612,1,0,3:0:0:0:
386,247,82699,2,0,P|378:215|378:183,1,45,0|0,3:0|3:0,0:0:0:0:
297,121,82873,5,0,3:0:0:0:
281,161,82960,1,0,3:0:0:0:
281,201,83048,2,0,P|281:225|289:257,1,45,0|0,3:0|3:0,0:0:0:0:
233,329,83222,5,2,1:3:0:0:
209,305,83309,1,0,1:0:0:0:
201,273,83396,2,0,P|193:249|193:217,1,45,2|0,1:3|1:0,0:0:0:0:
121,177,83571,5,0,1:0:0:0:
113,201,83658,1,0,1:0:0:0:
113,225,83745,2,0,P|113:249|121:281,1,45,0|0,1:0|1:0,0:0:0:0:
40,240,83920,6,0,P|36:224|36:196,1,45,0|0,1:0|0:0,0:0:0:0:
256,192,84269,12,0,86536,0:0:0:0:
96,72,86710,5,4,0:0:0:0:
128,168,86885,1,2,0:0:0:0:
224,144,87059,2,0,L|336:136,1,107.999996704102,8|2,0:0|0:0,0:0:0:0:
448,0,87408,5,0,0:0:0:0:
344,48,87583,1,2,0:0:0:0:
432,104,87757,2,0,L|416:216,1,107.999996704102,8|2,0:0|0:0,0:0:0:0:
336,345,88106,5,0,0:0:0:0:
320,248,88280,1,2,0:0:0:0:
216,256,88455,2,0,L|224:144,1,107.999996704102,8|2,0:0|0:0,0:0:0:0:
8,192,88803,5,2,0:0:0:0:
112,208,88978,1,2,0:0:0:0:
160,112,89152,2,0,L|272:104,1,107.999996704102,8|2,0:0|0:0,0:0:0:0:
461,230,89501,5,0,0:0:0:0:
392,144,89676,1,2,0:0:0:0:
352,240,89850,2,0,L|344:352,1,107.999996704102,8|2,0:0|0:0,0:0:0:0:
144,320,90199,5,0,0:0:0:0:
112,224,90373,1,2,0:0:0:0:
200,168,90548,2,0,L|312:152,1,107.999996704102,8|2,0:0|0:0,0:0:0:0:
488,128,90896,5,2,0:0:0:0:
480,232,91071,1,0,0:0:0:0:
376,256,91245,2,0,L|256:248,1,107.999996704102,8|2,0:0|0:0,0:0:0:0:
56,320,91594,5,2,0:0:0:0:
160,344,91769,1,2,0:0:0:0:
160,240,91943,2,0,L|144:128,1,107.999996704102,8|2,0:0|0:0,0:0:0:0:
376,64,92292,5,0,0:0:0:0:
280,40,92466,1,2,0:0:0:0:
376,72,92641,2,0,P|376:144|360:192,1,107.999996704102,8|2,0:0|0:0,0:0:0:0:
312,336,92990,5,0,0:0:0:0:
288,232,93164,1,2,0:0:0:0:
304,344,93338,2,0,P|240:344|184:320,1,107.999996704102,8|2,0:0|0:0,0:0:0:0:
144,112,93687,5,0,0:0:0:0:
48,152,93862,1,2,0:0:0:0:
152,120,94036,2,0,P|176:168|168:232,1,107.999996704102,8|2,0:0|0:0,0:0:0:0:
144,336,94385,5,2,0:0:0:0:
56,288,94559,1,2,0:0:0:0:
152,336,94734,2,0,P|216:336|264:304,1,107.999996704102,8|2,0:0|0:0,0:0:0:0:
296,128,95083,5,0,0:0:0:0:
408,160,95257,1,2,0:0:0:0:
384,272,95431,2,0,P|392:192|408:152,1,107.999996704102,8|2,0:0|0:0,0:0:0:0:
240,232,95780,5,0,0:0:0:0:
264,328,95955,1,2,0:0:0:0:
152,328,96129,2,0,P|208:312|256:320,1,107.999996704102,8|2,0:0|0:0,0:0:0:0:
20,284,96478,5,0,0:0:0:0:
52,272,96565,1,0,0:0:0:0:
84,276,96652,1,2,0:0:0:0:
152,328,96827,2,0,P|136:272|144:208,1,107.999996704102,8|2,0:0|0:0,0:0:0:0:
144,208,97088,5,0,0:0:0:0:
152,196,97176,1,0,0:0:0:0:
164,184,97263,1,0,0:0:0:0:
176,176,97350,1,2,0:0:0:0:
368,212,97524,1,8,0:0:0:0:
216,248,97699,1,2,0:0:0:0:
328,284,97873,6,0,P|288:240|296:172,1,107.999996704102,4|2,0:1|0:0,0:0:0:0:
172,64,98222,2,0,P|212:108|204:176,1,107.999996704102,8|2,0:0|0:0,0:0:0:0:
136,296,98571,2,0,L|248:288,1,107.999996704102,2|2,0:0|0:0,0:0:0:0:
128,136,98920,2,0,L|0:120,1,107.999996704102,8|2,0:0|0:0,0:0:0:0:
52,340,99269,2,0,P|44:284|68:228,1,107.999996704102,0|2,0:0|0:0,0:0:0:0:
260,68,99617,2,0,P|264:124|252:180,1,107.999996704102,8|2,0:0|0:0,0:0:0:0:
208,280,99966,5,0,0:0:0:0:
208,280,100053,1,0,0:0:0:0:
208,280,100141,1,2,0:0:0:0:
136,176,100315,1,10,0:0:0:0:
296,240,100490,1,0,0:0:0:0:
127,328,100664,6,0,B|163:276|163:276|215:280,1,107.999996704102
272,152,101013,2,0,L|160:136,1,107.999996704102,8|0,0:0|0:0,0:0:0:0:
24,192,101362,1,0,0:0:0:0:
96,96,101536,1,2,0:0:0:0:
144,216,101710,1,8,0:0:0:0:
208,64,101885,1,2,0:0:0:0:
224,272,102059,6,0,P|240:208|224:168,1,107.999996704102,2|0,0:0|0:0,0:0:0:0:
356,92,102408,2,0,P|340:156|356:196,1,107.999996704102,8|0,0:0|0:0,0:0:0:0:
394,265,102670,1,0,0:0:0:0:
394,265,102757,1,0,0:0:0:0:
394,265,102844,2,0,L|448:256,1,53.9999983520508,0|2,0:0|0:0,0:0:0:0:
224,272,103106,1,8,0:0:0:0:
320,328,103280,1,0,0:0:0:0:
320,328,103367,1,0,0:0:0:0:
320,328,103455,1,0,3:0:0:0:
284,184,103629,6,0,L|164:176,1,107.999996704102,2|0,0:0|0:0,0:0:0:0:
96,248,103920,2,0,P|88:176|112:120,1,107.999996704102,2|0,0:0|0:0,0:0:0:0:
152,80,104152,2,0,P|208:80|256:64,1,107.999996704102,2|0,0:0|0:0,0:0:0:0:
72,8,104443,2,0,P|32:64|32:112,1,107.999996704102,2|0,0:0|0:0,0:0:0:0:
98,143,104676,2,0,P|112:184|96:248,1,107.999996704102,2|4,0:0|3:0,0:0:0:0:
144,360,105083,6,0,P|160:296|200:264,1,107.999996704102,2|0,0:0|0:0,0:0:0:0:
272,240,105315,2,0,P|321:263|375:266,1,107.999996704102,2|0,0:0|0:0,0:0:0:0:
296,80,105606,2,0,P|328:128|328:192,1,107.999996704102,2|0,0:0|0:0,0:0:0:0:
272,240,105838,2,0,P|264:294|268:348,1,107.999996704102,2|0,0:0|0:0,0:0:0:0:
192,312,106071,2,0,P|147:287|107:287,1,71.9999978027344,2|0,0:0|0:0,0:0:0:0:
50,318,106245,6,0,P|122:326|194:310,1,143.999995605469,4|2,1:1|0:0,0:0:0:0:
336,72,106710,2,0,P|264:64|192:80,1,143.999995605469,2|2,0:0|0:0,0:0:0:0:
304,304,107176,2,0,L|288:160,1,143.999995605469,0|2,0:0|0:0,0:0:0:0:
48,176,107641,2,0,L|192:184,1,143.999995605469,2|2,3:0|0:0,0:0:0:0:
464,208,108106,2,0,L|320:200,1,143.999995605469,2|2,0:0|0:0,0:0:0:0:
208,120,108571,2,0,L|224:264,1,143.999995605469,0|2,0:0|0:0,0:0:0:0:
65,96,109036,6,0,L|209:120,1,143.999995605469,4|2,0:1|0:0,0:0:0:0:
432,184,109501,2,0,L|288:208,1,143.999995605469,2|2,0:0|0:0,0:0:0:0:
168,368,109966,2,0,P|144:288|168:224,1,143.999995605469,0|2,0:0|0:0,0:0:0:0:
324,80,110431,2,0,P|348:160|324:224,1,143.999995605469,2|2,3:0|0:0,0:0:0:0:
88,160,110896,2,0,P|160:128|232:152,1,143.999995605469,2|2,0:0|0:0,0:0:0:0:
408,304,111362,2,0,P|336:336|264:312,1,143.999995605469,0|2,0:0|0:0,0:0:0:0:
256,192,111827,12,0,113222,1:0:0:0:
256,192,113309,12,12,114269,1:1:0:0:
256,192,114617,5,4,1:0:0:0:
