osu file format v14

[General]
AudioFilename: Beautiful Angel.mp3
AudioLeadIn: 0
PreviewTime: 58772
Countdown: 0
SampleSet: Soft
StackLeniency: 0.4
Mode: 0
LetterboxInBreaks: 0
EpilepsyWarning: 1
WidescreenStoryboard: 1

[Editor]
Bookmarks: 34441,87202,100633
DistanceSpacing: 0.8
BeatDivisor: 4
GridSize: 8
TimelineZoom: 2.559999

[Metadata]
Title:Beautiful Angel
TitleUnicode:Beautiful Angel
Artist:DJ Swan
ArtistUnicode:DJ Swan
Creator:rs_fadeaway
Version:Heatherfield's Another
Source:beatmania IIDX 15 DJ TROOPERS(CS)
Tags:drum'n'bass dnb KaniNayuta Heatherfield Gordon123
BeatmapID:1270701
BeatmapSetID:556834

[Difficulty]
HPDrainRate:6
CircleSize:5
OverallDifficulty:8
ApproachRate:9.3
SliderMultiplier:1.6
SliderTickRate:1

[Events]
//Background and Video events
0,0,"BG.jpg",0,0
//Break Periods
//Storyboard Layer 0 (Background)
//Storyboard Layer 1 (Fail)
//Storyboard Layer 2 (Pass)
//Storyboard Layer 3 (Foreground)
//Storyboard Sound Samples

[TimingPoints]
2990,348.837209302326,4,2,0,50,1,0
2990,-133.333333333333,4,2,0,50,0,0
9094,-100,4,2,0,50,0,0
12757,-100,4,2,0,35,0,0
13803,-66.6666666666667,4,2,0,50,0,0
14152,-100,4,2,0,50,0,0
36129,-50,4,2,0,35,0,0
36303,-50,4,2,0,5,0,0
36478,-100,4,2,0,50,0,0
69269,-76.9230769230769,4,2,0,50,0,0
78338,-100,4,2,0,50,0,0
79036,-133.333333333333,4,2,0,40,0,0
79734,-100,4,2,0,50,0,0
80431,-105.263157894737,4,2,0,40,0,0
81129,-100,4,2,0,50,0,0
81827,-90.9090909090909,4,2,0,40,0,0
82524,-100,4,2,0,40,0,0
86536,-100,4,2,0,5,0,0
86710,-71.4285714285714,4,2,0,50,0,0
114617,-71.4285714285714,4,2,0,50,0,1
114966,-71.4285714285714,4,2,0,50,0,0

[Colours]
Combo1 : 172,118,205
Combo2 : 39,216,97
Combo3 : 43,216,230
Combo4 : 105,160,156

[HitObjects]
256,192,199,12,0,2641,0:0:0:0:
110,44,2990,6,0,P|110:76|102:116,1,60.0000022888184,2|0,0:0|0:0,0:0:0:0:
167,260,3338,2,0,P|167:228|175:188,1,60.0000022888184,2|0,0:0|0:0,0:0:0:0:
272,93,3687,2,0,P|272:125|264:165,1,60.0000022888184,2|0,0:0|0:0,0:0:0:0:
334,266,4036,2,0,P|334:234|342:194,1,60.0000022888184,2|0,0:0|0:0,0:0:0:0:
421,133,4385,5,2,0:0:0:0:
421,133,4559,1,0,0:0:0:0:
312,72,4734,2,0,P|266:67|231:58,1,60.0000022888184,2|0,0:0|0:0,0:0:0:0:
120,105,5083,2,0,P|116:160|116:179,1,60.0000022888184,2|0,0:0|0:0,0:0:0:0:
149,320,5431,2,0,P|114:321|67:313,1,60.0000022888184,2|0,0:0|0:0,0:0:0:0:
16,352,5780,6,0,P|96:329|142:327,1,120.000004577637,2|0,0:0|0:0,0:0:0:0:
256,364,6303,2,0,P|257:313|241:240,1,120.000004577637,2|0,0:0|0:0,0:0:0:0:
285,125,6827,2,0,L|327:192,1,60.0000022888184,2|0,0:0|0:0,0:0:0:0:
409,281,7176,6,0,P|442:256|480:236,1,60.0000022888184,2|0,0:0|0:0,0:0:0:0:
272,311,7524,2,0,L|337:334,1,60.0000022888184,2|0,0:0|0:0,0:0:0:0:
289,153,7873,2,0,L|297:225,1,60.0000022888184,2|0,0:0|0:0,0:0:0:0:
201,115,8222,2,0,P|211:78|246:61,1,60.0000022888184,2|0,0:0|0:0,0:0:0:0:
409,63,8571,5,2,0:0:0:0:
346,173,8745,2,0,L|364:219,2,30.0000011444092,0|0|2,0:0|0:0|0:0,0:0:0:0:
216,106,9094,2,0,L|154:114,2,40,0|0|2,0:0|0:0|0:0,0:0:0:0:
362,139,9443,1,0,0:0:0:0:
179,223,9617,2,0,L|184:144,1,80,2|0,0:0|0:0,0:0:0:0:
331,296,9966,2,0,L|315:202,1,80,2|0,0:0|0:0,0:0:0:0:
79,314,10315,2,0,L|164:299,1,80,2|0,0:0|0:0,0:0:0:0:
433,314,10664,2,0,L|348:299,1,80,2|0,0:0|0:0,0:0:0:0:
256,96,11013,2,0,L|256:184,1,80,2|0,0:0|0:0,0:0:0:0:
360,280,11362,6,0,L|408:264,3,40,0|0|0|0,1:0|0:0|0:0|0:0,0:0:0:0:
400,216,11710,2,0,L|448:200,3,40,0|0|0|0,1:0|0:0|0:0|0:0,0:0:0:0:
328,192,12059,2,0,L|376:176,3,40,0|0|0|0,1:0|0:0|0:0|0:0,0:0:0:0:
368,128,12408,2,0,L|416:112,3,40,0|0|0|0,1:0|0:0|0:0|0:0,0:0:0:0:
320,96,12757,5,0,1:0:0:0:
312,112,12844,1,0,1:0:0:0:
304,128,12931,1,0,1:0:0:0:
296,144,13019,1,0,1:0:0:0:
288,160,13106,1,0,1:0:0:0:
280,176,13193,1,0,1:0:0:0:
272,192,13280,1,0,1:0:0:0:
264,208,13367,1,0,1:0:0:0:
248,208,13455,5,0,1:0:0:0:
240,192,13542,1,0,1:0:0:0:
232,176,13629,1,0,1:0:0:0:
224,160,13716,1,0,1:0:0:0:
216,144,13803,6,0,P|170:101|133:185,1,180.000006866455
134,199,14152,6,0,L|120:285,1,80
218,359,14501,1,8,0:0:0:0:
362,255,14676,1,0,0:0:0:0:
362,255,14763,1,0,0:0:0:0:
362,255,14850,1,0,0:0:0:0:
362,255,14937,1,0,0:0:0:0:
362,255,15024,1,0,0:0:0:0:
467,300,15199,2,0,P|477:226|475:182,1,80,8|0,0:0|0:0,0:0:0:0:
434,52,15548,5,0,0:0:0:0:
391,200,15722,1,0,0:0:0:0:
248,163,15896,1,8,0:0:0:0:
400,301,16071,1,0,0:0:0:0:
400,301,16158,1,0,0:0:0:0:
400,301,16245,1,0,0:0:0:0:
454,156,16420,1,0,0:0:0:0:
262,272,16594,1,8,0:0:0:0:
475,326,16769,1,0,0:0:0:0:
475,326,16943,6,0,P|374:339|331:337,1,120
313,329,17292,1,8,0:0:0:0:
223,256,17466,2,0,P|217:333|229:352,1,80
216,332,17728,1,0,0:0:0:0:
216,332,17815,1,0,0:0:0:0:
101,256,17990,2,0,P|112:184|115:148,1,80,8|0,0:0|0:0,0:0:0:0:
272,48,18338,6,0,L|288:148,1,80
432,116,18687,1,8,0:0:0:0:
432,116,18862,2,0,P|419:176|423:186,1,40
410,231,19036,2,0,P|420:275|426:281,1,40
473,346,19210,1,0,0:0:0:0:
316,315,19385,1,8,0:0:0:0:
316,315,19559,1,0,0:0:0:0:
239,348,19734,6,0,B|151:360|151:360|116:351,1,120
78,339,20083,1,8,0:0:0:0:
142,217,20257,1,0,0:0:0:0:
142,217,20344,2,0,P|154:169|147:119,1,80,0|0,1:0|0:0,0:0:0:0:
226,90,20606,2,0,L|205:12,2,80,0|8|0,1:0|0:0|0:0,0:0:0:0:
370,89,21129,5,0,0:0:0:0:
395,300,21303,1,0,0:0:0:0:
450,142,21478,1,8,0:0:0:0:
395,300,21652,1,0,0:0:0:0:
395,300,21740,1,0,0:0:0:0:
395,300,21827,2,0,P|337:283|319:283,1,40
238,262,22001,1,0,0:0:0:0:
260,369,22176,1,8,0:0:0:0:
260,369,22350,1,0,0:0:0:0:
362,349,22524,6,0,P|376:279|369:182,1,160,0|8,0:0|0:0,0:0:0:0:
321,88,23048,1,0,0:0:0:0:
321,88,23135,1,0,1:0:0:0:
293,198,23309,1,0,0:0:0:0:
293,198,23396,1,0,1:0:0:0:
445,150,23571,2,0,L|444:238,1,80,8|0,0:0|0:0,0:0:0:0:
485,343,23920,5,0,0:0:0:0:
450,331,24007,1,0,0:0:0:0:
414,327,24094,1,0,0:0:0:0:
378,331,24181,1,0,0:0:0:0:
353,364,24269,5,8,0:0:0:0:
318,376,24356,1,0,0:0:0:0:
282,380,24443,1,0,0:0:0:0:
246,376,24530,1,0,0:0:0:0:
206,384,24617,6,0,L|204:322,1,40,2|0,0:0|0:0,0:0:0:0:
128,304,24792,2,0,L|126:264,1,40,2|0,0:0|0:0,0:0:0:0:
271,247,24966,2,0,L|269:185,1,40,10|0,0:0|0:0,0:0:0:0:
97,162,25141,2,0,L|95:122,1,40,2|0,0:0|0:0,0:0:0:0:
176,107,25315,6,0,P|232:83|296:3,1,160,4|8,0:0|0:0,0:0:0:0:
293,7,25838,1,0,0:0:0:0:
397,154,26013,2,0,L|438:158,2,40
428,66,26362,1,2,1:2:0:0:
471,297,26536,1,2,1:2:0:0:
357,243,26710,6,0,L|365:332,1,80
127,171,27059,2,0,L|120:254,1,80,8|0,0:0|0:0,0:0:0:0:
291,156,27408,2,0,L|303:262,1,80
41,57,27757,2,0,L|24:164,1,80,8|0,0:0|0:0,0:0:0:0:
93,314,28106,6,0,P|76:242|136:179,1,160,0|8,0:0|0:0,0:0:0:0:
254,294,28629,1,0,0:0:0:0:
254,294,28716,1,0,0:0:0:0:
254,294,28803,1,0,0:0:0:0:
254,294,28891,1,0,0:0:0:0:
254,294,28978,1,0,0:0:0:0:
84,213,29152,2,0,L|86:73,1,120,8|0,0:0|0:0,0:0:0:0:
135,80,29501,6,0,P|196:88|236:81,1,80
259,67,29763,1,0,0:0:0:0:
259,67,29850,1,8,0:0:0:0:
246,185,30024,1,0,0:0:0:0:
246,185,30112,1,0,1:0:0:0:
441,158,30286,1,0,0:0:0:0:
441,158,30373,1,0,1:0:0:0:
470,259,30548,5,10,1:2:0:0:
218,271,30722,1,2,1:2:0:0:
369,170,30896,6,0,L|361:106,1,40,2|0,1:2|0:0,0:0:0:0:
413,56,31071,2,0,L|374:45,1,40
188,75,31245,1,8,0:0:0:0:
283,118,31420,2,0,P|288:55|282:27,2,80,2|0|0,1:2|0:0|0:0,0:0:0:0:
215,203,31943,2,0,P|128:178|66:184,1,120,8|0,1:2|0:0,0:0:0:0:
15,198,32292,6,0,L|23:159,1,40,2|0,1:2|0:0,0:0:0:0:
4,289,32467,2,0,L|43:279,1,40
220,283,32641,1,8,0:0:0:0:
142,325,32816,2,0,P|135:285|139:245,2,80,2|0|0,1:2|0:0|0:0,0:0:0:0:
293,292,33339,2,0,P|339:272|388:268,1,80,8|0,1:2|0:0,0:0:0:0:
440,112,33687,5,2,0:2:0:0:
409,103,33774,1,0,0:2:0:0:
376,105,33862,1,2,0:2:0:0:
347,119,33949,1,0,0:2:0:0:
326,143,34036,1,2,0:2:0:0:
319,174,34123,1,0,0:2:0:0:
327,204,34210,1,2,0:2:0:0:
352,224,34298,1,0,0:2:0:0:
376,244,34385,1,2,0:2:0:0:
394,269,34472,1,0,0:2:0:0:
401,300,34559,1,2,0:2:0:0:
397,331,34646,1,0,0:2:0:0:
373,353,34734,1,2,0:2:0:0:
341,347,34821,1,0,0:2:0:0:
324,319,34908,1,2,0:2:0:0:
331,287,34995,1,0,0:2:0:0:
360,274,35083,6,0,L|362:226,1,40,2|0,1:2|0:0,0:0:0:0:
452,159,35257,2,0,L|451:199,1,40,2|0,1:2|0:0,0:0:0:0:
310,121,35431,2,0,L|312:73,1,40,2|0,1:2|0:0,0:0:0:0:
499,52,35606,2,0,L|497:91,1,40,2|0,1:2|0:0,0:0:0:0:
368,192,35780,5,0,1:0:0:0:
312,184,35867,1,0,1:0:0:0:
256,176,35955,1,0,1:0:0:0:
200,168,36042,1,0,1:0:0:0:
144,160,36129,2,2,B|36:137|36:137|84:225,1,160,0|0,1:0|1:0,1:0:0:0:
184,272,36478,6,0,P|120:272|24:280,1,160,2|8,1:2|0:0,0:0:0:0:
312,336,37001,2,0,P|248:336|152:344,1,160,2|0,1:2|0:0,0:0:0:0:
228,222,37524,2,0,P|164:222|68:214,1,160,2|0,1:2|0:0,0:0:0:0:
134,119,38048,6,0,L|124:32,2,80,2|8|2,0:0|0:0|0:0,0:0:0:0:
245,87,38571,1,0,0:0:0:0:
237,273,38745,1,2,0:0:0:0:
340,138,38920,1,8,0:0:0:0:
332,324,39094,1,2,0:0:0:0:
439,179,39269,6,0,P|428:120|421:59,1,120,2|0,1:2|0:0,0:0:0:0:
421,60,39617,2,0,P|379:41|336:43,1,80,8|2,0:0|1:2,0:0:0:0:
346,40,40141,1,0,0:0:0:0:
323,237,40315,2,0,P|260:222|166:212,1,160,2|0,1:2|0:0,0:0:0:0:
98,329,40838,6,0,L|4:333,2,80,2|8|2,0:0|0:0|0:0,0:0:0:0:
207,363,41362,1,0,0:0:0:0:
207,363,41536,1,2,0:0:0:0:
224,190,41710,1,8,0:0:0:0:
224,190,41885,1,2,0:0:0:0:
392,203,42059,6,0,P|401:147|390:61,1,120,2|0,1:2|0:0,0:0:0:0:
395,84,42408,1,8,0:0:0:0:
479,235,42583,1,2,1:2:0:0:
479,235,42931,1,0,0:0:0:0:
479,235,43106,2,0,P|396:218|295:217,1,160,2|0,1:2|0:0,0:0:0:0:
106,232,43629,5,2,0:0:0:0:
223,328,43803,2,0,L|227:238,1,80,8|2,0:0|0:0,0:0:0:0:
304,81,44152,1,0,0:0:0:0:
304,81,44327,1,2,0:0:0:0:
363,366,44501,2,0,L|367:276,1,80,8|2,0:0|0:0,0:0:0:0:
499,159,44850,6,0,L|369:151,1,120,2|0,1:2|0:0,0:0:0:0:
340,230,45199,1,8,0:0:0:0:
340,230,45373,2,0,L|227:221,1,80,2|0,1:2|0:0,0:0:0:0:
144,61,45722,5,0,0:0:0:0:
144,61,45896,2,0,L|152:191,1,120,10|0,1:2|0:0,0:0:0:0:
73,220,46245,1,0,0:0:0:0:
73,220,46419,2,0,L|82:333,1,80,2|8,1:2|0:0,0:0:0:0:
79,299,46681,1,0,0:0:0:0:
79,299,46769,1,0,0:0:0:0:
177,360,46943,1,2,1:2:0:0:
182,328,47030,1,0,0:0:0:0:
184,296,47117,1,0,0:0:0:0:
262,227,47292,1,2,1:2:0:0:
271,278,47379,1,0,0:0:0:0:
276,329,47466,1,0,0:0:0:0:
473,361,47641,6,0,P|469:261|473:202,1,160,2|8,1:2|0:0,0:0:0:0:
376,293,48164,2,2,P|383:176|380:116,1,160,2|0,0:0|0:0,1:2:0:0:
436,36,48687,2,0,P|352:47|259:34,1,160,2|0,1:2|0:0,0:0:0:0:
100,78,49210,6,0,L|3:65,2,80,2|8|2,0:0|0:0|0:0,0:0:0:0:
297,63,49734,1,0,0:0:0:0:
297,63,49821,1,0,0:0:0:0:
297,63,49908,1,2,0:0:0:0:
321,290,50083,1,8,0:0:0:0:
401,160,50257,1,2,0:0:0:0:
454,305,50431,6,0,P|400:269|328:264,1,120,2|0,1:2|0:0,0:0:0:0:
346,261,50780,1,8,0:0:0:0:
373,359,50955,2,0,L|203:341,1,160,2|0,1:2|0:0,0:0:0:0:
67,319,51478,2,0,P|89:247|176:195,1,160,2|0,1:2|0:0,0:0:0:0:
228,63,52001,6,0,L|331:56,2,80,2|8|2,0:0|0:0|0:0,0:0:0:0:
57,159,52524,1,0,0:0:0:0:
57,159,52612,1,0,0:0:0:0:
57,159,52699,1,2,0:0:0:0:
290,181,52873,1,8,0:0:0:0:
223,328,53048,1,2,0:0:0:0:
464,221,53222,6,0,P|459:131|445:68,1,120,2|0,1:2|0:0,0:0:0:0:
335,117,53571,1,8,0:0:0:0:
335,117,53745,2,0,L|163:105,1,160,2|0,1:2|0:0,0:0:0:0:
89,50,54269,2,0,P|75:125|125:190,1,160,2|0,1:2|0:0,0:0:0:0:
282,166,54792,6,0,L|369:164,2,80,2|8|2,0:0|0:0|0:0,0:0:0:0:
151,315,55315,1,0,0:0:0:0:
151,315,55402,1,0,0:0:0:0:
151,315,55490,1,2,0:0:0:0:
257,209,55664,1,8,0:0:0:0:
205,59,55838,1,2,0:0:0:0:
336,88,56013,6,0,L|471:86,1,120,2|0,1:2|0:0,0:0:0:0:
491,98,56362,1,8,0:0:0:0:
288,176,56536,6,0,L|423:174,1,120,2|0,1:2|0:0,0:0:0:0:
441,190,56885,1,0,0:0:0:0:
256,264,57059,6,0,L|391:262,1,120,2|0,1:2|0:0,0:0:0:0:
405,285,57408,2,0,L|400:345,2,40,0|0|0,0:0|1:0|1:0,0:0:0:0:
500,168,57757,1,8,3:0:0:0:
500,168,57844,1,8,3:0:0:0:
500,168,57931,1,8,3:0:0:0:
500,168,58019,1,8,3:0:0:0:
500,168,58106,1,8,3:0:0:0:
500,168,58193,1,8,3:0:0:0:
500,168,58280,1,8,3:0:0:0:
500,168,58367,1,8,3:0:0:0:
500,168,58455,1,8,3:0:0:0:
500,168,58542,1,8,3:0:0:0:
500,168,58629,1,8,3:0:0:0:
500,168,58716,1,8,3:0:0:0:
500,168,58803,5,2,0:0:0:0:
472,243,59152,1,2,0:0:0:0:
392,255,59501,1,2,0:0:0:0:
331,202,59850,1,2,0:0:0:0:
314,83,60373,6,0,L|408:87,2,80
194,50,61071,2,0,L|100:46,2,80
194,50,61594,1,2,0:0:0:0:
170,126,61943,1,2,0:0:0:0:
92,147,62292,1,2,0:0:0:0:
23,106,62641,1,2,0:0:0:0:
86,311,63164,6,0,L|90:220,2,80
189,263,63862,2,0,L|193:172,2,80
189,263,64385,1,2,0:0:0:0:
267,248,64734,1,2,0:0:0:0:
338,283,65083,1,2,0:0:0:0:
338,362,65431,1,2,0:0:0:0:
380,216,65955,6,0,L|479:222,2,80
329,116,66652,2,0,L|428:122,2,80
329,116,67176,1,2,0:0:0:0:
253,142,67524,1,2,0:0:0:0:
180,107,67873,1,2,0:0:0:0:
118,158,68222,1,2,0:0:0:0:
212,308,69269,6,0,P|192:240|220:138,1,155.999992858887,0|0,1:0|0:0,0:0:0:0:
146,72,69617,2,0,P|159:134|254:97,1,155.999992858887,0|0,1:0|0:0,0:0:0:0:
301,73,69966,6,0,L|411:93,1,103.999995239258
474,181,70315,1,8,0:0:0:0:
295,198,70490,1,0,0:0:0:0:
445,309,70664,1,0,0:0:0:0:
445,309,70751,1,0,0:0:0:0:
445,309,70838,1,0,0:0:0:0:
389,129,71013,2,0,P|392:78|434:16,1,103.999995239258,8|0,0:0|0:0,0:0:0:0:
234,78,71362,6,0,L|114:82,1,103.999995239258
130,81,71623,1,0,0:0:0:0:
130,81,71710,1,8,0:0:0:0:
22,136,71885,1,0,0:0:0:0:
32,176,71973,1,0,0:0:0:0:
61,206,72060,1,0,0:0:0:0:
101,218,72147,1,0,0:0:0:0:
142,208,72234,1,0,0:0:0:0:
287,220,72408,2,0,L|395:191,1,103.999995239258,8|0,0:0|0:0,0:0:0:0:
476,63,72757,6,0,P|430:50|352:50,1,103.999995239258
207,77,73106,1,8,0:0:0:0:
367,134,73280,1,0,0:0:0:0:
226,245,73455,1,0,0:0:0:0:
226,245,73542,1,0,0:0:0:0:
226,245,73629,1,0,0:0:0:0:
387,326,73803,2,0,P|405:263|412:192,1,103.999995239258,8|0,0:0|0:0,0:0:0:0:
279,57,74152,6,0,L|285:201,1,103.999995239258
283,160,74414,1,0,0:0:0:0:
283,160,74501,1,8,0:0:0:0:
373,270,74676,1,0,0:0:0:0:
348,304,74763,1,0,0:0:0:0:
309,320,74850,1,0,0:0:0:0:
268,316,74937,1,0,0:0:0:0:
235,292,75025,1,0,0:0:0:0:
100,303,75199,2,0,L|-22:272,1,103.999995239258,8|0,0:0|0:0,0:0:0:0:
146,89,75548,6,0,P|197:61|251:68,1,103.999995239258
401,98,75897,1,8,0:0:0:0:
425,255,76071,1,0,0:0:0:0:
231,188,76246,1,0,0:0:0:0:
231,188,76333,1,0,0:0:0:0:
231,188,76420,1,0,0:0:0:0:
337,332,76594,2,0,L|341:191,1,103.999995239258,8|0,0:0|0:0,0:0:0:0:
175,332,76943,6,0,L|171:191,1,103.999995239258
172,228,77205,1,0,0:0:0:0:
172,228,77292,1,8,0:0:0:0:
74,209,77466,1,0,0:0:0:0:
80,167,77553,1,0,0:0:0:0:
107,134,77640,1,0,0:0:0:0:
145,119,77727,1,0,0:0:0:0:
185,124,77815,1,0,0:0:0:0:
317,75,77990,2,0,L|304:212,1,103.999995239258,8|0,0:0|0:0,0:0:0:0:
211,229,78338,5,0,1:0:0:0:
352,368,78513,1,2,1:2:0:0:
458,330,78687,2,0,L|372:329,1,80
284,324,79036,2,0,L|299:245,3,60.0000022888184,0|0|0|0,1:0|1:0|1:0|1:0,1:0:0:0:
251,194,79734,5,0,1:0:0:0:
64,128,79909,1,2,1:2:0:0:
4,295,80083,2,0,L|90:294,1,80
178,289,80432,2,0,L|152:184,3,75.9999979705811,0|0|0|0,1:0|1:0|1:0|1:0,1:0:0:0:
204,135,81129,5,0,1:0:0:0:
312,360,81304,1,2,1:2:0:0:
451,236,81478,2,0,L|365:235,1,80
277,230,81827,2,0,L|296:136,3,88.000002685547,0|0|0|0,1:0|1:0|1:0|1:0,1:0:0:0:
443,187,82524,5,0,1:0:0:0:
448,226,82612,1,0,1:0:0:0:
441,265,82699,1,0,1:0:0:0:
423,300,82786,1,0,1:0:0:0:
394,327,82873,1,0,1:0:0:0:
355,337,82960,1,0,1:0:0:0:
314,334,83048,1,0,1:0:0:0:
281,310,83135,1,0,1:0:0:0:
274,270,83222,5,0,1:0:0:0:
290,233,83309,1,0,1:0:0:0:
306,196,83396,1,0,1:0:0:0:
292,157,83484,1,0,1:0:0:0:
254,142,83571,1,0,1:0:0:0:
216,156,83658,1,0,1:0:0:0:
206,194,83745,1,0,1:0:0:0:
226,228,83833,1,0,1:0:0:0:
264,239,83920,5,0,1:0:0:0:
256,192,84007,12,0,86536,0:0:0:0:
206,98,86710,6,0,L|62:86,1,111.999996582031
35,226,87059,1,10,0:0:0:0:
237,183,87234,1,2,0:0:0:0:
89,338,87408,1,0,0:0:0:0:
115,330,87495,1,0,0:0:0:0:
143,329,87583,1,0,0:0:0:0:
170,332,87670,1,0,0:0:0:0:
195,343,87757,2,2,P|274:355|326:331,1,111.999996582031,10|2,0:0|0:0,0:0:0:0:
430,331,88106,5,0,0:0:0:0:
428,158,88280,1,0,0:0:0:0:
328,264,88455,1,10,0:0:0:0:
428,158,88629,2,0,P|362:140|315:103,1,111.999996582031,2|0,0:0|0:0,0:0:0:0:
200,205,88978,1,2,0:0:0:0:
328,264,89152,1,10,0:0:0:0:
428,158,89327,1,2,0:0:0:0:
284,95,89501,6,0,P|219:83|140:83,1,111.999996582031
93,227,89850,1,10,0:0:0:0:
55,46,90025,1,2,0:0:0:0:
203,112,90199,1,0,0:0:0:0:
203,112,90286,1,0,0:0:0:0:
203,112,90374,1,0,0:0:0:0:
203,112,90461,1,0,0:0:0:0:
203,112,90548,2,2,P|216:249|213:267,1,111.999996582031,10|2,0:0|0:0,0:0:0:0:
245,328,90896,5,0,0:0:0:0:
323,192,91071,1,0,0:0:0:0:
179,297,91246,1,10,0:0:0:0:
65,157,91420,2,0,P|121:135|173:130,1,111.999996582031,2|0,0:0|0:0,0:0:0:0:
323,192,91769,1,2,0:0:0:0:
179,297,91943,1,10,0:0:0:0:
65,157,92118,1,2,0:0:0:0:
203,126,92292,6,0,P|219:72|214:12,1,111.999996582031
112,64,92641,1,10,0:0:0:0:
303,153,92815,1,2,0:0:0:0:
157,236,92990,1,0,0:0:0:0:
146,261,93077,1,0,0:0:0:0:
143,289,93165,1,0,0:0:0:0:
152,315,93252,1,0,0:0:0:0:
170,335,93338,2,2,L|281:343,1,111.999996582031,10|2,0:0|0:0,0:0:0:0:
392,311,93687,5,0,0:0:0:0:
393,132,93862,1,0,0:0:0:0:
304,248,94037,1,10,0:0:0:0:
161,217,94211,2,0,P|150:155|164:100,1,111.999996582031,2|0,0:0|0:0,0:0:0:0:
393,132,94559,1,2,0:0:0:0:
304,248,94734,1,10,0:0:0:0:
161,217,94908,1,2,0:0:0:0:
41,293,95083,6,0,P|16:237|23:174,1,111.999996582031
146,139,95431,1,10,0:0:0:0:
30,61,95606,1,2,0:0:0:0:
234,60,95780,1,0,0:0:0:0:
234,60,95867,1,0,0:0:0:0:
234,60,95955,1,0,0:0:0:0:
234,60,96042,1,0,0:0:0:0:
234,60,96129,2,0,L|349:46,1,111.999996582031,10|2,0:0|0:0,0:0:0:0:
310,218,96478,6,0,L|316:273,2,55.9999982910157
426,262,96827,2,0,P|439:179|449:109,1,111.999996582031,8|0,0:0|0:0,0:0:0:0:
448,105,97088,1,0,0:0:0:0:
431,68,97176,5,2,0:0:0:0:
315,313,97350,1,2,0:0:0:0:
186,152,97524,1,10,0:0:0:0:
138,306,97699,1,2,0:0:0:0:
24,224,97873,6,0,P|16:148|33:94,1,111.999996582031
131,220,98222,1,10,0:0:0:0:
172,18,98396,1,2,0:0:0:0:
276,156,98571,1,0,0:0:0:0:
276,156,98658,1,0,0:0:0:0:
276,156,98745,2,0,L|412:175,1,111.999996582031,0|10,0:0|0:0,0:0:0:0:
421,274,99094,1,0,0:0:0:0:
486,83,99269,6,0,P|489:149|479:212,1,111.999996582031,2|0,0:0|0:0,0:0:0:0:
327,163,99617,2,0,L|349:295,1,111.999996582031,10|0,0:0|0:0,0:0:0:0:
185,163,99966,2,0,L|166:273,1,111.999996582031,2|0,0:0|0:0,0:0:0:0:
26,83,100315,2,0,P|23:149|33:212,1,111.999996582031,10|0,0:0|0:0,0:0:0:0:
16,345,100664,5,0,0:0:0:0:
106,281,100838,5,2,0:0:0:0:
124,276,100896,1,2,0:0:0:0:
142,277,100955,1,2,0:0:0:0:
160,280,101013,2,0,L|275:308,1,111.999996582031,10|0,0:0|0:0,0:0:0:0:
360,250,101362,1,0,0:0:0:0:
360,250,101536,1,0,0:0:0:0:
460,287,101710,2,2,P|460:231|444:177,1,111.999996582031,10|2,0:0|0:0,0:0:0:0:
245,87,102059,5,2,0:0:0:0:
327,163,102234,5,2,0:0:0:0:
332,145,102292,1,2,0:0:0:0:
331,127,102351,1,2,0:0:0:0:
328,109,102409,2,0,L|300:-6,1,111.999996582031,10|0,0:0|0:0,0:0:0:0:
105,68,102757,6,0,L|172:79,1,55.9999982910157,2|0,0:0|0:0,0:0:0:0:
206,139,102931,2,0,L|150:148,1,55.9999982910157,2|0,0:0|0:0,0:0:0:0:
83,183,103106,2,0,P|199:153|217:230,1,223.999993164063,10|0,0:0|0:0,0:0:0:0:
80,327,103629,6,0,P|170:337|241:322,1,111.999996582031,0|8,0:0|0:0,0:0:0:0:
313,300,103978,1,0,0:0:0:0:
340,299,104065,1,0,0:0:0:0:
367,305,104152,1,0,0:0:0:0:
392,316,104240,1,0,0:0:0:0:
413,334,104327,1,0,0:0:0:0:
485,266,104501,2,0,P|481:191|473:142,1,111.999996582031,8|0,0:0|0:0,0:0:0:0:
307,125,104850,6,0,B|227:69|131:133|67:77,1,223.999993164063,0|8,0:0|0:0,0:0:0:0:
2,219,105373,1,0,0:0:0:0:
27,231,105460,1,0,0:0:0:0:
54,237,105548,1,0,0:0:0:0:
81,239,105635,1,0,0:0:0:0:
108,234,105722,1,0,0:0:0:0:
228,199,105896,2,0,P|232:255|213:307,1,111.999996582031,8|0,0:0|0:0,0:0:0:0:
344,75,106245,6,0,B|374:163|314:245|347:316,1,223.999993164063,0|8,0:0|0:0,0:0:0:0:
223,279,106769,5,0,0:0:0:0:
184,272,106856,1,0,0:0:0:0:
146,281,106943,1,0,0:0:0:0:
116,307,107030,1,0,0:0:0:0:
102,343,107117,1,0,0:0:0:0:
199,382,107292,2,0,P|282:373|344:328,1,111.999996582031,8|0,0:0|0:0,0:0:0:0:
457,222,107641,6,0,B|341:203|280:226|211:187,1,223.999993164063,0|8,0:0|0:0,0:0:0:0:
10,215,108164,5,0,0:0:0:0:
23,177,108251,1,0,0:0:0:0:
50,149,108338,1,0,0:0:0:0:
87,136,108425,1,0,0:0:0:0:
125,142,108512,1,0,0:0:0:0:
235,101,108687,2,0,P|234:189|229:224,1,111.999996582031,8|0,0:0|0:0,0:0:0:0:
345,287,109036,6,0,B|336:198|349:120|324:11,1,223.999993164063,0|8,0:0|0:0,0:0:0:0:
501,94,109559,5,0,0:0:0:0:
465,108,109646,1,0,0:0:0:0:
439,138,109733,1,0,0:0:0:0:
430,176,109820,1,0,0:0:0:0:
437,215,109907,1,0,0:0:0:0:
474,343,110083,2,0,P|375:345|347:354,1,111.999996582031,8|0,0:0|0:0,0:0:0:0:
180,325,110431,6,0,P|237:231|379:221,1,223.999993164063,0|8,0:0|0:0,0:0:0:0:
494,153,110955,5,0,0:0:0:0:
485,190,111042,1,0,0:0:0:0:
461,221,111129,1,0,0:0:0:0:
424,237,111216,1,0,0:0:0:0:
385,235,111303,1,0,0:0:0:0:
373,114,111478,2,0,P|280:103|219:111,1,111.999996582031,8|0,0:0|0:0,0:0:0:0:
141,47,111827,2,0,L|145:173,1,111.999996582031
248,248,112176,5,8,1:2:0:0:
40,196,112350,1,0,1:0:0:0:
189,42,112524,1,0,1:0:0:0:
129,281,112699,5,0,1:0:0:0:
70,76,112873,1,8,1:2:0:0:
277,128,113048,1,0,1:0:0:0:
208,189,113222,5,0,1:0:0:0:
208,189,113309,1,0,1:0:0:0:
208,189,113396,1,0,1:0:0:0:
208,189,113484,1,0,1:0:0:0:
208,189,113571,1,0,1:0:0:0:
208,189,113658,1,0,1:0:0:0:
208,189,113745,1,0,1:0:0:0:
208,189,113833,1,0,1:0:0:0:
208,189,113920,1,0,1:0:0:0:
208,189,114007,1,0,1:0:0:0:
208,189,114094,1,0,1:0:0:0:
208,189,114182,1,0,1:0:0:0:
208,189,114269,1,0,1:0:0:0:
320,224,114617,5,4,1:0:0:0:
