osu file format v14

[General]
AudioFilename: Beautiful Angel.mp3
AudioLeadIn: 0
PreviewTime: 58772
Countdown: 0
SampleSet: Soft
StackLeniency: 0.7
Mode: 0
LetterboxInBreaks: 0
EpilepsyWarning: 1
WidescreenStoryboard: 1

[Editor]
Bookmarks: 12059,30373,34441,56885,57757,87202,100633
DistanceSpacing: 1.2
BeatDivisor: 4
GridSize: 8
TimelineZoom: 1.959999

[Metadata]
Title:Beautiful Angel
TitleUnicode:Beautiful Angel
Artist:DJ Swan
ArtistUnicode:DJ Swan
Creator:rs_fadeaway
Version:Hard
Source:beatmania IIDX 15 DJ TROOPERS(CS)
Tags:drum'n'bass dnb KaniNayuta Heatherfield Gordon123
BeatmapID:1178357
BeatmapSetID:556834

[Difficulty]
HPDrainRate:5
CircleSize:4
OverallDifficulty:6
ApproachRate:8
SliderMultiplier:1.4
SliderTickRate:1

[Events]
//Background and Video events
0,0,"BG.jpg",0,0
//Break Periods
//Storyboard Layer 0 (Background)
//Storyboard Layer 1 (Fail)
//Storyboard Layer 2 (Pass)
//Storyboard Layer 3 (Foreground)
//Storyboard Sound Samples

[TimingPoints]
2990,348.837209302326,4,2,1,50,1,0
8571,-100,4,2,1,70,0,0
12059,-100,4,2,1,80,0,0
12757,-100,4,2,1,83,0,0
13455,-100,4,2,1,80,0,0
13803,-100,4,2,1,70,0,0
14152,-100,4,1,2,30,0,0
14327,-100,4,2,1,70,0,0
25315,-100,4,1,2,30,0,0
25402,-100,4,2,1,70,0,0
26361,-100,4,2,1,70,0,0
26536,-100,4,2,1,70,0,0
26885,-100,4,2,1,70,0,0
32292,-100,4,2,1,75,0,0
33687,-100,4,2,1,80,0,0
35083,-100,4,1,1,65,0,0
36129,-100,4,2,1,50,0,0
36478,-100,4,2,1,50,0,0
37524,-100,4,2,3,50,0,0
38047,-100,4,2,1,50,0,0
39268,-100,4,2,1,50,0,0
40315,-100,4,2,4,50,0,0
40838,-100,4,2,1,50,0,0
42059,-100,4,2,1,50,0,0
43105,-100,4,2,3,50,0,0
43629,-100,4,2,1,50,0,0
44850,-100,4,2,0,50,0,0
46943,-100,4,2,0,50,0,0
47640,-100,4,2,1,50,0,0
48512,-100,4,2,1,50,0,0
48686,-100,4,2,3,50,0,0
49210,-100,4,2,1,70,0,0
50431,-100,4,2,1,70,0,0
51303,-100,4,2,1,70,0,0
51478,-100,4,2,4,70,0,0
52001,-100,4,2,1,70,0,0
53222,-100,4,2,1,70,0,0
54094,-100,4,2,1,70,0,0
54269,-100,4,2,3,70,0,0
54792,-100,4,2,1,70,0,0
56012,-100,4,2,0,70,0,0
57059,-100,4,2,0,70,0,0
58105,-100,4,2,0,70,0,0
58803,-100,4,2,4,50,0,0
60024,-100,4,2,2,50,0,0
60373,-100,4,2,0,70,0,0
60722,-100,4,2,2,50,0,0
61071,-100,4,2,2,80,0,0
61594,-100,4,2,0,50,0,0
62815,-100,4,2,2,50,0,0
63164,-100,4,2,0,70,0,0
63513,-100,4,2,2,70,0,0
63862,-100,4,2,2,50,0,0
64385,-100,4,2,0,50,0,0
65606,-100,4,2,2,50,0,0
65955,-100,4,2,2,70,0,0
66652,-100,4,2,2,80,0,0
67176,-100,4,2,4,50,0,0
67524,-100,4,2,4,45,0,0
67873,-100,4,2,4,35,0,0
68222,-100,4,2,4,30,0,0
68571,-100,4,2,1,25,0,0
68920,-100,4,2,1,20,0,0
69268,-100,4,2,1,70,0,0
69966,-100,4,1,2,30,0,0
70053,-100,4,2,1,70,0,0
70838,-100,4,2,1,70,0,0
72408,-100,4,2,1,70,0,0
72757,-100,4,2,1,70,0,0
74152,-100,4,2,1,70,0,0
76071,-100,4,2,1,70,0,0
76332,-100,4,2,1,70,0,0
78338,-100,4,2,2,60,0,0
78687,-100,4,2,2,60,0,0
79733,-100,4,2,2,60,0,0
80431,-100,4,2,2,60,0,0
80780,-100,4,2,0,60,0,0
83222,-100,4,2,0,50,0,0
83920,-100,4,2,0,30,0,0
84617,-100,4,2,0,70,0,0
85315,-100,4,2,0,70,0,0
86710,-100,4,1,2,50,0,1
86798,-100,4,2,1,90,0,1
106245,-100,4,2,1,90,0,1
113222,-100,4,1,1,90,0,1
114269,-100,4,2,0,60,0,1
114617,-100,4,1,2,30,0,0

[Colours]
Combo1 : 172,118,205
Combo2 : 38,217,97
Combo3 : 43,216,230
Combo4 : 105,160,156

[HitObjects]
245,88,2990,6,0,P|276:102|331:97,1,70,6|0,0:1|0:0,0:0:0:0:
426,22,3338,2,0,P|399:44|384:76,1,70,0|2,0:0|0:0,0:0:0:0:
374,159,3687,1,2,0:0:0:0:
419,229,3861,1,0,0:0:0:0:
471,294,4035,2,0,L|395:316,1,70,0|0,0:0|0:0,0:0:0:0:
339,257,4385,2,0,L|269:249,1,70,2|0,0:0|0:0,0:0:0:0:
225,322,4734,2,0,L|161:293,1,70,0|2,0:0|0:0,0:0:0:0:
85,330,5083,1,2,0:0:0:0:
46,255,5257,1,0,0:0:0:0:
36,171,5431,2,0,L|47:102,1,70,0|0,0:0|0:0,0:0:0:0:
126,70,5780,6,0,P|205:137|306:130,1,210,2|2,0:0|0:0,0:0:0:0:
352,56,6478,2,0,P|383:162|363:204,1,140,2|2,0:0|0:0,0:0:0:0:
278,323,7176,2,0,L|366:303,1,70,2|0,0:0|0:0,0:0:0:0:
414,259,7524,2,0,L|500:285,1,70,2|0,0:0|0:0,0:0:0:0:
346,307,7873,2,0,L|279:286,1,70,2|0,0:0|0:0,0:0:0:0:
211,336,8222,2,0,L|163:284,1,70,2|0,0:0|0:0,0:0:0:0:
157,200,8571,5,6,0:0:0:0:
83,240,8745,2,0,L|73:273,2,35,0|0|2,0:0|0:0|0:0,0:0:0:0:
58,159,9094,1,0,0:0:0:0:
31,78,9269,2,0,P|78:104|174:86,1,140,2|2,0:0|0:0,0:0:0:0:
237,58,9792,1,0,0:0:0:0:
311,19,9966,2,0,L|326:93,1,70,2|0,0:0|0:0,0:0:0:0:
408,98,10315,2,0,L|394:166,1,70,2|0,0:0|0:0,0:0:0:0:
458,220,10664,2,0,L|401:269,1,70,2|0,0:0|0:0,0:0:0:0:
438,343,11013,2,0,L|371:365,1,70,2|0,0:0|0:0,0:0:0:0:
307,310,11362,5,2,2:0:0:0:
224,322,11536,1,2,2:0:0:0:
141,336,11710,2,0,L|46:352,1,70,2|2,2:0|2:0,0:0:0:0:
57,264,12059,1,2,0:0:0:0:
45,181,12233,1,2,0:0:0:0:
31,98,12408,2,0,L|16:0,1,70,2|2,0:0|0:0,0:0:0:0:
115,87,12757,2,0,L|112:138,2,35,0|0|0,0:0|0:0|0:0,0:0:0:0:
189,126,13106,2,0,L|211:171,2,35,0|0|0,0:0|0:0|0:0,0:0:0:0:
273,131,13455,2,0,L|315:159,2,35,8|8|8,1:0|1:0|1:0,0:0:0:0:
336,76,13803,2,0,L|422:61,1,70,8|2,1:0|0:0,0:0:0:0:
383,145,14152,6,0,L|370:297,1,140,4|8,0:0|0:0,0:0:0:0:
320,352,14676,1,2,0:0:0:0:
280,278,14850,2,0,B|234:208|157:243,1,140,2|8,0:0|0:0,0:0:0:0:
65,332,15548,5,0,0:0:0:0:
78,249,15722,1,2,0:0:0:0:
92,166,15896,2,0,L|104:91,1,70,8|2,0:0|0:0,0:0:0:0:
161,35,16245,1,0,0:0:0:0:
183,116,16420,1,2,0:0:0:0:
206,196,16594,2,0,L|228:279,1,70,8|2,0:0|0:0,0:0:0:0:
184,338,16943,6,0,P|252:343|304:291,1,140,0|8,0:0|0:0,0:0:0:0:
335,219,17466,1,2,0:0:0:0:
386,285,17641,2,0,P|416:307|457:307,1,70,2|2,0:0|0:0,0:0:0:0:
446,225,17990,2,0,P|467:195|467:154,1,70,8|2,0:0|0:0,0:0:0:0:
472,79,18338,5,0,0:0:0:0:
390,101,18513,1,2,0:0:0:0:
308,119,18687,2,0,L|232:94,1,70,8|2,0:0|0:0,0:0:0:0:
188,27,19036,1,0,0:0:0:0:
154,104,19211,1,2,0:0:0:0:
125,182,19385,2,0,L|93:259,1,70,8|2,0:0|0:0,0:0:0:0:
45,312,19734,6,0,P|119:293|195:315,1,140,0|8,0:0|0:0,0:0:0:0:
254,346,20257,1,2,0:0:0:0:
258,262,20431,2,0,P|296:204|356:170,1,140,2|8,0:0|0:0,0:0:0:0:
412,329,21129,5,0,0:0:0:0:
412,245,21303,1,2,0:0:0:0:
435,164,21478,2,0,P|448:129|479:95,1,70,8|2,0:0|0:0,0:0:0:0:
417,36,21827,1,0,0:0:0:0:
344,78,22001,1,2,0:0:0:0:
262,98,22176,2,0,P|225:104|180:94,1,70,8|2,0:0|0:0,0:0:0:0:
118,60,22524,6,0,P|94:139|105:200,1,140,0|8,0:0|0:0,0:0:0:0:
131,274,23048,1,2,0:0:0:0:
211,250,23222,2,0,B|232:177,1,70,2|2,0:0|0:0,0:0:0:0:
311,204,23571,2,0,B|365:151,1,70,8|2,0:0|0:0,0:0:0:0:
443,172,23920,6,0,P|443:133|426:91,2,70,0|2|8,0:0|0:0|0:0,0:0:0:0:
421,253,24443,1,2,0:0:0:0:
421,253,24617,2,0,L|397:329,1,70,2|0,0:0|0:0,0:0:0:0:
318,341,24966,2,0,L|259:287,1,70,8|2,0:0|0:0,0:0:0:0:
192,252,25315,6,0,P|140:239|56:260,1,140,4|8,0:0|0:0,0:0:0:0:
21,335,25838,1,2,0:0:0:0:
57,259,26013,2,0,L|45:187,1,70,2|10,0:0|0:0,0:0:0:0:
61,107,26362,2,0,L|85:41,1,70,8|4,0:0|0:0,0:0:0:0:
161,88,26710,5,0,0:0:0:0:
176,170,26885,1,2,0:0:0:0:
192,252,27059,2,0,L|203:321,1,70,8|2,0:0|0:0,0:0:0:0:
274,367,27408,1,2,0:0:0:0:
288,285,27583,1,2,0:0:0:0:
301,203,27757,2,0,L|313:134,1,70,8|2,0:0|0:0,0:0:0:0:
389,97,28106,6,0,P|455:116|492:182,1,140,0|8,0:0|0:0,0:0:0:0:
465,254,28629,1,2,0:0:0:0:
425,327,28803,2,0,L|339:338,1,70,2|2,0:0|0:0,0:0:0:0:
288,285,29152,1,8,0:0:0:0:
288,285,29327,1,0,0:0:0:0:
301,203,29501,5,0,0:0:0:0:
317,120,29676,2,0,L|351:87,2,35,2|0|8,0:0|0:0|0:0,0:0:0:0:
246,74,30024,2,0,L|280:41,2,35,2|0|0,0:0|0:0|0:0,0:0:0:0:
230,157,30373,1,2,0:0:0:0:
120,29,30548,5,8,0:0:0:0:
146,108,30722,1,8,0:0:0:0:
149,191,30896,2,0,P|131:249|81:314,1,140,4|8,1:0|0:0,0:0:0:0:
15,361,31420,1,4,0:0:0:0:
83,311,31594,2,0,P|142:297|223:308,1,140,0|8,0:0|0:0,0:0:0:0:
297,342,32118,1,0,0:0:0:0:
302,258,32292,6,0,P|334:206|399:156,1,140,4|8,1:0|0:0,0:0:0:0:
475,128,32816,1,4,0:0:0:0:
396,158,32990,2,0,P|335:155|259:124,1,140,0|12,0:0|0:0,0:0:0:0:
196,73,33514,1,0,0:0:0:0:
129,22,33687,6,0,L|113:95,1,70,4|0,1:0|0:0,0:0:0:0:
178,144,34036,2,0,L|162:217,1,70,0|0,0:0|0:0,0:0:0:0:
95,162,34385,2,0,L|79:235,1,70,0|0,0:0|0:0,0:0:0:0:
144,284,34734,2,0,L|128:357,1,70,0|0,0:0|0:0,0:0:0:0:
211,337,35083,6,0,L|231:376,2,35,0|0|0,0:0|0:0|0:0,0:0:0:0:
293,324,35431,2,0,L|329:347,2,35,0|0|0,0:0|0:0|0:0,0:0:0:0:
366,282,35780,2,0,L|405:262,2,35,8|8|8,1:0|1:0|1:0,0:0:0:0:
297,232,36129,1,2,1:0:0:0:
162,131,36478,6,0,P|172:202|226:259,1,140,4|0,0:0|0:0,0:0:0:0:
297,232,37001,1,8,0:0:0:0:
297,232,37350,1,0,0:0:0:0:
370,190,37525,2,0,P|360:121|316:68,1,140,4|0,0:0|0:0,0:0:0:0:
232,75,38048,5,0,0:0:0:0:
164,128,38222,2,0,L|87:110,1,70,8|0,0:0|0:0,0:0:0:0:
38,50,38571,1,0,0:0:0:0:
95,112,38745,1,0,0:0:0:0:
34,170,38920,2,0,L|75:237,1,70,8|0,0:0|0:0,0:0:0:0:
49,310,39269,6,0,P|113:334|181:320,1,140,2|0,2:0|0:0,0:0:0:0:
256,282,39792,1,8,0:0:0:0:
256,282,40141,1,0,0:0:0:0:
330,319,40315,2,0,P|394:343|462:329,1,140,4|0,0:0|0:0,0:0:0:0:
468,245,40838,5,0,0:0:0:0:
443,164,41013,2,0,L|413:67,1,70,8|0,0:0|0:0,0:0:0:0:
480,36,41362,1,0,0:0:0:0:
422,97,41536,1,0,0:0:0:0:
339,87,41710,2,0,L|239:64,1,70,8|0,0:0|0:0,0:0:0:0:
199,27,42059,6,0,P|187:106|216:175,1,140,4|0,0:0|0:0,0:0:0:0:
272,214,42583,1,8,0:0:0:0:
272,214,42931,1,0,0:0:0:0:
355,203,43106,2,0,P|405:155|428:90,1,140,4|0,0:0|0:0,0:0:0:0:
375,25,43629,5,0,0:0:0:0:
294,49,43803,2,0,L|214:71,1,70,8|0,0:0|0:0,0:0:0:0:
270,139,44152,1,0,0:0:0:0:
189,164,44327,1,0,0:0:0:0:
108,187,44501,2,0,L|28:209,1,70,8|0,0:0|0:0,0:0:0:0:
12,285,44850,6,0,P|88:292|140:347,1,140,2|8,0:0|1:0,0:0:0:0:
210,365,45373,2,0,P|223:326|246:302,1,70
409,316,45896,2,0,P|372:250|402:173,1,140,8|0,0:0|0:0,0:0:0:0:
464,156,46420,2,0,P|457:120|436:88,1,70,8|0,0:0|0:0,0:0:0:0:
286,28,46943,2,0,P|306:63|306:102,1,70,8|0,0:0|0:0,0:0:0:0:
278,171,47292,2,0,P|249:199|211:209,1,70,10|0,0:0|0:0,0:0:0:0:
137,213,47641,6,0,L|121:66,1,140,2|0,0:0|0:0,0:0:0:0:
46,35,48164,1,8,0:0:0:0:
46,35,48513,1,0,0:0:0:0:
51,118,48687,2,0,L|66:257,1,140,4|0,0:0|0:0,0:0:0:0:
43,338,49210,5,0,0:0:0:0:
123,313,49385,2,0,P|155:305|199:305,1,70,8|0,0:0|0:0,0:0:0:0:
265,344,49734,2,0,L|275:255,1,70,0|0,0:0|0:0,0:0:0:0:
351,303,50083,2,0,L|369:221,1,70,8|0,0:0|0:0,0:0:0:0:
449,236,50431,6,0,L|402:99,1,140,2|0,0:0|0:0,0:0:0:0:
355,33,50955,1,8,0:0:0:0:
355,33,51303,1,0,0:0:0:0:
271,46,51478,2,0,L|131:70,1,140,4|0,0:0|0:0,0:0:0:0:
50,53,52001,5,0,0:0:0:0:
76,132,52176,2,0,P|92:164|92:212,1,70,8|0,0:0|0:0,0:0:0:0:
67,277,52524,2,0,L|152:258,1,70,0|0,0:0|0:0,0:0:0:0:
175,335,52873,2,0,L|264:340,1,70,8|0,0:0|0:0,0:0:0:0:
329,334,53222,6,0,P|340:264|418:213,1,140,2|0,0:0|0:0,0:0:0:0:
472,201,53745,1,8,0:0:0:0:
472,201,54094,1,0,0:0:0:0:
424,130,54269,2,0,L|383:58,1,70,4|0,0:0|0:0,0:0:0:0:
306,54,54617,5,0,0:0:0:0:
306,54,54792,1,0,0:0:0:0:
244,110,54966,2,0,L|157:126,1,70,8|0,0:0|0:0,0:0:0:0:
119,59,55315,1,0,0:0:0:0:
119,59,55490,1,0,0:0:0:0:
90,137,55664,2,0,L|61:219,1,70,8|0,0:0|0:0,0:0:0:0:
45,284,56013,6,0,P|125:238|191:242,1,140,2|8,0:0|0:0,0:0:0:0:
254,253,56536,1,0,0:0:0:0:
254,253,56710,1,0,0:0:0:0:
400,335,57059,2,0,L|323:360,1,70,8|0,0:0|0:0,0:0:0:0:
266,321,57408,6,0,L|252:243,1,70,0|8,0:0|0:0,0:0:0:0:
336,275,57757,2,0,L|372:206,1,70
420,146,58106,2,0,L|475:139,2,35,8|0|0,0:0|0:0|0:0,0:0:0:0:
341,115,58455,2,0,L|374:83,2,35,8|0|0,0:0|0:0|0:0,0:0:0:0:
280,173,58803,5,4,0:0:0:0:
383,305,59152,1,2,0:0:0:0:
232,230,59501,1,0,0:0:0:0:
335,362,59850,1,2,0:0:0:0:
84,334,60373,5,2,0:0:0:0:
84,334,60548,1,0,0:0:0:0:
84,334,60722,1,8,0:0:0:0:
22,177,61071,1,10,0:0:0:0:
22,177,61245,1,0,0:0:0:0:
22,177,61420,1,10,0:0:0:0:
61,103,61594,5,0,0:0:0:0:
197,200,61943,1,2,0:0:0:0:
113,54,62292,1,0,0:0:0:0:
249,151,62641,1,2,0:0:0:0:
482,55,63164,5,2,0:0:0:0:
482,55,63338,1,0,0:0:0:0:
482,55,63513,1,8,0:0:0:0:
439,217,63862,1,8,0:0:0:0:
439,217,64036,1,0,0:0:0:0:
439,217,64210,1,8,0:0:0:0:
371,267,64385,5,0,0:0:0:0:
211,319,64734,1,2,0:0:0:0:
374,359,65083,1,0,0:0:0:0:
261,233,65431,1,2,0:0:0:0:
53,78,65955,5,10,0:0:0:0:
53,78,66129,1,0,0:0:0:0:
53,78,66303,1,10,0:0:0:0:
90,241,66652,1,10,0:0:0:0:
90,241,66827,1,0,0:0:0:0:
90,241,67001,1,10,0:0:0:0:
156,188,67176,5,4,0:0:0:0:
321,162,67524,1,2,0:0:0:0:
176,75,67873,1,0,0:0:0:0:
229,234,68222,1,2,0:0:0:0:
339,107,68571,1,2,0:0:0:0:
173,136,68920,1,2,0:0:0:0:
334,239,69269,6,0,P|317:163|339:106,1,140,0|0,0:0|0:0,0:0:0:0:
257,156,69966,6,0,P|222:158|188:149,1,70,4|2,0:0|0:0,0:0:0:0:
103,29,70315,2,0,B|126:62|120:105,1,70,8|2,0:0|0:0,0:0:0:0:
104,177,70664,2,0,B|96:216|62:242,1,70,0|2,0:0|0:0,0:0:0:0:
11,297,71013,1,10,0:0:0:0:
94,306,71187,1,2,0:0:0:0:
177,315,71362,6,0,L|244:346,1,70,0|2,0:0|0:0,0:0:0:0:
285,274,71710,2,0,L|366:288,1,70,8|2,0:0|0:0,0:0:0:0:
413,226,72059,1,0,0:0:0:0:
386,146,72234,1,10,0:0:0:0:
366,64,72408,2,0,L|291:35,1,70,8|0,0:0|0:0,0:0:0:0:
216,37,72757,6,0,P|223:71|243:101,1,70,0|2,0:0|0:0,0:0:0:0:
386,146,73106,2,0,P|353:135|317:137,1,70,8|2,0:0|0:0,0:0:0:0:
245,179,73455,2,0,P|221:205|190:220,1,70,0|2,0:0|0:0,0:0:0:0:
107,208,73803,1,10,0:0:0:0:
43,152,73978,1,2,0:0:0:0:
25,233,74152,6,0,L|39:301,1,70,0|0,0:0|0:0,0:0:0:0:
123,295,74501,2,0,L|167:358,1,70,8|0,0:0|0:0,0:0:0:0:
228,299,74850,1,0,0:0:0:0:
215,216,75024,1,0,0:0:0:0:
200,132,75199,2,0,L|188:51,1,70,8|0,0:0|0:0,0:0:0:0:
273,53,75548,6,0,P|299:78|340:98,1,70,0|2,0:0|0:0,0:0:0:0:
471,40,75896,2,0,P|436:50|398:75,1,70,8|0,0:0|0:0,0:0:0:0:
390,150,76245,2,0,P|390:184|382:218,1,70,0|2,0:0|0:0,0:0:0:0:
335,289,76594,1,8,0:0:0:0:
258,323,76769,1,2,0:0:0:0:
175,338,76943,6,0,L|90:306,1,70,0|2,0:0|0:0,0:0:0:0:
63,242,77292,2,0,L|54:156,1,70,8|2,0:0|0:0,0:0:0:0:
54,88,77641,1,0,0:0:0:0:
132,116,77815,1,10,0:0:0:0:
210,146,77990,2,0,L|220:229,1,70,8|0,0:0|0:0,0:0:0:0:
250,292,78338,6,0,B|286:326|347:322|347:322|353:265|317:225,1,210,2|0,0:3|0:0,0:0:0:0:
328,141,79036,2,0,B|362:105|358:44|358:44|301:38|261:74,1,210,2|8,0:3|0:0,0:0:0:0:
176,77,79734,2,0,B|140:43|79:47|79:47|73:104|109:144,1,210,0|8,0:0|0:0,0:0:0:0:
95,227,80431,2,0,B|61:263|65:324|65:324|122:330|162:294,1,210,2|0,0:3|0:0,0:0:0:0:
232,246,81129,6,0,B|232:313|296:342|296:342|330:275|276:244,1,210,0|0,0:0|1:0,0:0:0:0:
324,180,81827,2,0,B|391:180|420:116|420:116|353:82|322:136,1,210,2|0,3:0|1:0,0:0:0:0:
254,124,82524,2,0,B|254:57|190:28|190:28|156:95|210:126,1,210,0|0,3:0|3:0,0:0:0:0:
194,193,83222,2,0,B|127:193|98:257|98:257|165:291|196:237,1,210,2|0,1:3|1:0,0:0:0:0:
256,192,83920,12,0,86013,0:0:0:0:
438,49,86710,6,0,P|398:48|364:65,1,70,4|2,0:0|0:0,0:0:0:0:
305,113,87059,1,8,0:0:0:0:
382,144,87234,2,0,P|352:199|356:276,1,140,2|2,0:0|0:0,0:0:0:0:
323,353,87758,2,0,L|243:370,1,70,8|0,0:0|0:0,0:0:0:0:
221,290,88106,6,0,L|151:278,1,70,0|2,0:0|0:0,0:0:0:0:
95,340,88454,1,8,0:0:0:0:
65,257,88629,2,0,P|54:171|81:112,1,140,2|2,0:0|0:0,0:0:0:0:
147,80,89153,2,0,L|226:64,1,70,8|2,0:0|0:0,0:0:0:0:
298,51,89501,6,0,P|336:56|368:76,1,70,0|2,0:0|0:0,0:0:0:0:
386,152,89850,1,8,0:0:0:0:
304,140,90024,2,0,P|267:198|287:279,1,140,2|2,0:0|0:0,0:0:0:0:
308,343,90548,2,0,P|345:321|355:276,1,70,8|2,0:0|0:0,0:0:0:0:
412,236,90896,6,0,P|374:214|330:228,1,70,2|0,0:0|0:0,0:0:0:0:
281,262,91245,1,8,0:0:0:0:
202,300,91420,2,0,L|57:287,1,140,2|2,0:0|0:0,0:0:0:0:
24,212,91943,2,0,P|65:186|86:147,1,70,8|2,0:0|0:0,0:0:0:0:
40,41,92292,6,0,P|63:74|116:92,1,70,0|2,0:0|0:0,0:0:0:0:
167,116,92641,1,8,0:0:0:0:
218,49,92815,2,0,L|377:62,1,140,2|2,0:0|0:0,0:0:0:0:
416,120,93338,2,0,P|401:152|397:195,1,70,8|2,0:0|0:0,0:0:0:0:
443,278,93687,6,0,P|375:269|346:281,1,70,0|2,0:0|0:0,0:0:0:0:
298,303,94036,1,8,0:0:0:0:
227,347,94210,2,0,L|71:313,1,140,2|2,0:0|0:0,0:0:0:0:
67,235,94734,1,8,0:0:0:0:
46,153,94908,1,2,0:0:0:0:
52,68,95083,6,0,P|80:48|113:38,1,70,0|2,0:0|0:0,0:0:0:0:
176,95,95431,1,8,0:0:0:0:
236,36,95606,2,0,P|281:100|353:120,1,140,2|2,0:0|0:0,0:0:0:0:
417,96,96129,1,8,0:0:0:0:
406,179,96303,1,2,0:0:0:0:
397,262,96478,5,0,0:0:0:0:
397,262,96652,2,0,L|325:292,1,70,2|8,0:0|0:0,0:0:0:0:
275,226,97001,1,2,0:0:0:0:
275,226,97176,2,0,L|189:236,1,70,0|2,0:0|0:0,0:0:0:0:
181,153,97524,2,0,L|95:140,1,70,8|2,0:0|0:0,0:0:0:0:
34,32,97873,6,0,L|42:114,1,70,0|2,0:0|0:0,0:0:0:0:
42,185,98222,1,8,0:0:0:0:
33,267,98396,2,0,P|104:264|184:312,1,140,2|0,0:0|0:0,0:0:0:0:
232,344,98920,2,0,L|248:272,1,70,8|0,0:0|0:0,0:0:0:0:
283,199,99269,5,0,0:0:0:0:
362,224,99443,1,2,0:0:0:0:
441,248,99617,2,0,L|428:161,1,70,8|2,0:0|0:0,0:0:0:0:
416,95,99966,2,0,P|355:44|274:55,1,140,0|10,0:0|0:0,0:0:0:0:
218,77,100490,1,0,0:0:0:0:
146,34,100664,5,0,0:0:0:0:
146,34,100838,1,0,0:0:0:0:
89,96,101013,1,8,0:0:0:0:
161,137,101187,2,0,P|155:205|111:268,1,140,2|2,0:0|0:0,0:0:0:0:
52,318,101710,1,8,0:0:0:0:
133,340,101885,1,2,0:0:0:0:
216,350,102059,6,0,L|299:359,1,70,2|0,0:0|0:0,0:0:0:0:
303,275,102408,2,0,L|385:262,1,70,8|2,0:0|0:0,0:0:0:0:
371,179,102757,2,0,L|447:145,1,70,0|2,0:0|0:0,0:0:0:0:
388,80,103106,2,0,L|453:27,1,70,8|0,0:0|0:0,0:0:0:0:
302,41,103455,5,0,3:0:0:0:
302,41,103629,2,0,L|281:126,1,70,2|8,0:0|0:0,0:0:0:0:
204,131,103978,1,0,0:0:0:0:
124,103,104152,2,0,P|92:114|47:147,1,70,2|0,0:0|0:0,0:0:0:0:
20,207,104501,2,0,P|13:240|19:295,1,70,8|0,0:0|0:0,0:0:0:0:
84,323,104850,5,4,3:0:0:0:
84,323,105024,2,0,L|163:340,1,70,2|8,0:0|0:0,0:0:0:0:
197,266,105373,1,0,0:0:0:0:
280,274,105548,2,0,P|313:268|363:244,1,70,2|0,0:0|0:0,0:0:0:0:
427,279,105896,2,0,P|439:247|442:191,1,70,8|0,0:0|0:0,0:0:0:0:
383,154,106245,6,0,B|419:117|414:68,1,93.3333333333333,4|2,0:1|0:0,0:0:0:0:
303,78,106710,1,0,0:0:0:0:
215,148,106943,2,0,B|251:184|300:179,2,93.3333333333333,2|0|2,0:0|0:0|0:0,0:0:0:0:
135,72,107641,6,0,B|98:108|103:157,1,93.3333333333333,6|2,3:0|0:0,0:0:0:0:
215,148,108106,1,2,0:0:0:0:
303,78,108338,2,0,B|266:41|217:46,2,93.3333333333333,0|0|2,0:0|0:0|0:0,0:0:0:0:
348,180,109036,6,0,B|360:226|331:269,1,93.3333333333333,4|2,0:1|0:0,0:0:0:0:
239,208,109501,1,0,0:0:0:0:
164,292,109733,2,0,B|206:321|253:308,2,93.3333333333333,2|0|2,0:0|0:0|0:0,0:0:0:0:
55,321,110431,6,0,B|42:274|71:231,1,93.3333333333333,2|2,3:0|0:0,0:0:0:0:
164,292,110896,1,2,0:0:0:0:
239,209,111129,2,0,B|196:179|149:192,2,93.3333333333333,2|0|2,0:0|0:0|0:0,0:0:0:0:
262,319,111827,6,0,P|299:307|333:275,1,70,6|0,0:1|0:0,0:0:0:0:
387,233,112176,2,0,P|413:204|426:159,1,70,0|0,0:0|0:0,0:0:0:0:
419,91,112524,2,0,P|390:64|345:51,1,70,2|0,0:0|0:0,0:0:0:0:
281,25,112873,2,0,P|242:16|197:27,1,70,0|0,0:0|0:0,0:0:0:0:
141,66,113222,6,0,L|95:106,2,35,0|0|0,1:0|0:0|0:0,0:0:0:0:
179,141,113571,2,0,L|159:198,2,35
243,194,113920,2,0,L|254:253,2,35,8|0|0,1:0|0:0|0:0,0:0:0:0:
325,177,114269,6,0,P|321:110|248:123,1,140,8|4,0:0|1:0,0:0:0:0:
