osu file format v14

[General]
AudioFilename: Beautiful Angel.mp3
AudioLeadIn: 0
PreviewTime: 58772
Countdown: 0
SampleSet: Soft
StackLeniency: 0.5
Mode: 0
LetterboxInBreaks: 0
EpilepsyWarning: 1
WidescreenStoryboard: 1

[Editor]
Bookmarks: 10228,10577,10926,11274,12234,26187,34441,87202,100633
DistanceSpacing: 0.7
BeatDivisor: 6
GridSize: 16
TimelineZoom: 1.300006

[Metadata]
Title:Beautiful Angel
TitleUnicode:Beautiful Angel
Artist:DJ Swan
ArtistUnicode:DJ Swan
Creator:rs_fadeaway
Version:Extra
Source:beatmania IIDX 15 DJ TROOPERS(CS)
Tags:drum'n'bass dnb KaniNayuta Heatherfield Gordon123
BeatmapID:1178356
BeatmapSetID:556834

[Difficulty]
HPDrainRate:7
CircleSize:4.5
OverallDifficulty:8
ApproachRate:9.5
SliderMultiplier:1.8
SliderTickRate:1

[Events]
//Background and Video events
0,0,"BG.jpg",0,0
//Break Periods
//Storyboard Layer 0 (Background)
//Storyboard Layer 1 (Fail)
//Storyboard Layer 2 (Pass)
//Storyboard Layer 3 (Foreground)
//Storyboard Sound Samples

[TimingPoints]
2990,348.837209302326,4,2,1,50,1,0
8571,-100,4,2,1,70,0,0
12059,-100,4,2,1,80,0,0
12757,-100,4,2,1,83,0,0
13455,-100,4,2,1,80,0,0
13803,-66.6666666666667,4,2,1,70,0,0
14152,-83.3333333333333,4,1,2,30,0,0
14327,-83.3333333333333,4,2,1,70,0,0
25315,-66.6666666666667,4,1,2,30,0,0
25402,-66.6666666666667,4,2,1,70,0,0
26361,-83.3333333333333,4,2,1,70,0,0
26536,-58.8235294117647,4,2,1,70,0,0
26885,-83.3333333333333,4,2,1,70,0,0
32292,-83.3333333333333,4,2,1,75,0,0
33687,-83.3333333333333,4,2,1,80,0,0
35083,-83.3333333333333,4,1,1,65,0,0
36129,-66.6666666666667,4,2,1,50,0,0
36478,-83.3333333333333,4,2,1,50,0,0
37524,-100,4,2,3,50,0,0
38047,-200,4,2,1,50,0,0
39268,-83.3333333333333,4,2,1,50,0,0
40315,-100,4,2,4,50,0,0
40838,-200,4,2,1,50,0,0
42059,-83.3333333333333,4,2,1,50,0,0
43105,-100,4,2,3,50,0,0
43629,-200,4,2,1,50,0,0
44850,-83.3333333333333,4,2,0,80,0,0
46943,-100,4,2,0,50,0,0
47640,-76.9230769230769,4,2,1,50,0,0
48512,-100,4,2,1,50,0,0
48686,-100,4,2,3,50,0,0
49210,-200,4,2,1,70,0,0
50431,-76.9230769230769,4,2,1,70,0,0
51303,-100,4,2,1,70,0,0
51478,-100,4,2,4,70,0,0
52001,-200,4,2,1,70,0,0
53222,-76.9230769230769,4,2,1,70,0,0
54094,-100,4,2,1,70,0,0
54269,-100,4,2,3,70,0,0
54792,-200,4,2,1,70,0,0
56012,-76.9230769230769,4,2,0,70,0,0
57059,-100,4,2,0,70,0,0
58105,-83.3333333333333,4,2,0,70,0,0
58803,-100,4,2,4,50,0,0
60024,-100,4,2,2,50,0,0
60373,-100,4,2,0,70,0,0
60722,-100,4,2,2,50,0,0
61071,-100,4,2,2,80,0,0
61594,-100,4,2,0,50,0,0
62815,-100,4,2,2,50,0,0
63164,-100,4,2,0,70,0,0
63513,-100,4,2,2,70,0,0
63862,-100,4,2,2,50,0,0
64385,-100,4,2,0,50,0,0
65606,-100,4,2,2,50,0,0
65955,-100,4,2,2,70,0,0
66652,-100,4,2,2,80,0,0
67176,-100,4,2,4,50,0,0
67524,-100,4,2,4,45,0,0
67873,-100,4,2,4,35,0,0
68222,-100,4,2,4,30,0,0
68571,-100,4,2,1,25,0,0
68920,-100,4,2,1,20,0,0
69268,-66.6666666666667,4,2,1,70,0,0
69966,-66.6666666666667,4,1,2,30,0,0
70053,-80,4,2,1,70,0,0
70838,-80,4,2,1,70,0,0
72757,-80,4,2,1,70,0,0
74152,-80,4,2,1,70,0,0
76071,-80,4,2,1,70,0,0
76332,-80,4,2,1,70,0,0
78338,-200,4,2,2,60,0,0
78687,-200,4,2,2,60,0,0
79733,-133.333333333333,4,2,2,60,0,0
80431,-100,4,2,2,60,0,0
80780,-100,4,2,0,60,0,0
83222,-100,4,2,0,50,0,0
83920,-200,4,2,0,30,0,0
84617,-200,4,2,0,50,0,0
85315,-66.6666666666667,4,2,0,70,0,0
86710,-83.3333333333333,4,1,2,50,0,1
86798,-83.3333333333333,4,2,1,90,0,1
106245,-71.4285714285714,4,2,1,90,0,1
113222,-71.4285714285714,4,1,1,90,0,1
114269,-71.4285714285714,4,2,0,60,0,1
114617,-100,4,1,2,30,0,0

[Colours]
Combo1 : 172,118,205
Combo2 : 39,216,97
Combo3 : 43,216,230
Combo4 : 105,160,156

[HitObjects]
375,104,2989,5,6,0:1:0:0:
197,290,3164,1,0,0:0:0:0:
131,76,3338,1,0,0:0:0:0:
304,226,3512,1,2,0:0:0:0:
301,16,3686,1,2,0:0:0:0:
182,184,3861,1,0,0:0:0:0:
421,197,4035,1,0,0:0:0:0:
217,75,4210,1,0,0:0:0:0:
337,253,4385,5,2,0:0:0:0:
386,54,4560,1,0,0:0:0:0:
193,113,4734,1,0,0:0:0:0:
401,166,4908,1,2,0:0:0:0:
231,241,5082,1,2,0:0:0:0:
417,246,5257,1,0,0:0:0:0:
313,100,5431,1,0,0:0:0:0:
324,265,5606,1,0,0:0:0:0:
472,162,5780,5,2,0:0:0:0:
313,100,5955,2,0,P|249:100|217:84,1,90
139,186,6303,1,2,0:0:0:0:
155,31,6478,2,0,P|159:82|144:160,1,90,2|0,0:0|0:0,0:0:0:0:
33,204,6827,2,0,P|59:162|72:123,1,90,2|0,0:0|0:0,0:0:0:0:
86,296,7175,5,2,0:0:0:0:
75,310,7350,1,0,0:0:0:0:
221,286,7524,1,2,0:0:0:0:
229,301,7699,1,0,0:0:0:0:
328,213,7873,1,2,0:0:0:0:
344,220,8047,1,0,0:0:0:0:
330,97,8222,1,2,0:0:0:0:
344,86,8396,1,0,0:0:0:0:
344,220,8571,5,6,0:0:0:0:
424,112,8745,1,0,0:0:0:0:
436,106,8832,1,0,0:0:0:0:
448,100,8920,1,2,0:0:0:0:
285,85,9094,1,0,0:0:0:0:
278,72,9181,1,0,0:0:0:0:
273,60,9269,1,2,0:0:0:0:
306,201,9443,1,0,0:0:0:0:
352,54,9617,1,2,0:0:0:0:
203,88,9792,1,0,0:0:0:0:
273,60,9966,5,2,0:0:0:0:
165,164,10141,1,0,0:0:0:0:
177,160,10228,1,0,0:0:0:0:
189,155,10315,1,2,0:0:0:0:
157,14,10490,1,0,0:0:0:0:
154,26,10577,1,0,0:0:0:0:
152,39,10664,1,2,0:0:0:0:
288,85,10838,1,0,0:0:0:0:
302,86,10925,1,0,0:0:0:0:
314,88,11012,1,2,0:0:0:0:
376,214,11187,1,0,0:0:0:0:
376,214,11274,1,0,0:0:0:0:
376,214,11361,6,0,L|327:212,1,45,2|0,2:0|0:0,0:0:0:0:
288,288,11536,2,0,L|226:307,1,45,2|0,2:0|0:0,0:0:0:0:
192,205,11710,2,0,L|125:203,1,45,2|0,2:0|0:0,0:0:0:0:
103,332,11885,2,0,L|42:350,1,45,2|0,2:0|0:0,0:0:0:0:
54,169,12060,5,2,0:0:0:0:
54,169,12147,1,0,0:0:0:0:
54,169,12234,2,0,L|61:231,1,45,2|0,0:0|0:0,0:0:0:0:
178,315,12408,1,2,0:0:0:0:
178,315,12495,1,0,0:0:0:0:
178,315,12582,2,0,L|165:372,1,45,2|0,0:0|0:0,0:0:0:0:
264,191,12757,5,0,0:0:0:0:
287,203,12844,1,0,0:0:0:0:
312,210,12931,1,0,0:0:0:0:
338,214,13019,1,0,0:0:0:0:
364,214,13105,1,0,0:0:0:0:
391,211,13193,1,0,0:0:0:0:
416,201,13280,1,0,0:0:0:0:
439,187,13367,1,0,0:0:0:0:
461,169,13455,5,8,1:0:0:0:
410,150,13542,1,8,1:0:0:0:
356,143,13629,1,8,1:0:0:0:
304,157,13716,1,8,1:0:0:0:
264,191,13803,6,0,L|304:60,1,135.000005149842,8|2,1:0|0:0,0:0:0:0:
156,274,14152,5,4,0:0:0:0:
142,128,14326,2,0,L|175:19,1,107.999996704102,2|8,0:0|0:0,0:0:0:0:
23,51,14675,1,2,0:0:0:0:
112,213,14850,1,2,0:0:0:0:
112,213,14937,1,0,0:0:0:0:
112,213,15024,1,2,0:0:0:0:
246,142,15199,1,8,0:0:0:0:
379,141,15373,1,2,0:0:0:0:
191,30,15547,5,0,0:0:0:0:
46,150,15722,1,2,0:0:0:0:
199,57,15896,1,8,0:0:0:0:
77,152,16071,1,2,0:0:0:0:
205,76,16245,5,0,0:0:0:0:
36,26,16420,1,2,0:0:0:0:
195,96,16594,1,8,0:0:0:0:
42,50,16769,1,2,0:0:0:0:
89,193,16943,5,0,0:0:0:0:
250,263,17117,2,0,L|139:289,1,107.999996704102,2|8,0:0|0:0,0:0:0:0:
13,355,17466,1,2,0:0:0:0:
145,288,17640,1,2,0:0:0:0:
176,293,17727,1,0,0:0:0:0:
208,298,17815,1,2,0:0:0:0:
376,328,17989,2,0,L|488:297,1,107.999996704102,8|2,0:0|0:0,0:0:0:0:
466,156,18338,5,0,0:0:0:0:
376,328,18512,1,2,0:0:0:0:
440,160,18687,1,8,0:0:0:0:
166,261,18862,1,2,0:0:0:0:
182,252,18949,1,0,0:0:0:0:
198,244,19036,1,0,0:0:0:0:
214,237,19123,1,0,0:0:0:0:
230,229,19210,1,2,0:0:0:0:
355,127,19385,1,8,0:0:0:0:
328,304,19559,1,2,0:0:0:0:
197,56,19733,5,0,0:0:0:0:
59,190,19908,2,0,L|166:221,1,107.999996704102,2|8,0:0|0:0,0:0:0:0:
311,313,20257,1,2,0:0:0:0:
313,295,20344,1,0,0:0:0:0:
315,277,20431,1,2,0:0:0:0:
318,259,20518,1,0,0:0:0:0:
320,241,20605,1,2,0:0:0:0:
271,141,20780,1,8,0:0:0:0:
166,159,20954,1,2,0:0:0:0:
312,55,21129,5,0,0:0:0:0:
455,166,21303,1,2,0:0:0:0:
303,84,21478,1,8,0:0:0:0:
429,182,21652,1,2,0:0:0:0:
309,116,21826,5,0,0:0:0:0:
463,43,22001,1,2,0:0:0:0:
336,136,22176,1,8,0:0:0:0:
462,74,22350,1,2,0:0:0:0:
433,184,22524,5,0,0:0:0:0:
341,270,22699,2,0,L|234:299,1,107.999996704102,2|8,0:0|0:0,0:0:0:0:
109,192,23047,1,2,0:0:0:0:
115,209,23135,1,0,0:0:0:0:
122,225,23222,1,2,0:0:0:0:
129,241,23309,1,0,0:0:0:0:
136,255,23396,1,2,0:0:0:0:
34,358,23571,1,8,0:0:0:0:
106,325,23745,1,2,0:0:0:0:
136,255,23919,5,0,0:0:0:0:
111,117,24094,1,2,0:0:0:0:
242,180,24268,1,8,0:0:0:0:
43,292,24443,1,2,0:0:0:0:
55,248,24530,1,0,0:0:0:0:
80,216,24617,1,2,0:0:0:0:
117,192,24704,1,0,0:0:0:0:
164,184,24792,1,2,0:0:0:0:
384,254,24966,1,8,0:0:0:0:
178,274,25140,1,2,0:0:0:0:
171,230,25228,1,0,1:0:0:0:
164,184,25315,6,0,B|154:135|154:135|162:91|162:91|151:46,1,135.000005149842,4|2,0:0|0:0,0:0:0:0:
25,22,25664,1,8,0:0:0:0:
57,130,25838,2,0,B|70:174|70:174|59:217|59:217|72:273,1,135.000005149842,2|2,0:0|0:0,0:0:0:0:
138,287,26100,1,0,0:0:0:0:
183,299,26187,1,2,0:0:0:0:
80,368,26361,5,8,0:0:0:0:
338,355,26536,6,0,P|341:273|387:210,1,153.000002918243,4|0,0:0|0:0,0:0:0:0:
220,349,26885,5,2,0:0:0:0:
440,302,27059,1,8,0:0:0:0:
142,249,27233,1,2,0:0:0:0:
138,236,27321,1,0,0:0:0:0:
135,225,27408,1,2,0:0:0:0:
134,215,27495,1,0,0:0:0:0:
131,204,27582,1,2,0:0:0:0:
154,96,27757,1,8,0:0:0:0:
86,23,27931,1,2,0:0:0:0:
53,178,28105,5,0,0:0:0:0:
212,152,28280,2,0,L|327:135,1,107.999996704102,2|8,0:0|0:0,0:0:0:0:
446,40,28629,1,2,0:0:0:0:
428,42,28716,1,0,0:0:0:0:
410,45,28803,1,2,0:0:0:0:
392,48,28890,1,0,0:0:0:0:
374,52,28978,1,2,0:0:0:0:
226,22,29152,1,8,0:0:0:0:
290,68,29326,1,2,0:0:0:0:
147,39,29501,5,0,0:0:0:0:
288,144,29675,1,2,0:0:0:0:
288,144,29762,1,0,0:0:0:0:
288,144,29850,1,8,0:0:0:0:
9,161,30024,1,2,0:0:0:0:
27,157,30111,1,0,0:0:0:0:
45,154,30198,1,0,0:0:0:0:
63,149,30286,1,0,0:0:0:0:
80,144,30373,1,2,0:0:0:0:
232,104,30547,1,8,0:0:0:0:
173,277,30722,1,0,0:0:0:0:
440,323,30896,5,4,1:0:0:0:
337,284,31071,2,0,L|321:171,1,107.999996704102,0|8,0:0|0:0,0:0:0:0:
81,56,31419,1,4,0:0:0:0:
154,170,31594,1,0,0:0:0:0:
160,214,31681,1,0,0:0:0:0:
167,262,31768,1,0,0:0:0:0:
321,178,31943,2,0,P|393:197|463:143,1,161.999995056153,8|0,0:0|0:0,0:0:0:0:
433,18,32292,6,0,P|390:46|379:113,1,107.999996704102,4|0,1:0|0:0,0:0:0:0:
433,18,32640,1,8,0:0:0:0:
321,178,32815,2,0,P|337:225|411:266,1,107.999996704102,4|0,0:0|0:0,0:0:0:0:
442,183,33077,1,0,0:0:0:0:
459,149,33164,1,0,0:0:0:0:
272,40,33338,2,0,P|189:47|142:107,1,161.999995056153,12|0,0:0|0:0,0:0:0:0:
165,215,33687,5,4,1:0:0:0:
72,144,33861,1,0,0:0:0:0:
64,112,33949,1,0,0:0:0:0:
56,80,34036,1,0,0:0:0:0:
302,168,34210,1,0,0:0:0:0:
307,183,34297,1,0,0:0:0:0:
312,199,34385,1,0,0:0:0:0:
317,213,34472,1,0,0:0:0:0:
322,226,34559,1,0,0:0:0:0:
329,242,34646,1,0,0:0:0:0:
334,258,34733,1,0,0:0:0:0:
342,274,34821,1,0,0:0:0:0:
349,291,34908,1,0,0:0:0:0:
357,306,34995,1,0,0:0:0:0:
329,285,35082,5,0,0:0:0:0:
298,277,35169,1,0,0:0:0:0:
266,280,35257,1,0,0:0:0:0:
235,286,35344,1,0,0:0:0:0:
207,300,35431,1,0,0:0:0:0:
180,317,35518,1,0,0:0:0:0:
163,343,35605,1,0,0:0:0:0:
144,368,35693,1,0,0:0:0:0:
130,315,35780,5,8,1:0:0:0:
120,262,35867,1,8,1:0:0:0:
108,209,35954,1,8,1:0:0:0:
97,155,36042,1,8,1:0:0:0:
87,105,36129,6,0,P|162:155|271:97,1,202.500007724762,2|0,1:0|0:0,0:0:0:0:
319,26,36478,6,0,B|414:28|445:98|445:98|351:128|383:229,1,270.000010299683,4|0,0:0|0:0,0:0:0:0:
493,231,37001,2,0,P|481:206|454:181,1,53.9999983520508,8|0,0:0|0:0,0:0:0:0:
462,187,37350,1,0,0:0:0:0:
303,136,37524,6,0,B|248:136|219:162|219:162|193:126|140:106,1,180,4|0,0:0|0:0,0:0:0:0:
40,57,38047,6,0,L|30:95,1,22.5
78,167,38222,2,0,L|83:202,1,22.5,8|0,0:0|0:0,0:0:0:0:
163,248,38396,2,0,L|176:281,1,22.5
276,296,38571,6,0,L|291:322,1,22.5
159,225,38745,2,0,L|164:260,1,22.5
78,144,38919,2,0,L|77:167,1,22.5,8|0,0:0|0:0,0:0:0:0:
46,35,39094,2,0,L|35:70,1,22.5
172,86,39268,6,0,B|271:55|290:159|290:159|313:104|390:98,1,269.999991760254,2|0,2:0|0:0,0:0:0:0:
478,81,39792,2,0,P|466:52|441:32,1,53.9999983520508,8|0,0:0|0:0,0:0:0:0:
449,36,40140,1,0,0:0:0:0:
290,159,40315,6,0,B|316:196|370:190|370:190|399:223|466:211,1,180,4|0,0:0|0:0,0:0:0:0:
305,349,40838,6,0,L|293:329,1,22.5
189,302,41013,2,0,L|180:281,1,22.5,8|0,0:0|0:0,0:0:0:0:
98,222,41187,2,0,L|94:199,1,22.5
17,120,41362,6,0,L|22:98,1,22.5
94,200,41536,2,0,L|95:177,1,22.5
179,280,41710,2,0,L|176:258,1,22.5,8|0,0:0|0:0,0:0:0:0:
292,328,41885,2,0,L|279:311,1,22.5
286,209,42059,6,0,B|460:158|460:158|410:252,1,269.999991760254,4|0,0:0|0:0,0:0:0:0:
404,371,42583,2,0,L|399:314,1,53.9999983520508,8|0,0:0|0:0,0:0:0:0:
399,317,42931,5,0,0:0:0:0:
456,119,43106,2,0,B|491:65|430:6|353:31|358:93,1,180,4|0,0:0|0:0,0:0:0:0:
286,209,43629,6,0,L|255:237,1,22.5
179,176,43803,2,0,L|138:184,1,22.5,8|0,0:0|0:0,0:0:0:0:
106,91,43978,2,0,L|66:78,1,22.5
250,80,44152,6,0,L|218:98,1,22.5
286,209,44327,2,0,L|255:237,1,22.5
179,176,44501,2,0,L|138:184,1,22.5,8|0,0:0|0:0,0:0:0:0:
106,91,44676,2,0,L|66:78,1,22.5
71,213,44850,6,0,P|59:274|69:334,1,107.999996704102,2|0,0:0|0:0,0:0:0:0:
159,283,45111,1,0,0:0:0:0:
177,275,45199,1,8,0:0:0:0:
306,281,45373,1,0,0:0:0:0:
317,265,45461,1,0,1:0:0:0:
437,220,45635,1,0,0:0:0:0:
439,200,45722,1,0,1:0:0:0:
415,58,45896,6,0,P|362:138|256:110,1,215.999993408203,8|0,0:0|0:0,0:0:0:0:
97,42,46419,6,0,P|127:67|141:94,1,53.9999983520508,8|0,0:0|0:0,0:0:0:0:
44,173,46594,1,0,0:0:0:0:
66,209,46681,1,0,0:0:0:0:
106,224,46768,1,0,0:0:0:0:
148,230,46855,1,0,0:0:0:0:
181,214,46943,2,0,P|179:176|166:142,3,45,8|0|0|0,0:0|0:0|0:0|0:0,0:0:0:0:
89,342,47292,2,0,P|118:317|137:286,3,45,10|0|0|0,0:0|0:0|0:0|0:0,0:0:0:0:
294,303,47640,6,0,B|312:237|312:237|297:180|297:180|316:107,1,175.499991966248,2|0,0:0|0:0,0:0:0:0:
294,303,47989,1,0,0:0:0:0:
450,69,48164,2,0,L|381:104,1,58.4999973220826,8|0,0:0|0:0,0:0:0:0:
398,95,48512,5,0,0:0:0:0:
294,226,48687,2,0,P|235:230|171:114,1,180,4|0,0:0|0:0,1:0:0:0:
315,57,49210,6,0,L|303:94,1,22.5
236,161,49385,2,0,L|217:197,1,22.5,8|0,0:0|0:0,0:0:0:0:
114,215,49559,2,0,L|80:237,1,22.5
115,105,49733,6,0,L|72:107,1,22.5
236,161,49908,2,0,L|201:158,1,22.5
330,238,50082,2,0,L|296:238,1,22.5,8|0,0:0|0:0,0:0:0:0:
405,335,50257,2,0,L|374:321,1,22.5
230,283,50431,6,0,P|144:264|59:284,1,175.499991966248,2|0,0:0|0:0,0:0:0:0:
297,320,50780,1,0,0:0:0:0:
109,253,50954,2,0,P|82:266|58:286,1,58.4999973220826,8|0,0:0|0:0,0:0:0:0:
60,283,51303,5,0,0:0:0:0:
31,152,51478,2,0,B|61:108|67:71|67:71|125:71|179:40,1,180,4|0,0:0|0:0,0:0:0:0:
292,42,52001,6,0,L|294:75,1,22.5
177,142,52176,2,0,L|219:152,1,22.5,8|0,0:0|0:0,0:0:0:0:
222,293,52350,2,0,L|245:265,1,22.5
326,177,52524,6,0,L|368:187,1,22.5
420,72,52699,2,0,L|422:105,1,22.5
305,172,52873,2,0,L|347:182,1,22.5,8|0,0:0|0:0,0:0:0:0:
350,323,53048,2,0,L|373:295,1,22.5
473,210,53222,6,0,B|419:166|358:197|292:166,1,175.499991966248,2|0,0:0|0:0,0:0:0:0:
473,210,53571,1,0,0:0:0:0:
229,36,53745,2,0,P|251:65|260:96,1,58.4999973220826,8|0,0:0|0:0,0:0:0:0:
258,85,54094,5,0,0:0:0:0:
189,238,54269,2,0,P|98:238|28:160,1,180,4|0,0:0|0:0,0:0:0:0:
161,71,54792,6,0,L|196:90,1,22.5
402,239,54966,2,0,L|362:243,1,22.5,8|0,0:0|0:0,0:0:0:0:
108,234,55140,2,0,L|138:209,1,22.5
343,65,55315,6,0,L|336:104,1,22.5
267,345,55489,2,0,L|248:310,1,22.5
161,71,55664,2,0,L|196:90,1,22.5,8|0,0:0|0:0,0:0:0:0:
402,239,55838,2,0,L|362:243,1,22.5
224,271,56012,6,0,B|172:275|172:275|107:256|107:256|34:261,1,175.499991966248,2|0,0:0|0:0,0:0:0:0:
248,245,56361,1,8,0:0:0:0:
26,290,56536,6,0,L|84:285,1,58.4999973220826
292,182,56710,2,0,L|233:184,1,58.4999973220826
52,217,56885,1,0,0:0:0:0:
120,50,57059,6,0,P|160:87|263:46,1,135,8|0,0:0|0:0,0:0:0:0:
373,14,57408,5,0,0:0:0:0:
364,58,57495,1,0,0:0:0:0:
356,102,57583,1,8,0:0:0:0:
295,239,57757,1,0,0:0:0:0:
321,234,57844,1,0,0:0:0:0:
347,231,57931,1,0,0:0:0:0:
373,231,58018,1,0,0:0:0:0:
405,234,58106,6,0,P|441:241|475:254,3,53.9999983520508,8|0|0|0,0:0|0:0|0:0|0:0,0:0:0:0:
260,249,58454,2,0,P|234:257|210:269,3,53.9999983520508,8|0|0|0,0:0|0:0|0:0|0:0,0:0:0:0:
288,63,58803,5,4,0:0:0:0:
289,76,59152,1,2,0:0:0:0:
291,90,59501,1,0,0:0:0:0:
293,103,59850,1,2,0:0:0:0:
319,262,60024,1,8,0:0:0:0:
210,119,60373,5,2,0:0:0:0:
366,158,60547,1,0,0:0:0:0:
254,276,60722,1,8,0:0:0:0:
254,276,60809,1,8,0:0:0:0:
254,276,60896,1,8,0:0:0:0:
236,96,61071,5,10,0:0:0:0:
358,201,61245,1,0,0:0:0:0:
206,258,61420,1,10,0:0:0:0:
81,153,61594,5,0,0:0:0:0:
97,145,61943,1,2,0:0:0:0:
112,136,62292,1,0,0:0:0:0:
127,126,62641,1,2,0:0:0:0:
304,96,62815,1,8,0:0:0:0:
234,262,63164,21,2,0:0:0:0:
398,187,63339,1,0,0:0:0:0:
252,81,63513,1,8,0:0:0:0:
252,81,63600,1,8,0:0:0:0:
252,81,63687,1,8,0:0:0:0:
274,260,63862,5,8,0:0:0:0:
401,133,64036,1,0,0:0:0:0:
227,86,64210,1,8,0:0:0:0:
78,188,64385,5,0,0:0:0:0:
86,188,64734,1,2,0:0:0:0:
98,190,65082,1,0,0:0:0:0:
108,190,65431,1,2,0:0:0:0:
269,210,65606,1,8,0:0:0:0:
162,331,65954,21,10,0:0:0:0:
190,189,66129,1,0,0:0:0:0:
302,278,66303,1,10,0:0:0:0:
302,278,66391,1,0,0:0:0:0:
302,278,66478,1,8,0:0:0:0:
160,254,66652,5,10,0:0:0:0:
210,119,66826,1,0,0:0:0:0:
309,222,67000,1,10,0:0:0:0:
70,159,67175,5,4,0:0:0:0:
122,142,67525,1,2,0:0:0:0:
175,128,67872,1,0,0:0:0:0:
210,119,68222,1,2,0:0:0:0:
245,108,68571,1,2,0:0:0:0:
263,103,68919,1,2,0:0:0:0:
281,97,69268,6,0,P|281:217|215:302,1,202.500007724762
363,333,69617,2,0,P|406:230|491:176,1,202.500007724762
237,283,69966,5,4,0:0:0:0:
384,144,70140,1,2,0:0:0:0:
187,99,70315,2,0,L|51:125,1,112.5,8|2,0:0|0:0,0:0:0:0:
264,186,70664,1,0,0:0:0:0:
276,154,70751,1,0,0:0:0:0:
288,122,70838,1,2,0:0:0:0:
159,29,71013,1,10,0:0:0:0:
123,184,71187,1,2,0:0:0:0:
235,48,71362,5,0,0:0:0:0:
76,120,71536,1,2,0:0:0:0:
225,219,71710,2,0,L|208:347,1,112.5,8|2,0:0|0:0,0:0:0:0:
332,306,72059,1,0,0:0:0:0:
364,314,72146,1,0,0:0:0:0:
396,321,72233,1,2,0:0:0:0:
349,162,72408,1,8,0:0:0:0:
512,204,72583,1,0,0:0:0:0:
345,15,72757,5,0,0:0:0:0:
425,214,72931,1,2,0:0:0:0:
267,154,73106,2,0,B|148:185,1,112.5,8|2,0:0|0:0,0:0:0:0:
329,227,73455,1,0,0:0:0:0:
343,196,73542,1,0,0:0:0:0:
355,164,73629,1,2,0:0:0:0:
210,70,73803,1,10,0:0:0:0:
187,245,73978,1,2,0:0:0:0:
255,169,74152,5,0,0:0:0:0:
83,220,74327,1,0,0:0:0:0:
221,324,74501,2,0,L|346:345,1,112.5,8|0,0:0|0:0,0:0:0:0:
187,245,74850,1,0,0:0:0:0:
167,272,74937,1,0,0:0:0:0:
147,299,75024,1,0,0:0:0:0:
314,232,75199,1,8,0:0:0:0:
166,139,75373,1,0,0:0:0:0:
290,358,75547,5,0,0:0:0:0:
244,226,75722,1,2,0:0:0:0:
448,324,75896,1,8,0:0:0:0:
417,94,76071,1,0,0:0:0:0:
411,109,76158,1,0,0:0:0:0:
404,124,76245,1,0,0:0:0:0:
397,139,76332,1,0,0:0:0:0:
390,154,76419,1,2,0:0:0:0:
303,244,76594,1,8,0:0:0:0:
166,213,76768,1,2,0:0:0:0:
269,341,76943,5,0,0:0:0:0:
166,213,77117,1,2,0:0:0:0:
287,291,77292,1,8,0:0:0:0:
155,351,77466,1,2,0:0:0:0:
143,349,77553,1,0,0:0:0:0:
132,346,77640,1,0,0:0:0:0:
121,342,77728,1,0,0:0:0:0:
110,339,77815,1,2,0:0:0:0:
48,224,77989,2,0,L|27:162,2,56.25,8|0|0,0:0|0:0|0:0,0:0:0:0:
199,157,78338,5,2,0:3:0:0:
204,67,78512,1,8,0:0:0:0:
105,40,78687,2,0,L|133:135,1,90,0|2,0:0|0:3,0:0:0:0:
270,184,79210,1,2,0:3:0:0:
141,276,79385,1,8,0:0:0:0:
59,244,79559,1,8,0:0:0:0:
182,148,79734,6,0,L|141:278,1,135.000005149842,0|8,0:0|0:0,0:0:0:0:
232,352,80257,1,8,0:0:0:0:
232,352,80431,6,0,L|288:344,1,45,2|0,0:3|0:0,0:0:0:0:
440,240,80605,1,2,0:3:0:0:
440,240,80780,2,0,L|336:256,1,90,2|0,0:3|0:0,0:0:0:0:
332,48,81129,5,0,0:0:0:0:
389,117,81303,1,0,1:0:0:0:
270,164,81478,1,0,0:0:0:0:
250,252,81652,1,0,1:0:0:0:
204,73,81826,1,2,3:0:0:0:
335,135,82001,1,2,3:0:0:0:
128,117,82176,1,0,1:0:0:0:
411,82,82350,1,0,1:0:0:0:
300,278,82524,5,0,3:0:0:0:
326,280,82611,1,0,3:0:0:0:
353,279,82699,1,0,3:0:0:0:
379,276,82786,1,0,3:0:0:0:
405,270,82873,1,0,3:0:0:0:
430,262,82960,1,0,3:0:0:0:
454,251,83047,1,0,3:0:0:0:
476,235,83135,1,0,3:0:0:0:
440,207,83222,5,2,1:3:0:0:
395,198,83309,1,0,1:0:0:0:
350,201,83396,1,2,1:3:0:0:
305,208,83484,1,0,1:0:0:0:
261,231,83571,1,0,1:0:0:0:
214,258,83658,1,0,1:0:0:0:
161,269,83745,1,0,1:0:0:0:
107,261,83833,1,0,1:0:0:0:
67,223,83920,6,0,B|23:192|18:143|18:143|48:132|90:146,1,157.5,4|0,3:0|0:0,0:0:0:0:
254,117,84617,2,0,B|250:65|210:36|210:36|185:57|180:88,1,157.5
256,192,85315,12,0,86536,0:0:0:0:
50,178,86710,5,4,0:0:0:0:
237,221,86885,1,2,0:0:0:0:
104,50,87059,1,8,0:0:0:0:
116,194,87233,2,0,L|176:205,1,53.9999983520508,2|0,0:0|0:0,0:0:0:0:
244,93,87408,1,0,0:0:0:0:
259,88,87495,1,0,0:0:0:0:
274,84,87582,1,2,0:0:0:0:
434,39,87757,1,8,0:0:0:0:
384,161,87931,1,2,0:0:0:0:
503,141,88106,5,0,0:0:0:0:
313,70,88280,1,2,0:0:0:0:
476,149,88455,1,8,0:0:0:0:
274,84,88629,2,0,L|280:144,1,53.9999983520508,2|0,0:0|0:0,0:0:0:0:
389,205,88803,1,2,0:0:0:0:
385,221,88891,1,0,0:0:0:0:
381,236,88978,1,2,0:0:0:0:
243,291,89152,1,8,0:0:0:0:
98,350,89326,1,2,0:0:0:0:
160,258,89501,5,0,0:0:0:0:
107,168,89675,1,2,0:0:0:0:
98,350,89850,1,8,0:0:0:0:
275,261,90024,2,0,L|257:201,1,53.9999983520508,2|0,0:0|0:0,0:0:0:0:
170,112,90199,1,0,0:0:0:0:
176,96,90286,1,0,0:0:0:0:
182,80,90373,1,2,0:0:0:0:
71,155,90547,1,8,0:0:0:0:
288,107,90722,1,2,0:0:0:0:
91,44,90896,5,2,0:0:0:0:
144,237,91071,1,0,0:0:0:0:
142,57,91245,1,8,0:0:0:0:
196,241,91419,2,0,L|222:170,1,53.9999983520508,2|0,0:0|0:0,0:0:0:0:
356,116,91594,1,2,0:0:0:0:
362,130,91681,1,0,0:0:0:0:
369,144,91768,1,2,0:0:0:0:
214,190,91943,1,8,0:0:0:0:
250,47,92117,1,2,0:0:0:0:
265,39,92204,1,0,0:0:0:0:
279,31,92291,1,0,0:0:0:0:
425,54,92466,5,2,0:0:0:0:
286,136,92640,1,8,0:0:0:0:
409,258,92815,2,0,L|474:235,1,53.9999983520508,2|0,0:0|0:0,0:0:0:0:
386,117,92989,1,0,0:0:0:0:
373,106,93076,1,0,0:0:0:0:
360,95,93164,1,2,0:0:0:0:
233,59,93338,1,8,0:0:0:0:
123,125,93512,1,2,0:0:0:0:
285,209,93687,5,0,0:0:0:0:
305,49,93862,1,2,0:0:0:0:
416,287,94036,1,8,0:0:0:0:
353,137,94210,1,2,0:0:0:0:
348,152,94297,1,0,0:0:0:0:
343,167,94385,1,2,0:0:0:0:
338,182,94472,1,0,0:0:0:0:
333,197,94559,1,2,0:0:0:0:
121,276,94733,1,8,0:0:0:0:
243,281,94908,1,2,0:0:0:0:
248,122,95082,5,0,0:0:0:0:
289,335,95257,1,2,0:0:0:0:
147,174,95431,1,8,0:0:0:0:
372,243,95605,1,2,0:0:0:0:
391,234,95693,1,0,0:0:0:0:
410,224,95780,1,0,0:0:0:0:
429,215,95867,1,0,0:0:0:0:
448,206,95954,1,2,0:0:0:0:
478,60,96129,1,8,0:0:0:0:
372,243,96303,1,2,0:0:0:0:
280,123,96478,5,0,0:0:0:0:
284,160,96565,1,0,0:0:0:0:
289,197,96652,1,2,0:0:0:0:
268,28,96827,1,8,0:0:0:0:
405,135,97001,6,0,P|416:168|413:200,1,53.9999983520508,2|0,0:0|0:0,0:0:0:0:
176,228,97176,2,0,P|168:201|169:175,2,53.9999983520508,0|0|2,0:0|0:0|0:0,0:0:0:0:
446,293,97524,1,8,0:0:0:0:
214,334,97699,1,2,0:0:0:0:
214,334,97786,1,0,0:0:0:0:
214,334,97873,6,0,L|79:350,1,107.999996704102,4|2,0:1|0:0,0:0:0:0:
297,238,98222,2,0,L|162:222,1,107.999996704102,8|2,0:0|0:0,0:0:0:0:
428,186,98571,1,2,0:0:0:0:
383,167,98658,1,0,0:0:0:0:
339,145,98745,1,2,0:0:0:0:
292,2,98919,1,8,0:0:0:0:
256,92,99094,1,2,0:0:0:0:
300,264,99268,5,0,0:0:0:0:
205,241,99443,1,2,0:0:0:0:
428,186,99617,1,8,0:0:0:0:
330,184,99792,1,2,0:0:0:0:
288,171,99879,1,0,0:0:0:0:
246,157,99966,1,0,0:0:0:0:
103,149,100141,1,2,0:0:0:0:
234,58,100315,1,10,0:0:0:0:
134,220,100490,1,0,0:0:0:0:
50,37,100664,5,0,0:0:0:0:
272,86,100838,5,0,0:0:0:0:
296,93,100896,1,0,0:0:0:0:
321,88,100955,1,0,0:0:0:0:
343,76,101013,6,0,L|326:193,1,107.999996704102,8|0,0:0|0:0,0:0:0:0:
278,300,101362,1,0,0:0:0:0:
330,286,101449,1,0,0:0:0:0:
381,271,101536,1,2,0:0:0:0:
231,134,101710,1,8,0:0:0:0:
161,329,101885,1,2,0:0:0:0:
38,135,102059,5,2,0:0:0:0:
228,169,102234,5,0,0:0:0:0:
252,162,102292,1,0,0:0:0:0:
276,155,102350,1,0,0:0:0:0:
300,148,102408,1,8,0:0:0:0:
472,147,102583,5,2,0:0:0:0:
445,142,102670,1,0,0:0:0:0:
423,125,102757,1,0,0:0:0:0:
404,105,102844,1,0,0:0:0:0:
392,80,102931,1,2,0:0:0:0:
380,51,103019,5,0,0:0:0:0:
373,99,103106,1,8,0:0:0:0:
366,147,103193,1,0,0:0:0:0:
358,194,103280,1,0,0:0:0:0:
349,241,103367,1,0,0:0:0:0:
340,289,103455,5,0,3:0:0:0:
124,236,103629,2,0,L|243:219,1,107.999996704102,2|0,0:0|0:0,0:0:0:0:
58,177,103920,2,0,P|34:241|59:297,1,107.999996704102,2|0,0:0|0:0,0:0:0:0:
164,340,104152,5,2,0:0:0:0:
195,330,104240,1,0,0:0:0:0:
226,321,104327,1,0,3:0:0:0:
256,311,104414,1,0,0:0:0:0:
286,301,104501,1,8,0:0:0:0:
422,146,104676,1,2,0:0:0:0:
352,352,104850,5,4,3:0:0:0:
310,126,105024,2,0,L|287:258,1,107.999996704102,2|0,0:0|0:0,0:0:0:0:
385,74,105315,2,0,P|340:43|272:43,1,107.999996704102,2|0,0:0|0:0,0:0:0:0:
209,143,105548,5,2,0:0:0:0:
178,133,105635,1,0,0:0:0:0:
146,125,105722,1,4,3:0:0:0:
114,116,105809,1,0,0:0:0:0:
82,107,105896,1,8,0:0:0:0:
287,39,106071,1,2,0:0:0:0:
291,349,106245,5,4,0:1:0:0:
209,143,106478,2,0,L|190:245,1,83.9999974365235,2|0,0:0|0:0,0:0:0:0:
410,175,106710,2,0,P|360:168|328:128,1,83.9999974365235,2|0,0:0|0:0,0:0:0:0:
108,82,106943,5,2,0:0:0:0:
145,83,107030,1,0,0:0:0:0:
181,73,107117,1,0,3:0:0:0:
213,52,107205,1,0,0:0:0:0:
233,20,107292,2,0,L|336:40,1,83.9999974365235,8|2,0:0|0:0,0:0:0:0:
40,196,107641,6,0,L|124:177,1,83.9999974365235,6|0,3:0|0:0,0:0:0:0:
354,319,107873,2,0,L|268:302,1,83.9999974365235,2|0,0:0|0:0,0:0:0:0:
288,31,108106,2,0,L|302:136,1,83.9999974365235,2|0,0:0|0:0,0:0:0:0:
442,181,108338,5,2,0:0:0:0:
404,188,108426,1,0,0:0:0:0:
366,183,108513,1,0,3:0:0:0:
332,166,108600,1,0,0:0:0:0:
303,141,108687,2,0,L|317:245,1,83.9999974365235,8|2,0:0|0:0,0:0:0:0:
141,25,109036,5,4,0:1:0:0:
50,239,109269,2,0,L|60:344,1,83.9999974365235,2|0,0:0|0:0,0:0:0:0:
182,130,109501,2,0,P|102:140|86:133,1,83.9999974365235,2|0,0:0|0:0,0:0:0:0:
302,202,109733,5,2,0:0:0:0:
338,194,109820,1,0,0:0:0:0:
370,174,109908,1,8,3:0:0:0:
391,143,109995,1,0,0:0:0:0:
402,106,110083,2,0,L|417:213,1,83.9999974365235,8|2,0:0|0:0,0:0:0:0:
289,17,110431,5,2,3:0:0:0:
194,220,110664,2,0,P|244:203|308:205,1,83.9999974365235,2|0,0:0|0:0,0:0:0:0:
155,87,110896,2,0,P|89:71|51:77,1,83.9999974365235,2|0,0:0|0:0,0:0:0:0:
400,59,111129,5,2,0:0:0:0:
366,75,111216,1,0,0:0:0:0:
331,89,111303,1,0,3:0:0:0:
296,105,111391,1,0,0:0:0:0:
261,119,111478,1,8,0:0:0:0:
167,224,111652,1,8,0:1:0:0:
147,177,111740,1,8,0:1:0:0:
130,129,111827,5,4,0:1:0:0:
316,142,112001,1,8,3:0:0:0:
167,224,112176,1,8,0:0:0:0:
169,49,112350,1,8,3:0:0:0:
342,213,112524,1,0,0:0:0:0:
103,271,112699,1,8,3:0:0:0:
270,49,112873,1,8,0:0:0:0:
379,296,113048,1,8,3:0:0:0:
70,200,113222,5,0,1:0:0:0:
95,164,113309,1,0,1:0:0:0:
132,141,113396,1,0,1:0:0:0:
175,130,113484,1,0,1:0:0:0:
218,133,113571,1,0,1:0:0:0:
259,150,113658,1,0,1:0:0:0:
289,182,113745,1,0,1:0:0:0:
304,223,113833,1,0,1:0:0:0:
301,266,113920,5,8,1:0:0:0:
325,207,114007,1,8,1:0:0:0:
350,149,114094,1,8,1:0:0:0:
376,92,114181,1,8,1:0:0:0:
403,34,114269,1,12,1:1:0:0:
403,34,114617,5,4,1:0:0:0:
