osu file format v14

[General]
AudioFilename: Beautiful Angel.mp3
AudioLeadIn: 0
PreviewTime: 58772
Countdown: 0
SampleSet: Soft
StackLeniency: 0.7
Mode: 0
LetterboxInBreaks: 0
EpilepsyWarning: 1
WidescreenStoryboard: 1

[Editor]
Bookmarks: 12059,34441,72146,87202,100633
DistanceSpacing: 1.2
BeatDivisor: 2
GridSize: 8
TimelineZoom: 0.9599992

[Metadata]
Title:Beautiful Angel
TitleUnicode:Beautiful Angel
Artist:DJ Swan
ArtistUnicode:DJ Swan
Creator:rs_fadeaway
Version:Normal
Source:beatmania IIDX 15 DJ TROOPERS(CS)
Tags:drum'n'bass dnb KaniNayuta Heatherfield Gordon123
BeatmapID:1191464
BeatmapSetID:556834

[Difficulty]
HPDrainRate:4
CircleSize:3.5
OverallDifficulty:5
ApproachRate:6
SliderMultiplier:1.1
SliderTickRate:1

[Events]
//Background and Video events
0,0,"BG.jpg",0,0
//Break Periods
2,59003,68219
//Storyboard Layer 0 (Background)
//Storyboard Layer 1 (Fail)
//Storyboard Layer 2 (Pass)
//Storyboard Layer 3 (Foreground)
//Storyboard Sound Samples

[TimingPoints]
2990,348.837209302326,4,2,1,50,1,0
8571,-100,4,2,1,70,0,0
12059,-100,4,2,1,80,0,0
12757,-100,4,2,1,83,0,0
13455,-100,4,2,1,80,0,0
13803,-100,4,2,1,70,0,0
14152,-100,4,1,2,30,0,0
14327,-100,4,2,1,70,0,0
25315,-100,4,1,2,30,0,0
25402,-100,4,2,1,70,0,0
26361,-100,4,2,1,70,0,0
26536,-100,4,2,1,70,0,0
26885,-100,4,2,1,70,0,0
32292,-100,4,2,1,75,0,0
33687,-100,4,2,1,80,0,0
35083,-100,4,1,1,65,0,0
36129,-100,4,2,1,50,0,0
36478,-100,4,2,1,50,0,0
37524,-100,4,2,3,50,0,0
38047,-100,4,2,1,50,0,0
39268,-100,4,2,1,50,0,0
40315,-100,4,2,4,50,0,0
40838,-100,4,2,1,50,0,0
42059,-100,4,2,1,50,0,0
43105,-100,4,2,3,50,0,0
43629,-100,4,2,1,50,0,0
44850,-100,4,2,0,50,0,0
46943,-100,4,2,0,50,0,0
47640,-100,4,2,1,50,0,0
48512,-100,4,2,1,50,0,0
48686,-100,4,2,3,50,0,0
49210,-100,4,2,1,70,0,0
50431,-100,4,2,1,70,0,0
51303,-100,4,2,1,70,0,0
51478,-100,4,2,4,70,0,0
52001,-100,4,2,1,70,0,0
53222,-100,4,2,1,70,0,0
54094,-100,4,2,1,70,0,0
54269,-100,4,2,3,70,0,0
54792,-100,4,2,1,70,0,0
56012,-100,4,2,0,70,0,0
57059,-100,4,2,0,70,0,0
58105,-100,4,2,0,70,0,0
58803,-100,4,2,4,50,0,0
69268,-100,4,2,1,70,0,0
69966,-100,4,1,2,30,0,0
70053,-100,4,2,1,70,0,0
70838,-100,4,2,1,70,0,0
72408,-100,4,2,1,70,0,0
72757,-100,4,2,1,70,0,0
74152,-100,4,2,1,70,0,0
76071,-100,4,2,1,70,0,0
76332,-100,4,2,1,70,0,0
78338,-100,4,2,2,60,0,0
78687,-100,4,2,2,60,0,0
79733,-100,4,2,2,60,0,0
80431,-100,4,2,2,60,0,0
80780,-100,4,2,0,60,0,0
83222,-100,4,2,0,50,0,0
83920,-100,4,2,0,30,0,0
84617,-100,4,2,0,70,0,0
85315,-100,4,2,0,70,0,0
86710,-100,4,1,2,50,0,1
86798,-100,4,2,1,90,0,1
106245,-100,4,2,1,90,0,1
113222,-100,4,1,1,90,0,1
114617,-100,4,1,2,30,0,0

[Colours]
Combo1 : 172,118,205
Combo2 : 38,217,97
Combo3 : 43,216,230
Combo4 : 105,160,156

[HitObjects]
86,219,2990,6,0,P|95:274|129:320,1,110,6|0,0:1|0:0,0:0:0:0:
190,333,3513,1,2,0:0:0:0:
244,296,3687,2,0,P|286:271|347:262,1,110,2|0,0:0|0:0,0:0:0:0:
470,304,4385,2,0,L|449:195,1,110,2|0,0:0|0:0,0:0:0:0:
434,131,4908,1,2,0:0:0:0:
419,66,5083,2,0,B|365:86|365:86|305:70,1,110,2|0,0:0|0:0,0:0:0:0:
186,38,5780,6,0,P|125:114|125:194,1,165,2|2,0:0|0:0,0:0:0:0:
160,231,6478,2,0,L|281:250,1,110,2|2,0:0|0:0,0:0:0:0:
383,313,7176,2,0,L|439:253,1,55,2|0,0:0|0:0,0:0:0:0:
369,231,7524,2,0,L|408:158,1,55,2|0,0:0|0:0,0:0:0:0:
334,153,7873,2,0,L|353:73,1,55,2|0,0:0|0:0,0:0:0:0:
281,91,8222,2,0,L|278:8,1,55,2|0,0:0|0:0,0:0:0:0:
213,43,8571,6,0,P|174:69|106:65,1,110,6|2,0:0|0:0,0:0:0:0:
71,193,9269,2,0,L|55:256,2,55,2|0|2,0:0|0:0|0:0,0:0:0:0:
188,253,9966,2,0,L|188:317,2,55,2|0|2,0:0|0:0|0:0,0:0:0:0:
317,280,10664,2,0,L|334:342,2,55,2|0|2,0:0|0:0|0:0,0:0:0:0:
441,233,11362,5,2,2:0:0:0:
378,117,11710,1,2,2:0:0:0:
260,176,12059,1,2,0:0:0:0:
192,62,12408,1,2,0:0:0:0:
73,120,12757,2,0,L|53:192,1,55,0|0,0:0|0:0,0:0:0:0:
124,180,13106,2,0,L|124:256,1,55,0|0,0:0|0:0,0:0:0:0:
188,218,13455,2,0,L|207:275,2,55,8|8|8,1:0|1:0|1:0,0:0:0:0:
268,322,14152,6,0,P|324:316|384:332,1,110,4|8,0:0|0:0,0:0:0:0:
440,345,14676,2,0,P|482:273|463:188,1,165,2|8,0:0|0:0,0:0:0:0:
429,69,15548,2,0,P|360:70|314:105,1,110,0|8,0:0|0:0,0:0:0:0:
284,141,16071,1,2,0:0:0:0:
222,117,16245,2,0,P|153:117|107:152,1,110,0|8,0:0|0:0,0:0:0:0:
18,224,16943,6,0,P|17:272|44:332,1,110,0|8,0:0|0:0,0:0:0:0:
108,315,17466,2,0,P|192:310|283:342,1,165,2|8,0:0|0:0,0:0:0:0:
398,354,18338,2,0,P|405:285|376:235,1,110,0|8,0:0|0:0,0:0:0:0:
343,200,18861,1,2,0:0:0:0:
278,185,19036,2,0,P|210:201|174:245,1,110,0|8,0:0|0:0,0:0:0:0:
88,322,19734,6,0,L|57:181,1,110,0|8,0:0|0:0,0:0:0:0:
41,152,20257,2,0,P|119:142|188:86,1,165,2|8,0:0|0:0,0:0:0:0:
304,32,21129,2,0,P|315:111|353:154,1,110,0|8,0:0|0:0,0:0:0:0:
390,164,21652,1,2,0:0:0:0:
448,194,21827,2,0,L|412:310,1,110,0|8,0:0|0:0,0:0:0:0:
290,342,22524,6,0,L|161:313,1,110,0|8,0:0|0:0,0:0:0:0:
125,351,23048,2,0,L|49:184,1,165,2|8,0:0|0:0,0:0:0:0:
42,69,23920,2,0,P|94:109|139:113,1,110,0|8,0:0|0:0,0:0:0:0:
202,104,24443,1,2,0:0:0:0:
266,91,24617,2,0,L|298:28,2,55,2|0|8,0:0|0:0|0:0,0:0:0:0:
390,46,25315,6,0,P|381:97|407:192,1,110,4|8,0:0|0:0,0:0:0:0:
418,213,25838,2,0,P|366:255|291:266,1,110,2|10,0:0|0:0,0:0:0:0:
258,271,26362,1,8,0:0:0:0:
258,205,26536,2,0,P|205:38|37:128,1,385,4|8,0:0|0:0,0:0:0:0:
51,228,28106,6,0,L|39:345,1,110,0|8,0:0|0:0,0:0:0:0:
105,334,28629,2,0,P|179:308|285:325,1,165,2|8,0:0|0:0,0:0:0:0:
253,184,29501,2,0,L|210:238,2,55,0|2|8,0:0|0:0|0:0,0:0:0:0:
220,55,30199,1,0,0:0:0:0:
352,85,30548,1,8,0:0:0:0:
352,85,30722,1,8,0:0:0:0:
352,85,30896,6,0,P|342:146|361:199,1,110,4|8,1:0|0:0,0:0:0:0:
376,254,31420,2,0,P|316:246|220:305,1,165,4|8,0:0|0:0,0:0:0:0:
105,243,32292,2,0,P|105:181|78:131,1,110,4|8,1:0|0:0,0:0:0:0:
55,79,32816,2,0,P|115:77|201:4,1,165,4|12,0:0|0:0,0:0:0:0:
322,51,33687,6,0,P|289:174|274:153,1,330,4|0,1:0|0:0,0:0:0:0:
149,137,35083,2,0,L|116:191,1,55,0|0,0:0|0:0,0:0:0:0:
179,212,35431,2,0,L|161:272,1,55,0|0,0:0|0:0,0:0:0:0:
229,267,35780,2,0,L|243:328,2,55,8|8|2,1:0|1:0|1:0,0:0:0:0:
358,293,36478,6,0,P|412:224|420:139,1,165,4|8,0:0|0:0,0:0:0:0:
321,63,37350,1,0,0:0:0:0:
255,67,37524,2,0,L|200:75,1,55,4|0,0:0|0:0,0:0:0:0:
68,73,38048,1,0,0:0:0:0:
68,73,38222,2,0,L|86:131,1,55,8|0,0:0|0:0,0:0:0:0:
149,135,38571,2,0,L|167:193,1,55,0|0,0:0|0:0,0:0:0:0:
229,202,38920,2,0,L|247:260,1,55,8|0,0:0|0:0,0:0:0:0:
225,317,39269,6,0,B|301:270|388:315,1,165,2|8,2:0|0:0,0:0:0:0:
493,241,40141,1,0,0:0:0:0:
475,177,40315,2,0,L|460:116,1,55,4|0,0:0|0:0,0:0:0:0:
350,52,40838,1,0,0:0:0:0:
350,52,41013,2,0,L|333:104,1,55,8|0,0:0|0:0,0:0:0:0:
270,119,41362,2,0,L|253:171,1,55,0|0,0:0|0:0,0:0:0:0:
189,181,41711,2,0,L|172:233,1,55,8|0,0:0|0:0,0:0:0:0:
115,267,42059,6,0,L|83:90,1,165,4|8,0:0|0:0,0:0:0:0:
208,55,42931,1,0,0:0:0:0:
274,55,43106,2,0,L|342:56,1,55,4|0,0:0|0:0,0:0:0:0:
414,156,43629,1,0,0:0:0:0:
414,156,43803,2,0,L|399:224,1,55,8|0,0:0|0:0,0:0:0:0:
336,206,44152,2,0,L|321:287,1,55,0|0,0:0|0:0,0:0:0:0:
260,251,44501,2,0,L|244:331,1,55,8|0,0:0|0:0,0:0:0:0:
187,327,44850,6,0,P|106:331|40:268,1,165,2|0,0:0|0:0,0:0:0:0:
109,91,45896,2,0,P|190:87|256:150,1,165,8|8,0:0|0:0,0:0:0:0:
263,336,46943,1,8,0:0:0:0:
293,207,47292,1,10,0:0:0:0:
323,80,47641,6,0,L|486:34,1,165,2|8,0:0|0:0,0:0:0:0:
404,142,48513,1,0,0:0:0:0:
340,159,48687,2,0,L|270:176,1,55,4|0,0:0|0:0,0:0:0:0:
210,63,49210,1,0,0:0:0:0:
210,63,49385,2,0,L|210:127,1,55,8|0,0:0|0:0,0:0:0:0:
144,129,49734,2,0,L|138:192,1,55,0|0,0:0|0:0,0:0:0:0:
73,187,50083,2,0,L|61:250,1,55,8|0,0:0|0:0,0:0:0:0:
58,306,50431,6,0,P|150:275|249:302,1,165,2|8,0:0|0:0,0:0:0:0:
335,340,51303,1,0,0:0:0:0:
313,277,51478,2,0,L|295:212,1,55,4|0,0:0|0:0,0:0:0:0:
405,147,52001,1,0,0:0:0:0:
405,147,52176,2,0,L|345:149,1,55,8|0,0:0|0:0,0:0:0:0:
300,105,52524,2,0,L|240:101,1,55,0|0,0:0|0:0,0:0:0:0:
204,49,52873,2,0,L|144:40,1,55,8|0,0:0|0:0,0:0:0:0:
86,60,53222,6,0,B|145:143|75:222,1,165,2|8,0:0|0:0,0:0:0:0:
6,319,54094,1,0,0:0:0:0:
70,304,54269,2,0,L|149:288,1,55,4|0,0:0|0:0,0:0:0:0:
250,329,54792,1,0,0:0:0:0:
250,329,54966,2,0,L|237:262,1,55,8|0,0:0|0:0,0:0:0:0:
268,215,55315,2,0,L|260:147,1,55,0|0,0:0|0:0,0:0:0:0:
290,100,55664,2,0,L|288:31,1,55,8|0,0:0|0:0,0:0:0:0:
353,31,56013,6,0,P|394:104|458:165,1,165,2|0,0:0|0:0,0:0:0:0:
294,281,57059,2,0,P|252:207|188:146,1,165,8|8,0:0|0:0,0:0:0:0:
122,335,58106,2,0,P|186:341|247:322,2,110,8|8|4,0:0|0:0|0:0,0:0:0:0:
273,145,69269,6,0,L|150:123,1,110,0|0,0:0|0:0,0:0:0:0:
40,169,69966,6,0,L|100:181,1,55,4|2,0:0|0:0,0:0:0:0:
143,224,70315,2,0,L|203:236,1,55,8|2,0:0|0:0,0:0:0:0:
314,295,70838,2,0,L|323:370,2,55,2|10|2,0:0|0:0|0:0,0:0:0:0:
363,250,71362,2,0,L|370:191,1,55,0|2,0:0|0:0,0:0:0:0:
434,188,71710,2,0,L|457:109,1,55,8|2,0:0|0:0,0:0:0:0:
457,69,72059,2,0,P|380:110|297:92,1,165,0|0,0:0|0:0,0:0:0:0:
252,59,72757,6,0,L|175:71,1,55,0|2,0:0|0:0,0:0:0:0:
172,128,73106,2,0,L|95:140,1,55,8|2,0:0|0:0,0:0:0:0:
46,247,73629,2,0,L|19:309,2,55,2|10|2,0:0|0:0|0:0,0:0:0:0:
108,267,74152,2,0,P|190:261|273:292,1,165,0|0,0:0|0:0,0:0:0:0:
318,330,74850,2,0,P|320:235|349:163,1,165,0|0,0:0|0:0,0:0:0:0:
380,114,75548,6,0,L|325:105,1,55,0|2,0:0|0:0,0:0:0:0:
291,48,75896,2,0,L|236:56,1,55,8|0,0:0|0:0,0:0:0:0:
112,103,76420,2,0,L|55:74,2,55,2|8|2,0:0|0:0|0:0,0:0:0:0:
165,142,76943,2,0,P|219:201|228:309,1,165,0|2,0:0|0:0,0:0:0:0:
297,299,77641,2,0,P|349:236|426:211,1,165,0|0,0:0|0:0,0:0:0:0:
492,209,78338,6,0,P|497:148|465:99,1,110,2|0,0:3|0:0,0:0:0:0:
362,35,79036,2,0,P|301:30|252:62,1,110,2|0,0:3|0:0,0:0:0:0:
188,165,79734,2,0,P|183:226|215:274,1,110,0|0,0:0|0:0,0:0:0:0:
319,334,80431,2,0,P|380:339|428:307,1,110,2|0,0:3|0:0,0:0:0:0:
470,192,81129,6,0,P|466:132|442:68,1,110,0|0,0:0|0:0,0:0:0:0:
337,15,81827,2,0,P|277:18|213:42,1,110,2|0,3:0|0:0,0:0:0:0:
163,148,82524,2,0,P|166:207|190:271,1,110,0|0,3:0|0:0,0:0:0:0:
293,326,83222,2,0,P|351:337|419:331,1,110,2|0,1:3|0:0,0:0:0:0:
256,192,83920,12,0,86013,0:0:0:0:
366,51,86710,6,0,L|386:122,1,55,4|2,0:0|0:0,0:0:0:0:
359,166,87059,2,0,L|379:237,1,55,8|2,0:0|0:0,0:0:0:0:
430,338,87583,2,0,L|504:348,2,55,2|8|0,0:0|0:0|0:0,0:0:0:0:
372,305,88106,2,0,L|303:316,1,55,0|2,0:0|0:0,0:0:0:0:
281,257,88455,2,0,L|212:246,1,55,8|2,0:0|0:0,0:0:0:0:
98,215,88978,2,0,L|66:274,2,55,2|8|2,0:0|0:0|0:0,0:0:0:0:
133,154,89501,6,0,L|208:163,1,55,0|2,0:0|0:0,0:0:0:0:
247,188,89850,2,0,L|318:197,1,55,8|2,0:0|0:0,0:0:0:0:
391,98,90373,2,0,L|403:30,2,55,2|8|2,0:0|0:0|0:0,0:0:0:0:
442,139,90896,2,0,L|430:210,1,55,2|0,0:0|0:0,0:0:0:0:
473,245,91245,2,0,L|461:316,1,55,8|2,0:0|0:0,0:0:0:0:
332,313,91769,2,0,L|358:368,2,55,2|8|2,0:0|0:0|0:0,0:0:0:0:
295,257,92292,6,0,L|234:270,1,55,0|2,0:0|0:0,0:0:0:0:
199,319,92641,2,0,L|125:339,1,55,8|2,0:0|0:0,0:0:0:0:
73,223,93164,2,0,L|32:176,2,55,2|8|2,0:0|0:0|0:0,0:0:0:0:
121,177,93687,2,0,L|193:161,1,55,0|2,0:0|0:0,0:0:0:0:
239,151,94036,2,0,L|312:137,1,55,8|2,0:0|0:0,0:0:0:0:
386,46,94559,2,0,L|429:97,2,55,2|8|2,0:0|0:0|0:0,0:0:0:0:
320,36,95083,6,0,L|198:59,1,110,0|8,0:0|0:0,0:0:0:0:
150,32,95606,2,0,L|87:133,1,110,2|2,0:0|0:0,0:0:0:0:
89,191,96129,2,0,L|124:257,1,55,8|2,0:0|0:0,0:0:0:0:
147,297,96478,1,0,0:0:0:0:
147,297,96652,1,10,0:0:0:0:
279,298,97001,1,2,0:0:0:0:
279,298,97176,2,0,L|348:273,1,55,0|2,0:0|0:0,0:0:0:0:
379,234,97524,2,0,L|396:179,1,55,8|2,0:0|0:0,0:0:0:0:
421,120,97873,6,0,P|372:134|341:126,1,55,0|2,0:0|0:0,0:0:0:0:
304,120,98222,1,8,0:0:0:0:
250,81,98396,2,0,P|182:59|90:92,1,165,2|8,0:0|0:0,0:0:0:0:
122,216,99269,2,0,P|121:267|167:325,1,110,0|8,0:0|0:0,0:0:0:0:
280,284,99966,2,0,P|331:285|389:239,1,110,0|10,0:0|0:0,0:0:0:0:
464,152,100664,6,0,L|453:77,1,55,0|0,0:0|0:0,0:0:0:0:
389,101,101013,2,0,L|367:36,1,55,8|2,0:0|0:0,0:0:0:0:
242,78,101536,1,2,0:0:0:0:
178,93,101710,2,0,L|144:167,1,55,8|2,0:0|0:0,0:0:0:0:
107,188,102059,2,0,B|256:304|256:88|424:208,1,330,2|8,0:0|0:0,0:0:0:0:
360,320,103455,5,0,0:0:0:0:
360,320,103629,2,0,P|320:348|271:360,1,55,2|8,0:0|0:0,0:0:0:0:
184,328,104152,2,0,P|207:342|232:352,2,55,2|0|8,0:0|0:0|0:0,0:0:0:0:
285,242,104850,1,0,0:0:0:0:
284,242,105024,2,0,P|305:223|321:201,1,55,2|8,0:0|0:0,0:0:0:0:
323,69,105547,2,0,P|332:94|338:120,2,55,2|0|8,0:0|0:0|0:0,0:0:0:0:
102,78,106478,6,0,L|81:167,1,73.3333333333333,2|0,0:0|0:0,0:0:0:0:
165,186,106943,2,0,L|185:94,2,73.3333333333333,2|0|2,0:0|0:0|0:0,0:0:0:0:
103,249,107641,2,0,L|16:265,2,73.3333333333333,4|2|0,3:0|0:0|0:0,0:0:0:0:
159,316,108338,2,0,L|79:331,2,73.3333333333333,2|0|2,0:0|0:0|0:0,0:0:0:0:
335,319,109269,6,0,L|407:332,1,73.3333333333333,2|0,0:0|0:0,0:0:0:0:
380,248,109734,2,0,L|452:261,2,73.3333333333333,2|0|2,0:0|0:0|0:0,0:0:0:0:
326,178,110431,2,0,L|331:96,2,73.3333333333333,2|2|0,3:0|0:0|0:0,0:0:0:0:
250,131,111129,2,0,L|255:49,2,73.3333333333333,2|0|2,0:0|0:0|0:0,0:0:0:0:
103,227,112059,6,0,L|195:220,1,73.3333333333333,2|0,0:0|0:0,0:0:0:0:
244,277,112524,2,0,L|252:349,2,73.3333333333333,2|0|2,0:0|0:0|0:0,0:0:0:0:
300,209,113222,2,0,L|375:202,2,73.3333333333333,0|0|0,1:0|0:0|0:0,0:0:0:0:
232,152,113920,2,0,L|222:61,2,73.3333333333333,8|0|0,1:0|0:0|0:0,0:0:0:0:
176,221,114617,1,4,1:0:0:0:
