osu file format v14

[General]
AudioFilename: Beautiful Angel.mp3
AudioLeadIn: 0
PreviewTime: 58772
Countdown: 0
SampleSet: Soft
StackLeniency: 0.7
Mode: 0
LetterboxInBreaks: 0
EpilepsyWarning: 1
WidescreenStoryboard: 1

[Editor]
Bookmarks: 12059,34441,87202,100633
DistanceSpacing: 1.2
BeatDivisor: 4
GridSize: 8
TimelineZoom: 0.9599992

[Metadata]
Title:Beautiful Angel
TitleUnicode:Beautiful Angel
Artist:DJ Swan
ArtistUnicode:DJ Swan
Creator:rs_fadeaway
Version:Easy
Source:beatmania IIDX 15 DJ TROOPERS(CS)
Tags:drum'n'bass dnb KaniNayuta Heatherfield Gordon123
BeatmapID:1178355
BeatmapSetID:556834

[Difficulty]
HPDrainRate:3
CircleSize:3
OverallDifficulty:3
ApproachRate:4
SliderMultiplier:0.799999999999999
SliderTickRate:1

[Events]
//Background and Video events
0,0,"BG.jpg",0,0
//Break Periods
2,59003,67949
//Storyboard Layer 0 (Background)
//Storyboard Layer 1 (Fail)
//Storyboard Layer 2 (Pass)
//Storyboard Layer 3 (Foreground)
//Storyboard Sound Samples

[TimingPoints]
2990,348.837209302326,4,2,1,50,1,0
8571,-100,4,2,1,70,0,0
12059,-100,4,2,1,80,0,0
12757,-100,4,2,1,83,0,0
13455,-100,4,2,1,80,0,0
13803,-100,4,2,1,70,0,0
14152,-100,4,1,2,30,0,0
14327,-100,4,2,1,70,0,0
25315,-100,4,1,2,30,0,0
25402,-100,4,2,1,70,0,0
26361,-100,4,2,1,70,0,0
26536,-100,4,2,1,70,0,0
26885,-100,4,2,1,70,0,0
32292,-100,4,2,1,75,0,0
33687,-100,4,2,1,80,0,0
35083,-100,4,1,1,65,0,0
36129,-100,4,2,1,50,0,0
36478,-100,4,2,1,50,0,0
37524,-100,4,2,3,50,0,0
38047,-100,4,2,1,50,0,0
39268,-100,4,2,1,50,0,0
40315,-100,4,2,4,50,0,0
40838,-100,4,2,1,50,0,0
42059,-100,4,2,1,50,0,0
43105,-100,4,2,3,50,0,0
43629,-100,4,2,1,50,0,0
44850,-100,4,2,0,50,0,0
46943,-100,4,2,0,50,0,0
47640,-100,4,2,1,50,0,0
48512,-100,4,2,1,50,0,0
48686,-100,4,2,3,50,0,0
49210,-100,4,2,1,70,0,0
50431,-100,4,2,1,70,0,0
51303,-100,4,2,1,70,0,0
51478,-100,4,2,4,70,0,0
52001,-100,4,2,1,70,0,0
53222,-100,4,2,1,70,0,0
54094,-100,4,2,1,70,0,0
54269,-100,4,2,3,70,0,0
54792,-100,4,2,1,70,0,0
56012,-100,4,2,0,70,0,0
57059,-100,4,2,0,70,0,0
58105,-100,4,2,0,70,0,0
58803,-100,4,2,4,50,0,0
69268,-100,4,2,1,70,0,0
69966,-100,4,1,2,30,0,0
70053,-100,4,2,1,70,0,0
70838,-100,4,2,1,70,0,0
72408,-100,4,2,1,70,0,0
72757,-100,4,2,1,70,0,0
74152,-100,4,2,1,70,0,0
76071,-100,4,2,1,70,0,0
76332,-100,4,2,1,70,0,0
78338,-100,4,2,2,60,0,0
78687,-100,4,2,2,60,0,0
79733,-100,4,2,2,60,0,0
80431,-100,4,2,2,60,0,0
80780,-100,4,2,0,60,0,0
83222,-100,4,2,0,50,0,0
83920,-100,4,2,0,30,0,0
84617,-100,4,2,0,70,0,0
85315,-100,4,2,0,70,0,0
86710,-100,4,1,2,50,0,1
86798,-100,4,2,1,90,0,1
106245,-100,4,2,1,90,0,1
113222,-100,4,1,1,90,0,1
114269,-100,4,2,0,60,0,1
114617,-100,4,1,2,30,0,0

[Colours]
Combo1 : 172,118,205
Combo2 : 38,217,97
Combo3 : 43,216,230
Combo4 : 105,160,156

[HitObjects]
158,258,2990,6,0,P|80:255|15:211,1,160,6|2,0:1|0:0,0:0:0:0:
48,120,4036,1,0,0:0:0:0:
122,57,4385,2,0,P|188:98|222:169,1,160,2|2,0:0|0:0,0:0:0:0:
253,261,5431,1,0,0:0:0:0:
325,325,5780,5,2,0:0:0:0:
380,247,6129,2,0,L|392:165,2,79.9999999999999,0|2|2,0:0|0:0|0:0,0:0:0:0:
402,339,7176,2,0,P|359:340|320:320,1,79.9999999999999,2|2,0:0|0:0,0:0:0:0:
258,256,7873,2,0,P|235:219|232:176,1,79.9999999999999,2|2,0:0|0:0,0:0:0:0:
227,86,8571,5,6,0:0:0:0:
312,41,8920,2,0,L|391:51,2,79.9999999999999,2|2|2,0:0|0:0|0:0,0:0:0:0:
227,86,9966,1,2,0:0:0:0:
138,122,10315,2,0,L|58:111,2,79.9999999999999,2|2|2,0:0|0:0|0:0,0:0:0:0:
193,200,11362,6,0,L|208:278,1,79.9999999999999,2|2,2:0|2:0,0:0:0:0:
304,278,12059,2,0,L|319:199,1,79.9999999999999,2|2,0:0|0:0,0:0:0:0:
366,115,12757,2,0,B|316:104|316:104|255:128|255:128|193:102|193:102|137:118,1,240,0|8,0:0|1:0,0:0:0:0:
73,187,14152,6,0,P|43:135|52:77,2,120,4|2|8,0:0|0:0|0:0,0:0:0:0:
160,226,15548,1,0,0:0:0:0:
246,268,15896,2,0,L|351:260,2,79.9999999999999,8|0|8,0:0|0:0|0:0,0:0:0:0:
160,226,16943,6,0,P|151:284|180:335,2,120,0|2|8,0:0|0:0|0:0,0:0:0:0:
222,152,18338,1,0,0:0:0:0:
303,100,18687,2,0,L|330:14,2,79.9999999999999,8|0|8,0:0|0:0|0:0,0:0:0:0:
321,194,19734,6,0,P|371:220|445:214,2,120,0|2|8,0:0|0:0|0:0,0:0:0:0:
241,140,21129,1,0,0:0:0:0:
156,93,21478,2,0,L|136:6,2,79.9999999999999,8|0|8,0:0|0:0|0:0,0:0:0:0:
88,161,22524,6,0,P|67:215|90:284,2,120,0|2|8,0:0|0:0|0:0,0:0:0:0:
160,224,23920,2,0,P|207:239|246:235,1,79.9999999999999,0|8,0:0|0:0,0:0:0:0:
277,324,24617,2,0,P|314:312|345:288,1,79.9999999999999,2|8,0:0|0:0,0:0:0:0:
416,221,25315,6,0,L|443:346,2,120,4|2|8,0:0|0:0|0:0,0:0:0:0:
472,143,26710,2,0,B|408:106|355:148|355:148|342:80|261:80,1,240,0|8,0:0|0:0,0:0:0:0:
188,123,28106,6,0,P|188:45|215:2,2,120,0|2|8,0:0|0:0|0:0,0:0:0:0:
252,192,29501,2,0,P|213:215|172:223,1,79.9999999999999,0|8,0:0|0:0,0:0:0:0:
94,267,30199,2,0,P|67:303|56:344,1,79.9999999999999,0|8,0:0|0:0,0:0:0:0:
152,339,30896,6,0,L|280:360,2,120,4|4|8,1:0|0:0|0:0,0:0:0:0:
144,242,32292,2,0,L|25:222,2,120,4|4|12,1:0|0:0|0:0,0:0:0:0:
241,252,33687,6,0,P|286:248|319:215,1,79.9999999999999,4|0,1:0|0:0,0:0:0:0:
405,203,34385,2,0,P|400:158|367:125,1,79.9999999999999,0|0,0:0|0:0,0:0:0:0:
365,36,35083,2,0,P|319:39|286:72,1,79.9999999999999,0|0,0:0|0:0,0:0:0:0:
199,78,35781,2,0,P|203:122|236:155,1,79.9999999999999,8|2,1:0|1:0,0:0:0:0:
305,201,36478,6,0,P|331:250|323:320,2,120,4|8|4,0:0|0:0|0:0,0:0:0:0:
215,167,37873,2,0,L|110:189,1,79.9999999999999,0|8,0:0|0:0,0:0:0:0:
43,207,38571,1,0,0:0:0:0:
106,279,38920,1,8,0:0:0:0:
199,255,39269,6,0,P|196:313|156:362,2,120,2|8|4,2:0|0:0|0:0,0:0:0:0:
175,161,40664,2,0,L|196:59,1,79.9999999999999,0|8,0:0|0:0,0:0:0:0:
278,41,41362,1,0,0:0:0:0:
367,75,41710,1,8,0:0:0:0:
337,166,42059,6,0,P|398:167|454:114,2,120,4|8|4,0:0|0:0|0:0,0:0:0:0:
242,147,43455,2,0,L|146:167,1,79.9999999999999,0|8,0:0|0:0,0:0:0:0:
143,257,44152,2,0,L|196:316,1,79.9999999999999,0|8,0:0|0:0,0:0:0:0:
296,320,44850,6,0,P|333:273|342:215,1,120,2|0,0:0|0:0,0:0:0:0:
396,81,45896,2,0,P|337:71|281:90,1,120,8|8,0:0|0:0,0:0:0:0:
191,202,46943,2,0,L|104:221,1,79.9999999999999,8|10,0:0|0:0,0:0:0:0:
43,151,47641,6,0,P|22:191|39:278,2,120,2|8|4,0:0|0:0|0:0,0:0:0:0:
113,85,49036,2,0,L|215:68,1,79.9999999999999,0|8,0:0|0:0,0:0:0:0:
261,138,49734,2,0,L|363:155,1,79.9999999999999,0|8,0:0|0:0,0:0:0:0:
422,200,50432,6,0,P|433:141|409:87,2,120,2|8|4,0:0|0:0|0:0,0:0:0:0:
346,259,51827,2,0,L|328:360,1,79.9999999999999,0|8,0:0|0:0,0:0:0:0:
236,340,52524,2,0,L|218:238,1,79.9999999999999,0|8,0:0|0:0,0:0:0:0:
197,168,53222,6,0,P|154:184|110:262,2,120,2|8|4,0:0|0:0|0:0,0:0:0:0:
292,158,54617,2,0,P|336:144|365:122,1,79.9999999999999,0|8,0:0|0:0,0:0:0:0:
291,59,55315,2,0,P|247:73|218:94,1,79.9999999999999,0|8,0:0|0:0,0:0:0:0:
292,158,56013,6,0,P|303:226|285:286,1,120,2|0,0:0|0:0,0:0:0:0:
159,215,57059,2,0,P|94:190|51:144,1,120,2|0,0:0|0:0,0:0:0:0:
178,75,58106,2,0,P|200:36|246:12,2,79.9999999999999,8|8|4,0:0|0:0|0:0,0:0:0:0:
305,325,69269,6,0,L|213:309,1,79.9999999999999,0|0,0:0|0:0,0:0:0:0:
131,296,69966,5,4,0:0:0:0:
185,216,70315,2,0,L|199:120,1,79.9999999999999,8|0,0:0|0:0,0:0:0:0:
102,114,71013,1,10,0:0:0:0:
151,31,71362,2,0,P|69:27|13:79,1,160,0|0,0:0|0:0,0:0:0:0:
38,272,72757,5,0,0:0:0:0:
131,296,73106,2,0,L|217:278,1,79.9999999999999,8|0,0:0|0:0,0:0:0:0:
299,314,73804,1,10,0:0:0:0:
377,368,74152,2,0,P|394:298|341:228,1,160,0|0,0:0|0:0,0:0:0:0:
194,111,75548,5,0,0:0:0:0:
101,135,75896,2,0,L|88:241,1,79.9999999999999,8|0,0:0|0:0,0:0:0:0:
175,261,76594,1,8,0:0:0:0:
91,308,76943,2,0,P|155:354|237:337,1,160,0|0,0:0|0:0,0:0:0:0:
422,336,78338,6,0,P|429:257|374:195,1,160,2|2,0:3|0:3,0:0:0:0:
269,41,79734,2,0,P|197:73|170:152,1,160,0|2,0:0|0:3,0:0:0:0:
319,266,81129,6,0,B|346:287|346:287|391:294|391:294|408:252|408:252|400:213,1,160,0|2,0:0|3:0,0:0:0:0:
240,113,82524,2,0,B|244:77|244:77|228:35|228:35|183:42|183:42|153:68,1,160,0|2,3:0|1:3,0:0:0:0:
187,254,83920,6,0,B|154:267|154:267|126:303|126:303|154:338|154:338|192:350,1,160,0|0,0:0|0:0,0:0:0:0:
334,226,85315,2,0,B|361:247|361:247|406:254|406:254|423:212|423:212|415:173,1,160,0|0,0:0|0:0,0:0:0:0:
235,111,86710,5,4,0:0:0:0:
170,182,87059,2,0,L|158:275,2,79.9999999999999,8|0|8,0:0|0:0|0:0,0:0:0:0:
126,95,88106,2,0,P|163:101|210:89,1,79.9999999999999,0|8,0:0|0:0,0:0:0:0:
272,24,88803,2,0,P|291:61|292:108,1,79.9999999999999,0|8,0:0|0:0,0:0:0:0:
322,191,89501,5,0,0:0:0:0:
403,140,89850,2,0,L|430:52,2,79.9999999999999,8|0|8,0:0|0:0|0:0,0:0:0:0:
414,235,90896,2,0,P|430:284|419:323,1,79.9999999999999,2|8,0:0|0:0,0:0:0:0:
335,346,91594,2,0,P|296:311|286:272,1,79.9999999999999,0|8,0:0|0:0,0:0:0:0:
325,197,92292,5,0,0:0:0:0:
278,112,92641,2,0,P|283:78|274:31,2,79.9999999999999,8|0|8,0:0|0:0|0:0,0:0:0:0:
211,181,93687,2,0,P|149:209|110:204,1,79.9999999999999,0|8,0:0|0:0,0:0:0:0:
56,159,94385,2,0,P|62:91|86:60,1,79.9999999999999,0|8,0:0|0:0,0:0:0:0:
152,36,95083,6,0,P|207:75|222:111,1,79.9999999999999,0|8,0:0|0:0,0:0:0:0:
211,181,95780,2,0,P|217:248|241:279,1,79.9999999999999,0|8,0:0|0:0,0:0:0:0:
269,342,96478,2,0,B|313:335|313:335|348:309,1,79.9999999999999,0|8,0:0|0:0,0:0:0:0:
410,247,97176,2,0,B|413:211|413:211|397:170,1,79.9999999999999,0|8,0:0|0:0,0:0:0:0:
311,126,97873,6,0,P|352:86|430:82,2,120,0|2|8,0:0|0:0|0:0,0:0:0:0:
290,220,99269,2,0,L|196:237,1,79.9999999999999,0|8,0:0|0:0,0:0:0:0:
197,139,99966,2,0,L|105:126,1,79.9999999999999,0|10,0:0|0:0,0:0:0:0:
74,41,100664,6,0,P|26:95|97:225,1,240,0|8,0:0|0:0,0:0:0:0:
196,249,102059,2,0,L|279:260,1,79.9999999999999,2|8,0:0|0:0,0:0:0:0:
317,355,102757,2,0,L|397:346,1,79.9999999999999,0|8,0:0|0:0,0:0:0:0:
446,263,103455,6,0,P|395:199|407:103,1,160,0|2,0:0|0:0,0:0:0:0:
431,34,104501,1,8,0:0:0:0:
335,38,104850,2,0,P|257:65|186:131,1,160,4|2,3:0|0:0,0:0:0:0:
113,69,105896,1,8,0:0:0:0:
61,150,106245,2,0,L|85:326,1,160,4|2,0:1|0:0,0:0:0:0:
175,335,107292,1,8,0:0:0:0:
167,239,107641,6,0,L|246:205,1,79.9999999999999,6|0,3:0|0:0,0:0:0:0:
333,184,108338,2,0,L|430:184,1,79.9999999999999,0|8,0:0|0:0,0:0:0:0:
381,275,109036,2,0,P|319:319|225:299,1,160,4|2,0:1|0:0,0:0:0:0:
293,228,110083,1,8,0:0:0:0:
289,132,110431,2,0,L|268:55,1,79.9999999999999,2|0,3:0|0:0,0:0:0:0:
173,33,111129,2,0,L|89:86,1,79.9999999999999,2|8,0:0|0:0,0:0:0:0:
95,171,111827,6,0,P|57:216|50:257,1,79.9999999999999,6|8,0:1|0:0,0:0:0:0:
142,266,112524,2,0,P|161:321|193:347,1,79.9999999999999,2|8,0:0|0:0,0:0:0:0:
245,269,113222,2,0,P|283:224|290:183,1,79.9999999999999,0|0,1:0|0:0,0:0:0:0:
208,150,113920,6,0,P|188:94|156:68,1,79.9999999999999,8|0,1:0|0:0,0:0:0:0:
79,63,114617,1,4,0:0:0:0:
