osu file format v14

[General]
AudioFilename: audio.mp3
AudioLeadIn: 0
PreviewTime: 11687
Countdown: 1
SampleSet: Normal
StackLeniency: 0.7
Mode: 0
LetterboxInBreaks: 0
WidescreenStoryboard: 0

[Editor]
Bookmarks: 9287,13637,60737,60887,61937,62087,63137,63287,64337,68162,107687
DistanceSpacing: 3
BeatDivisor: 8
GridSize: 4
TimelineZoom: 1.7

[Metadata]
Title:Turn down for what. But every other beat is missing
TitleUnicode:Turn down for what. But every other beat is missing
Artist:DJ Snake, Lil Jon
ArtistUnicode:DJ Snake, Lil Jon
Creator:LorGue
Version:Ex
Source:
Tags:
BeatmapID:1898763
BeatmapSetID:909902

[Difficulty]
HPDrainRate:6
CircleSize:5
OverallDifficulty:7
ApproachRate:9
SliderMultiplier:2.4
SliderTickRate:1

[Events]
//Background and Video events
0,0,"Mankanshoku.Mako.full.1702017.jpg",0,0
//Break Periods
//Storyboard Layer 0 (Background)
//Storyboard Layer 1 (Fail)
//Storyboard Layer 2 (Pass)
//Storyboard Layer 3 (Foreground)
//Storyboard Sound Samples

[TimingPoints]
2087,600,4,1,0,30,1,0
11387,-71.4285714285714,4,1,0,30,0,0
11537,-100,4,1,0,30,0,0
13637,-71.4285714285714,4,1,0,30,0,0
13937,-100,4,1,0,30,0,0
16187,-71.4285714285714,4,1,0,30,0,0
16337,-100,4,1,0,30,0,0
18587,-71.4285714285714,4,1,0,30,0,0
18737,-100,4,1,0,30,0,0
20987,-71.4285714285714,4,1,0,30,0,0
21287,-100,4,3,0,50,0,0
21887,-100,4,3,0,50,0,1
30887,-100,4,1,0,30,0,0
40187,-71.4285714285714,4,1,0,30,0,0
40337,-100,4,1,0,30,0,0
42587,-71.4285714285714,4,1,0,30,0,0
42887,-100,4,1,0,30,0,0
44987,-71.4285714285714,4,1,0,30,0,0
45137,-100,4,1,0,30,0,0
47387,-71.4285714285714,4,1,0,30,0,0
47537,-100,4,1,0,30,0,0
49787,-71.4285714285714,4,1,0,30,0,0
49937,-100,4,1,0,30,0,0
50687,-100,4,3,0,50,0,1
59687,-250,4,1,0,30,0,0
60737,-181.818181818181,4,1,0,30,0,0
61937,-142.857142857143,4,1,0,30,0,0
63137,-117.647058823529,4,1,0,30,0,0
64337,-100,4,1,0,30,0,0
68987,-71.4285714285714,4,1,0,30,0,0
69137,-100,4,1,0,30,0,0
71387,-71.4285714285714,4,1,0,30,0,0
71537,-100,4,1,0,30,0,0
73787,-71.4285714285714,4,3,0,50,0,0
73937,-100,4,3,0,50,0,0
74087,-100,4,3,0,50,0,1
76187,-71.4285714285714,4,3,0,50,0,1
76337,-100,4,3,0,50,0,1
78587,-71.4285714285714,4,3,0,50,0,1
78737,-100,4,3,0,50,0,1
78887,-100,4,1,0,30,0,0
93287,-100,4,3,0,50,0,1
98087,-105.263157894737,4,1,0,30,0,0
99137,-111.111111111111,4,1,0,30,0,0
100337,-117.647058823529,4,1,0,30,0,0
101537,-125,4,1,0,30,0,0
102737,-133.333333333333,4,1,0,30,0,0
103937,-142.857142857143,4,1,0,30,0,0
105137,-153.846153846153,4,1,0,30,0,0
106337,-166.666666666667,4,1,0,30,0,0

[Colours]
Combo1 : 255,255,38
Combo2 : 221,0,0
Combo3 : 55,146,255
Combo4 : 0,255,64

[HitObjects]
81,281,2087,6,0,B|86:249|86:249|100:219,1,60
168,151,2387,1,0,0:0:0:0:
155,138,2537,1,0,0:0:0:0:
168,125,2687,1,0,0:0:0:0:
180,138,2837,1,0,0:0:0:0:
315,77,3137,6,0,B|335:102|335:102|346:127,1,60
306,312,3587,1,0,0:0:0:0:
325,310,3737,1,0,0:0:0:0:
326,331,3887,1,0,0:0:0:0:
308,331,4037,1,0,0:0:0:0:
170,138,4337,6,0,B|186:166|186:166|206:185,1,60
405,235,4787,1,0,0:0:0:0:
395,253,4937,1,0,0:0:0:0:
417,263,5087,1,0,0:0:0:0:
423,244,5237,1,0,0:0:0:0:
110,331,5537,6,0,B|113:298|113:298|124:273,1,60
275,87,5987,1,0,0:0:0:0:
287,108,6137,1,0,0:0:0:0:
260,120,6287,1,0,0:0:0:0:
253,97,6437,1,0,0:0:0:0:
265,302,6737,6,0,B|233:294|233:294|209:280,1,60
21,98,7187,1,0,0:0:0:0:
45,88,7337,1,0,0:0:0:0:
54,119,7487,1,0,0:0:0:0:
29,123,7637,1,0,0:0:0:0:
424,43,7937,6,0,B|412:73|412:73|395:95,1,60
111,249,8387,1,0,0:0:0:0:
103,220,8537,1,0,0:0:0:0:
138,216,8687,1,0,0:0:0:0:
140,243,8837,1,0,0:0:0:0:
48,56,9137,5,0,0:0:0:0:
201,68,9287,2,0,P|255:91|297:134,1,120
295,256,9737,5,0,0:0:0:0:
380,157,9887,1,0,0:0:0:0:
226,191,10037,2,0,P|197:200|172:216,2,60
483,180,10487,5,0,0:0:0:0:
104,70,11387,6,0,P|80:56|111:62,1,83.9999974365235
140,216,11687,6,0,L|131:275,1,60
239,111,11987,2,0,L|247:51,1,60,0|2,0:0|0:0,0:0:0:0:
327,244,12287,1,0,0:0:0:0:
228,299,12587,6,0,L|192:347,1,60
359,125,12887,1,0,0:0:0:0:
327,244,13187,6,0,L|351:298,1,60
238,45,13487,1,0,0:0:0:0:
168,224,13787,6,0,P|154:247|160:216,1,83.9999974365235
341,139,14087,6,0,L|393:109,1,60
280,269,14387,2,0,L|227:298,1,60,0|2,0:0|0:0,0:0:0:0:
436,301,14687,1,0,0:0:0:0:
151,290,14987,6,0,L|132:347,1,60
223,68,15287,1,0,0:0:0:0:
380,187,15587,6,0,L|439:196,1,60
149,150,15887,1,0,0:0:0:0:
379,280,16187,6,0,P|405:296|390:269,1,83.9999974365235
175,212,16487,6,0,B|150:218|140:205|115:215,1,60
289,127,16787,2,0,B|313:120|323:133|348:123,1,60
143,48,17087,1,0,0:0:0:0:
430,112,17387,6,0,B|437:86|453:85|463:62,1,60
307,322,17687,1,0,0:0:0:0:
162,290,17987,6,0,B|146:312|131:307|114:326,1,60
351,138,18287,1,0,0:0:0:0:
38,238,18587,6,0,P|28:267|51:246,1,83.9999974365235
158,96,18887,6,0,B|163:71|178:67|180:40,1,60
184,235,19187,2,0,B|178:259|163:263|161:290,1,60
319,139,19487,1,0,0:0:0:0:
127,135,19787,6,0,B|101:128|100:112|77:103,1,60
337,259,20087,1,0,0:0:0:0:
319,139,20387,6,0,B|326:113|342:112|352:89,1,60
196,349,20687,1,0,0:0:0:0:
166,78,20987,6,0,P|137:68|158:91,1,83.9999974365235
424,145,21287,1,0,0:0:0:0:
306,311,21587,6,0,L|361:332,1,60
87,227,21887,1,0,0:0:0:0:
424,145,22187,6,0,L|480:118,1,60
210,238,22487,1,0,0:0:0:0:
52,122,22787,6,0,L|27:66,1,60
147,337,23087,1,0,0:0:0:0:
447,77,23387,6,0,L|471:21,1,60
352,292,23687,1,0,0:0:0:0:
97,115,23987,6,0,L|41:90,1,60
312,210,24287,1,0,0:0:0:0:
184,296,24587,6,0,L|128:317,1,60
403,212,24887,1,0,0:0:0:0:
137,197,25187,6,0,L|81:172,1,60
352,292,25487,1,0,0:0:0:0:
79,307,25787,6,0,L|54:362,1,60
137,197,26087,5,0,0:0:0:0:
160,309,26237,1,0,0:0:0:0:
232,128,26387,5,0,0:0:0:0:
218,357,26537,1,0,0:0:0:0:
397,66,26687,1,0,0:0:0:0:
420,234,26987,6,0,L|476:213,1,60
286,269,27287,5,0,0:0:0:0:
352,175,27437,1,0,0:0:0:0:
234,189,27587,5,0,0:0:0:0:
469,128,27737,1,0,0:0:0:0:
180,99,27887,1,0,0:0:0:0:
372,280,28187,6,0,L|431:293,1,60
267,261,28487,5,0,0:0:0:0:
173,328,28637,1,0,0:0:0:0:
197,204,28787,5,0,0:0:0:0:
3,326,28937,1,0,0:0:0:0:
184,98,29087,1,0,0:0:0:0:
431,111,29387,6,0,L|483:139,1,60
305,59,29687,1,0,0:0:0:0:
327,171,29837,5,0,0:0:0:0:
184,98,29987,1,0,0:0:0:0:
339,264,30137,5,0,0:0:0:0:
82,130,30287,1,0,0:0:0:0:
66,71,30587,6,0,L|81:129,1,60
91,221,30887,6,0,B|115:242|115:242|144:257,1,60
231,265,31187,1,0,0:0:0:0:
229,283,31337,1,0,0:0:0:0:
247,285,31487,1,0,0:0:0:0:
248,267,31637,1,0,0:0:0:0:
363,350,31937,6,0,B|383:325|383:325|394:300,1,60
354,115,32387,1,0,0:0:0:0:
373,117,32537,1,0,0:0:0:0:
374,96,32687,1,0,0:0:0:0:
356,96,32837,1,0,0:0:0:0:
218,289,33137,6,0,B|234:261|234:261|254:242,1,60
453,192,33587,1,0,0:0:0:0:
443,174,33737,1,0,0:0:0:0:
465,164,33887,1,0,0:0:0:0:
471,183,34037,1,0,0:0:0:0:
158,96,34337,6,0,B|161:129|161:129|172:154,1,60
323,340,34787,1,0,0:0:0:0:
335,319,34937,1,0,0:0:0:0:
308,307,35087,1,0,0:0:0:0:
301,330,35237,1,0,0:0:0:0:
313,125,35537,6,0,B|281:133|281:133|257:147,1,60
69,329,35987,1,0,0:0:0:0:
93,339,36137,1,0,0:0:0:0:
102,308,36287,1,0,0:0:0:0:
77,304,36437,1,0,0:0:0:0:
466,343,36737,6,0,B|454:313|454:313|437:291,1,60
153,137,37187,1,0,0:0:0:0:
145,166,37337,1,0,0:0:0:0:
180,170,37487,1,0,0:0:0:0:
182,143,37637,1,0,0:0:0:0:
23,300,37937,5,0,0:0:0:0:
172,268,38087,2,0,P|222:238|259:190,1,120
243,70,38537,5,0,0:0:0:0:
340,158,38687,1,0,0:0:0:0:
182,143,38837,2,0,P|152:137|125:124,2,60
444,112,39287,5,0,0:0:0:0:
76,137,40187,6,0,P|45:139|73:152,1,83.9999974365235
342,82,40487,6,0,L|283:96,1,60
42,345,40937,5,0,0:0:0:0:
200,259,41087,2,0,L|148:288,1,60
304,199,41387,1,0,0:0:0:0:
407,327,41687,6,0,L|457:360,1,60
193,138,42137,5,0,0:0:0:0:
20,88,42287,1,0,0:0:0:0:
342,82,42587,6,0,P|340:51|327:79,1,83.9999974365235
366,291,42887,6,0,L|357:232,1,60
233,78,43337,5,0,0:0:0:0:
209,235,43487,2,0,L|216:175,1,60
193,344,43787,1,0,0:0:0:0:
365,290,44087,6,0,L|411:329,1,60
164,86,44537,5,0,0:0:0:0:
342,82,44687,1,0,0:0:0:0:
124,225,44987,6,0,P|104:249|133:235,1,83.9999974365235
225,132,45287,6,0,B|241:101|236:71,1,60
155,338,45737,5,0,0:0:0:0:
285,214,45887,2,0,B|274:239|258:236|243:256,1,60
367,132,46187,1,0,0:0:0:0:
103,149,46487,6,0,B|81:166|69:155|46:166,1,60
342,82,46937,5,0,0:0:0:0:
287,259,47087,1,0,0:0:0:0:
449,243,47387,6,0,P|479:235|455:256,1,83.9999974365235
248,329,47687,6,0,B|226:342|213:333|192:354,1,60
407,358,48137,5,0,0:0:0:0:
316,203,48287,2,0,B|338:218|332:232|348:251,1,60
254,104,48587,1,0,0:0:0:0:
242,338,48887,5,0,0:0:0:0:
164,217,49037,1,0,0:0:0:0:
254,104,49187,1,0,0:0:0:0:
389,156,49337,1,0,0:0:0:0:
381,300,49487,1,0,0:0:0:0:
153,307,49787,6,0,P|122:304|147:321,1,83.9999974365235
279,272,50087,2,0,B|312:182|336:68,1,180
173,75,50687,6,0,L|223:41,1,60
113,203,50987,2,0,L|65:238,1,60
264,191,51287,2,0,L|314:157,1,60
143,276,51587,5,0,0:0:0:0:
339,324,51737,2,0,L|280:310,1,60
475,135,52187,5,0,0:0:0:0:
271,83,52487,2,0,L|342:102,1,60
114,203,52937,6,0,L|84:150,1,60
210,358,53387,1,0,0:0:0:0:
326,124,53687,1,0,0:0:0:0:
382,299,54137,6,0,L|428:337,1,60
276,206,54587,1,0,0:0:0:0:
140,93,54887,6,0,B|145:65|161:66|172:43,1,60
59,266,55187,5,0,0:0:0:0:
237,118,55337,1,0,0:0:0:0:
203,294,55487,5,0,0:0:0:0:
336,104,55637,1,0,0:0:0:0:
343,277,55787,5,0,0:0:0:0:
422,59,55937,1,0,0:0:0:0:
417,259,56087,6,0,B|428:281|418:293|436:314,1,60
275,70,56387,5,0,0:0:0:0:
481,172,56537,1,0,0:0:0:0:
175,225,56687,5,0,0:0:0:0:
381,123,56837,1,0,0:0:0:0:
72,78,56987,5,0,0:0:0:0:
278,180,57137,1,0,0:0:0:0:
22,221,57287,6,0,B|43:203|55:213|78:202,1,60
250,118,57587,5,0,0:0:0:0:
148,324,57737,1,0,0:0:0:0:
409,323,57887,5,0,0:0:0:0:
203,221,58037,1,0,0:0:0:0:
407,63,58187,5,0,0:0:0:0:
305,269,58337,1,0,0:0:0:0:
155,38,58487,6,0,B|179:51|174:66|192:83,4,60
77,202,59387,6,0,B|98:184|110:194|133:183,1,60
302,113,59687,6,0,P|365:115|318:179,1,168
302,113,60887,6,0,P|395:122|350:235,1,231.000007049561
302,113,62087,6,0,P|432:134|411:296,1,293.999991027832
302,113,63287,6,0,P|459:132|482:342,1,357.000006809235
258,356,64487,5,0,0:0:0:0:
90,194,64787,1,0,0:0:0:0:
252,26,65087,1,0,0:0:0:0:
420,188,65387,1,0,0:0:0:0:
256,274,65687,5,0,0:0:0:0:
172,192,65837,1,0,0:0:0:0:
256,108,65987,1,0,0:0:0:0:
338,192,66137,1,0,0:0:0:0:
197,250,66287,5,0,0:0:0:0:
196,132,66437,1,0,0:0:0:0:
315,132,66587,1,0,0:0:0:0:
314,250,66737,1,0,0:0:0:0:
214,192,66887,5,0,0:0:0:0:
236,171,66962,1,0,0:0:0:0:
256,150,67037,1,0,0:0:0:0:
277,171,67112,1,0,0:0:0:0:
297,191,67187,1,0,0:0:0:0:
277,213,67262,1,0,0:0:0:0:
255,233,67337,1,0,0:0:0:0:
234,212,67412,1,0,0:0:0:0:
214,192,67487,5,0,0:0:0:0:
236,171,67562,1,0,0:0:0:0:
256,150,67637,1,0,0:0:0:0:
277,171,67712,1,0,0:0:0:0:
297,191,67787,1,0,0:0:0:0:
277,213,67862,1,0,0:0:0:0:
255,233,67937,1,0,0:0:0:0:
234,212,68012,1,0,0:0:0:0:
404,56,68987,6,0,P|434:48|410:69,1,83.9999974365235
252,76,69287,5,0,0:0:0:0:
252,76,69362,1,0,0:0:0:0:
252,76,69437,1,0,0:0:0:0:
307,265,69587,6,0,L|319:323,1,60
146,103,69887,2,0,L|128:20,1,60
454,303,70487,5,0,0:0:0:0:
149,273,70787,6,0,L|90:285,1,60
311,112,71087,2,0,L|394:94,1,60
316,228,71387,6,0,P|300:254|302:223,1,83.9999974365235
345,31,71687,5,0,0:0:0:0:
345,31,71762,1,0,0:0:0:0:
345,31,71837,1,0,0:0:0:0:
413,238,71987,6,0,L|425:296,1,60
252,76,72287,2,0,L|234:-7,1,60
170,165,72887,5,0,0:0:0:0:
451,163,73187,6,0,L|509:150,1,60
289,324,73487,2,0,L|206:342,1,60
86,299,73787,6,0,P|59:283|90:285,1,83.9999974365235
159,346,74087,1,0,0:0:0:0:
159,346,74162,1,0,0:0:0:0:
159,346,74237,1,0,0:0:0:0:
112,158,74387,5,0,0:0:0:0:
317,264,74537,1,0,0:0:0:0:
219,105,74687,5,0,0:0:0:0:
289,324,74837,1,0,0:0:0:0:
335,141,74987,6,0,P|357:95|369:84,1,60
225,187,75287,1,0,0:0:0:0:
424,211,75587,5,0,0:0:0:0:
219,105,75737,1,0,0:0:0:0:
317,264,75887,5,0,0:0:0:0:
247,45,76037,1,0,0:0:0:0:
99,142,76187,6,0,P|72:157|103:155,1,83.9999974365235
154,55,76487,1,0,0:0:0:0:
154,55,76562,1,0,0:0:0:0:
154,55,76637,1,0,0:0:0:0:
322,159,76787,5,0,0:0:0:0:
117,265,76937,1,0,0:0:0:0:
215,106,77087,5,0,0:0:0:0:
145,325,77237,1,0,0:0:0:0:
99,142,77387,6,0,P|77:96|65:85,1,60
206,172,77687,1,0,0:0:0:0:
390,132,77987,5,0,0:0:0:0:
185,238,78137,1,0,0:0:0:0:
283,79,78287,5,0,0:0:0:0:
213,298,78437,1,0,0:0:0:0:
348,227,78587,6,0,P|373:210|358:237,1,83.9999974365235
213,298,78887,2,0,P|131:275|119:190,1,180
233,89,79487,2,0,L|165:135,1,60
411,113,80087,5,0,0:0:0:0:
209,157,80687,5,0,0:0:0:0:
305,289,80987,2,0,L|342:337,1,60
255,224,81287,1,0,0:0:0:0:
210,309,81587,6,0,L|178:359,1,60
80,138,81886,2,0,L|111:87,1,60
174,206,82487,5,0,0:0:0:0:
314,165,83087,6,0,L|365:195,1,60
147,302,83386,2,0,L|95:271,1,60
232,238,83687,1,0,0:0:0:0:
67,129,83987,6,0,L|19:92,1,60
249,13,84286,2,0,L|296:49,1,60
176,89,84887,5,0,0:0:0:0:
369,142,85487,5,0,0:0:0:0:
302,291,85787,2,0,L|278:347,1,60
333,215,86087,1,0,0:0:0:0:
168,279,86387,6,0,L|112:256,1,60
313,119,86686,2,0,L|368:141,1,60
223,159,87287,5,0,0:0:0:0:
95,117,87887,6,0,L|117:61,1,60
255,262,88187,2,0,L|232:317,1,60
320,143,88487,5,0,0:0:0:0:
320,143,88562,1,0,0:0:0:0:
320,143,88637,1,0,0:0:0:0:
320,143,88712,1,0,0:0:0:0:
320,143,88787,1,0,0:0:0:0:
165,211,89087,6,0,L|220:187,1,60
78,241,89387,1,0,0:0:0:0:
376,120,89687,5,0,0:0:0:0:
182,299,89987,6,0,L|236:323,1,60
437,185,90287,2,0,L|381:162,1,60
247,115,90587,1,0,0:0:0:0:
170,202,90887,5,0,0:0:0:0:
170,202,90962,1,0,0:0:0:0:
170,202,91037,1,0,0:0:0:0:
170,202,91112,1,0,0:0:0:0:
170,202,91187,1,0,0:0:0:0:
370,287,91487,6,0,L|425:309,1,60
286,253,91787,1,0,0:0:0:0:
57,145,92087,5,0,0:0:0:0:
301,178,92387,6,0,L|245:155,1,60
45,294,92687,2,0,L|100:316,1,60
226,360,92987,1,0,0:0:0:0:
170,202,93287,5,0,0:0:0:0:
170,202,93362,1,0,0:0:0:0:
170,202,93437,1,0,0:0:0:0:
170,202,93512,1,0,0:0:0:0:
170,202,93587,1,0,0:0:0:0:
333,184,93737,5,0,0:0:0:0:
162,338,93887,1,0,0:0:0:0:
247,115,94037,1,0,0:0:0:0:
276,266,94187,6,0,P|298:312|310:323,1,60
170,202,94487,1,0,0:0:0:0:
404,134,94787,6,0,L|380:78,1,60
141,35,95087,2,0,L|164:90,1,60
205,185,95387,5,0,0:0:0:0:
205,185,95462,1,0,0:0:0:0:
205,185,95537,1,0,0:0:0:0:
91,164,95687,5,0,0:0:0:0:
91,164,95762,1,0,0:0:0:0:
91,164,95837,1,0,0:0:0:0:
91,164,95912,1,0,0:0:0:0:
91,164,95987,2,0,P|71:195|65:230,1,60
97,316,96287,5,0,0:0:0:0:
205,185,96437,1,0,0:0:0:0:
35,374,96587,5,0,0:0:0:0:
266,116,96737,1,0,0:0:0:0:
146,253,96887,5,0,0:0:0:0:
444,228,97187,6,0,L|420:172,1,60
181,129,97487,2,0,L|204:184,1,60
133,8,97787,5,0,0:0:0:0:
307,164,98087,6,0,P|275:323|187:224,1,341.999990867615
238,319,99287,6,0,P|78:287|153:196,1,323.999990112305
80,267,100487,6,0,P|111:107|202:182,1,306.000005836487
113,107,101687,6,0,P|271:145|232:212,1,288
272,124,102887,6,0,P|240:283|177:253,1,270.000010299683
277,276,104087,6,0,P|119:232|124:215,1,251.999992309571
134,292,105287,6,0,P|96:169|182:135,1,233.999989288331
114,151,106487,6,0,P|210:102|270:192,1,215.999993408203
