osu file format v14

[General]
AudioFilename: audio.mp3
AudioLeadIn: 0
PreviewTime: 31484
Countdown: 1
SampleSet: Soft
StackLeniency: 0.7
Mode: 0
LetterboxInBreaks: 0
EpilepsyWarning: 1
WidescreenStoryboard: 0

[Editor]
Bookmarks: 38638
DistanceSpacing: 1
BeatDivisor: 8
GridSize: 8
TimelineZoom: 2.999999

[Metadata]
Title:You Know You Like It (T-Mass & Arman Cekin Remix)
TitleUnicode:You Know You Like It (T-Mass & Arman Cekin Remix)
Artist:DJ Snake & AlunaGeorge
ArtistUnicode:DJ Snake & AlunaGeorge
Creator:elena2705
Version:Hyper
Source:
Tags:EDM Remix Dubstep English Clouds YKYLI Electronic
BeatmapID:1315591
BeatmapSetID:624184

[Difficulty]
HPDrainRate:7
CircleSize:4
OverallDifficulty:7
ApproachRate:9
SliderMultiplier:1.99999990463257
SliderTickRate:1

[Events]
//Background and Video events
0,0,"2.jpg",0,0
//Break Periods
2,90761,97346
2,98146,104730
//Storyboard Layer 0 (Background)
//Storyboard Layer 1 (Fail)
//Storyboard Layer 2 (Pass)
//Storyboard Layer 3 (Foreground)
//Storyboard Sound Samples

[TimingPoints]
1946.0008764338,461.538461538462,4,2,0,40,1,0
16715,-100,4,2,0,60,0,0
29638,-100,4,2,0,40,0,0
32407,-100,4,2,0,80,0,1
38869,-100,4,2,0,80,0,0
39792,-100,4,2,0,80,0,1
46253,-100,4,2,0,80,0,0
47176,-100,4,2,0,80,0,1
53638,-100,4,2,0,80,0,0
54561,-100,4,2,0,80,0,1
59407,-66.6666666666667,4,2,0,80,0,1
59638,-100,4,2,0,80,0,1
61022,-100,4,2,0,60,0,0
75792,-100,4,2,0,70,0,0
90561,-133.333333333333,4,2,0,50,0,0
105330,-100,4,2,0,70,0,0
118253,-100,4,2,0,50,0,0
121022,-100,4,2,0,90,0,1
127484,-100,4,2,0,90,0,0
128407,-100,4,2,0,90,0,1
134869,-100,4,2,0,90,0,0
135792,-100,4,2,0,90,0,1
142253,-100,4,2,0,90,0,0
143176,-100,4,2,0,90,0,1
148022,-66.6666666666667,4,2,0,90,0,1
148253,-100,4,2,0,90,0,1
149638,-66.6666666666667,4,2,0,80,0,0
157022,-66.6666666666667,4,2,0,80,0,0

[Colours]
Combo1 : 175,52,201
Combo2 : 234,38,204
Combo3 : 238,24,13
Combo4 : 236,117,19
Combo5 : 226,247,81
Combo6 : 88,237,103
Combo7 : 61,70,248
Combo8 : 125,35,235

[HitObjects]
158,55,1946,53,12,0:1:0:0:
424,192,2638,1,4,0:3:0:0:
160,336,3330,1,4,0:3:0:0:
151,329,4253,1,4,0:3:0:0:
145,321,5407,1,4,0:3:0:0:
256,193,5638,5,12,2:3:0:0:
17,11,6330,1,4,0:3:0:0:
256,193,7022,1,4,0:3:0:0:
265,195,7946,1,4,0:3:0:0:
426,77,8407,2,0,B|437:126|437:126|420:169|449:197|449:197|462:245|442:271,1,199.999990463257,2|0,0:2|0:2,0:2:0:0:
377,342,9099,1,4,0:3:0:0:
199,343,9330,5,12,0:3:0:0:
255,94,10022,1,4,0:3:0:0:
163,272,10484,2,0,P|139:254|118:230,2,49.9999976158143,2|2|4,0:0|0:3|0:3,0:0:0:0:
262,285,10946,1,2,0:0:0:0:
354,248,11176,1,0,0:0:0:0:
391,155,11407,1,0,0:0:0:0:
391,54,11638,2,0,P|415:40|445:36,2,49.9999976158143,4|2|2,0:3|0:3|0:0,0:0:0:0:
381,153,12099,1,0,0:0:0:0:
382,52,12330,2,0,P|406:38|436:34,2,49.9999976158143,2|2|2,0:0|0:3|0:0,0:0:0:0:
291,96,12792,1,4,0:3:0:0:
108,95,13022,6,0,B|92:168|46:183|46:183|96:232|44:248|29:281|36:330|85:353,1,299.999985694885,12|4,0:3|0:3,0:0:0:0:
173,343,13946,2,0,B|208:317|184:274|184:274|240:265|221:219|232:200|232:200|240:168,1,199.999990463257,2|4,0:0|0:3,0:0:0:0:
256,86,14638,1,0,0:0:0:0:
343,37,14869,2,0,B|342:178|342:178|369:157|398:149,1,199.999990463257,2|6,0:0|0:3,0:0:0:0:
442,138,15446,1,2,0:0:0:0:
442,138,15561,1,2,0:0:0:0:
473,232,15792,2,0,P|416:245|386:275,1,99.9999952316285,0|0,3:0|0:0,0:0:0:0:
351,308,16138,1,2,0:0:0:0:
351,308,16253,2,0,P|294:295|264:265,1,99.9999952316285,2|4,0:0|0:3,0:0:0:0:
78,88,16715,6,0,B|126:76|126:76|181:89,1,99.9999952316285,12|2,1:1|0:0,0:0:0:0:
128,248,17176,2,0,B|111:200|111:200|129:147,1,99.9999952316285,8|2,3:2|0:0,0:0:0:0:
188,199,17638,2,0,B|240:208|240:208|291:197,1,99.9999952316285,8|2,3:2|0:0,0:0:0:0:
233,350,18099,2,0,B|220:300|220:300|238:241,1,99.9999952316285,8|2,3:2|0:0,0:0:0:0:
351,308,18561,5,8,3:2:0:0:
422,237,18792,1,2,0:0:0:0:
400,139,19022,1,8,3:2:0:0:
410,238,19253,1,2,0:0:0:0:
390,139,19484,1,8,3:2:0:0:
300,93,19715,1,2,0:0:0:0:
392,131,19946,1,8,3:2:0:0:
469,68,20176,1,2,0:0:0:0:
240,41,20407,6,0,P|255:86|232:141,1,99.9999952316285,8|2,3:2|0:0,0:0:0:0:
85,85,20869,2,0,P|135:72|185:86,1,99.9999952316285,8|2,3:2|0:0,0:0:0:0:
135,172,21330,1,8,3:2:0:0:
229,206,21561,1,2,0:0:0:0:
135,242,21792,1,8,3:2:0:0:
228,277,22022,1,2,0:0:0:0:
323,246,22253,6,0,P|367:272|424:289,2,99.9999952316285,8|2|8,3:2|0:0|3:2,0:0:0:0:
233,199,22946,1,0,0:0:0:0:
254,101,23176,2,0,B|290:65|290:65|337:37,1,99.9999952316285,8|2,3:2|0:0,0:0:0:0:
404,195,23638,2,0,B|373:154|373:154|334:120,1,99.9999952316285,8|2,3:2|0:0,0:0:0:0:
85,85,24099,6,0,P|89:141|69:195,1,99.9999952316285,4|0,1:1|3:0,0:0:0:0:
59,230,24446,1,2,0:0:0:0:
59,230,24561,2,0,P|86:282|122:313,1,99.9999952316285,10|0,3:2|3:0,0:0:0:0:
159,334,24907,1,2,0:0:0:0:
159,334,25022,2,0,P|216:302|257:297,1,99.9999952316285,10|0,3:2|3:0,0:0:0:0:
344,331,25484,2,0,B|346:276|346:276|321:238,1,99.9999952316285,2|2,0:3|3:2,0:0:0:0:
135,36,25946,6,0,B|187:55|187:55|235:53,1,99.9999952316285,8|0,3:2|3:0,0:0:0:0:
282,48,26292,1,2,0:0:0:0:
282,48,26407,2,0,B|334:39|334:39|381:51,1,99.9999952316285,10|0,3:2|3:0,0:0:0:0:
422,78,26753,1,2,0:0:0:0:
422,78,26869,2,0,B|432:136|432:136|421:181,1,99.9999952316285,10|0,3:2|3:0,0:0:0:0:
447,273,27330,2,0,P|394:273|353:248,1,99.9999952316285,2|2,0:3|3:2,0:0:0:0:
283,178,27792,6,8,L|252:137,3,49.9999976158143,8|0|8|0,3:2|3:2|3:2|3:2,3:2:0:0:
203,135,28253,2,8,L|170:176,3,49.9999976158143,8|0|8|0,3:2|3:2|3:2|3:2,3:2:0:0:
112,256,28715,2,8,L|112:317,1,49.9999976158143,8|0,3:2|3:2,3:2:0:0:
200,288,28946,2,8,L|200:344,1,49.9999976158143,8|0,3:2|3:2,3:2:0:0:
288,248,29176,2,8,L|288:312,1,49.9999976158143,8|0,3:2|3:2,3:2:0:0:
368,200,29407,2,8,L|368:264,1,49.9999976158143,8|0,3:2|3:2,3:2:0:0:
379,50,29638,6,2,B|340:40|340:40|317:46|317:46|277:38,1,99.9999952316285
184,14,30099,1,2,0:0:0:0:
101,196,30561,2,2,L|117:303,1,99.9999952316285
200,348,31022,2,2,L|216:244,1,99.9999952316285
240,95,31484,5,12,0:3:0:0:
240,95,32176,1,4,0:3:0:0:
240,95,32407,2,0,B|317:113|352:101|352:101|385:126|423:114|423:114|433:129|443:139,1,199.999990463257,8|4,3:2|0:3,0:0:0:0:
399,46,33099,1,0,0:0:0:0:
371,185,33330,6,0,B|354:227|354:227|353:249|353:249|337:286,1,99.9999952316285,0|2,0:0|0:0,0:0:0:0:
281,197,33792,2,0,B|264:239|264:239|263:261|263:261|247:298,1,99.9999952316285,4|2,0:3|0:0,0:0:0:0:
151,311,34253,1,8,3:2:0:0:
58,272,34484,2,0,P|25:253|10:234,2,49.9999976158143,2|2|2,0:0|0:3|0:0,0:0:0:0:
96,179,34946,1,4,0:3:0:0:
170,42,35176,5,12,0:3:0:0:
263,43,35407,2,0,B|309:66|309:66|340:107,1,99.9999952316285,2|2,0:0|0:3,0:0:0:0:
390,190,35869,1,4,0:3:0:0:
294,217,36099,2,0,L|193:245,1,99.9999952316285,8|2,3:2|0:3,0:0:0:0:
149,228,36446,1,2,0:0:0:0:
149,228,36561,1,6,0:3:0:0:
76,158,36792,1,0,0:0:0:0:
170,42,37022,6,0,P|214:26|270:53,2,99.9999952316285,2|2|6,0:0|0:3|0:3,0:0:0:0:
138,81,37599,1,2,3:2:0:0:
138,81,37715,1,2,0:3:0:0:
76,158,37946,1,8,3:2:0:0:
149,228,38176,1,2,0:0:0:0:
220,157,38407,2,0,B|260:157|260:157|280:144|280:144|319:145,1,99.9999952316285,2|4,0:3|0:3,0:0:0:0:
436,326,38869,5,12,0:3:0:0:
436,326,39561,1,4,0:3:0:0:
436,326,39792,2,0,B|397:308|356:312|356:312|341:285|316:283|295:305|295:305|244:298,1,199.999990463257,8|4,3:2|0:3,0:0:0:0:
153,283,40484,1,2,0:0:0:0:
55,260,40715,6,0,B|41:212|41:212|58:157,1,99.9999952316285,2|2,0:3|0:0,0:0:0:0:
95,72,41176,1,6,0:3:0:0:
95,72,41292,1,2,0:0:0:0:
95,72,41407,1,2,0:3:0:0:
190,42,41638,2,0,B|242:35|242:35|298:46,1,99.9999952316285,8|2,3:2|0:3,0:0:0:0:
330,72,41984,1,2,0:0:0:0:
330,72,42099,1,2,0:3:0:0:
410,131,42330,1,4,0:3:0:0:
252,299,42561,5,12,0:3:0:0:
251,198,42792,1,2,0:0:0:0:
151,195,43022,2,0,B|165:144|165:144|207:107,1,99.9999952316285,2|4,0:3|0:3,0:0:0:0:
257,195,43484,1,8,3:2:0:0:
357,195,43715,1,2,0:3:0:0:
357,195,43830,1,0,0:0:0:0:
357,195,43946,1,6,0:3:0:0:
258,204,44176,1,2,0:0:0:0:
49,326,44407,6,0,B|40:272|40:272|48:220,1,99.9999952316285,2|0,0:3|0:0,0:0:0:0:
70,129,44869,2,0,P|51:105|19:91,2,49.9999976158143,4|2|2,0:3|0:3|3:2,0:0:0:0:
125,212,45330,2,0,B|156:243|156:243|165:269|165:269|190:297,1,99.9999952316285,8|2,3:2|0:3,0:0:0:0:
261,226,45792,1,2,0:0:0:0:
261,226,46022,1,4,0:3:0:0:
458,50,46253,6,0,L|443:154,1,99.9999952316285,12|2,0:3|0:3,0:0:0:0:
458,50,46946,1,4,0:3:0:0:
358,50,47176,1,10,3:2:0:0:
343,51,47292,1,2,0:0:0:0:
328,52,47407,1,2,0:0:0:0:
313,53,47522,1,2,0:0:0:0:
297,53,47638,2,0,L|196:53,1,99.9999952316285,6|2,0:3|0:3,0:0:0:0:
261,189,48099,5,0,0:0:0:0:
296,283,48330,2,0,P|349:276|400:279,1,99.9999952316285,2|6,0:0|0:3,0:0:0:0:
416,236,48676,1,2,0:0:0:0:
416,236,48792,1,2,0:3:0:0:
226,282,49022,2,0,P|146:273|117:277,1,99.9999952316285,10|2,3:2|0:3,0:0:0:0:
89,240,49369,1,2,0:0:0:0:
89,240,49484,1,2,0:3:0:0:
42,151,49715,1,4,0:3:0:0:
254,80,49946,5,12,0:3:0:0:
345,93,50176,2,0,L|444:105,1,99.9999952316285,2|2,0:0|0:3,0:0:0:0:
339,175,50638,2,0,L|232:164,1,99.9999952316285,4|8,0:3|3:2,0:0:0:0:
139,156,51099,1,2,0:3:0:0:
139,156,51215,1,2,0:0:0:0:
139,156,51330,1,6,0:3:0:0:
47,196,51561,2,0,P|74:233|132:258,1,99.9999952316285,2|2,0:0|0:3,0:0:0:0:
208,306,52022,6,0,P|246:339|310:348,1,99.9999952316285,2|6,0:0|0:3,0:0:0:0:
327,312,52369,1,2,0:0:0:0:
327,312,52484,1,2,0:3:0:0:
402,246,52715,2,0,P|438:213|496:200,1,99.9999952316285,8|2,3:2|0:3,0:0:0:0:
290,83,53176,2,0,P|254:50|196:37,1,99.9999952316285,2|2,0:0|0:3,0:0:0:0:
47,196,53638,6,0,L|154:196,1,99.9999952316285,4|2,0:3|0:0,0:0:0:0:
47,196,54330,1,4,0:3:0:0:
41,96,54561,2,0,B|82:71|82:71|149:70,1,99.9999952316285,8|2,3:2|0:3,0:0:0:0:
181,85,54907,1,2,0:0:0:0:
181,85,55022,1,6,0:3:0:0:
210,180,55253,2,0,P|234:228|278:257,1,99.9999952316285,2|2,0:0|0:3,0:0:0:0:
312,159,55715,5,2,0:0:0:0:
212,172,55946,2,0,P|166:146|148:144,2,49.9999976158143,4|2|2,0:3|0:3|0:0,0:0:0:0:
312,168,56407,1,8,3:2:0:0:
412,172,56638,2,0,P|458:146|476:144,2,49.9999976158143,2|2|0,0:0|0:3|3:0,0:0:0:0:
312,161,57099,1,4,0:3:0:0:
305,2,57330,5,4,0:3:0:0:
216,48,57561,2,0,P|164:76|141:114,1,99.9999952316285,2|2,0:0|0:3,0:0:0:0:
126,208,58022,1,4,0:3:0:0:
72,292,58253,2,0,P|114:307|185:287,1,99.9999952316285,8|2,3:2|0:3,0:0:0:0:
198,257,58599,1,2,0:0:0:0:
198,257,58715,1,6,0:3:0:0:
271,189,58946,1,2,0:0:0:0:
454,146,59176,5,2,3:2:0:0:
454,146,59407,1,4,0:3:0:0:
455,0,59638,1,4,0:3:0:0:
142,57,60099,2,0,P|84:84|63:126,1,99.9999952316285,8|2,3:2|0:3,0:0:0:0:
84,160,60446,1,0,0:0:0:0:
84,160,60561,1,0,0:0:0:0:
126,250,60792,1,4,0:3:0:0:
451,329,61022,5,4,3:2:0:0:
451,329,61715,2,0,P|475:267|474:225,2,99.9999952316285,2|8|0,0:0|3:2|0:0,0:0:0:0:
391,248,62407,2,0,B|364:212|390:173|390:173|345:151|401:102|333:58,1,199.999990463257,2|0,0:0|0:0,0:0:0:0:
139,61,63330,2,0,P|100:105|56:109,1,99.9999952316285,0|2,0:0|0:0,0:0:0:0:
71,40,63792,2,0,L|169:191,1,149.999992847443,8|0,3:2|0:0,0:0:0:0:
256,274,64484,2,0,B|295:200|232:158|232:158|329:138|156:93|314:65|254:14,1,299.999985694885,2|0,0:0|0:0,0:0:0:0:
52,222,65638,6,0,B|48:274|48:274|72:332,1,99.9999952316285,8|0,3:2|0:0,0:0:0:0:
221,243,66099,2,0,B|176:263|176:263|121:262,1,99.9999952316285,2|0,0:0|0:0,0:0:0:0:
165,170,66561,1,2,0:0:0:0:
255,127,66792,1,2,0:0:0:0:
159,156,67022,1,2,0:0:0:0:
358,141,67484,1,8,3:2:0:0:
434,76,67715,1,0,0:0:0:0:
365,149,67946,2,0,B|380:220|381:220|340:244|369:299|369:299|356:321|332:344,1,199.999990463257,2|2,0:0|3:2,0:0:0:0:
59,144,69099,5,2,3:2:0:0:
157,126,69330,1,8,3:2:0:0:
225,53,69561,1,2,0:0:0:0:
163,131,69792,2,0,B|181:196|181:196|134:229|192:252|160:329,1,199.999990463257,2|0,0:0|0:0,0:0:0:0:
352,89,70946,2,0,P|420:68|463:88,1,99.9999952316285,2|0,3:2|0:0,0:0:0:0:
406,237,71407,2,0,P|419:177|394:125,1,99.9999952316285,0|2,0:0|0:0,0:0:0:0:
343,188,71869,2,0,B|302:147|266:162|266:162|234:148|184:185|184:185|151:147|112:140|69:162,1,299.999985694885,2|0,3:2|0:0,0:0:0:0:
53,334,73022,6,0,L|156:353,1,99.9999952316285,0|2,0:0|0:0,0:0:0:0:
218,277,73484,2,0,L|336:254,1,99.9999952316285,2|2,3:2|0:0,0:0:0:0:
371,174,73946,1,2,0:0:0:0:
285,123,74176,1,2,0:0:0:0:
381,95,74407,1,2,0:0:0:0:
297,40,74638,1,2,3:2:0:0:
209,88,74869,2,0,L|159:129,3,49.9999976158143,8|2|2|2,3:2|3:0|0:3|0:3,0:0:0:0:
139,158,75330,2,0,L|123:226,3,49.9999976158143,2|2|2|2,0:3|0:3|0:3|0:3,0:0:0:0:
120,332,75792,6,0,B|184:350|248:326|248:326|282:342|321:329,1,199.999990463257,4|0,0:3|0:0,0:0:0:0:
291,233,76484,1,4,0:3:0:0:
324,327,76715,2,0,B|389:320|413:242|391:185|391:185|417:185,1,199.999990463257,8|0,3:2|0:0,0:0:0:0:
510,186,77407,1,2,0:0:0:0:
404,24,77638,5,2,0:3:0:0:
307,49,77869,2,0,L|319:110,2,49.9999976158143,2|2|2,0:3|0:0|0:3,0:3:0:0:
215,73,78330,1,2,0:3:0:0:
215,73,78446,1,2,0:0:0:0:
215,73,78561,2,0,B|182:126|205:170|205:170|233:220|198:266,1,199.999990463257,8|0,3:2|0:0,0:0:0:0:
166,351,79253,1,4,0:3:0:0:
45,214,79484,6,0,P|34:153|41:108,1,99.9999952316285,12|2,0:3|0:3,0:0:0:0:
113,48,79946,2,0,P|118:107|111:151,1,99.9999952316285,2|4,0:3|0:3,0:0:0:0:
45,221,80407,1,8,3:2:0:0:
118,152,80638,1,2,0:0:0:0:
217,160,80869,2,0,P|298:160|331:147,1,99.9999952316285,2|0,0:3|3:0,0:0:0:0:
459,40,81330,6,0,B|472:93|472:93|462:145,1,99.9999952316285,2|2,0:0|0:3,0:0:0:0:
442,183,81676,1,2,0:0:0:0:
442,183,81792,2,0,P|419:232|422:284,1,99.9999952316285,2|2,0:3|0:3,0:0:0:0:
382,309,82138,1,2,0:0:0:0:
382,309,82253,2,0,B|336:331|336:331|271:320,1,99.9999952316285,8|2,3:2|0:0,0:0:0:0:
192,291,82715,1,2,0:0:0:0:
123,217,82946,1,4,0:3:0:0:
147,35,83176,6,0,B|185:69|248:60|256:113|256:113|301:84|326:87,1,199.999990463257,12|0,0:3|0:0,0:0:0:0:
404,54,83869,1,4,0:3:0:0:
445,144,84099,2,0,P|452:247|436:348,1,199.999990463257,8|0,3:2|0:0,0:0:0:0:
337,353,84792,1,2,0:0:0:0:
237,344,85022,2,0,B|178:324|188:260|188:260|138:224,1,149.999992847443,2|0,0:3|3:0,0:0:0:0:
107,215,85484,2,0,P|58:183|35:142,1,99.9999952316285,2|2,0:3|0:0,0:0:0:0:
98,68,85946,2,0,P|146:74|200:63,1,99.9999952316285,2|2,3:2|0:0,0:0:0:0:
292,35,86407,1,2,0:0:0:0:
200,74,86638,1,4,0:3:0:0:
217,224,86869,6,0,P|225:280|277:310,1,99.9999952316285,12|2,0:3|0:3,0:0:0:0:
293,238,87330,2,0,P|347:240|400:202,1,99.9999952316285,2|2,0:3|0:0,0:0:0:0:
325,168,87792,2,0,B|318:103|318:103|283:68,1,99.9999952316285,8|2,3:2|0:3,0:0:0:0:
243,79,88138,1,2,0:0:0:0:
243,79,88253,1,2,0:3:0:0:
153,124,88484,1,2,0:0:0:0:
114,353,88715,5,2,0:0:0:0:
69,263,88946,2,0,P|50:227|42:168,1,99.9999952316285,2|2,0:0|0:3,0:0:0:0:
185,223,89407,1,2,0:0:0:0:
313,274,89638,2,0,L|339:287,2,24.9999988079071,8|0|2,3:2|0:0|0:3,0:0:0:0:
313,200,89869,2,0,L|337:184,2,24.9999988079071,2|0|2,0:3|0:0|0:3,0:0:0:0:
304,106,90099,2,0,L|348:120,2,24.9999988079071,2|0|2,0:3|0:0|0:3,0:0:0:0:
236,84,90330,2,2,L|172:57,1,49.9999976158143
56,60,90561,5,4,0:3:0:0:
256,193,97946,5,4,3:2:0:0:
450,114,105330,6,0,P|409:69|366:45,1,99.9999952316285,0|2,0:0|0:3,0:0:0:0:
429,134,105792,2,0,P|377:100|329:86,1,99.9999952316285,8|2,3:2|0:0,0:0:0:0:
412,168,106253,2,0,P|353:148|303:142,1,99.9999952316285,8|2,3:2|0:3,0:0:0:0:
119,150,106715,1,8,3:2:0:0:
309,217,106946,1,0,0:0:0:0:
107,330,107176,6,0,B|70:300|70:300|53:249,1,99.9999952316285,8|2,3:2|0:3,0:0:0:0:
51,174,107522,1,2,0:0:0:0:
51,174,107638,2,0,L|51:73,1,99.9999952316285,8|2,3:2|0:3,0:0:0:0:
196,37,108099,2,0,L|196:140,1,99.9999952316285,8|2,3:2|0:3,0:0:0:0:
194,212,108445,1,2,0:0:0:0:
194,212,108561,2,0,P|247:237|295:239,1,99.9999952316285,8|2,3:2|0:3,0:0:0:0:
465,56,109022,6,0,B|483:109|483:109|478:158,1,99.9999952316285,8|2,3:2|0:3,0:0:0:0:
328,140,109484,1,8,3:2:0:0:
475,168,109715,1,2,0:0:0:0:
325,158,109946,2,0,B|311:211|311:211|317:267,1,99.9999952316285,8|2,3:2|0:3,0:0:0:0:
442,335,110407,1,8,3:2:0:0:
292,350,110638,1,2,0:0:0:0:
81,326,110869,6,0,P|45:282|39:240,2,99.9999952316285,8|2|8,3:2|0:3|3:2,0:0:0:0:
154,343,111446,1,2,0:0:0:0:
154,343,111561,1,2,0:3:0:0:
140,193,111792,2,0,B|116:154|122:89,1,99.9999952316285,8|2,3:2|0:3,0:0:0:0:
161,32,112138,1,2,0:0:0:0:
161,32,112253,1,2,0:0:0:0:
326,26,112484,1,2,0:3:0:0:
326,26,112715,6,8,L|348:140,1,99.9999952316285,12|8,0:1|3:2,3:2:0:0:
493,144,113176,2,8,L|456:253,1,99.9999952316285,8|8,3:2|3:2,3:2:0:0:
337,326,113638,1,8,3:2:0:0:
190,296,113868,1,8,3:2:0:0:
334,255,114099,1,8,3:2:0:0:
186,225,114330,1,8,3:2:0:0:
119,40,114561,5,8,3:2:0:0:
430,76,114791,1,8,3:2:0:0:
117,114,115022,1,8,3:2:0:0:
428,151,115253,1,8,3:2:0:0:
113,187,115484,2,8,L|37:267,1,99.9999952316285,8|8,3:2|3:2,3:2:0:0:
161,354,115946,2,8,L|237:274,1,99.9999952316285,8|8,3:2|3:2,3:2:0:0:
369,97,116407,6,0,L|323:134,1,49.9999976158143,8|0,3:2|3:0,0:0:0:0:
257,44,116638,2,0,L|257:101,1,49.9999976158143,8|0,3:2|3:0,0:0:0:0:
143,97,116869,2,0,L|189:134,1,49.9999976158143,8|0,3:2|3:0,0:0:0:0:
136,228,117099,2,0,L|192:206,1,49.9999976158143,8|0,3:2|3:0,0:0:0:0:
256,301,117330,2,0,L|256:250,1,49.9999976158143,8|0,3:2|3:0,0:0:0:0:
376,228,117561,2,0,L|320:206,1,49.9999976158143,8|0,3:2|3:0,0:0:0:0:
369,97,117792,2,0,L|323:134,1,49.9999976158143,8|0,3:2|3:0,0:0:0:0:
257,44,118022,2,0,L|257:101,1,49.9999976158143,8|0,3:2|3:0,0:0:0:0:
388,314,118253,6,2,B|349:324|349:324|326:318|326:318|286:326,1,99.9999952316285
193,350,118714,1,2,0:0:0:0:
110,168,119176,2,2,L|126:61,1,99.9999952316285
209,16,119637,2,2,L|225:120,1,99.9999952316285
249,269,120099,5,12,0:3:0:0:
249,269,120791,1,4,0:3:0:0:
249,269,121022,2,0,B|326:251|361:263|361:263|390:239|429:249|429:249|442:235|452:225,1,199.999990463257,8|4,3:2|0:3,0:0:0:0:
408,318,121714,1,0,0:0:0:0:
380,179,121945,6,0,B|363:137|363:137|362:115|362:115|346:78,1,99.9999952316285,0|2,0:0|0:0,0:0:0:0:
256,45,122407,2,0,P|268:18|268:-10,2,49.9999976158143,4|2|2,0:3|0:0|0:0,0:0:0:0:
182,127,122868,1,8,3:2:0:0:
67,92,123099,2,0,P|34:111|19:130,2,49.9999976158143,2|2|2,0:0|0:3|0:0,0:0:0:0:
105,185,123561,1,4,0:3:0:0:
179,322,123791,5,12,0:3:0:0:
272,321,124022,2,0,B|318:298|318:298|349:257,1,99.9999952316285,2|2,0:0|0:3,0:0:0:0:
399,174,124484,1,4,0:3:0:0:
303,147,124714,2,0,L|202:119,1,99.9999952316285,8|2,3:2|0:3,0:0:0:0:
158,136,125061,1,2,0:0:0:0:
158,136,125176,1,6,0:3:0:0:
85,206,125407,1,0,0:0:0:0:
179,322,125637,6,0,P|223:338|279:311,2,99.9999952316285,2|2|6,0:0|0:3|0:3,0:0:0:0:
147,283,126214,1,2,3:2:0:0:
147,283,126330,1,2,0:3:0:0:
43,63,126561,1,8,3:2:0:0:
94,175,126791,1,2,0:0:0:0:
229,207,127022,2,0,B|269:207|269:207|289:220|289:220|328:219,1,99.9999952316285,2|4,0:3|0:3,0:0:0:0:
445,38,127484,5,12,0:3:0:0:
445,38,128176,1,4,0:3:0:0:
445,38,128407,2,0,B|406:56|365:52|365:52|309:9|244:60,1,199.999990463257,8|4,3:2|0:3,0:0:0:0:
312,116,129099,1,2,0:0:0:0:
64,104,129330,6,0,B|50:152|50:152|67:207,1,99.9999952316285,2|2,0:3|0:0,0:0:0:0:
104,292,129791,1,6,0:3:0:0:
104,292,129907,1,2,0:0:0:0:
104,292,130022,1,2,0:3:0:0:
199,322,130253,2,0,B|251:329|251:329|307:318,1,99.9999952316285,8|2,3:2|0:3,0:0:0:0:
339,292,130599,1,2,0:0:0:0:
339,292,130714,1,2,0:3:0:0:
419,233,130945,1,4,0:3:0:0:
261,65,131176,5,12,0:3:0:0:
260,166,131407,1,2,0:0:0:0:
160,169,131637,2,0,B|174:220|174:220|216:257,1,99.9999952316285,2|4,0:3|0:3,0:0:0:0:
266,169,132099,1,8,3:2:0:0:
366,169,132330,1,2,0:3:0:0:
366,169,132445,1,0,0:0:0:0:
366,169,132561,1,6,0:3:0:0:
266,160,132792,1,2,0:0:0:0:
58,38,133022,6,0,B|49:92|49:92|57:144,1,99.9999952316285,2|0,0:3|0:0,0:0:0:0:
79,235,133484,2,0,P|60:259|28:273,2,49.9999976158143,4|2|2,0:3|0:3|3:2,0:0:0:0:
134,152,133945,2,0,B|165:121|165:121|174:95|174:95|199:67,1,99.9999952316285,8|2,3:2|0:3,0:0:0:0:
391,6,134407,1,2,0:0:0:0:
242,273,134637,1,4,0:3:0:0:
467,314,134868,6,0,L|452:210,1,99.9999952316285,12|2,0:3|0:3,0:0:0:0:
467,314,135561,1,4,0:3:0:0:
367,314,135791,1,10,3:2:0:0:
352,313,135907,1,2,0:0:0:0:
337,312,136022,1,2,0:0:0:0:
322,311,136137,1,2,0:0:0:0:
306,311,136253,2,0,L|205:312,1,99.9999952316285,6|2,0:3|0:3,0:0:0:0:
270,175,136714,5,0,0:0:0:0:
305,81,136945,2,0,P|358:88|409:85,1,99.9999952316285,2|6,0:0|0:3,0:0:0:0:
425,128,137291,1,2,0:0:0:0:
425,128,137407,1,2,0:3:0:0:
235,82,137637,2,0,P|155:91|126:87,1,99.9999952316285,10|2,3:2|0:3,0:0:0:0:
98,124,137984,1,2,0:0:0:0:
98,124,138099,1,2,0:3:0:0:
51,213,138330,1,4,0:3:0:0:
261,284,138561,5,12,0:3:0:0:
354,271,138791,2,0,L|465:259,1,99.9999952316285,2|2,0:0|0:3,0:0:0:0:
348,189,139253,2,0,L|241:200,1,99.9999952316285,4|8,0:3|3:2,0:0:0:0:
148,208,139714,1,2,0:3:0:0:
148,208,139830,1,2,0:0:0:0:
148,208,139945,1,6,0:3:0:0:
56,168,140176,2,0,P|83:131|141:106,1,99.9999952316285,2|2,0:0|0:3,0:0:0:0:
217,58,140637,6,0,P|255:25|319:16,1,99.9999952316285,2|6,0:0|0:3,0:0:0:0:
336,52,140984,1,2,0:0:0:0:
336,52,141099,1,2,0:3:0:0:
411,118,141330,2,0,P|447:151|505:164,1,99.9999952316285,8|2,3:2|0:3,0:0:0:0:
299,281,141791,2,0,P|263:314|205:327,1,99.9999952316285,2|2,0:0|0:3,0:0:0:0:
56,168,142253,6,0,L|163:168,1,99.9999952316285,4|2,0:3|0:0,0:0:0:0:
56,168,142945,1,4,0:3:0:0:
50,268,143176,2,0,B|91:293|91:293|158:294,1,99.9999952316285,8|2,3:2|0:3,0:0:0:0:
190,279,143522,1,2,0:0:0:0:
190,279,143637,1,6,0:3:0:0:
219,184,143868,2,0,P|243:136|287:107,1,99.9999952316285,2|2,0:0|0:3,0:0:0:0:
321,205,144330,5,2,0:0:0:0:
221,192,144561,2,0,P|175:218|157:220,2,49.9999976158143,4|2|2,0:3|0:3|0:0,0:0:0:0:
321,196,145022,1,8,3:2:0:0:
421,192,145253,2,0,P|467:218|485:220,2,49.9999976158143,2|2|0,0:0|0:3|3:0,0:0:0:0:
321,203,145714,1,4,0:3:0:0:
314,362,145945,5,4,0:3:0:0:
225,316,146176,2,0,P|173:288|150:250,1,99.9999952316285,2|2,0:0|0:3,0:0:0:0:
135,156,146637,1,4,0:3:0:0:
81,72,146868,2,0,P|123:57|194:77,1,99.9999952316285,8|2,3:2|0:3,0:0:0:0:
207,107,147214,1,2,0:0:0:0:
207,107,147330,1,6,0:3:0:0:
280,175,147561,1,2,0:0:0:0:
441,256,147791,5,2,3:2:0:0:
441,256,148022,1,4,0:3:0:0:
306,329,148253,1,4,0:3:0:0:
306,329,148369,1,0,0:0:0:0:
306,329,148484,1,0,0:0:0:0:
151,308,148715,2,0,P|93:281|72:239,1,99.9999952316285,8|2,3:2|0:3,0:0:0:0:
89,197,149061,1,0,0:0:0:0:
89,197,149176,1,2,0:3:0:0:
135,114,149407,1,4,0:3:0:0:
384,70,149637,5,4,2:1:0:0:
345,168,149869,2,0,L|310:246,1,74.9999992847443,2|2,0:3|0:0,0:0:0:0:
215,271,150215,2,0,L|210:190,1,74.9999992847443,2|4,0:0|0:3,0:0:0:0:
197,91,150561,2,0,B|180:56|180:56|141:29,1,74.9999992847443,8|2,3:2|0:0,0:0:0:0:
108,131,150907,2,0,B|92:170|92:170|98:222,1,74.9999992847443,2|2,0:0|0:3,0:0:0:0:
255,337,151484,5,0,3:0:0:0:
346,285,151714,1,2,0:3:0:0:
394,264,151830,2,0,B|422:146|422:146|386:155,1,149.999998569489,2|2,0:0|0:0,0:0:0:0:
342,165,152176,1,2,0:3:0:0:
251,219,152407,2,0,P|216:253|167:261,1,74.9999992847443,8|2,3:2|0:0,0:0:0:0:
95,202,152753,2,0,P|126:173|173:157,1,74.9999992847443,2|2,0:0|0:3,0:0:0:0:
255,126,153099,1,4,0:3:0:0:
466,46,153330,5,12,0:3:0:0:
442,148,153561,2,0,L|441:232,1,74.9999992847443,2|2,0:3|0:0,0:0:0:0:
369,300,153907,2,0,L|370:220,1,74.9999992847443,2|4,0:0|0:3,0:0:0:0:
368,119,154253,1,8,3:2:0:0:
368,119,154369,2,0,B|349:73|302:68|272:97|272:97|234:93,1,149.999998569489,2|2,0:0|0:0,0:0:0:0:
188,82,154715,1,2,0:3:0:0:
85,60,154946,1,2,0:3:0:0:
85,60,155061,1,2,0:0:0:0:
85,60,155176,5,2,0:3:0:0:
83,165,155407,1,2,0:3:0:0:
83,165,155522,1,2,0:0:0:0:
80,270,155753,1,2,0:0:0:0:
80,270,155869,1,2,0:3:0:0:
191,260,156099,2,2,L|212:293,4,37.4999996423721,8|2|2|2|2,3:2|3:2|3:2|3:2|3:2,3:2:0:0:
305,260,156561,2,2,L|287:301,4,37.4999996423721,2|2|2|2|4,3:2|3:2|3:2|3:2|3:3,3:2:0:0:
391,50,157022,5,12,0:3:0:0:
442,148,157253,1,2,0:3:0:0:
442,148,157369,1,2,0:0:0:0:
441,252,157599,1,2,0:0:0:0:
441,252,157715,1,6,0:3:0:0:
350,305,157946,2,0,B|327:248|265:242|236:289|236:289|214:222|174:208|198:137,1,299.999997138977,8|0,3:2|0:0,0:0:0:0:
298,165,158638,1,2,0:0:0:0:
83,121,158869,5,0,3:0:0:0:
85,225,159099,2,0,P|102:268|150:287,1,74.9999992847443,2|2,0:3|0:0,0:0:0:0:
214,227,159446,2,0,P|245:252|257:288,1,74.9999992847443,2|2,0:0|0:3,0:0:0:0:
184,294,159792,2,0,B|319:193|319:193|345:192|345:192|317:158|317:158|362:111,1,299.999997138977,8|0,3:2|0:0,0:0:0:0:
458,106,160484,1,4,0:3:0:0:
458,334,160715,5,12,0:3:0:0:
364,285,160946,2,0,L|293:242,1,74.9999992847443,2|2,0:3|0:0,0:0:0:0:
396,204,161292,2,0,L|313:153,1,74.9999992847443,2|4,0:0|0:3,0:0:0:0:
238,115,161638,1,8,3:2:0:0:
238,115,161753,1,2,0:0:0:0:
135,138,161984,1,2,0:0:0:0:
135,138,162099,1,2,0:3:0:0:
48,329,162561,6,0,P|44:243|60:169,1,149.999998569489,0|2,3:0|0:3,0:0:0:0:
75,131,162907,1,2,0:0:0:0:
157,65,163138,2,0,L|244:34,1,74.9999992847443,2|2,0:0|0:3,0:0:0:0:
309,94,163484,2,0,L|388:59,1,74.9999992847443,8|2,3:2|0:0,0:0:0:0:
465,35,163715,2,0,L|507:55,2,37.4999996423721,0|2|2,0:0|0:0|0:0,0:0:0:0:
462,123,163946,2,0,L|424:141,2,37.4999996423721,2|2|2,0:0|0:0|0:0,0:0:0:0:
480,204,164176,2,0,L|481:282,2,74.9999992847443,2|2|2,0:3|0:0|0:0,0:0:0:0:
116,338,164638,6,0,P|77:304|32:192,1,149.999998569489,2|2,0:3|0:0,0:3:0:0:
135,247,165099,2,0,P|110:166|116:95,1,149.999998569489,4|8,0:3|3:2,0:0:0:0:
164,8,165561,1,2,0:3:0:0:
130,107,165792,1,2,0:0:0:0:
205,179,166022,2,0,P|258:110|325:68,1,149.999998569489,2|2,0:3|0:0,0:0:0:0:
383,150,166484,1,2,0:3:0:0:
316,68,166715,1,2,0:0:0:0:
390,142,166946,1,2,0:3:0:0:
494,145,167176,1,10,3:2:0:0:
389,132,167407,1,2,0:3:0:0:
370,235,167638,2,0,B|370:293|370:293|369:316|354:348|296:349,1,149.999998569489,2|4,0:0|0:3,0:0:0:0:
207,303,168099,6,0,P|226:196|213:128,1,149.999998569489,12|2,0:3|0:3,0:0:0:0:
162,68,168561,1,2,0:0:0:0:
57,82,168792,1,4,0:3:0:0:
19,179,169022,2,0,P|40:282|66:334,1,149.999998569489,8|2,3:2|0:3,0:0:0:0:
124,239,169484,1,2,0:0:0:0:
207,303,169715,1,2,0:0:0:0:
367,296,169946,6,0,B|424:243|424:243|459:166,1,149.999998569489,2|2,0:3|0:0,0:0:0:0:
349,192,170407,2,0,B|385:117|385:117|449:64,1,149.999998569489,2|2,0:0|0:3,0:0:0:0:
464,176,170869,1,8,3:2:0:0:
449,72,171099,1,2,0:0:0:0:
356,22,171330,2,0,B|318:42|284:30|284:30|258:47|204:36,1,149.999998569489,2|4,0:3|0:3,0:0:0:0:
44,192,171792,5,12,0:3:0:0:
139,234,172022,2,0,L|295:224,1,149.999998569489,2|2,0:0|0:3,0:0:0:0:
218,145,172484,2,0,L|373:159,1,149.999998569489,4|8,0:3|3:2,0:0:0:0:
472,167,172946,1,2,0:0:0:0:
367,174,173176,1,2,0:3:0:0:
309,260,173407,2,0,P|241:289|218:370,1,149.999998569489,2|2,0:0|0:3,0:0:0:0:
308,351,173869,2,0,L|193:242,1,149.999998569489,2|2,0:0|0:0,0:0:0:0:
126,172,174330,1,2,0:0:0:0:
52,96,174561,2,0,B|106:50|180:83|180:83|211:59|248:105|281:74|281:74|306:91|347:71,1,299.999997138977,8|2,3:2|0:3,0:0:0:0:
440,79,175253,1,4,0:3:0:0:
437,312,175484,5,12,0:3:0:0:
332,325,175715,2,0,P|254:315|176:326,1,149.999998569489,2|2,0:0|0:3,0:0:0:0:
79,335,176176,2,0,P|66:246|81:182,1,149.999998569489,4|8,0:3|3:2,0:0:0:0:
175,147,176638,1,2,0:0:0:0:
75,181,176869,1,2,0:3:0:0:
84,76,177099,2,0,B|157:47|157:47|236:36,1,149.999998569489,2|2,0:0|0:3,0:0:0:0:
333,37,177561,2,0,B|377:103|399:184,1,149.999998569489,2|2,0:0|0:3,0:0:0:0:
406,270,178022,1,2,0:0:0:0:
316,325,178253,6,0,B|227:297|140:314|140:314|91:307|96:250|96:250|149:203|53:167|108:107|150:109|167:123,1,449.999995708466,8|0,3:2|0:0,0:0:0:0:
256,192,179061,12,0,182869,0:0:0:0:
