osu file format v14

[General]
AudioFilename: audio.mp3
AudioLeadIn: 0
PreviewTime: 133570
Countdown: 0
SampleSet: Normal
StackLeniency: 0.2
Mode: 0
LetterboxInBreaks: 0
WidescreenStoryboard: 0

[Editor]
Bookmarks: 18855,37141,55427,69141,73712,85570,93141,111427,113712,114284,114855,115427,115998,118284,119998,120284,120570,121712,122284,122855,123998,125141,129712,134284,136570,137141,137712,138284,138855,141141,142855,143141,143427,144570,145141,145712,146855,147998,152570,154855,155427,155998,156570,157141,159427,161141,161427,161712,162855,163427,163998,165141,166284,170855,173141,173712,174284,174855,175427,177712,179427,179712,179998,181141,181712,182284,183427,184570,189141,191427,191998,192570,193141,193712,195998,197712,197998,198284,199427,199998,200570,201712,202855,207427,216570,225712,225998,226284,226570,226855,227070,227141,227712,227855,227998,228141,228284,228570,228855,228998,229141,229427,229712,230570,230855,231141,231427,231712,232284,232427,232570,233141,233427,233570,233712,233855,233998,234284,234355,234855,235141,235427,235712,235998,236284,236355,236570,236712,236855,236998,237141,237284,237427,237712,237998,238141,238284,238570,238855,239427,239712,239998,240284,240570,241141,241427,241570,241712,241998,242284,242570,242712,242855,242998,243141,243998,253141,262284,271427,278284,280570,282855,283427,283998,284570,285141,287427,289141,289427,289712,290855,291427,291998,293141,294284,298855,301141,301712,302284,302855,303427,305712,307427,307712,307998,321712
DistanceSpacing: 0.8
BeatDivisor: 4
GridSize: 8
TimelineZoom: 4.099998

[Metadata]
Title:WE LUV LAMA
TitleUnicode:WE LUV LAMA
Artist:DJ Sharpnel
ArtistUnicode:DJ Sharpnel
Creator:Skorpiik
Version:A Journey Across the Galaxy
Source:
Tags:sharpnelsound rhytm game electronic ランニング★オールナイトッ!! delay lama
BeatmapID:1934624
BeatmapSetID:926167

[Difficulty]
HPDrainRate:5
CircleSize:4
OverallDifficulty:9.4
ApproachRate:9.8
SliderMultiplier:2
SliderTickRate:1

[Events]
//Background and Video events
0,0,"307364-Sepik.jpg",0,0
//Break Periods
2,132198,133233
2,207627,215519
//Storyboard Layer 0 (Background)
//Storyboard Layer 1 (Fail)
//Storyboard Layer 2 (Pass)
//Storyboard Layer 3 (Foreground)
//Storyboard Sound Samples

[TimingPoints]
0,285.714285714286,4,1,3,40,1,0
570,285.714285714286,4,1,3,40,1,0
570,-117.647058823529,4,1,3,40,0,0
18284,-100,4,1,3,40,0,0
33712,-100,4,1,3,47,0,0
34855,-100,4,1,3,53,0,0
35998,-100,4,1,3,60,0,0
55427,-100,4,1,1,60,0,0
72570,-80,4,1,1,60,0,0
73784,-133.333333333333,4,1,2,35,0,0
93141,-250,4,1,2,35,0,0
93212,-250,4,1,2,35,0,0
94141,-250,4,1,2,5,0,0
94284,-250,4,1,2,35,0,0
95141,-133.333333333333,4,1,2,35,0,0
95427,-250,4,1,2,35,0,0
96141,-250,4,1,2,5,0,0
96284,-250,4,1,2,35,0,0
97141,-133.333333333333,4,1,2,35,0,0
97712,-250,4,1,2,35,0,0
98712,-250,4,1,2,5,0,0
98855,-250,4,1,2,35,0,0
99712,-133.333333333333,4,1,2,35,0,0
99998,-250,4,1,2,35,0,0
100712,-250,4,1,2,5,0,0
100855,-250,4,1,2,35,0,0
101712,-133.333333333333,4,1,2,35,0,0
102284,-250,4,1,2,35,0,0
103284,-250,4,1,2,5,0,0
103427,-250,4,1,2,35,0,0
104284,-133.333333333333,4,1,2,35,0,0
104570,-250,4,1,2,35,0,0
105284,-250,4,1,2,5,0,0
105427,-250,4,1,2,35,0,0
106284,-133.333333333333,4,1,2,35,0,0
106855,-250,4,1,2,35,0,0
107855,-250,4,1,2,5,0,0
107998,-250,4,1,2,35,0,0
108855,-133.333333333333,4,1,2,35,0,0
109141,-250,4,1,2,35,0,0
109855,-250,4,1,2,5,0,0
109998,-250,4,1,2,35,0,0
110855,-133.333333333333,4,1,2,35,0,0
111427,-303.030303030303,4,1,2,30,0,0
113570,-303.030303030303,4,1,2,5,0,0
113712,-602.409638554217,4,1,2,30,0,0
114141,-602.409638554217,4,1,2,5,0,0
114284,-375.93984962406,4,1,2,30,0,0
114712,-375.93984962406,4,1,2,5,0,0
114855,-273.224043715847,4,1,2,30,0,0
115284,-273.224043715847,4,1,2,5,0,0
115427,-375.93984962406,4,1,2,30,0,0
115855,-375.93984962406,4,1,2,5,0,0
115998,-214.592274678112,4,1,2,30,0,0
118141,-214.592274678112,4,1,2,5,0,0
118284,-273.224043715847,4,1,2,30,0,0
119855,-273.224043715847,4,1,2,5,0,0
119998,-602.409638554217,4,1,2,30,0,0
120141,-602.409638554217,4,1,2,5,0,0
120284,-375.93984962406,4,1,2,30,0,0
120427,-375.93984962406,4,1,2,5,0,0
120570,-303.030303030303,4,1,2,30,0,0
121570,-303.030303030303,4,1,2,5,0,0
121712,-375.93984962406,4,1,2,30,0,0
122141,-375.93984962406,4,1,2,5,0,0
122284,-303.030303030303,4,1,2,30,0,0
122712,-303.030303030303,4,1,2,5,0,0
122855,-375.93984962406,4,1,2,30,0,0
123855,-375.93984962406,4,1,2,5,0,0
123998,-602.409638554217,4,1,2,30,0,0
124998,-602.409638554217,4,1,2,5,0,0
125141,-90.9090909090909,4,1,2,30,0,0
127427,-90.9090909090909,4,1,2,37,0,0
128570,-90.9090909090909,4,1,2,43,0,0
129141,-90.9090909090909,4,1,2,50,0,0
130570,-90.9090909090909,4,1,2,40,0,0
133712,-90.9090909090909,4,1,1,60,0,0
134284,-100,4,1,1,70,0,1
136570,-100,4,1,1,70,0,1
136855,-200,4,1,1,70,0,1
137141,-100,4,1,1,70,0,1
137427,-125,4,1,1,70,0,1
137712,-90.9090909090909,4,1,1,70,0,1
138284,-100,4,1,1,70,0,1
138570,-125,4,1,1,70,0,1
138855,-71.4285714285714,4,1,1,70,0,1
141141,-90.9090909090909,4,1,1,70,0,1
142570,-100,4,1,1,70,0,1
144855,-125,4,1,1,70,0,1
145141,-100,4,1,1,70,0,1
145712,-125,4,1,1,70,0,1
146855,-200,4,1,1,70,0,1
147712,-100,4,1,1,70,0,1
147998,-125,4,1,1,70,0,1
151570,-100,4,1,1,70,0,1
155141,-200,4,1,1,70,0,1
155427,-100,4,1,1,70,0,1
155712,-125,4,1,1,70,0,1
155998,-100,4,1,1,70,0,1
156284,-90.9090909090909,4,1,1,70,0,1
156570,-100,4,1,1,70,0,1
156855,-125,4,1,1,70,0,1
157141,-71.4285714285714,4,1,1,70,0,1
159427,-90.9090909090909,4,1,1,70,0,1
160855,-100,4,1,1,70,0,1
163141,-125,4,1,1,70,0,1
163427,-100,4,1,1,70,0,1
163998,-125,4,1,1,70,0,1
165141,-200,4,1,1,70,0,1
165998,-100,4,1,1,70,0,1
166284,-125,4,1,1,70,0,1
169712,-100,4,1,1,70,0,1
173141,-100,4,1,1,70,0,1
173427,-200,4,1,1,70,0,1
173712,-100,4,1,1,70,0,1
173998,-125,4,1,1,70,0,1
174284,-100,4,1,1,70,0,1
174570,-90.9090909090909,4,1,1,70,0,1
174855,-100,4,1,1,70,0,1
175141,-125,4,1,1,70,0,1
175427,-71.4285714285714,4,1,1,70,0,1
177712,-90.9090909090909,4,1,1,70,0,1
179141,-100,4,1,1,70,0,1
181427,-125,4,1,1,70,0,1
181712,-100,4,1,1,70,0,1
182284,-125,4,1,1,70,0,1
183427,-200,4,1,1,70,0,1
184284,-100,4,1,1,70,0,1
184570,-125,4,1,1,70,0,1
189141,-100,4,1,1,70,0,1
191427,-100,4,1,1,70,0,1
191712,-200,4,1,1,70,0,1
191998,-100,4,1,1,70,0,1
192284,-125,4,1,1,70,0,1
192570,-100,4,1,1,70,0,1
192855,-90.9090909090909,4,1,1,70,0,1
193141,-100,4,1,1,70,0,1
193427,-125,4,1,1,70,0,1
193712,-71.4285714285714,4,1,1,70,0,1
195998,-90.9090909090909,4,1,1,70,0,1
197427,-100,4,1,1,70,0,1
198284,-86.9565217391304,4,1,1,70,0,1
199427,-90.9090909090909,4,1,1,70,0,1
201712,-83.3333333333333,4,1,1,70,0,1
203998,-71.4285714285714,4,1,1,70,0,1
205141,-62.5,4,1,1,70,0,1
206284,-55.5555555555556,4,1,1,70,0,1
207427,-100,4,1,1,48,0,0
215427,-100,4,1,3,48,0,0
216570,-117.647058823529,4,1,3,48,0,0
225712,-100,4,1,1,65,0,0
241712,-90.9090909090909,4,1,1,65,0,0
243998,-100,4,1,1,55,0,0
278284,-100,4,1,1,50,0,0
279427,-100,4,1,1,60,0,0
280570,-90.9090909090909,4,1,1,70,0,1
283141,-166.666666666667,4,1,1,70,0,1
283427,-90.9090909090909,4,1,1,70,0,1
283712,-111.111111111111,4,1,1,70,0,1
283998,-90.9090909090909,4,1,1,70,0,1
284284,-83.3333333333333,4,1,1,70,0,1
284570,-90.9090909090909,4,1,1,70,0,1
284855,-111.111111111111,4,1,1,70,0,1
285141,-66.6666666666667,4,1,1,70,0,1
287427,-83.3333333333333,4,1,1,70,0,1
289141,-90.9090909090909,4,1,1,70,0,1
291141,-111.111111111111,4,1,1,70,0,1
291427,-90.9090909090909,4,1,1,70,0,1
291998,-111.111111111111,4,1,1,70,0,1
293141,-166.666666666667,4,1,1,70,0,1
294284,-111.111111111111,4,1,1,70,0,1
298855,-90.9090909090908,4,1,1,70,0,1
301141,-90.9090909090908,4,1,1,70,0,1
301427,-166.666666666667,4,1,1,70,0,1
301712,-90.9090909090908,4,1,1,70,0,1
301998,-111.111111111111,4,1,1,70,0,1
302284,-90.9090909090908,4,1,1,70,0,1
302570,-83.3333333333333,4,1,1,70,0,1
302855,-90.9090909090908,4,1,1,70,0,1
303141,-111.111111111111,4,1,1,70,0,1
303427,-66.6666666666667,4,1,1,70,0,1
305712,-83.3333333333333,4,1,1,70,0,1
307427,-90.9090909090909,4,1,1,70,0,1
307998,-80,4,1,1,70,0,1
309141,-83.3333333333333,4,1,1,70,0,1
310284,-74.0740740740741,4,1,1,70,0,1
311427,-76.9230769230769,4,1,1,70,0,1
313712,-68.9655172413793,4,1,1,70,0,1
314855,-62.5,4,1,1,70,0,1
315998,-57.1428571428571,4,1,1,70,0,1
317141,-76.9230769230769,4,1,1,70,0,1
318284,-66.6666666666667,4,1,1,70,0,1
319427,-58.8235294117647,4,1,1,70,0,1
320570,-51.2820512820513,4,1,1,70,0,1
321712,-100,4,1,1,40,0,0

[Colours]
Combo1 : 240,188,32
Combo2 : 170,124,211
Combo3 : 241,226,226
Combo4 : 171,35,58

[HitObjects]
172,336,142,6,0,P|136:355|84:355,1,50,2|0,0:2|0:0,0:0:0:0:
119,283,285,2,0,P|80:270|43:234,1,50,2|0,0:2|0:0,0:0:0:0:
119,208,428,2,0,P|100:172|100:119,1,50,2|0,0:2|0:0,0:0:0:0:
172,156,570,5,6,0:2:0:0:
284,173,712,1,2,0:2:0:0:
267,61,855,1,2,0:0:0:0:
284,173,997,1,2,0:2:0:0:
154,149,1141,5,2,0:2:0:0:
266,166,1283,1,2,0:2:0:0:
249,54,1427,1,2,0:0:0:0:
266,166,1570,1,2,0:2:0:0:
423,202,1712,6,0,L|407:95,1,85.0000016212464,2|2,0:2|0:2,0:0:0:0:
436,287,1998,1,2,0:0:0:0:
436,287,2141,1,2,0:2:0:0:
329,269,2284,6,0,L|313:376,1,85.0000016212464,2|2,0:2|0:2,0:0:0:0:
342,185,2570,1,2,0:0:0:0:
342,185,2712,1,2,0:2:0:0:
186,325,2855,5,2,0:2:0:0:
82,254,2998,1,2,0:0:0:0:
89,283,3069,1,0,0:0:0:0:
97,313,3141,1,2,0:0:0:0:
186,325,3284,1,2,0:2:0:0:
12,299,3427,5,2,0:2:0:0:
29,187,3569,1,2,0:2:0:0:
19,281,3712,1,2,0:0:0:0:
36,169,3854,1,2,0:2:0:0:
236,185,3998,5,2,0:2:0:0:
124,202,4140,1,2,0:2:0:0:
254,178,4284,2,0,L|237:291,1,85.0000016212464,2|2,0:0|0:2,0:0:0:0:
385,133,4570,5,2,0:2:0:0:
368,245,4712,2,0,L|372:278,2,21.2500004053116,2|2|2,0:2|0:2|0:2,0:0:0:0:
392,115,4855,1,2,0:0:0:0:
375,227,4998,1,2,0:2:0:0:
263,44,5141,6,0,L|147:54,1,85.0000016212464,6|2,0:2|0:2,0:0:0:0:
93,58,5427,1,2,0:0:0:0:
263,44,5570,1,2,0:2:0:0:
152,145,5712,6,0,L|268:155,1,85.0000016212464,2|2,0:2|0:2,0:0:0:0:
320,159,5998,1,2,0:0:0:0:
152,145,6141,1,2,0:2:0:0:
263,246,6284,5,2,0:2:0:0:
190,336,6427,1,2,0:2:0:0:
358,336,6570,1,2,0:0:0:0:
285,246,6713,1,2,0:2:0:0:
397,235,6855,5,2,0:2:0:0:
324,145,6998,1,2,0:2:0:0:
492,145,7141,1,2,0:0:0:0:
419,235,7284,1,2,0:2:0:0:
430,40,7427,6,0,L|345:46,1,85.0000016212464,2|2,0:2|0:2,0:0:0:0:
245,53,7712,1,2,0:0:0:0:
202,160,7855,1,2,0:2:0:0:
60,40,7998,6,0,L|145:46,1,85.0000016212464,2|2,0:2|0:2,0:0:0:0:
245,53,8283,1,2,0:0:0:0:
289,160,8426,1,2,0:2:0:0:
158,266,8570,5,2,0:2:0:0:
51,222,8712,1,2,0:2:0:0:
51,222,8784,1,2,0:2:0:0:
51,222,8855,1,2,0:0:0:0:
95,329,8998,1,2,0:2:0:0:
298,274,9141,6,0,L|232:270,1,42.5000008106232,6|0,0:3|0:0,0:0:0:0:
158,266,9284,1,2,0:2:0:0:
310,354,9427,6,0,L|244:357,1,42.5000008106232,12|0,0:3|0:0,0:0:0:0:
170,362,9570,1,2,0:2:0:0:
431,291,9712,6,0,L|436:206,1,85.0000016212464,6|2,0:2|0:2,0:0:0:0:
341,100,9998,1,2,0:0:0:0:
441,106,10141,1,2,0:2:0:0:
420,274,10284,6,0,L|425:189,1,85.0000016212464,2|2,0:2|0:2,0:0:0:0:
330,83,10570,1,2,0:0:0:0:
430,89,10713,1,2,0:2:0:0:
247,173,10855,5,2,0:2:0:0:
211,56,10998,1,2,0:2:0:0:
145,159,11141,1,2,0:0:0:0:
181,42,11284,1,2,0:2:0:0:
259,191,11427,5,2,0:2:0:0:
223,74,11570,1,2,0:2:0:0:
157,177,11713,1,2,0:0:0:0:
193,60,11856,1,2,0:2:0:0:
43,145,11998,5,2,0:2:0:0:
86,17,12141,1,2,0:0:0:0:
93,46,12212,1,0,0:0:0:0:
101,76,12284,1,2,0:0:0:0:
58,204,12427,1,2,0:2:0:0:
115,330,12570,6,0,L|200:323,1,85.0000016212464,2|2,0:2|0:2,0:0:0:0:
290,214,12855,1,2,0:0:0:0:
290,214,12998,1,2,0:2:0:0:
107,230,13141,6,0,L|192:224,1,85.0000016212464,2|2,0:2|0:2,0:0:0:0:
284,317,13427,1,2,0:0:0:0:
284,317,13570,1,2,0:2:0:0:
430,305,13712,5,2,0:2:0:0:
454,190,13855,2,0,L|449:151,2,21.2500004053116,2|2|2,0:2|0:2|0:2,0:0:0:0:
335,141,13998,1,2,0:0:0:0:
457,214,14141,1,2,0:2:0:0:
442,50,14284,5,6,0:2:0:0:
342,40,14427,1,2,0:2:0:0:
242,30,14570,2,0,L|230:152,1,85.0000016212464,2|2,0:0|0:2,0:0:0:0:
424,57,14855,5,2,0:2:0:0:
324,47,14998,1,2,0:2:0:0:
224,37,15141,2,0,L|212:159,1,85.0000016212464,2|2,0:0|0:2,0:0:0:0:
84,221,15427,5,2,0:2:0:0:
97,110,15570,1,2,0:2:0:0:
76,239,15712,1,2,0:0:0:0:
102,91,15855,1,2,0:2:0:0:
164,177,15998,5,2,0:2:0:0:
16,151,16141,1,2,0:2:0:0:
145,172,16284,1,2,0:0:0:0:
34,159,16427,1,2,0:2:0:0:
180,283,16570,6,0,L|265:275,1,85.0000016212464,2|2,0:2|0:2,0:0:0:0:
366,202,16855,1,2,0:0:0:0:
378,326,16998,1,2,0:2:0:0:
175,302,17141,6,0,L|260:294,1,85.0000016212464,2|2,0:2|0:2,0:0:0:0:
361,221,17426,1,2,0:0:0:0:
373,345,17569,1,2,0:2:0:0:
479,149,17712,5,2,0:0:0:0:
479,149,17927,5,2,0:0:0:0:
479,149,18141,5,2,0:0:0:0:
318,146,18284,5,6,0:3:0:0:
252,288,18427,2,0,P|210:301|173:298,1,50,2|0,0:2|0:0,0:0:0:0:
164,211,18570,2,0,P|121:201|90:180,1,50,2|0,0:2|0:0,0:0:0:0:
209,121,18712,2,0,P|176:91|160:57,1,50,2|0,0:2|0:0,0:0:0:0:
326,154,18855,5,6,0:2:0:0:
326,154,18927,1,0,0:0:0:0:
326,154,18998,2,0,L|337:228,1,50,2|0,0:2|0:0,0:0:0:0:
452,202,19141,1,2,0:0:0:0:
452,202,19213,1,0,0:0:0:0:
452,202,19284,2,0,L|441:276,1,50,2|0,0:2|0:0,0:0:0:0:
363,344,19427,1,2,0:2:0:0:
363,344,19499,1,0,0:0:0:0:
363,344,19570,2,0,L|352:270,1,50,2|0,0:2|0:0,0:0:0:0:
236,306,19712,6,0,L|247:232,1,50,2|0,0:0|0:0,0:0:0:0:
162,301,19855,2,0,L|151:375,1,50,2|0,0:2|0:0,0:0:0:0:
66,243,19998,5,2,0:2:0:0:
66,243,20070,1,0,0:0:0:0:
66,243,20141,2,0,L|73:193,1,50,2|0,0:2|0:0,0:0:0:0:
64,54,20284,1,2,0:0:0:0:
64,54,20356,1,0,0:0:0:0:
64,54,20427,2,0,L|71:104,1,50,2|0,0:2|0:0,0:0:0:0:
203,51,20570,1,2,0:2:0:0:
203,51,20642,1,0,0:0:0:0:
203,51,20713,2,0,L|196:101,1,50,2|0,0:2|0:0,0:0:0:0:
205,246,20855,6,0,L|198:196,1,50,2|0,0:0|0:0,0:0:0:0:
282,240,20998,2,0,L|289:290,1,50,2|0,0:2|0:0,0:0:0:0:
446,196,21141,5,2,0:2:0:0:
448,171,21212,1,0,0:0:0:0:
450,146,21283,1,2,0:0:0:0:
453,121,21355,1,2,0:0:0:0:
455,96,21427,1,2,0:0:0:0:
450,95,21498,1,0,0:0:0:0:
445,94,21570,2,0,L|395:87,1,50,2|0,0:2|0:0,0:0:0:0:
293,0,21712,1,2,0:2:0:0:
293,0,21783,1,0,0:0:0:0:
293,0,21855,2,0,L|311:46,1,50,2|0,0:2|0:0,0:0:0:0:
291,189,21998,6,0,L|322:149,1,50,2|0,0:0|0:0,0:0:0:0:
217,171,22141,2,0,L|185:210,1,50,2|0,0:2|0:0,0:0:0:0:
71,314,22284,5,2,0:2:0:0:
71,314,22355,1,0,0:0:0:0:
71,314,22427,2,0,L|136:309,1,50,2|0,0:2|0:0,0:0:0:0:
250,306,22570,1,2,0:0:0:0:
250,306,22641,1,0,0:0:0:0:
250,306,22713,2,0,L|245:241,1,50,2|0,0:2|0:0,0:0:0:0:
242,127,22855,1,2,0:2:0:0:
242,127,22926,1,0,0:0:0:0:
242,127,22998,2,0,L|245:168,2,25,2|2|2,0:2|0:2|0:2,0:0:0:0:
156,220,23141,5,2,0:0:0:0:
63,135,23284,1,2,0:2:0:0:
336,213,23427,5,6,0:2:0:0:
336,213,23498,1,0,0:0:0:0:
336,213,23570,2,0,L|347:145,1,50,2|0,0:2|0:0,0:0:0:0:
500,123,23712,1,2,0:0:0:0:
500,123,23783,1,0,0:0:0:0:
500,123,23855,2,0,L|489:191,1,50,2|0,0:2|0:0,0:0:0:0:
363,84,23998,1,2,0:2:0:0:
363,84,24069,1,0,0:0:0:0:
363,84,24141,2,0,L|431:95,1,50,2|0,0:2|0:0,0:0:0:0:
473,252,24284,6,0,L|405:241,1,50,2|0,0:0|0:0,0:0:0:0:
340,321,24427,2,0,L|408:310,1,50,2|0,0:2|0:0,0:0:0:0:
203,268,24570,5,2,0:2:0:0:
203,268,24641,1,0,0:0:0:0:
203,268,24712,2,0,L|192:200,1,50,2|0,0:2|0:0,0:0:0:0:
52,148,24855,1,2,0:0:0:0:
52,148,24926,1,0,0:0:0:0:
52,148,24998,2,0,L|120:137,1,50,2|0,0:2|0:0,0:0:0:0:
264,185,25141,1,2,0:2:0:0:
264,185,25212,1,0,0:0:0:0:
264,185,25283,2,0,L|253:117,1,50,2|0,0:2|0:0,0:0:0:0:
113,65,25427,6,0,L|181:54,1,50,2|0,0:0|0:0,0:0:0:0:
234,6,25570,2,0,L|245:74,1,50,2|0,0:2|0:0,0:0:0:0:
411,70,25712,5,2,0:2:0:0:
411,70,25784,1,0,0:0:0:0:
411,70,25855,2,0,L|418:119,1,50,2|0,0:2|0:0,0:0:0:0:
485,236,25998,1,2,0:0:0:0:
485,236,26070,1,0,0:0:0:0:
485,236,26141,2,0,L|492:187,1,50,2|0,0:2|0:0,0:0:0:0:
311,184,26284,1,2,0:2:0:0:
311,184,26356,1,0,0:0:0:0:
311,184,26427,2,0,L|318:233,1,50,2|0,0:2|0:0,0:0:0:0:
385,350,26570,6,0,L|392:301,1,50,2|0,0:0|0:0,0:0:0:0:
304,369,26712,2,0,L|255:362,1,50,2|0,0:2|0:0,0:0:0:0:
135,322,26855,5,2,0:2:0:0:
133,297,26926,1,0,0:0:0:0:
131,272,26997,1,2,0:2:0:0:
128,247,27069,1,2,0:2:0:0:
126,222,27141,1,2,0:0:0:0:
130,221,27212,1,0,0:0:0:0:
134,220,27284,2,0,L|184:213,1,50,2|0,0:2|0:0,0:0:0:0:
203,29,27427,6,0,L|194:97,1,50,6|0,0:3|0:0,0:0:0:0:
50,147,27570,1,2,0:2:0:0:
222,27,27712,6,0,L|213:95,1,50,12|0,0:3|0:0,0:0:0:0:
69,145,27855,1,2,0:2:0:0:
313,20,27998,5,6,0:2:0:0:
313,20,28070,1,0,0:0:0:0:
313,20,28141,2,0,L|362:26,1,50,2|0,0:2|0:0,0:0:0:0:
493,94,28284,1,2,0:0:0:0:
493,94,28356,1,0,0:0:0:0:
493,94,28427,2,0,L|444:100,1,50,2|0,0:2|0:0,0:0:0:0:
313,168,28570,1,2,0:2:0:0:
313,168,28642,1,0,0:0:0:0:
313,168,28713,2,0,L|362:174,1,50,2|0,0:2|0:0,0:0:0:0:
493,242,28855,6,0,L|444:248,1,50,2|0,0:0|0:0,0:0:0:0:
408,327,28998,2,0,L|457:321,1,50,2|0,0:2|0:0,0:0:0:0:
271,356,29141,5,2,0:2:0:0:
271,356,29212,1,0,0:0:0:0:
271,356,29284,2,0,L|261:283,1,50,2|0,0:2|0:0,0:0:0:0:
122,314,29427,1,2,0:0:0:0:
122,314,29498,1,0,0:0:0:0:
122,314,29570,2,0,L|166:255,1,50,2|0,0:2|0:0,0:0:0:0:
46,178,29712,1,2,0:2:0:0:
46,178,29783,1,0,0:0:0:0:
46,178,29855,2,0,L|118:168,1,50,2|0,0:2|0:0,0:0:0:0:
88,28,29998,6,0,L|146:72,1,50,2|0,0:0|0:0,0:0:0:0:
223,41,30141,2,0,L|164:-3,1,50,2|0,0:2|0:0,0:0:0:0:
259,159,30284,5,2,0:2:0:0:
284,161,30355,1,0,0:0:0:0:
309,163,30426,1,2,0:0:0:0:
334,166,30498,1,2,0:0:0:0:
359,168,30570,1,2,0:0:0:0:
359,163,30641,1,0,0:0:0:0:
359,158,30712,2,0,L|366:108,1,50,2|0,0:2|0:0,0:0:0:0:
495,64,30855,1,2,0:2:0:0:
495,64,30926,1,0,0:0:0:0:
495,64,30998,2,0,L|502:114,1,50,2|0,0:2|0:0,0:0:0:0:
438,254,31141,6,0,L|431:204,1,50,2|0,0:0|0:0,0:0:0:0:
356,272,31284,2,0,L|363:322,1,50,2|0,0:2|0:0,0:0:0:0:
204,315,31427,5,2,0:2:0:0:
204,315,31498,1,0,0:0:0:0:
204,315,31570,2,0,L|127:322,1,50,2|0,0:2|0:0,0:0:0:0:
51,181,31712,1,2,0:0:0:0:
51,181,31783,1,0,0:0:0:0:
51,181,31855,2,0,L|58:258,1,50,2|0,0:2|0:0,0:0:0:0:
26,370,31998,1,2,0:2:0:0:
26,370,32070,1,0,0:0:0:0:
26,370,32141,2,0,L|53:336,2,25,2|2|2,0:2|0:2|0:2,0:0:0:0:
157,223,32284,5,2,0:0:0:0:
174,380,32427,1,2,0:2:0:0:
303,127,32570,5,6,0:2:0:0:
253,120,32641,1,2,0:2:0:0:
203,113,32712,1,2,0:2:0:0:
154,106,32784,1,2,0:2:0:0:
104,99,32855,2,0,L|98:27,3,50,10|2|2|2,0:2|0:2|0:2|0:2,0:0:0:0:
196,22,33141,5,2,0:2:0:0:
245,28,33212,1,2,0:2:0:0:
295,35,33283,1,2,0:2:0:0:
344,42,33355,1,2,0:2:0:0:
394,49,33427,2,0,L|400:121,3,50,10|2|2|2,0:2|0:2|0:2|0:2,0:0:0:0:
364,194,33712,5,2,0:2:0:0:
314,201,33783,1,2,0:2:0:0:
264,208,33854,1,2,0:2:0:0:
215,215,33926,1,2,0:2:0:0:
165,222,33998,2,0,L|158:294,3,50,10|2|2|2,0:2|0:2|0:2|0:2,0:0:0:0:
257,299,34284,5,2,0:2:0:0:
307,292,34355,1,2,0:2:0:0:
357,285,34426,1,2,0:2:0:0:
406,278,34498,1,2,0:2:0:0:
456,271,34569,2,0,L|462:199,3,50,10|2|2|2,0:2|0:2|0:2|0:2,0:0:0:0:
406,107,34855,5,2,0:2:0:0:
356,103,34926,1,2,0:2:0:0:
308,115,34997,1,2,0:2:0:0:
266,143,35069,1,2,0:2:0:0:
236,182,35140,1,10,0:2:0:0:
205,221,35212,1,2,0:2:0:0:
163,248,35284,1,2,0:2:0:0:
115,261,35355,1,2,0:2:0:0:
66,257,35427,2,0,L|57:186,3,50,2|2|2|2,0:2|0:2|0:2|0:2,0:0:0:0:
154,151,35712,5,10,0:2:0:0:
150,200,35783,1,2,0:2:0:0:
163,248,35854,1,2,0:2:0:0:
190,290,35926,1,2,0:2:0:0:
229,321,35998,6,0,P|269:325|292:318,1,50,10|2,0:2|0:2,0:0:0:0:
349,190,36141,1,2,0:2:0:0:
349,190,36212,2,0,P|325:222|320:246,1,50,10|2,0:2|0:2,0:0:0:0:
403,360,36355,1,2,0:2:0:0:
403,360,36427,2,0,P|379:327|374:303,1,50,10|2,0:2|0:2,0:0:0:0:
483,211,36570,5,12,0:3:0:0:
454,79,36712,2,0,L|406:93,1,50,10|2,0:2|0:2,0:0:0:0:
280,27,36855,2,0,L|258:116,1,50,10|2,0:2|0:2,0:0:0:0:
211,222,36998,2,0,L|199:173,1,50,10|2,0:2|0:2,0:0:0:0:
100,21,37141,5,6,0:2:0:0:
100,21,37212,1,0,0:0:0:0:
100,21,37284,1,2,0:2:0:0:
28,76,37427,2,0,L|35:142,1,50,2|0,0:0|0:0,0:0:0:0:
44,220,37570,1,2,0:2:0:0:
135,108,37712,5,2,0:2:0:0:
159,104,37783,1,0,0:0:0:0:
184,107,37854,1,2,0:2:0:0:
208,114,37926,1,0,0:0:0:0:
229,127,37998,2,0,L|236:193,1,50,2|0,0:0|0:0,0:0:0:0:
269,293,38141,5,2,0:2:0:0:
245,297,38212,1,0,0:0:0:0:
220,294,38283,1,2,0:2:0:0:
196,287,38355,1,0,0:0:0:0:
175,274,38427,2,0,L|168:208,1,50,2|0,0:2|0:0,0:0:0:0:
360,181,38570,2,0,L|365:230,1,50,2|0,0:0|0:0,0:0:0:0:
376,325,38712,1,2,0:2:0:0:
478,162,38855,5,2,0:2:0:0:
472,137,38926,1,0,0:0:0:0:
462,114,38997,1,2,0:2:0:0:
447,95,39069,1,0,0:0:0:0:
427,79,39141,2,0,P|393:73|361:79,1,50,2|0,0:0|0:0,0:0:0:0:
241,91,39284,5,2,0:2:0:0:
246,67,39355,1,0,0:0:0:0:
256,44,39426,1,2,0:2:0:0:
271,25,39498,1,0,0:0:0:0:
292,8,39570,2,0,P|326:2|358:8,1,50,2|0,0:2|0:0,0:0:0:0:
266,222,39712,2,0,L|271:172,1,50,2|0,0:0|0:0,0:0:0:0:
340,96,39854,1,2,0:2:0:0:
154,256,39998,5,2,0:2:0:0:
142,233,40069,1,0,0:0:0:0:
136,209,40140,1,2,0:2:0:0:
136,184,40212,1,0,0:0:0:0:
142,160,40284,2,0,P|164:110|179:94,1,50,2|0,0:0|0:0,0:0:0:0:
245,277,40427,5,2,0:2:0:0:
236,300,40498,1,0,0:0:0:0:
221,320,40569,1,2,0:2:0:0:
201,335,40641,1,0,0:0:0:0:
178,344,40712,2,0,P|130:344|112:338,1,50,2|0,0:2|0:0,0:0:0:0:
0,262,40855,2,0,L|55:254,1,50,2|0,0:0|0:0,0:0:0:0:
136,209,40998,1,2,0:2:0:0:
21,75,41141,5,2,0:2:0:0:
23,94,41212,1,0,0:0:0:0:
25,114,41284,2,0,L|28:150,2,25,2|2|0,0:2|0:2|0:0,0:0:0:0:
49,254,41427,1,2,0:0:0:0:
165,100,41570,1,2,0:0:0:0:
279,192,41713,5,6,0:2:0:0:
279,192,41784,1,0,0:0:0:0:
279,192,41856,1,0,0:0:0:0:
334,120,41999,2,0,L|400:127,1,50,2|0,0:0|0:0,0:0:0:0:
478,136,42142,1,2,0:2:0:0:
422,346,42284,5,2,0:2:0:0:
406,326,42355,1,0,0:0:0:0:
396,303,42426,1,2,0:2:0:0:
392,278,42498,1,0,0:0:0:0:
394,254,42570,2,0,L|402:198,1,50,2|0,0:0|0:0,0:0:0:0:
413,70,42712,5,2,0:2:0:0:
393,54,42783,1,0,0:0:0:0:
370,44,42854,1,2,0:2:0:0:
345,40,42926,1,0,0:0:0:0:
321,42,42998,2,0,L|265:50,1,50,2|0,0:2|0:0,0:0:0:0:
198,213,43141,2,0,L|187:141,1,50,2|0,0:0|0:0,0:0:0:0:
175,66,43284,1,2,0:2:0:0:
101,277,43427,5,2,0:2:0:0:
115,297,43498,1,0,0:0:0:0:
134,313,43569,1,2,0:2:0:0:
156,324,43641,1,0,0:0:0:0:
181,329,43712,2,0,P|227:322|242:316,1,50,2|0,0:0|0:0,0:0:0:0:
288,232,43855,5,2,0:2:0:0:
310,220,43926,1,0,0:0:0:0:
335,216,43997,1,2,0:2:0:0:
359,217,44069,1,0,0:0:0:0:
383,226,44140,2,0,P|419:255|429:267,1,50,2|0,0:2|0:0,0:0:0:0:
239,370,44284,2,0,L|225:300,1,50,2|0,0:0|0:0,0:0:0:0:
207,210,44427,1,2,0:2:0:0:
65,345,44570,5,2,0:2:0:0:
50,325,44641,1,0,0:0:0:0:
42,301,44712,1,2,0:2:0:0:
42,276,44784,1,0,0:0:0:0:
51,253,44855,2,0,L|79:194,1,50,2|0,0:0|0:0,0:0:0:0:
192,230,44998,5,2,0:2:0:0:
207,210,45069,1,0,0:0:0:0:
215,186,45140,1,2,0:2:0:0:
215,161,45212,1,0,0:0:0:0:
206,138,45283,1,2,0:2:0:0:
195,115,45354,1,2,0:2:0:0:
184,92,45427,2,0,L|156:33,1,50,2|0,0:2|0:0,0:0:0:0:
34,164,45570,5,2,0:2:0:0:
59,165,45641,1,2,0:2:0:0:
84,167,45712,2,0,L|149:172,1,50,2|0,0:2|0:0,0:0:0:0:
95,1,45855,5,2,0:2:0:0:
81,22,45926,1,2,0:2:0:0:
67,42,45999,2,0,L|29:95,1,50,2|0,0:2|0:0,0:0:0:0:
101,262,46141,2,0,L|98:286,2,25,2|2|2,0:2|0:2|0:2,0:0:0:0:
197,304,46284,5,6,0:2:0:0:
197,304,46355,1,0,0:0:0:0:
197,304,46427,1,2,0:2:0:0:
288,234,46570,2,0,L|295:287,1,50,2|0,0:0|0:0,0:0:0:0:
385,353,46712,1,2,0:2:0:0:
472,287,46855,5,2,0:2:0:0:
485,266,46926,1,0,0:0:0:0:
494,242,46997,1,2,0:2:0:0:
496,217,47069,1,0,0:0:0:0:
492,193,47141,2,0,P|478:157|462:135,1,50,2|0,0:0|0:0,0:0:0:0:
357,23,47284,5,2,0:2:0:0:
343,43,47355,1,0,0:0:0:0:
334,67,47426,1,2,0:2:0:0:
332,92,47498,1,0,0:0:0:0:
337,117,47570,2,0,P|351:153|367:175,1,50,2|0,0:2|0:0,0:0:0:0:
381,278,47712,2,0,L|317:263,1,50,2|0,0:0|0:0,0:0:0:0:
257,171,47855,1,2,0:2:0:0:
200,339,47998,5,2,0:2:0:0:
181,322,48069,1,0,0:0:0:0:
167,301,48140,1,2,0:2:0:0:
157,278,48212,1,0,0:0:0:0:
153,254,48284,2,0,L|149:187,1,50,2|0,0:0|0:0,0:0:0:0:
187,89,48427,5,2,0:2:0:0:
163,80,48498,1,0,0:0:0:0:
138,78,48569,1,2,0:2:0:0:
113,81,48641,1,0,0:0:0:0:
89,90,48713,2,0,L|28:120,1,50,2|0,0:2|0:0,0:0:0:0:
31,283,48855,2,0,L|43:212,1,50,2|0,0:0|0:0,0:0:0:0:
150,173,48998,1,2,0:2:0:0:
245,265,49141,5,2,0:2:0:0:
269,262,49212,1,0,0:0:0:0:
294,259,49283,1,2,0:2:0:0:
319,256,49355,1,0,0:0:0:0:
344,253,49427,2,0,L|426:242,1,50,2|0,0:0|0:0,0:0:0:0:
466,138,49570,5,2,0:2:0:0:
442,141,49641,1,0,0:0:0:0:
417,144,49712,1,2,0:2:0:0:
392,147,49784,1,0,0:0:0:0:
367,150,49856,2,0,L|285:161,1,50,2|0,0:2|0:0,0:0:0:0:
189,63,49998,6,0,L|181:133,1,50,2|0,0:0|0:0,0:0:0:0:
170,223,50141,1,2,0:2:0:0:
65,33,50284,6,0,L|72:103,1,50,2|0,0:2|0:0,0:0:0:0:
84,232,50427,2,0,L|86:256,2,25,2|2|2,0:2|0:2|0:2,0:0:0:0:
25,341,50570,6,0,L|102:336,1,50,2|0,0:0|0:0,0:0:0:0:
275,288,50712,2,0,L|225:290,1,50,2|0,0:2|0:0,0:0:0:0:
150,314,50855,5,6,0:2:0:0:
150,314,50927,1,0,0:0:0:0:
150,314,50998,1,2,0:2:0:0:
243,368,51141,2,0,L|292:365,1,50,2|0,0:0|0:0,0:0:0:0:
410,355,51284,1,2,0:2:0:0:
460,234,51427,5,2,0:2:0:0:
460,209,51498,1,0,0:0:0:0:
453,185,51569,1,2,0:2:0:0:
439,164,51641,1,0,0:0:0:0:
419,149,51712,2,0,P|378:138|351:142,1,50,2|0,0:0|0:0,0:0:0:0:
249,150,51855,5,2,0:2:0:0:
248,174,51926,1,0,0:0:0:0:
255,198,51997,1,2,0:2:0:0:
269,219,52069,1,0,0:0:0:0:
290,235,52140,2,0,P|331:246|358:242,1,50,2|0,0:2|0:0,0:0:0:0:
305,73,52284,2,0,L|235:61,1,50,2|0,0:0|0:0,0:0:0:0:
162,161,52427,1,2,0:2:0:0:
29,64,52570,5,2,0:2:0:0:
31,88,52641,1,0,0:0:0:0:
33,113,52712,1,2,0:2:0:0:
35,138,52784,1,0,0:0:0:0:
37,163,52855,2,0,L|41:212,1,50,2|0,0:0|0:0,0:0:0:0:
76,338,52998,5,2,0:2:0:0:
99,330,53069,1,0,0:0:0:0:
120,317,53140,1,2,0:2:0:0:
138,299,53212,1,0,0:0:0:0:
152,277,53284,2,0,P|161:242|161:219,1,50,2|0,0:2|0:0,0:0:0:0:
111,81,53427,2,0,L|173:90,1,50,2|0,0:0|0:0,0:0:0:0:
240,183,53570,1,2,0:2:0:0:
247,331,53712,5,2,0:2:0:0:
269,340,53783,1,0,0:0:0:0:
294,344,53854,1,2,0:2:0:0:
319,341,53926,1,0,0:0:0:0:
342,331,53998,2,0,P|364:313|378:295,1,50,2|0,0:0|0:0,0:0:0:0:
447,167,54141,1,2,0:2:0:0:
425,158,54212,1,0,0:0:0:0:
400,154,54283,5,12,0:3:0:0:
280,71,54427,1,2,0:2:0:0:
375,157,54570,1,2,0:0:0:0:
158,88,54712,1,10,0:2:0:0:
352,167,54855,5,10,0:2:0:0:
181,275,54998,2,0,P|171:245|170:211,1,50,2|0,0:2|0:0,0:0:0:0:
58,132,55141,2,0,P|60:160|47:196,1,50,10|0,0:2|0:0,0:0:0:0:
19,321,55284,2,0,P|43:329|68:329,1,50,2|0,0:2|0:0,0:0:0:0:
269,239,55427,5,12,0:2:0:0:
298,243,55498,1,0,0:0:0:0:
327,247,55570,2,0,L|337:313,1,50,2|0,0:2|0:0,0:0:0:0:
504,172,55712,1,8,0:2:0:0:
475,176,55783,1,0,0:0:0:0:
446,180,55855,2,0,L|436:246,1,50,2|0,0:2|0:0,0:0:0:0:
269,105,55998,5,8,0:2:0:0:
298,109,56069,1,0,0:0:0:0:
327,113,56141,2,0,L|337:179,1,50,2|0,0:2|0:0,0:0:0:0:
504,38,56284,1,8,0:2:0:0:
475,42,56355,1,0,0:0:0:0:
446,46,56427,2,0,L|436:112,1,50,2|0,0:2|0:0,0:0:0:0:
327,247,56570,5,8,0:2:0:0:
298,243,56641,1,0,0:0:0:0:
269,239,56713,2,0,L|259:173,1,50,2|0,0:2|0:0,0:0:0:0:
193,53,56855,2,0,L|144:46,1,50,8|0,0:2|0:0,0:0:0:0:
25,117,56998,1,2,0:2:0:0:
18,146,57070,1,0,0:0:0:0:
17,175,57141,5,8,0:2:0:0:
21,204,57212,1,0,0:0:0:0:
30,232,57284,2,0,P|42:259|59:280,1,50,2|0,0:2|0:0,0:0:0:0:
203,169,57427,2,0,P|178:169|154:177,1,50,8|0,0:2|0:0,0:0:0:0:
129,332,57570,2,0,P|152:340|177:340,1,50,2|0,0:2|0:0,0:0:0:0:
329,344,57712,6,0,L|341:282,1,50,8|0,0:2|0:0,0:0:0:0:
407,185,57855,2,0,L|416:234,1,50,2|0,0:2|0:0,0:0:0:0:
290,193,57998,1,8,0:2:0:0:
261,189,58069,1,0,0:0:0:0:
232,185,58141,2,0,L|222:119,1,50,2|0,0:2|0:0,0:0:0:0:
300,40,58284,5,8,0:2:0:0:
329,44,58355,1,0,0:0:0:0:
358,48,58427,2,0,L|368:114,1,50,2|0,0:2|0:0,0:0:0:0:
384,292,58570,2,0,P|370:270|364:246,1,50,8|0,0:2|0:0,0:0:0:0:
501,168,58712,2,0,P|477:174|452:173,1,50,2|0,0:2|0:0,0:0:0:0:
282,115,58855,5,8,0:2:0:0:
253,111,58926,1,0,0:0:0:0:
224,107,58998,2,0,L|214:41,1,50,2|0,0:2|0:0,0:0:0:0:
72,100,59141,1,8,0:2:0:0:
68,129,59212,1,0,0:0:0:0:
65,157,59284,2,0,L|57:206,1,50,2|0,0:2|0:0,0:0:0:0:
116,344,59427,5,8,0:2:0:0:
146,343,59498,1,0,0:0:0:0:
176,343,59570,2,0,L|182:300,1,25,2|2,0:2|0:2,0:0:0:0:
207,343,59641,2,0,L|213:300,1,25,2|2,0:2|0:2,0:0:0:0:
238,342,59712,2,0,L|246:290,1,50,8|0,0:2|0:0,0:0:0:0:
380,257,59855,2,0,L|387:306,1,50,2|0,0:0|0:0,0:0:0:0:
474,131,59998,5,12,0:2:0:0:
444,123,60070,1,0,0:0:0:0:
414,120,60141,2,0,P|376:120|330:130,1,50,2|0,0:2|0:0,0:0:0:0:
176,182,60284,1,8,0:2:0:0:
206,190,60356,1,0,0:0:0:0:
236,193,60427,2,0,P|274:193|320:183,1,50,2|0,0:2|0:0,0:0:0:0:
356,91,60570,5,8,0:2:0:0:
326,83,60642,1,0,0:0:0:0:
296,80,60713,2,0,P|258:80|212:90,1,50,2|0,0:2|0:0,0:0:0:0:
58,142,60856,1,2,0:0:0:0:
88,150,60928,1,0,0:0:0:0:
118,153,60999,2,0,P|156:153|202:143,1,50,2|0,0:2|0:0,0:0:0:0:
238,51,61141,5,8,0:2:0:0:
208,43,61213,1,0,0:0:0:0:
178,40,61284,2,0,P|140:40|94:50,1,50,2|0,0:2|0:0,0:0:0:0:
17,214,61427,1,8,0:2:0:0:
31,244,61498,1,0,0:0:0:0:
53,268,61569,1,2,0:2:0:0:
83,283,61641,1,0,0:0:0:0:
115,289,61712,5,8,0:2:0:0:
148,284,61784,1,0,0:0:0:0:
178,269,61855,2,0,P|206:244|216:228,1,50,2|0,0:2|0:0,0:0:0:0:
331,89,61998,1,8,0:2:0:0:
304,301,62141,1,2,0:2:0:0:
456,120,62284,5,8,0:2:0:0:
461,149,62356,1,0,0:0:0:0:
466,178,62427,2,0,L|480:257,1,50,2|0,0:2|0:0,0:0:0:0:
345,117,62570,1,8,0:2:0:0:
316,122,62642,1,0,0:0:0:0:
287,127,62712,2,0,L|273:206,1,50,2|0,0:2|0:0,0:0:0:0:
131,241,62855,5,8,0:2:0:0:
160,236,62927,1,0,0:0:0:0:
189,231,62998,2,0,L|203:152,1,50,2|0,0:2|0:0,0:0:0:0:
35,142,63141,2,0,P|26:165|25:190,1,50,8|0,0:2|0:0,0:0:0:0:
69,340,63284,2,0,P|92:348|117:349,1,50,2|0,0:2|0:0,0:0:0:0:
283,328,63427,5,8,0:2:0:0:
297,301,63498,1,0,0:0:0:0:
305,272,63570,2,0,P|310:245|308:212,1,50,2|0,0:2|0:0,0:0:0:0:
308,78,63712,2,0,L|260:67,1,50,8|0,0:2|0:0,0:0:0:0:
436,138,63855,2,0,L|447:186,1,50,2|0,0:2|0:0,0:0:0:0:
431,343,63998,6,0,L|420:295,1,50,8|0,0:2|0:0,0:0:0:0:
324,142,64141,1,10,0:2:0:0:
317,182,64212,1,2,0:0:0:0:
309,222,64284,2,0,L|291:304,1,50,8|0,0:2|0:0,0:0:0:0:
181,178,64427,1,10,0:2:0:0:
145,168,64498,1,2,0:0:0:0:
114,141,64570,5,12,0:2:0:0:
110,170,64641,1,0,0:0:0:0:
106,199,64712,2,0,L|95:268,1,50,2|0,0:2|0:0,0:0:0:0:
0,247,64855,1,8,0:2:0:0:
4,276,64926,1,0,0:0:0:0:
8,305,64998,2,0,L|19:374,1,50,2|0,0:2|0:0,0:0:0:0:
170,381,65141,5,8,0:2:0:0:
174,352,65212,1,0,0:0:0:0:
178,323,65283,2,0,L|189:254,1,50,2|0,0:2|0:0,0:0:0:0:
284,275,65426,1,8,0:2:0:0:
280,246,65497,1,0,0:0:0:0:
276,217,65570,2,0,L|265:148,1,50,2|0,0:2|0:0,0:0:0:0:
142,59,65712,5,8,0:2:0:0:
171,63,65783,1,0,0:0:0:0:
200,67,65855,2,0,L|211:136,1,50,2|0,0:2|0:0,0:0:0:0:
316,24,65998,2,0,L|365:31,1,50,8|0,0:2|0:0,0:0:0:0:
470,119,66141,1,2,0:2:0:0:
477,148,66213,1,0,0:0:0:0:
478,177,66284,5,8,0:2:0:0:
474,206,66355,1,0,0:0:0:0:
465,234,66427,2,0,P|453:261|436:282,1,50,2|0,0:2|0:0,0:0:0:0:
289,167,66570,2,0,P|314:167|338:175,1,50,8|0,0:2|0:0,0:0:0:0:
333,305,66712,2,0,P|321:332|304:353,1,50,2|0,0:2|0:0,0:0:0:0:
188,224,66855,6,0,L|112:209,1,50,8|0,0:2|0:0,0:0:0:0:
32,336,66998,2,0,L|41:286,1,50,2|0,0:2|0:0,0:0:0:0:
3,135,67141,1,8,0:2:0:0:
12,107,67212,1,0,0:0:0:0:
26,81,67284,2,0,P|42:56|63:39,1,50,2|0,0:2|0:0,0:0:0:0:
219,138,67427,5,8,0:2:0:0:
190,144,67498,1,0,0:0:0:0:
160,145,67570,2,0,P|130:142|105:133,1,50,2|0,0:2|0:0,0:0:0:0:
300,34,67712,2,0,P|312:57|317:81,1,50,8|0,0:2|0:0,0:0:0:0:
416,174,67855,2,0,P|441:173|465:166,1,50,2|0,0:2|0:0,0:0:0:0:
370,329,67998,5,8,0:2:0:0:
341,325,68069,1,0,0:0:0:0:
312,321,68141,2,0,L|304:271,1,50,2|0,0:2|0:0,0:0:0:0:
241,145,68284,1,8,0:2:0:0:
212,149,68355,1,0,0:0:0:0:
183,153,68427,2,0,L|175:202,1,50,2|0,0:2|0:0,0:0:0:0:
20,276,68570,5,8,0:2:0:0:
20,246,68641,1,0,0:0:0:0:
20,216,68712,2,0,L|64:202,1,25,2|2,0:2|0:2,0:0:0:0:
20,186,68784,2,0,L|64:172,1,25,2|0,0:2|0:0,0:0:0:0:
20,156,68855,2,0,L|70:139,1,50,8|0,0:2|0:0,0:0:0:0:
110,302,68998,2,0,L|157:318,1,50,2|0,0:0|0:0,0:0:0:0:
323,250,69141,5,8,0:2:0:0:
328,210,69212,1,0,0:0:0:0:
333,170,69284,2,0,L|342:87,1,50,2|0,0:2|0:0,0:0:0:0:
189,250,69427,1,8,0:2:0:0:
184,210,69498,1,0,0:0:0:0:
179,170,69570,2,0,L|170:87,1,50,2|0,0:2|0:0,0:0:0:0:
381,338,69712,5,8,0:2:0:0:
392,299,69783,1,0,0:0:0:0:
404,260,69855,2,0,L|427:179,1,50,2|0,0:2|0:0,0:0:0:0:
131,338,69998,1,8,0:2:0:0:
120,299,70069,1,0,0:0:0:0:
108,260,70141,2,0,L|84:179,1,50,2|0,0:2|0:0,0:0:0:0:
323,90,70284,5,8,0:2:0:0:
328,130,70355,1,0,0:0:0:0:
333,170,70427,2,0,L|413:183,1,50,2|0,0:2|0:0,0:0:0:0:
189,90,70570,1,8,0:2:0:0:
184,130,70641,1,0,0:0:0:0:
179,170,70713,2,0,L|99:183,1,50,2|0,0:2|0:0,0:0:0:0:
367,309,70855,6,0,L|375:259,1,50,8|0,0:2|0:0,0:0:0:0:
403,110,70998,2,0,L|411:60,1,50,2|0,0:2|0:0,0:0:0:0:
145,309,71141,6,0,L|136:259,1,50,8|0,0:2|0:0,0:0:0:0:
109,110,71284,2,0,L|100:60,1,50,2|0,0:2|0:0,0:0:0:0:
256,336,71427,5,10,0:2:0:0:
275,304,71498,1,2,0:2:0:0:
283,267,71569,1,2,0:2:0:0:
275,231,71641,1,2,0:2:0:0:
255,199,71712,1,10,0:2:0:0:
234,167,71784,1,2,0:2:0:0:
227,130,71856,1,2,0:2:0:0:
234,94,71927,1,2,0:2:0:0:
254,62,71998,5,10,0:2:0:0:
297,85,72069,1,2,0:2:0:0:
314,131,72140,1,2,0:2:0:0:
296,176,72212,1,2,0:2:0:0:
253,199,72283,1,10,0:2:0:0:
209,221,72355,1,2,0:2:0:0:
192,267,72427,1,2,0:2:0:0:
209,313,72498,1,2,0:2:0:0:
252,336,72569,5,10,0:2:0:0:
403,122,72712,1,10,0:2:0:0:
395,181,72784,1,10,0:2:0:0:
387,240,72855,2,0,L|311:257,1,62.5,10|2,0:2|0:2,0:0:0:0:
109,122,72998,1,10,0:2:0:0:
117,181,73070,1,10,0:2:0:0:
125,240,73141,2,0,L|201:257,1,62.5,10|2,0:2|0:2,0:0:0:0:
256,24,73284,5,10,0:2:0:0:
255,98,73355,1,10,0:2:0:0:
256,173,73427,2,0,L|256:253,1,62.5,10|2,0:2|0:2,0:0:0:0:
256,352,73570,2,0,L|256:384,2,31.25,10|10|10,0:2|0:2|0:2,0:0:0:0:
256,173,73712,5,6,0:2:0:0:
272,243,74855,5,4,0:0:0:0:
242,99,75998,5,4,0:0:0:0:
272,243,76284,1,4,0:0:0:0:
207,302,76570,1,2,0:0:0:0:
382,146,76855,2,0,L|421:152,3,37.5000014305115,2|2|2|2,0:0|0:0|0:0|0:0,0:0:0:0:
272,243,77141,5,4,0:0:0:0:
84,87,77998,5,4,0:0:0:0:
173,87,78141,1,4,0:0:0:0:
127,164,78284,1,4,0:0:0:0:
88,362,78855,6,0,L|82:324,7,37.5000014305115,2|2|2|2|2|2|2|2,0:0|0:0|0:0|0:0|0:0|0:0|0:0|0:0,0:0:0:0:
192,239,79427,1,4,0:0:0:0:
392,299,80570,5,4,0:0:0:0:
365,93,80855,1,4,0:0:0:0:
378,196,81141,1,2,0:0:0:0:
217,75,81427,2,0,L|155:69,3,37.5000014305115,2|2|2|2,0:0|0:0|0:0|0:0,0:0:0:0:
365,93,81712,5,4,0:0:0:0:
87,313,82570,5,4,0:0:0:0:
87,224,82713,1,4,0:0:0:0:
164,270,82856,1,4,0:0:0:0:
261,48,83427,6,0,L|267:107,7,37.5000014305115,2|2|2|2|2|2|2|2,0:0|0:0|0:0|0:0|0:0|0:0|0:0|0:0,0:0:0:0:
224,224,83998,1,4,0:0:0:0:
353,336,85141,5,4,0:0:0:0:
413,149,85427,1,4,0:0:0:0:
289,212,85712,1,2,0:0:0:0:
476,272,85998,2,0,L|480:333,3,37.5000014305115,2|2|2|2,0:0|0:0|0:0|0:0,0:0:0:0:
413,149,86284,5,4,0:0:0:0:
161,40,87141,5,4,0:0:0:0:
250,40,87284,1,4,0:0:0:0:
204,117,87427,1,4,0:0:0:0:
161,322,87998,6,0,L|95:331,7,37.5000014305115,2|2|2|2|2|2|2|2,0:0|0:0|0:0|0:0|0:0|0:0|0:0|0:0,0:0:0:0:
84,188,88570,1,4,0:0:0:0:
340,335,89712,5,4,0:0:0:0:
389,132,89998,1,4,0:0:0:0:
262,185,90284,1,2,0:0:0:0:
467,282,90570,2,0,L|462:227,3,37.5000014305115,2|2|2|2,0:0|0:0|0:0|0:0,0:0:0:0:
389,132,90855,5,4,0:0:0:0:
250,344,91712,5,4,0:0:0:0:
204,267,91855,1,4,0:0:0:0:
161,344,91998,1,4,0:0:0:0:
38,135,92570,6,0,L|96:125,7,37.5000014305115,2|2|2|2|2|2|2|2,0:0|0:0|0:0|0:0|0:0|0:0|0:0|0:0,0:0:0:0:
123,51,93141,6,0,B|168:63|212:39|212:39|251:143|372:107,1,280,4|0,0:0|0:0,0:0:0:0:
457,80,94284,1,4,0:0:0:0:
498,256,94570,1,4,0:0:0:0:
417,342,94855,1,2,0:0:0:0:
376,166,95141,2,0,L|368:217,3,37.5000014305115,2|2|2|2,0:0|0:0|0:0|0:0,0:0:0:0:
316,272,95427,6,0,B|265:280|217:256|217:256|174:290|114:288,1,200,4|0,0:0|0:0,0:0:0:0:
51,253,96284,1,4,0:0:0:0:
78,173,96427,1,4,0:0:0:0:
51,93,96570,1,4,0:0:0:0:
193,39,97141,6,0,L|240:45,7,37.5000014305115,2|2|2|2|2|2|2|2,0:0|0:0|0:0|0:0|0:0|0:0|0:0|0:0,0:0:0:0:
311,75,97712,2,0,P|362:52|446:213,1,280,4|0,0:0|0:0,0:0:0:0:
409,280,98855,5,4,0:0:0:0:
217,214,99141,1,4,0:0:0:0:
225,325,99427,1,2,0:0:0:0:
355,181,99712,2,0,L|390:132,3,37.5000014305115,2|2|2|2,0:0|0:0|0:0|0:0,0:0:0:0:
291,99,99998,6,0,B|179:97|216:166|95:162,1,200,4|0,0:0|0:0,0:0:0:0:
27,119,100855,1,4,0:0:0:0:
0,199,100998,1,4,0:0:0:0:
27,279,101141,1,4,0:0:0:0:
212,347,101712,6,0,L|253:342,7,37.5000014305115,2|2|2|2|2|2|2|2,0:0|0:0|0:0|0:0|0:0|0:0|0:0|0:0,0:0:0:0:
340,365,102284,2,0,B|427:316|399:214|399:214|449:188|444:128,1,280,4|0,0:0|0:0,0:0:0:0:
433,45,103427,5,4,0:0:0:0:
234,169,103712,1,4,0:0:0:0:
362,143,103998,1,2,0:0:0:0:
148,92,104284,2,0,L|143:50,3,37.5000014305115,2|2|2|2,0:0|0:0|0:0|0:0,0:0:0:0:
63,117,104570,2,0,P|45:152|81:305,1,200,4|0,0:0|0:0,0:0:0:0:
156,345,105427,5,4,0:0:0:0:
240,341,105570,1,4,0:0:0:0:
278,266,105712,1,4,0:0:0:0:
196,48,106284,6,0,L|191:96,7,37.5000014305115,2|2|2|2|2|2|2|2,0:0|0:0|0:0|0:0|0:0|0:0|0:0|0:0,0:0:0:0:
280,80,106855,2,0,P|373:62|479:206,1,280,4|0,0:0|0:0,0:0:0:0:
467,282,107998,5,4,0:0:0:0:
287,207,108284,1,4,0:0:0:0:
339,334,108570,1,2,0:0:0:0:
159,259,108855,2,0,L|153:300,3,37.5000014305115,2|2|2|2,0:0|0:0|0:0|0:0,0:0:0:0:
67,282,109141,2,0,B|32:233|63:189|63:189|34:127|81:89,1,200,4|0,0:0|0:0,0:0:0:0:
156,39,109998,5,4,0:0:0:0:
240,43,110141,1,4,0:0:0:0:
278,118,110284,1,4,0:0:0:0:
456,222,110855,6,0,L|462:172,7,37.5000014305115,2|2|2|2|2|2|2|2,0:0|0:0|0:0|0:0|0:0|0:0|0:0|0:0,0:0:0:0:
333,336,111427,6,0,B|326:272|231:271|223:335|223:335|134:356|66:302|66:302|98:213|48:137,1,494.99999848938,4|0,0:0|0:0,0:0:0:0:
83,65,113712,6,0,L|137:59,1,49.7999975683595,0|0,0:0|0:0,0:0:0:0:
220,49,114284,2,0,B|229:87|229:87|216:131,1,79.7999999512939,0|0,0:0|0:0,0:0:0:0:
168,192,114855,2,0,B|221:208|221:208|285:187,1,109.800005696411,0|0,0:0|0:0,0:0:0:0:
346,142,115427,2,0,L|374:223,1,79.7999999512939,0|0,0:0|0:0,0:0:0:0:
473,248,115998,6,0,B|511:178|474:112|474:112|410:96|410:96|387:29|387:29|296:65|208:28|208:28|191:93|191:93|96:83|41:175,1,699.000015572205,0|0,0:0|0:0,0:0:0:0:
44,259,118284,2,0,B|95:287|85:354|85:354|186:324|186:324|288:356|288:356|372:332,1,402.600020886842,0|0,0:0|0:0,0:0:0:0:
447,300,119998,6,0,L|450:284,1,16.5999991894532,0|0,0:0|0:0,0:0:0:0:
385,236,120284,2,0,L|379:203,1,26.5999999837646,0|0,0:0|0:0,0:0:0:0:
471,162,120570,6,0,B|507:113|497:52|497:52|434:35|380:68,1,230.999999295044,0|0,0:0|0:0,0:0:0:0:
320,129,121712,6,0,P|282:137|234:127,1,79.7999999512939,0|0,0:0|0:0,0:0:0:0:
156,94,122284,2,0,L|139:197,1,98.999999697876,0|0,0:0|0:0,0:0:0:0:
210,272,122855,6,0,B|282:264|282:264|302:234|302:234|380:221,1,186.199999886353,0|0,0:0|0:0,0:0:0:0:
332,135,123998,2,0,P|322:89|340:25,1,107.899994731446,0|0,0:0|0:0,0:0:0:0:
416,81,125141,5,6,0:2:0:0:
416,87,125212,1,2,0:2:0:0:
417,94,125283,1,2,0:2:0:0:
418,100,125355,1,2,0:2:0:0:
419,107,125426,1,2,0:2:0:0:
419,114,125498,1,2,0:2:0:0:
420,120,125569,1,2,0:2:0:0:
421,127,125640,1,2,0:2:0:0:
422,133,125712,1,2,0:2:0:0:
422,140,125783,1,2,0:2:0:0:
423,147,125855,1,2,0:2:0:0:
424,153,125926,1,2,0:2:0:0:
425,160,125998,1,2,0:2:0:0:
425,167,126069,1,2,0:2:0:0:
426,173,126141,1,2,0:2:0:0:
427,180,126212,1,2,0:2:0:0:
428,186,126284,1,6,0:2:0:0:
428,193,126355,1,2,0:2:0:0:
429,200,126426,1,2,0:2:0:0:
430,206,126498,1,2,0:2:0:0:
431,213,126569,1,6,0:2:0:0:
431,220,126640,1,2,0:2:0:0:
432,226,126712,1,2,0:2:0:0:
433,233,126783,1,2,0:2:0:0:
434,239,126855,1,10,0:2:0:0:
434,246,126926,1,2,0:2:0:0:
435,253,126998,1,2,0:2:0:0:
436,259,127069,1,2,0:2:0:0:
437,266,127140,1,10,0:2:0:0:
437,273,127212,1,10,0:2:0:0:
438,279,127283,1,10,0:2:0:0:
439,286,127355,1,10,0:2:0:0:
440,292,127427,5,6,0:2:0:0:
427,286,127498,1,2,0:2:0:0:
414,282,127569,1,2,0:2:0:0:
400,279,127641,1,2,0:2:0:0:
387,276,127712,1,2,0:2:0:0:
373,275,127784,1,2,0:2:0:0:
359,275,127855,1,2,0:2:0:0:
346,276,127926,1,2,0:2:0:0:
332,278,127998,1,2,0:2:0:0:
319,280,128069,1,2,0:2:0:0:
305,284,128141,1,2,0:2:0:0:
292,289,128212,1,2,0:2:0:0:
280,295,128284,1,6,0:2:0:0:
268,301,128355,1,2,0:2:0:0:
256,309,128426,1,6,0:2:0:0:
245,317,128498,1,2,0:2:0:0:
235,326,128570,5,6,0:2:0:0:
216,334,128641,1,2,0:2:0:0:
195,337,128712,1,2,0:2:0:0:
175,334,128784,1,2,0:2:0:0:
156,326,128855,1,2,0:2:0:0:
140,313,128927,1,2,0:2:0:0:
128,296,128998,1,2,0:2:0:0:
121,277,129069,1,2,0:2:0:0:
120,256,129141,1,2,0:2:0:0:
125,229,129212,1,2,0:2:0:0:
138,205,129284,1,2,0:2:0:0:
164,185,129355,1,2,0:2:0:0:
195,175,129427,1,2,0:2:0:0:
233,177,129498,1,2,0:2:0:0:
269,191,129570,1,2,0:2:0:0:
307,191,129641,1,2,0:2:0:0:
352,171,129712,5,6,0:2:0:0:
352,171,130570,5,4,0:0:0:0:
331,71,130712,1,4,0:0:0:0:
352,171,130855,1,4,0:0:0:0:
352,171,131427,5,4,0:0:0:0:
352,171,131998,5,4,0:0:0:0:
339,248,133712,5,0,0:0:0:0:
206,343,133855,2,0,P|165:354|133:350,1,55.0000016784668,0|0,0:0|0:0,0:0:0:0:
144,260,133998,2,0,P|107:238|87:213,1,55.0000016784668,0|0,0:0|0:0,0:0:0:0:
158,157,134141,2,0,P|147:116|151:84,1,55.0000016784668,0|0,0:0|0:0,0:0:0:0:
252,51,134284,5,14,0:2:0:0:
298,35,134355,1,0,0:0:0:0:
347,42,134426,1,0,0:0:0:0:
387,71,134498,1,2,0:2:0:0:
410,116,134569,1,2,0:0:0:0:
409,165,134641,1,0,0:0:0:0:
386,209,134712,1,2,0:2:0:0:
345,237,134784,1,0,0:0:0:0:
296,243,134855,1,10,0:2:0:0:
247,238,134926,1,0,0:0:0:0:
203,214,134997,1,0,0:0:0:0:
171,176,135069,1,2,0:2:0:0:
156,129,135141,1,2,0:0:0:0:
117,98,135212,1,0,0:0:0:0:
68,94,135283,1,2,0:2:0:0:
24,116,135355,1,0,0:0:0:0:
0,159,135426,5,10,0:2:0:0:
2,208,135498,1,0,0:0:0:0:
30,249,135569,1,0,0:0:0:0:
76,267,135641,1,2,0:2:0:0:
124,258,135712,1,2,0:0:0:0:
170,238,135783,1,0,0:0:0:0:
219,242,135854,1,2,0:2:0:0:
260,269,135926,1,0,0:0:0:0:
283,313,135998,1,10,0:2:0:0:
324,341,136069,1,0,0:0:0:0:
373,348,136140,1,0,0:0:0:0:
421,333,136212,1,2,0:2:0:0:
457,300,136283,1,2,0:0:0:0:
475,254,136355,1,0,0:0:0:0:
471,204,136426,1,2,0:2:0:0:
447,161,136498,1,0,0:0:0:0:
406,133,136570,6,0,P|371:133|341:141,3,50,10|0|0|2,0:2|0:0|0:0|0:2,0:0:0:0:
295,45,136855,1,2,0:0:0:0:
273,56,136926,1,0,0:0:0:0:
248,61,136997,1,2,0:2:0:0:
223,61,137069,1,0,0:0:0:0:
199,56,137141,6,0,P|168:49|138:35,3,50,10|0|0|2,0:2|0:0|0:0|0:2,0:0:0:0:
62,123,137427,1,2,0:0:0:0:
47,160,137498,1,0,0:0:0:0:
42,199,137569,1,2,0:2:0:0:
47,239,137641,1,0,0:0:0:0:
61,276,137712,6,0,P|83:310|105:327,3,55.0000016784668,10|0|0|2,0:2|0:0|0:0|0:2,0:0:0:0:
174,203,137998,1,2,0:0:0:0:
228,200,138069,1,0,0:0:0:0:
283,197,138140,1,2,0:2:0:0:
338,194,138212,1,0,0:0:0:0:
393,191,138284,6,0,L|456:189,3,50,10|0|0|2,0:2|0:0|0:0|0:2,0:0:0:0:
331,308,138570,1,2,0:0:0:0:
291,311,138641,1,0,0:0:0:0:
252,303,138713,1,10,0:2:0:0:
217,284,138784,1,0,0:0:0:0:
188,256,138855,5,14,0:2:0:0:
228,200,138926,1,0,0:0:0:0:
294,182,138997,1,0,0:0:0:0:
358,209,139070,1,2,0:2:0:0:
424,195,139141,1,2,0:0:0:0:
464,139,139212,1,0,0:0:0:0:
453,71,139284,1,2,0:2:0:0:
399,30,139355,1,0,0:0:0:0:
331,36,139427,1,10,0:2:0:0:
284,88,139498,1,0,0:0:0:0:
216,94,139570,1,0,0:0:0:0:
152,68,139641,1,2,0:2:0:0:
84,83,139712,1,2,0:0:0:0:
38,134,139784,1,0,0:0:0:0:
29,203,139855,1,2,0:2:0:0:
61,264,139927,1,0,0:0:0:0:
122,296,139998,5,10,0:2:0:0:
190,287,140070,1,0,0:0:0:0:
242,241,140141,1,0,0:0:0:0:
279,184,140212,1,2,0:2:0:0:
345,169,140283,1,2,0:0:0:0:
404,204,140355,1,0,0:0:0:0:
421,270,140426,1,2,0:2:0:0:
388,330,140498,1,0,0:0:0:0:
319,342,140570,1,10,0:2:0:0:
260,306,140641,1,0,0:0:0:0:
242,241,140712,1,0,0:0:0:0:
203,183,140783,1,2,0:2:0:0:
138,161,140854,1,2,0:0:0:0:
73,181,140926,1,0,0:0:0:0:
33,237,140997,1,2,0:2:0:0:
35,306,141069,1,0,0:0:0:0:
77,360,141140,5,10,0:2:0:0:
116,322,141212,1,0,0:0:0:0:
129,269,141283,1,0,0:0:0:0:
113,218,141355,1,2,0:2:0:0:
73,181,141427,1,2,0:0:0:0:
41,137,141498,1,0,0:0:0:0:
39,83,141569,1,2,0:2:0:0:
67,36,141641,1,0,0:0:0:0:
116,12,141712,1,10,0:2:0:0:
170,19,141784,1,0,0:0:0:0:
211,53,141855,1,0,0:0:0:0:
265,60,141927,1,2,0:2:0:0:
314,36,141998,1,2,0:0:0:0:
367,29,142069,1,0,0:0:0:0:
417,50,142140,1,2,0:2:0:0:
450,94,142212,1,0,0:0:0:0:
456,148,142283,5,10,0:2:0:0:
434,197,142355,1,0,0:0:0:0:
390,229,142426,1,2,0:0:0:0:
336,235,142498,1,10,0:2:0:0:
287,212,142570,2,0,P|251:198|203:203,1,50,10|0,0:2|0:0,0:0:0:0:
115,115,142712,1,2,0:0:0:0:
115,115,142784,1,10,0:2:0:0:
115,115,142855,6,0,P|97:98|75:89,3,50,10|0|10|2,0:2|0:0|0:2|0:2,0:0:0:0:
14,272,143141,2,0,P|32:289|55:299,3,50,10|0|10|2,0:2|0:0|0:2|0:2,0:0:0:0:
241,351,143427,5,14,0:2:0:0:
285,329,143498,1,0,0:0:0:0:
315,289,143569,1,0,0:0:0:0:
323,241,143641,1,2,0:2:0:0:
306,195,143712,1,2,0:0:0:0:
313,146,143784,1,0,0:0:0:0:
343,106,143855,1,2,0:2:0:0:
388,85,143926,1,0,0:0:0:0:
438,89,143998,1,10,0:2:0:0:
477,119,144069,1,0,0:0:0:0:
496,164,144140,1,0,0:0:0:0:
489,213,144212,1,2,0:2:0:0:
460,253,144283,1,2,0:0:0:0:
415,273,144355,1,0,0:0:0:0:
365,267,144426,1,2,0:2:0:0:
325,238,144498,1,0,0:0:0:0:
305,194,144570,6,0,P|307:162|325:119,3,50,10|0|0|2,0:2|0:0|0:0|0:2,0:0:0:0:
496,164,144855,1,2,0:0:0:0:
490,203,144926,1,0,0:0:0:0:
485,243,144997,1,2,0:2:0:0:
480,283,145069,1,0,0:0:0:0:
475,322,145141,6,0,L|467:375,3,50,10|0|0|2,0:2|0:0|0:0|0:2,0:0:0:0:
338,259,145427,1,2,0:0:0:0:
288,260,145498,1,0,0:0:0:0:
243,280,145570,1,2,0:2:0:0:
209,317,145641,1,0,0:0:0:0:
193,364,145712,5,10,0:2:0:0:
201,329,145783,1,0,0:0:0:0:
185,292,145854,1,0,0:0:0:0:
155,268,145926,1,2,0:2:0:0:
116,260,145998,1,2,0:0:0:0:
76,256,146069,1,0,0:0:0:0:
42,235,146140,1,2,0:2:0:0:
20,202,146212,1,0,0:0:0:0:
15,163,146284,1,10,0:2:0:0:
25,125,146355,1,0,0:0:0:0:
50,94,146426,1,0,0:0:0:0:
86,77,146498,1,2,0:2:0:0:
125,75,146569,1,2,0:0:0:0:
162,91,146641,1,0,0:0:0:0:
189,120,146712,1,2,0:2:0:0:
201,158,146784,1,0,0:0:0:0:
197,197,146855,5,10,0:2:0:0:
212,216,146926,1,0,0:0:0:0:
233,229,146997,1,0,0:0:0:0:
257,235,147069,1,2,0:2:0:0:
282,232,147140,1,2,0:0:0:0:
304,222,147212,1,0,0:0:0:0:
322,204,147283,1,2,0:2:0:0:
333,182,147355,1,0,0:0:0:0:
336,157,147427,1,10,0:2:0:0:
326,133,147498,1,0,0:0:0:0:
322,109,147569,1,2,0:0:0:0:
324,84,147641,1,10,0:2:0:0:
332,60,147712,2,0,P|362:24|378:16,1,50,2|0,0:0|0:0,0:0:0:0:
492,5,147855,2,0,P|462:41|446:49,1,50,10|0,0:2|0:0,0:0:0:0:
481,126,147998,5,14,0:2:0:0:
450,150,148069,1,0,0:0:0:0:
434,187,148140,1,0,0:0:0:0:
439,226,148212,1,2,0:2:0:0:
462,258,148284,1,2,0:0:0:0:
472,297,148355,1,0,0:0:0:0:
462,335,148426,1,2,0:2:0:0:
435,364,148498,1,0,0:0:0:0:
398,377,148569,1,10,0:2:0:0:
360,364,148641,1,0,0:0:0:0:
333,334,148713,1,0,0:0:0:0:
324,296,148784,1,2,0:2:0:0:
334,258,148855,1,2,0:0:0:0:
356,225,148927,1,0,0:0:0:0:
361,186,148999,1,2,0:2:0:0:
346,149,149070,1,0,0:0:0:0:
315,125,149141,5,10,0:2:0:0:
275,118,149212,1,0,0:0:0:0:
238,130,149283,1,0,0:0:0:0:
209,158,149355,1,2,0:2:0:0:
196,196,149427,1,2,0:0:0:0:
168,224,149498,1,0,0:0:0:0:
131,238,149569,1,2,0:2:0:0:
92,237,149641,1,0,0:0:0:0:
56,220,149712,1,10,0:2:0:0:
30,190,149784,1,0,0:0:0:0:
17,152,149855,1,0,0:0:0:0:
21,113,149927,1,2,0:2:0:0:
41,78,149998,1,2,0:0:0:0:
72,54,150069,1,0,0:0:0:0:
111,45,150141,1,2,0:2:0:0:
150,51,150212,1,0,0:0:0:0:
183,73,150284,5,10,0:2:0:0:
222,85,150355,1,0,0:0:0:0:
261,86,150426,1,0,0:0:0:0:
300,77,150498,1,2,0:2:0:0:
335,58,150570,1,2,0:0:0:0:
372,46,150641,1,0,0:0:0:0:
411,53,150712,1,2,0:2:0:0:
442,79,150784,1,0,0:0:0:0:
456,116,150855,1,10,0:2:0:0:
451,155,150927,1,0,0:0:0:0:
428,187,150998,1,0,0:0:0:0:
393,204,151070,1,2,0:2:0:0:
353,203,151141,1,2,0:0:0:0:
313,203,151212,1,0,0:0:0:0:
276,218,151283,1,2,0:2:0:0:
247,244,151355,1,0,0:0:0:0:
229,280,151427,5,10,0:2:0:0:
229,280,151498,1,0,0:0:0:0:
229,280,151570,2,0,L|234:322,2,25,2|0|10,0:0|0:0|0:2,0:0:0:0:
102,341,151712,1,2,0:0:0:0:
102,341,151784,1,0,0:0:0:0:
102,341,151855,2,0,L|97:299,2,25,10|0|2,0:2|0:0|0:0,0:0:0:0:
39,181,151998,5,2,0:0:0:0:
39,181,152069,1,0,0:0:0:0:
39,181,152141,2,0,L|34:139,2,25,2|0|10,0:0|0:0|0:2,0:0:0:0:
166,120,152283,1,2,0:0:0:0:
166,120,152355,1,0,0:0:0:0:
166,120,152426,2,0,L|171:162,2,25,10|0|2,0:2|0:0|0:0,0:0:0:0:
247,244,152570,5,14,0:2:0:0:
250,293,152641,1,0,0:0:0:0:
228,337,152712,1,0,0:0:0:0:
188,366,152784,1,2,0:2:0:0:
139,370,152855,1,2,0:0:0:0:
94,350,152927,1,0,0:0:0:0:
65,310,152998,1,2,0:2:0:0:
59,261,153070,1,0,0:0:0:0:
78,215,153141,1,10,0:2:0:0:
120,188,153212,1,0,0:0:0:0:
168,175,153283,1,0,0:0:0:0:
218,177,153355,1,2,0:2:0:0:
265,195,153426,1,2,0:0:0:0:
311,212,153498,1,0,0:0:0:0:
361,214,153570,1,2,0:2:0:0:
409,201,153641,1,0,0:0:0:0:
451,174,153712,5,10,0:2:0:0:
464,126,153783,1,0,0:0:0:0:
452,78,153854,1,0,0:0:0:0:
419,41,153926,1,2,0:2:0:0:
373,25,153997,1,2,0:0:0:0:
324,33,154069,1,0,0:0:0:0:
285,63,154140,1,2,0:2:0:0:
266,109,154212,1,0,0:0:0:0:
271,158,154283,1,10,0:2:0:0:
275,207,154355,1,0,0:0:0:0:
256,252,154427,1,0,0:0:0:0:
217,283,154498,1,2,0:2:0:0:
168,291,154570,1,2,0:0:0:0:
122,275,154641,1,0,0:0:0:0:
89,238,154713,1,2,0:2:0:0:
77,190,154784,1,0,0:0:0:0:
91,142,154855,6,0,P|98:99|91:68,3,50,10|0|0|2,0:2|0:0|0:0|0:2,0:0:0:0:
177,21,155141,1,2,0:0:0:0:
191,41,155212,1,0,0:0:0:0:
200,64,155283,1,2,0:2:0:0:
203,89,155355,1,0,0:0:0:0:
200,114,155427,6,0,P|191:138|164:176,3,50,10|0|0|2,0:2|0:0|0:0|0:2,0:0:0:0:
177,282,155712,1,2,0:0:0:0:
216,278,155783,1,0,0:0:0:0:
256,274,155854,1,2,0:2:0:0:
296,270,155926,1,0,0:0:0:0:
336,266,155998,6,0,L|389:262,3,50,10|0|0|2,0:2|0:0|0:0|0:2,0:0:0:0:
270,158,156284,1,2,0:0:0:0:
215,155,156355,1,0,0:0:0:0:
165,178,156426,1,2,0:2:0:0:
131,221,156498,1,0,0:0:0:0:
119,274,156570,6,0,P|127:317|140:336,3,50,10|0|2|2,0:2|0:0|0:2|0:2,0:0:0:0:
276,339,156855,1,2,0:0:0:0:
315,335,156926,1,0,0:0:0:0:
355,332,156997,1,10,0:2:0:0:
395,329,157069,1,0,0:0:0:0:
435,326,157141,5,14,0:2:0:0:
394,270,157212,1,0,0:0:0:0:
331,241,157283,1,0,0:0:0:0:
262,245,157355,1,2,0:2:0:0:
203,281,157427,1,2,0:0:0:0:
147,321,157498,1,0,0:0:0:0:
78,321,157569,1,2,0:2:0:0:
22,282,157641,1,0,0:0:0:0:
0,217,157712,1,10,0:2:0:0:
17,151,157784,1,0,0:0:0:0:
71,107,157855,1,0,0:0:0:0:
139,102,157927,1,2,0:2:0:0:
198,138,157998,1,2,0:0:0:0:
255,179,158069,1,0,0:0:0:0:
323,192,158140,1,2,0:2:0:0:
390,175,158212,1,0,0:0:0:0:
444,131,158284,5,10,0:2:0:0:
433,63,158355,1,0,0:0:0:0:
381,18,158426,1,0,0:0:0:0:
313,16,158498,1,2,0:2:0:0:
258,58,158569,1,2,0:0:0:0:
243,125,158641,1,0,0:0:0:0:
274,186,158712,1,2,0:2:0:0:
304,247,158784,1,0,0:0:0:0:
289,314,158856,1,10,0:2:0:0:
235,356,158927,1,0,0:0:0:0:
166,354,158999,1,0,0:0:0:0:
115,308,159070,1,2,0:2:0:0:
104,241,159141,1,2,0:0:0:0:
125,175,159212,1,0,0:0:0:0:
115,106,159283,1,2,0:2:0:0:
75,49,159355,1,0,0:0:0:0:
14,17,159427,5,10,0:2:0:0:
11,71,159498,1,0,0:0:0:0:
32,121,159569,1,0,0:0:0:0:
73,158,159641,1,2,0:2:0:0:
125,175,159712,1,2,0:0:0:0:
179,166,159783,1,0,0:0:0:0:
227,140,159854,1,2,0:2:0:0:
265,100,159926,1,0,0:0:0:0:
287,51,159998,1,10,0:2:0:0:
330,17,160069,1,0,0:0:0:0:
384,13,160140,1,0,0:0:0:0:
432,40,160212,1,2,0:2:0:0:
457,88,160283,1,2,0:0:0:0:
451,142,160355,1,0,0:0:0:0:
417,184,160426,1,2,0:2:0:0:
365,200,160498,1,0,0:0:0:0:
313,185,160570,5,10,0:2:0:0:
261,200,160641,1,0,0:0:0:0:
224,240,160712,1,2,0:0:0:0:
216,293,160784,1,10,0:2:0:0:
237,343,160855,2,0,P|272:363|288:365,1,50,10|0,0:2|0:0,0:0:0:0:
407,299,160998,1,2,0:0:0:0:
407,299,161070,1,10,0:2:0:0:
407,299,161141,6,0,L|343:289,3,50,10|0|10|0,0:2|0:0|0:2|0:0,0:0:0:0:
366,104,161427,2,0,L|301:114,3,50,10|0|10|2,0:2|0:0|0:2|0:2,0:0:0:0:
159,217,161712,5,14,0:2:0:0:
110,226,161783,1,0,0:0:0:0:
64,208,161854,1,0,0:0:0:0:
34,169,161926,1,2,0:2:0:0:
28,120,161997,1,2,0:0:0:0:
49,76,162069,1,0,0:0:0:0:
91,49,162140,1,2,0:2:0:0:
140,48,162212,1,0,0:0:0:0:
183,73,162284,1,10,0:2:0:0:
226,97,162355,1,0,0:0:0:0:
275,106,162426,1,0,0:0:0:0:
324,96,162498,1,2,0:2:0:0:
366,70,162570,1,2,0:0:0:0:
413,55,162641,1,0,0:0:0:0:
460,71,162712,1,2,0:2:0:0:
490,110,162784,1,0,0:0:0:0:
491,159,162855,6,0,P|487:188|478:220,3,50,10|0|0|2,0:2|0:0|0:0|0:2,0:0:0:0:
468,317,163141,1,2,0:0:0:0:
429,306,163212,1,0,0:0:0:0:
398,281,163283,1,2,0:2:0:0:
378,247,163355,1,0,0:0:0:0:
373,207,163427,6,0,P|377:177|386:146,3,50,10|0|0|2,0:2|0:0|0:0|0:2,0:0:0:0:
399,43,163712,1,2,0:0:0:0:
349,46,163783,1,0,0:0:0:0:
305,69,163854,1,2,0:2:0:0:
275,108,163926,1,0,0:0:0:0:
263,156,163998,5,10,0:2:0:0:
223,152,164069,1,0,0:0:0:0:
183,147,164140,1,0,0:0:0:0:
143,143,164212,1,2,0:2:0:0:
104,139,164284,1,2,0:0:0:0:
74,112,164355,1,0,0:0:0:0:
65,74,164426,1,2,0:2:0:0:
79,37,164498,1,0,0:0:0:0:
111,14,164569,1,10,0:2:0:0:
150,13,164641,1,0,0:0:0:0:
183,34,164712,1,0,0:0:0:0:
199,70,164784,1,2,0:2:0:0:
192,108,164855,1,2,0:0:0:0:
176,145,164926,1,0,0:0:0:0:
171,185,164997,1,2,0:2:0:0:
178,224,165069,1,0,0:0:0:0:
195,260,165141,5,10,0:2:0:0:
173,247,165212,1,0,0:0:0:0:
149,239,165283,1,0,0:0:0:0:
125,236,165355,1,2,0:2:0:0:
100,240,165426,1,2,0:0:0:0:
76,248,165498,1,0,0:0:0:0:
56,262,165569,1,2,0:2:0:0:
43,284,165641,1,0,0:0:0:0:
40,308,165712,1,10,0:2:0:0:
44,332,165784,1,0,0:0:0:0:
58,351,165855,1,2,0:0:0:0:
80,362,165927,1,10,0:2:0:0:
104,364,165998,2,0,P|128:360|152:348,1,50,2|0,0:0|0:0,0:0:0:0:
106,210,166141,2,0,P|96:234|95:258,1,50,10|0,0:2|0:0,0:0:0:0:
195,260,166284,5,14,0:2:0:0:
202,298,166355,1,0,0:0:0:0:
229,327,166426,1,0,0:0:0:0:
268,335,166498,1,2,0:2:0:0:
305,321,166569,1,2,0:0:0:0:
328,289,166641,1,0,0:0:0:0:
329,250,166712,1,2,0:2:0:0:
309,216,166784,1,0,0:0:0:0:
273,199,166855,1,10,0:2:0:0:
237,182,166927,1,0,0:0:0:0:
217,148,166999,1,0,0:0:0:0:
218,108,167070,1,2,0:2:0:0:
241,76,167142,1,2,0:0:0:0:
278,62,167213,1,0,0:0:0:0:
316,71,167285,1,2,0:2:0:0:
344,99,167356,1,0,0:0:0:0:
351,138,167427,5,10,0:2:0:0:
365,175,167499,1,0,0:0:0:0:
395,202,167570,1,0,0:0:0:0:
435,208,167642,1,2,0:2:0:0:
472,195,167713,1,2,0:0:0:0:
499,165,167785,1,0,0:0:0:0:
505,125,167856,1,2,0:2:0:0:
492,87,167927,1,0,0:0:0:0:
460,61,167999,1,10,0:2:0:0:
422,55,168070,1,0,0:0:0:0:
384,68,168142,1,0,0:0:0:0:
358,98,168213,1,2,0:2:0:0:
351,138,168284,1,2,0:0:0:0:
335,174,168355,1,0,0:0:0:0:
306,201,168427,1,2,0:2:0:0:
268,214,168498,1,0,0:0:0:0:
229,211,168570,5,10,0:2:0:0:
192,225,168642,1,0,0:0:0:0:
165,255,168713,1,0,0:0:0:0:
159,295,168785,1,2,0:2:0:0:
172,332,168856,1,2,0:0:0:0:
202,359,168928,1,0,0:0:0:0:
242,365,168999,1,2,0:2:0:0:
280,352,169070,1,0,0:0:0:0:
306,320,169142,1,10,0:2:0:0:
312,282,169213,1,0,0:0:0:0:
299,244,169285,1,0,0:0:0:0:
269,218,169356,1,2,0:2:0:0:
229,211,169427,1,2,0:0:0:0:
191,197,169498,1,0,0:0:0:0:
161,171,169569,1,2,0:2:0:0:
142,136,169641,1,0,0:0:0:0:
137,97,169712,6,0,L|145:42,2,50,10|0|0,0:2|0:0|0:0,0:0:0:0:
264,0,169927,2,0,L|304:29,2,50,10|2|0,0:2|0:0|0:0,0:0:0:0:
284,158,170141,2,0,L|238:178,1,50,10|0,0:2|0:0,0:0:0:0:
154,319,170284,6,0,L|161:374,3,50,10|0|0|2,0:2|0:0|0:0|0:0,0:0:0:0:
284,325,170570,2,0,L|333:330,1,50,10|0,0:2|0:0,0:0:0:0:
319,240,170712,2,0,L|269:233,1,50,10|0,0:2|0:0,0:0:0:0:
144,156,170855,5,14,0:2:0:0:
95,146,170926,1,0,0:0:0:0:
62,110,170997,1,0,0:0:0:0:
57,61,171069,1,2,0:2:0:0:
82,19,171140,1,2,0:0:0:0:
128,0,171212,1,0,0:0:0:0:
175,11,171283,1,2,0:2:0:0:
207,49,171355,1,0,0:0:0:0:
209,98,171426,1,10,0:2:0:0:
240,136,171498,1,0,0:0:0:0:
288,147,171569,1,0,0:0:0:0:
333,128,171641,1,2,0:2:0:0:
359,85,171712,1,2,0:0:0:0:
400,58,171783,1,0,0:0:0:0:
448,62,171854,1,2,0:2:0:0:
484,95,171926,1,0,0:0:0:0:
492,143,171997,5,10,0:2:0:0:
469,186,172069,1,0,0:0:0:0:
424,205,172141,1,0,0:0:0:0:
378,224,172212,1,2,0:2:0:0:
355,267,172284,1,2,0:0:0:0:
325,306,172355,1,0,0:0:0:0:
278,322,172426,1,2,0:2:0:0:
230,311,172498,1,0,0:0:0:0:
196,275,172570,1,10,0:2:0:0:
179,228,172641,1,0,0:0:0:0:
135,203,172713,1,0,0:0:0:0:
86,211,172784,1,2,0:2:0:0:
54,250,172856,1,2,0:0:0:0:
54,300,172927,1,0,0:0:0:0:
86,338,172999,1,2,0:2:0:0:
135,346,173070,1,0,0:0:0:0:
179,322,173141,6,0,P|161:299|133:286,3,50,10|0|0|2,0:2|0:0|0:0|0:2,0:0:0:0:
116,168,173427,1,2,0:0:0:0:
142,165,173498,1,0,0:0:0:0:
166,167,173569,1,2,0:2:0:0:
189,176,173641,1,0,0:0:0:0:
210,189,173712,6,0,P|231:208|244:229,3,50,10|0|0|2,0:2|0:0|0:0|0:2,0:0:0:0:
347,305,173998,1,2,0:0:0:0:
352,265,174069,1,0,0:0:0:0:
358,225,174140,1,2,0:2:0:0:
364,186,174212,1,0,0:0:0:0:
369,146,174284,6,0,L|377:88,3,50,10|0|0|2,0:2|0:0|0:0|0:2,0:0:0:0:
253,99,174570,1,2,0:0:0:0:
247,153,174641,1,0,0:0:0:0:
219,199,174712,1,2,0:2:0:0:
171,227,174784,1,0,0:0:0:0:
117,229,174855,6,0,P|82:249|67:283,3,50,10|0|2|2,0:2|0:0|0:0|0:2,0:0:0:0:
194,351,175141,1,2,0:0:0:0:
230,335,175212,1,0,0:0:0:0:
270,328,175283,1,10,0:2:0:0:
309,331,175355,1,0,0:0:0:0:
347,344,175427,5,14,0:2:0:0:
411,318,175498,1,0,0:0:0:0:
451,262,175569,1,0,0:0:0:0:
456,193,175641,1,2,0:2:0:0:
423,132,175712,1,2,0:0:0:0:
363,98,175784,1,0,0:0:0:0:
294,102,175855,1,2,0:2:0:0:
238,141,175927,1,0,0:0:0:0:
211,205,175998,1,10,0:2:0:0:
154,243,176069,1,0,0:0:0:0:
85,242,176140,1,0,0:0:0:0:
29,202,176212,1,2,0:2:0:0:
6,137,176283,1,2,0:0:0:0:
25,71,176355,1,0,0:0:0:0:
78,27,176426,1,2,0:2:0:0:
146,21,176498,1,0,0:0:0:0:
206,56,176570,5,10,0:2:0:0:
269,85,176641,1,0,0:0:0:0:
338,81,176712,1,0,0:0:0:0:
404,61,176783,1,2,0:2:0:0:
468,86,176854,1,2,0:0:0:0:
504,144,176926,1,0,0:0:0:0:
498,212,176997,1,2,0:2:0:0:
451,263,177069,1,0,0:0:0:0:
383,275,177141,1,10,0:2:0:0:
321,246,177212,1,0,0:0:0:0:
292,184,177284,1,0,0:0:0:0:
235,145,177355,1,2,0:2:0:0:
166,151,177426,1,2,0:0:0:0:
117,198,177498,1,0,0:0:0:0:
107,266,177569,1,2,0:2:0:0:
143,325,177641,1,0,0:0:0:0:
207,348,177712,5,10,0:2:0:0:
225,297,177783,1,0,0:0:0:0:
223,242,177854,1,0,0:0:0:0:
202,191,177926,1,2,0:2:0:0:
166,151,177998,1,2,0:0:0:0:
151,99,178069,1,0,0:0:0:0:
166,46,178140,1,2,0:2:0:0:
206,10,178212,1,0,0:0:0:0:
259,0,178283,1,10,0:2:0:0:
310,20,178355,1,0,0:0:0:0:
342,63,178426,1,0,0:0:0:0:
346,117,178498,1,2,0:2:0:0:
322,166,178569,1,2,0:0:0:0:
297,214,178641,1,0,0:0:0:0:
301,268,178713,1,2,0:2:0:0:
334,311,178784,1,0,0:0:0:0:
384,331,178856,5,10,0:2:0:0:
437,321,178927,1,0,0:0:0:0:
477,285,178999,1,2,0:0:0:0:
492,232,179070,1,10,0:2:0:0:
477,180,179141,2,0,P|454:152|428:137,1,50,10|0,0:2|0:0,0:0:0:0:
297,214,179283,1,2,0:0:0:0:
297,214,179355,1,10,0:2:0:0:
297,214,179427,6,0,L|233:205,3,50,10|0|10|2,0:2|0:0|0:2|0:2,0:0:0:0:
198,75,179712,2,0,L|134:84,3,50,10|0|10|2,0:2|0:0|0:2|0:2,0:0:0:0:
37,192,179998,5,14,0:2:0:0:
26,240,180069,1,0,0:0:0:0:
35,289,180140,1,0,0:0:0:0:
62,330,180212,1,2,0:2:0:0:
104,357,180283,1,2,0:0:0:0:
153,366,180355,1,0,0:0:0:0:
201,354,180426,1,2,0:2:0:0:
241,325,180498,1,0,0:0:0:0:
266,282,180570,1,10,0:2:0:0:
298,243,180641,1,0,0:0:0:0:
347,235,180713,1,0,0:0:0:0:
391,260,180784,1,2,0:2:0:0:
408,307,180856,1,2,0:0:0:0:
391,354,180927,1,0,0:0:0:0:
347,378,180999,1,2,0:2:0:0:
298,370,181070,1,0,0:0:0:0:
266,332,181141,6,0,P|264:288|285:260,3,50,10|0|0|2,0:2|0:0|0:0|0:2,0:0:0:0:
335,177,181427,1,2,0:0:0:0:
294,167,181498,1,0,0:0:0:0:
259,150,181569,1,2,0:2:0:0:
230,122,181641,1,0,0:0:0:0:
210,88,181712,6,0,P|197:61|195:25,3,50,10|0|0|2,0:2|0:0|0:0|0:2,0:0:0:0:
105,137,181998,1,2,0:0:0:0:
85,182,182069,1,0,0:0:0:0:
87,232,182140,1,2,0:2:0:0:
109,276,182212,1,0,0:0:0:0:
148,306,182284,5,10,0:2:0:0:
182,286,182355,1,0,0:0:0:0:
221,280,182426,1,0,0:0:0:0:
260,289,182498,1,2,0:2:0:0:
292,312,182570,1,2,0:0:0:0:
324,336,182641,1,0,0:0:0:0:
363,345,182712,1,2,0:2:0:0:
402,338,182784,1,0,0:0:0:0:
435,316,182855,1,10,0:2:0:0:
457,283,182927,1,0,0:0:0:0:
464,244,182998,1,0,0:0:0:0:
456,206,183070,1,2,0:2:0:0:
433,173,183141,1,2,0:0:0:0:
418,137,183212,1,0,0:0:0:0:
417,97,183283,1,2,0:2:0:0:
430,59,183355,1,0,0:0:0:0:
456,29,183427,5,10,0:2:0:0:
441,49,183498,1,0,0:0:0:0:
422,65,183569,1,0,0:0:0:0:
400,77,183641,1,2,0:2:0:0:
376,83,183712,1,2,0:0:0:0:
351,84,183784,1,0,0:0:0:0:
326,78,183855,1,2,0:2:0:0:
304,68,183927,1,0,0:0:0:0:
284,52,183998,1,10,0:2:0:0:
261,42,184070,1,0,0:0:0:0:
237,36,184141,1,2,0:0:0:0:
212,37,184213,1,2,0:2:0:0:
188,43,184284,2,0,P|154:52|110:45,1,50,2|0,0:0|0:0,0:0:0:0:
35,46,184427,2,0,P|26:80|33:124,1,50,10|0,0:2|0:0,0:0:0:0:
118,141,184570,5,14,0:2:0:0:
156,135,184641,1,0,0:0:0:0:
191,153,184712,1,0,0:0:0:0:
208,189,184784,1,2,0:2:0:0:
201,227,184855,1,2,0:0:0:0:
217,263,184927,1,0,0:0:0:0:
252,281,184998,1,2,0:2:0:0:
291,275,185069,1,0,0:0:0:0:
315,242,185141,1,10,0:2:0:0:
343,214,185212,1,0,0:0:0:0:
382,204,185284,1,0,0:0:0:0:
421,214,185355,1,2,0:2:0:0:
449,242,185427,1,2,0:0:0:0:
459,281,185498,1,0,0:0:0:0:
449,320,185569,1,2,0:2:0:0:
421,348,185641,1,0,0:0:0:0:
382,358,185712,5,10,0:2:0:0:
343,348,185784,1,0,0:0:0:0:
315,320,185855,1,0,0:0:0:0:
305,281,185927,1,2,0:2:0:0:
315,242,185998,1,2,0:0:0:0:
320,202,186069,1,0,0:0:0:0:
306,165,186140,1,2,0:2:0:0:
275,140,186212,1,0,0:0:0:0:
236,134,186283,1,10,0:2:0:0:
199,147,186355,1,0,0:0:0:0:
173,176,186426,1,0,0:0:0:0:
165,215,186498,1,2,0:2:0:0:
177,253,186569,1,2,0:0:0:0:
188,290,186641,1,0,0:0:0:0:
180,329,186713,1,2,0:2:0:0:
154,359,186784,1,0,0:0:0:0:
117,372,186856,5,10,0:2:0:0:
78,365,186927,1,0,0:0:0:0:
47,340,186999,1,0,0:0:0:0:
33,303,187070,1,2,0:2:0:0:
39,264,187141,1,2,0:0:0:0:
54,227,187212,1,0,0:0:0:0:
60,187,187283,1,2,0:2:0:0:
54,148,187355,1,0,0:0:0:0:
38,112,187427,1,10,0:2:0:0:
34,72,187498,1,0,0:0:0:0:
51,36,187569,1,0,0:0:0:0:
82,13,187641,1,2,0:2:0:0:
122,8,187712,1,2,0:0:0:0:
158,23,187784,1,0,0:0:0:0:
183,54,187855,1,2,0:2:0:0:
189,93,187927,1,0,0:0:0:0:
175,130,187998,5,10,0:2:0:0:
175,130,188070,1,0,0:0:0:0:
175,130,188141,2,0,L|178:167,2,20,2|0|10,0:0|0:0|0:2,0:0:0:0:
363,299,188284,1,2,0:0:0:0:
363,299,188355,1,0,0:0:0:0:
363,299,188427,2,0,L|361:318,2,20,10|0|2,0:2|0:0|0:0,0:0:0:0:
354,121,188570,5,10,0:2:0:0:
354,121,188641,1,0,0:0:0:0:
354,121,188712,2,0,L|355:140,2,20,2|0|10,0:0|0:0|0:2,0:0:0:0:
185,308,188855,1,2,0:0:0:0:
185,308,188927,1,0,0:0:0:0:
185,308,188998,2,0,L|183:344,2,20,10|0|2,0:2|0:0|0:0,0:0:0:0:
329,207,189141,5,14,0:2:0:0:
378,202,189212,1,0,0:0:0:0:
422,224,189283,1,0,0:0:0:0:
448,266,189355,1,2,0:2:0:0:
449,315,189426,1,2,0:0:0:0:
425,358,189498,1,0,0:0:0:0:
381,382,189569,1,2,0:2:0:0:
332,380,189641,1,0,0:0:0:0:
291,352,189712,1,10,0:2:0:0:
249,325,189783,1,0,0:0:0:0:
201,317,189854,1,0,0:0:0:0:
152,328,189926,1,2,0:2:0:0:
113,358,189998,1,2,0:0:0:0:
63,356,190069,1,0,0:0:0:0:
22,329,190140,1,2,0:2:0:0:
0,285,190212,1,0,0:0:0:0:
2,236,190283,5,10,0:2:0:0:
29,195,190355,1,0,0:0:0:0:
73,173,190426,1,0,0:0:0:0:
123,176,190498,1,2,0:2:0:0:
163,204,190570,1,2,0:0:0:0:
212,213,190641,1,0,0:0:0:0:
261,202,190712,1,2,0:2:0:0:
301,173,190784,1,0,0:0:0:0:
327,131,190855,1,10,0:2:0:0:
358,92,190926,1,0,0:0:0:0:
404,75,190997,1,0,0:0:0:0:
453,83,191069,1,2,0:2:0:0:
491,115,191140,1,2,0:0:0:0:
507,161,191212,1,0,0:0:0:0:
498,210,191283,1,2,0:2:0:0:
466,247,191355,1,0,0:0:0:0:
420,263,191427,6,0,P|383:270|347:264,3,50,10|0|0|2,0:2|0:0|0:0|0:2,0:0:0:0:
282,341,191712,1,2,0:0:0:0:
270,318,191783,1,0,0:0:0:0:
263,295,191854,1,2,0:2:0:0:
260,270,191926,1,0,0:0:0:0:
262,245,191998,6,0,P|265:219|274:187,3,50,10|0|0|2,0:2|0:0|0:0|0:2,0:0:0:0:
263,83,192284,1,2,0:0:0:0:
223,89,192355,1,0,0:0:0:0:
189,109,192426,1,2,0:2:0:0:
165,141,192498,1,0,0:0:0:0:
155,180,192570,6,0,P|155:223|163:246,3,50,10|0|0|2,0:2|0:0|0:0|0:2,0:0:0:0:
171,357,192855,1,2,0:0:0:0:
116,352,192926,1,0,0:0:0:0:
69,325,192997,1,2,0:2:0:0:
36,281,193069,1,0,0:0:0:0:
25,227,193141,6,0,P|28:188|35:165,3,50,10|0|2|2,0:2|0:0|0:0|0:2,0:0:0:0:
97,72,193427,1,2,0:0:0:0:
136,68,193498,1,0,0:0:0:0:
176,65,193569,1,10,0:2:0:0:
216,62,193641,1,0,0:0:0:0:
256,59,193712,5,14,0:2:0:0:
236,125,193783,1,0,0:0:0:0:
183,168,193855,1,0,0:0:0:0:
114,173,193926,1,2,0:2:0:0:
66,221,193997,1,2,0:0:0:0:
61,289,194069,1,0,0:0:0:0:
102,344,194140,1,2,0:2:0:0:
169,357,194212,1,0,0:0:0:0:
229,323,194284,1,10,0:2:0:0:
250,258,194355,1,0,0:0:0:0:
223,195,194427,1,0,0:0:0:0:
206,128,194498,1,2,0:2:0:0:
241,69,194569,1,2,0:0:0:0:
307,51,194641,1,0,0:0:0:0:
366,84,194712,1,2,0:2:0:0:
386,150,194784,1,0,0:0:0:0:
355,210,194855,5,10,0:2:0:0:
370,276,194926,1,0,0:0:0:0:
432,304,194997,1,0,0:0:0:0:
491,272,195069,1,2,0:2:0:0:
502,205,195140,1,2,0:0:0:0:
455,156,195212,1,0,0:0:0:0:
386,150,195284,1,2,0:2:0:0:
319,137,195355,1,0,0:0:0:0:
273,86,195427,1,10,0:2:0:0:
215,49,195498,1,0,0:0:0:0:
147,51,195569,1,0,0:0:0:0:
92,93,195641,1,2,0:2:0:0:
71,159,195712,1,2,0:0:0:0:
91,225,195784,1,0,0:0:0:0:
146,267,195855,1,2,0:2:0:0:
214,270,195927,1,0,0:0:0:0:
273,233,195998,5,10,0:2:0:0:
236,193,196069,1,0,0:0:0:0:
185,176,196140,1,0,0:0:0:0:
131,187,196212,1,2,0:2:0:0:
91,225,196284,1,2,0:0:0:0:
79,277,196355,1,0,0:0:0:0:
102,326,196426,1,2,0:2:0:0:
150,350,196498,1,0,0:0:0:0:
203,340,196570,1,10,0:2:0:0:
250,312,196641,1,0,0:0:0:0:
304,304,196712,1,0,0:0:0:0:
357,317,196784,1,2,0:2:0:0:
402,349,196855,1,2,0:0:0:0:
456,353,196926,1,0,0:0:0:0:
498,321,196997,1,2,0:2:0:0:
508,268,197069,1,0,0:0:0:0:
481,222,197140,5,10,0:2:0:0:
429,206,197212,1,0,0:0:0:0:
380,229,197283,1,2,0:0:0:0:
328,214,197356,1,10,0:2:0:0:
301,168,197427,2,0,P|299:127|315:96,1,50,10|0,0:2|0:0,0:0:0:0:
405,30,197570,1,2,0:2:0:0:
405,30,197641,1,10,0:2:0:0:
405,30,197712,2,0,L|474:48,3,50,10|0|10|2,0:2|0:0|0:2|0:2,0:0:0:0:
210,71,197998,2,0,L|141:89,3,50,10|0|10|2,0:2|0:0|0:2|0:2,0:0:0:0:
253,277,198284,6,0,P|258:235|271:206,1,57.5000010967255,14|0,0:2|0:0,0:0:0:0:
463,160,198427,2,0,P|458:202|445:231,1,57.5000010967255,2|2,0:0|0:2,0:0:0:0:
226,284,198570,2,0,P|231:242|244:213,1,57.5000010967255,2|0,0:0|0:0,0:0:0:0:
436,167,198713,2,0,P|431:209|418:238,1,57.5000010967255,10|0,0:2|0:0,0:0:0:0:
392,334,198855,6,0,P|363:332|336:324,1,57.5000010967255,10|0,0:2|0:0,0:0:0:0:
275,123,198998,2,0,P|304:125|332:134,1,57.5000010967255,2|2,0:0|0:2,0:0:0:0:
399,361,199141,2,0,P|370:359|343:350,1,57.5000010967255,2|0,0:0|0:0,0:0:0:0:
282,150,199284,2,0,P|311:152|339:161,1,57.5000010967255,10|0,0:2|0:0,0:0:0:0:
203,368,199427,5,10,0:2:0:0:
149,379,199498,1,0,0:0:0:0:
98,361,199569,1,2,0:0:0:0:
63,320,199641,1,2,0:2:0:0:
55,266,199712,1,2,0:0:0:0:
77,216,199784,1,0,0:0:0:0:
121,184,199855,1,10,0:2:0:0:
175,180,199927,1,0,0:0:0:0:
223,205,199998,5,10,0:2:0:0:
276,220,200069,1,0,0:0:0:0:
331,219,200140,1,2,0:0:0:0:
382,200,200212,1,2,0:2:0:0:
426,167,200284,1,2,0:0:0:0:
433,114,200355,1,0,0:0:0:0:
403,69,200426,1,10,0:2:0:0:
352,55,200498,1,0,0:0:0:0:
303,79,200570,6,0,P|288:136|291:159,1,55.0000016784668,10|0,0:2|0:0,0:0:0:0:
384,339,200712,2,0,P|399:282|396:259,1,55.0000016784668,2|2,0:0|0:2,0:0:0:0:
272,79,200855,2,0,P|287:135|284:158,1,55.0000016784668,2|0,0:0|0:0,0:0:0:0:
191,338,200998,2,0,P|175:281|178:258,1,55.0000016784668,10|0,0:2|0:0,0:0:0:0:
166,59,201141,6,0,P|181:115|178:138,1,55.0000016784668,10|0,0:2|0:0,0:0:0:0:
278,318,201284,2,0,P|290:293|294:265,1,55.0000016784668,2|2,0:0|0:2,0:0:0:0:
198,59,201427,2,0,P|182:115|185:138,1,55.0000016784668,2|0,0:0|0:0,0:0:0:0:
86,319,201570,2,0,P|74:294|70:266,1,55.0000016784668,10|0,0:2|0:0,0:0:0:0:
38,66,201712,5,10,0:2:0:0:
51,123,201783,1,0,0:0:0:0:
89,169,201854,1,2,0:0:0:0:
143,193,201926,1,2,0:2:0:0:
203,190,201998,1,2,0:0:0:0:
258,170,202069,1,0,0:0:0:0:
315,186,202140,1,10,0:2:0:0:
353,231,202212,1,0,0:0:0:0:
358,290,202283,1,10,0:2:0:0:
328,341,202355,1,0,0:0:0:0:
274,365,202426,1,2,0:0:0:0:
216,354,202498,1,10,0:2:0:0:
175,312,202570,1,2,0:0:0:0:
169,252,202641,1,0,0:0:0:0:
163,193,202712,1,10,0:2:0:0:
157,133,202784,1,0,0:0:0:0:
151,73,202855,6,0,P|223:48|310:75,1,119.999996337891,14|0,0:2|0:0,0:0:0:0:
355,89,203070,2,0,P|340:163|273:225,1,119.999996337891,10|0,0:2|0:0,0:0:0:0:
239,257,203284,2,0,P|204:225|186:177,1,59.9999981689454,10|0,0:2|0:0,0:0:0:0:
115,68,203427,6,0,P|187:43|274:70,1,119.999996337891,10|0,0:2|0:0,0:0:0:0:
319,84,203642,2,0,P|304:158|237:220,1,119.999996337891,10|0,0:2|0:0,0:0:0:0:
203,252,203856,2,0,P|168:220|150:172,1,59.9999981689454,10|0,0:2|0:0,0:0:0:0:
26,63,203998,6,0,P|16:128|47:221,1,139.999995727539,10|0,0:2|0:0,0:0:0:0:
67,304,204212,2,0,P|128:280|193:206,1,139.999995727539,10|0,0:2|0:0,0:0:0:0:
255,147,204427,2,0,P|203:105|138:94,1,69.9999978637696,10|0,0:2|0:0,0:0:0:0:
0,55,204570,6,0,P|-10:120|21:213,1,139.999995727539,10|0,0:2|0:0,0:0:0:0:
41,296,204784,2,0,P|102:272|167:198,1,139.999995727539,10|0,0:2|0:0,0:0:0:0:
229,139,204999,2,0,P|177:97|112:86,1,69.9999978637696,10|0,0:2|0:0,0:0:0:0:
235,333,205141,6,0,P|269:266|348:206,1,160,10|0,0:2|0:0,0:0:0:0:
458,133,205355,2,0,P|382:137|291:98,1,160,10|0,0:2|0:0,0:0:0:0:
174,40,205570,2,0,P|204:86|220:157,1,80,10|0,0:2|0:0,0:0:0:0:
202,315,205712,6,0,P|236:248|315:188,1,160,10|0,0:2|0:0,0:0:0:0:
425,115,205927,2,0,P|349:119|258:80,1,160,10|0,0:2|0:0,0:0:0:0:
141,22,206141,2,0,P|171:68|187:139,1,80,10|0,0:2|0:0,0:0:0:0:
329,316,206284,6,0,P|254:276|137:320,1,179.999994506836,10|0,0:2|0:0,0:0:0:0:
0,344,206498,2,0,P|72:299|92:175,1,179.999994506836,10|0,0:2|0:0,0:0:0:0:
140,46,206712,2,0,P|142:130|189:172,1,89.9999972534181,10|0,0:2|0:0,0:0:0:0:
369,304,206855,6,0,P|294:264|177:308,1,179.999994506836,10|0,0:2|0:0,0:0:0:0:
40,332,207069,2,0,P|112:287|132:163,1,179.999994506836,10|0,0:2|0:0,0:0:0:0:
180,34,207283,2,0,P|182:118|229:160,1,89.9999972534181,10|0,0:2|0:0,0:0:0:0:
409,292,207427,5,6,0:0:0:0:
168,172,215998,5,2,0:2:0:0:
321,201,216141,1,2,0:2:0:0:
321,201,216212,1,2,0:2:0:0:
321,201,216284,2,0,L|326:245,6,25,2|2|2|2|2|2|2,0:2|0:2|0:2|0:2|0:2|0:2|0:2,0:0:0:0:
270,54,216570,5,6,0:2:0:0:
270,54,216641,1,0,0:0:0:0:
270,54,216712,2,0,L|197:47,1,42.5000008106232,2|0,0:2|0:0,0:0:0:0:
121,57,216855,2,0,L|128:130,1,42.5000008106232,2|0,0:0|0:0,0:0:0:0:
50,114,216998,2,0,L|43:41,1,42.5000008106232,2|0,0:2|0:0,0:0:0:0:
26,230,217141,5,2,0:2:0:0:
28,251,217212,1,0,0:0:0:0:
30,272,217283,1,2,0:2:0:0:
32,293,217355,1,0,0:0:0:0:
34,314,217427,2,0,P|62:321|107:321,1,42.5000008106232,2|0,0:0|0:0,0:0:0:0:
148,264,217570,5,2,0:2:0:0:
169,258,217641,1,0,0:0:0:0:
189,256,217712,1,2,0:2:0:0:
211,259,217784,1,0,0:0:0:0:
232,264,217856,2,0,P|271:278|283:285,1,42.5000008106232,2|0,0:2|0:0,0:0:0:0:
332,378,217998,2,0,P|363:380|382:377,1,42.5000008106232,2|0,0:0|0:0,0:0:0:0:
400,304,218141,2,0,P|369:302|350:305,1,42.5000008106232,2|0,0:2|0:0,0:0:0:0:
337,204,218284,5,2,0:2:0:0:
328,184,218355,1,0,0:0:0:0:
322,164,218426,1,2,0:2:0:0:
321,142,218498,1,0,0:0:0:0:
323,121,218570,2,0,P|330:80|335:67,1,42.5000008106232,2|0,0:0|0:0,0:0:0:0:
450,60,218712,5,2,0:2:0:0:
452,81,218783,1,0,0:0:0:0:
454,102,218854,1,2,0:2:0:0:
456,123,218926,1,0,0:0:0:0:
459,144,218997,1,2,0:2:0:0:
456,147,219070,1,2,0:2:0:0:
453,150,219141,2,0,L|403:158,1,42.5000008106232,2|0,0:0|0:0,0:0:0:0:
371,85,219284,2,0,L|330:79,1,42.5000008106232,2|0,0:2|0:0,0:0:0:0:
246,156,219427,5,2,0:2:0:0:
225,162,219498,1,0,0:0:0:0:
205,164,219569,1,2,0:2:0:0:
183,161,219641,1,0,0:0:0:0:
162,156,219713,2,0,P|123:142|111:135,1,42.5000008106232,2|0,0:0|0:0,0:0:0:0:
17,119,219855,5,2,0:2:0:0:
19,140,219926,1,0,0:0:0:0:
21,161,219997,1,2,0:2:0:0:
23,182,220069,1,0,0:0:0:0:
25,203,220141,2,0,L|29:245,1,42.5000008106232,2|0,0:2|0:0,0:0:0:0:
97,347,220284,2,0,L|139:351,1,42.5000008106232,2|0,0:0|0:0,0:0:0:0:
172,280,220427,2,0,L|129:275,1,42.5000008106232,2|0,0:2|0:0,0:0:0:0:
246,361,220570,5,2,0:2:0:0:
321,294,220712,2,0,L|347:297,2,21.2500004053116,2|2|2,0:2|0:2|0:2,0:0:0:0:
229,372,220855,1,2,0:0:0:0:
247,213,220998,1,2,0:2:0:0:
406,195,221141,5,6,0:2:0:0:
406,195,221212,1,0,0:0:0:0:
406,195,221284,2,0,L|402:153,1,42.5000008106232,2|0,0:2|0:0,0:0:0:0:
321,32,221427,2,0,L|363:36,1,42.5000008106232,2|0,0:0|0:0,0:0:0:0:
266,91,221570,2,0,L|224:95,1,42.5000008106232,2|0,0:2|0:0,0:0:0:0:
165,19,221712,5,2,0:2:0:0:
143,16,221783,1,0,0:0:0:0:
123,18,221854,1,2,0:2:0:0:
102,25,221926,1,0,0:0:0:0:
82,33,221998,2,0,L|35:62,1,42.5000008106232,2|0,0:0|0:0,0:0:0:0:
16,157,222141,5,2,0:2:0:0:
18,178,222212,1,0,0:0:0:0:
20,199,222283,1,2,0:2:0:0:
22,220,222355,1,0,0:0:0:0:
24,241,222427,2,0,L|28:283,1,42.5000008106232,2|0,0:2|0:0,0:0:0:0:
107,362,222570,2,0,L|65:368,1,42.5000008106232,2|0,0:0|0:0,0:0:0:0:
166,306,222712,2,0,L|207:312,1,42.5000008106232,2|0,0:2|0:0,0:0:0:0:
146,198,222855,5,2,0:2:0:0:
150,177,222926,1,0,0:0:0:0:
162,159,222997,1,2,0:2:0:0:
179,146,223069,1,0,0:0:0:0:
199,140,223141,2,0,L|241:136,1,42.5000008106232,2|0,0:0|0:0,0:0:0:0:
349,99,223284,5,2,0:2:0:0:
351,120,223355,1,0,0:0:0:0:
353,141,223426,1,2,0:2:0:0:
355,162,223498,1,0,0:0:0:0:
357,183,223570,2,0,L|361:225,1,42.5000008106232,2|2,0:2|0:2,0:0:0:0:
283,303,223712,2,0,L|241:299,1,42.5000008106232,2|0,0:0|0:0,0:0:0:0:
322,370,223855,2,0,L|364:366,1,42.5000008106232,2|0,0:2|0:0,0:0:0:0:
468,296,223998,5,2,0:2:0:0:
474,275,224069,1,0,0:0:0:0:
476,255,224140,1,2,0:2:0:0:
473,233,224212,1,0,0:0:0:0:
468,212,224284,2,0,L|464:170,1,42.5000008106232,2|0,0:0|0:0,0:0:0:0:
450,40,224427,5,2,0:2:0:0:
450,40,224498,1,0,0:0:0:0:
450,40,224570,2,0,P|433:59|409:67,1,42.5000008106232,2|0,0:0|0:0,0:0:0:0:
278,32,224712,1,2,0:2:0:0:
278,32,224783,1,2,0:0:0:0:
278,32,224855,5,2,0:2:0:0:
225,136,224998,1,2,0:0:0:0:
74,67,225141,2,0,P|77:88|82:108,1,42.5000008106232,6|0,0:3|0:0,0:0:0:0:
249,144,225284,1,2,0:2:0:0:
98,75,225427,2,0,P|101:96|106:116,1,42.5000008106232,6|0,0:3|0:0,0:0:0:0:
273,152,225570,1,2,0:2:0:0:
117,240,225712,5,12,0:2:0:0:
100,286,225783,1,0,0:0:0:0:
116,332,225854,1,2,0:2:0:0:
158,357,225926,1,0,0:0:0:0:
207,349,225998,1,8,0:2:0:0:
231,306,226069,1,0,0:0:0:0:
276,286,226140,1,2,0:2:0:0:
320,305,226212,1,0,0:0:0:0:
345,348,226283,5,8,0:2:0:0:
393,356,226355,1,0,0:0:0:0:
435,331,226427,1,2,0:2:0:0:
452,285,226498,1,0,0:0:0:0:
435,239,226570,1,8,0:2:0:0:
397,207,226641,1,0,0:0:0:0:
348,204,226712,1,2,0:2:0:0:
307,178,226783,1,0,0:0:0:0:
294,130,226855,5,8,0:2:0:0:
257,162,226926,1,0,0:0:0:0:
208,174,226997,1,2,0:2:0:0:
160,162,227069,1,0,0:0:0:0:
123,129,227141,1,8,0:2:0:0:
117,81,227212,1,0,0:0:0:0:
147,42,227284,1,2,0:2:0:0:
194,30,227355,1,0,0:0:0:0:
242,47,227427,5,8,0:2:0:0:
291,56,227498,1,0,0:0:0:0:
340,58,227569,1,2,0:2:0:0:
390,52,227641,1,0,0:0:0:0:
438,38,227712,2,0,P|456:85|454:113,1,50,8|0,0:2|0:0,0:0:0:0:
360,140,227855,2,0,P|342:186|344:214,1,50,2|0,0:2|0:0,0:0:0:0:
454,352,227998,6,0,L|394:348,1,50,8|0,0:2|0:0,0:0:0:0:
287,293,228141,2,0,L|283:342,1,50,2|0,0:2|0:0,0:0:0:0:
150,344,228284,1,8,0:2:0:0:
100,342,228355,1,0,0:0:0:0:
57,318,228426,1,2,0:2:0:0:
31,276,228498,1,0,0:0:0:0:
29,226,228569,5,8,0:2:0:0:
78,224,228641,1,0,0:0:0:0:
121,200,228712,1,2,0:2:0:0:
147,158,228784,1,0,0:0:0:0:
149,108,228855,2,0,P|145:79|130:49,1,50,8|0,0:2|0:0,0:0:0:0:
0,48,228998,2,0,P|3:76|19:107,1,50,2|0,0:2|0:0,0:0:0:0:
155,238,229141,5,8,0:2:0:0:
203,248,229212,1,0,0:0:0:0:
249,230,229283,1,2,0:2:0:0:
279,191,229355,1,0,0:0:0:0:
284,142,229427,1,8,0:2:0:0:
288,92,229498,1,0,0:0:0:0:
318,53,229570,1,2,0:2:0:0:
364,36,229641,1,0,0:0:0:0:
413,46,229712,5,8,0:2:0:0:
425,94,229784,1,0,0:0:0:0:
437,142,229855,2,0,L|444:172,2,25,2|2|2,0:2|0:2|0:2,0:0:0:0:
465,255,229998,1,8,0:2:0:0:
429,289,230069,1,0,0:0:0:0:
382,303,230140,1,2,0:2:0:0:
333,293,230212,1,0,0:0:0:0:
295,261,230284,6,0,L|240:266,3,50,12|0|2|0,0:2|0:0|0:2|0:0,0:0:0:0:
137,328,230570,1,8,0:2:0:0:
131,278,230641,1,0,0:0:0:0:
126,228,230712,1,2,0:2:0:0:
120,178,230784,1,0,0:0:0:0:
115,129,230855,5,8,0:2:0:0:
132,83,230926,1,0,0:0:0:0:
176,62,230997,1,2,0:2:0:0:
222,78,231069,1,0,0:0:0:0:
244,121,231141,1,8,0:2:0:0:
277,157,231212,1,0,0:0:0:0:
325,163,231283,1,2,0:2:0:0:
366,136,231355,1,0,0:0:0:0:
380,89,231427,5,8,0:2:0:0:
415,54,231498,1,0,0:0:0:0:
463,52,231569,1,2,0:2:0:0:
501,83,231641,1,0,0:0:0:0:
510,131,231712,1,8,0:2:0:0:
484,173,231784,1,0,0:0:0:0:
437,186,231855,1,2,0:2:0:0:
411,228,231927,1,0,0:0:0:0:
419,276,231998,5,8,0:2:0:0:
412,324,232069,1,0,0:0:0:0:
377,358,232140,1,2,0:2:0:0:
328,362,232212,1,0,0:0:0:0:
288,335,232284,2,0,L|277:268,1,50,8|0,0:2|0:0,0:0:0:0:
143,192,232427,2,0,L|131:259,1,50,2|0,0:2|0:0,0:0:0:0:
59,346,232570,5,8,0:2:0:0:
107,354,232641,1,0,0:0:0:0:
155,339,232712,1,2,0:2:0:0:
190,305,232784,1,0,0:0:0:0:
207,258,232855,1,8,0:2:0:0:
215,209,232926,1,0,0:0:0:0:
223,159,232997,1,2,0:2:0:0:
231,110,233069,1,0,0:0:0:0:
238,61,233141,5,8,0:2:0:0:
189,69,233212,1,0,0:0:0:0:
140,77,233283,1,2,0:2:0:0:
90,85,233355,1,0,0:0:0:0:
41,92,233427,2,0,P|32:152|35:166,1,50,8|0,0:2|0:0,0:0:0:0:
84,273,233570,2,0,P|140:250|151:241,1,50,2|0,0:2|0:0,0:0:0:0:
307,161,233712,6,0,P|316:221|313:235,1,50,8|0,0:2|0:0,0:0:0:0:
350,342,233855,1,10,0:2:0:0:
350,342,233927,1,8,0:2:0:0:
350,342,233998,2,0,L|419:327,1,50,8|0,0:2|0:0,0:0:0:0:
449,133,234141,1,10,0:2:0:0:
449,133,234213,1,8,0:2:0:0:
449,133,234284,6,0,L|464:202,1,50,8|0,0:2|0:0,0:0:0:0:
199,280,234427,1,10,0:2:0:0:
199,280,234498,1,8,0:2:0:0:
199,280,234570,2,0,L|184:211,1,50,8|0,0:2|0:0,0:0:0:0:
299,70,234712,1,10,0:2:0:0:
299,70,234783,1,8,0:2:0:0:
299,70,234855,5,12,0:2:0:0:
259,99,234926,1,0,0:0:0:0:
211,112,234997,1,2,0:2:0:0:
162,104,235069,1,0,0:0:0:0:
119,78,235141,1,8,0:2:0:0:
70,72,235212,1,0,0:0:0:0:
26,93,235283,1,2,0:2:0:0:
0,135,235355,1,0,0:0:0:0:
0,184,235426,5,8,0:2:0:0:
26,226,235498,1,0,0:0:0:0:
70,247,235569,1,2,0:2:0:0:
119,240,235641,1,0,0:0:0:0:
157,209,235712,1,8,0:2:0:0:
206,203,235784,1,0,0:0:0:0:
251,224,235855,1,2,0:2:0:0:
277,265,235927,1,0,0:0:0:0:
278,315,235998,5,8,0:2:0:0:
321,290,236070,1,0,0:0:0:0:
370,285,236141,1,2,0:2:0:0:
418,293,236212,1,0,0:0:0:0:
462,271,236283,1,8,0:2:0:0:
483,227,236355,1,0,0:0:0:0:
473,179,236426,1,2,0:2:0:0:
436,146,236498,1,0,0:0:0:0:
387,143,236570,6,0,L|317:155,1,50,8|0,0:2|0:0,0:0:0:0:
237,42,236712,2,0,L|229:92,1,50,2|0,0:2|0:0,0:0:0:0:
51,147,236855,2,0,P|43:191|43:212,1,50,8|0,0:2|0:0,0:0:0:0:
124,312,236998,2,0,P|132:268|132:247,1,50,2|0,0:2|0:0,0:0:0:0:
204,177,237141,6,0,L|269:185,1,50,8|0,0:2|0:0,0:0:0:0:
332,323,237284,2,0,L|325:273,1,50,2|0,0:2|0:0,0:0:0:0:
473,246,237427,1,8,0:2:0:0:
500,204,237498,1,0,0:0:0:0:
506,155,237569,1,2,0:2:0:0:
489,109,237641,1,0,0:0:0:0:
453,75,237712,5,8,0:2:0:0:
403,72,237783,1,0,0:0:0:0:
353,70,237854,1,2,0:2:0:0:
303,67,237926,1,0,0:0:0:0:
253,65,237998,2,0,L|162:59,1,50,8|0,0:2|0:0,0:0:0:0:
72,125,238141,2,0,L|112:206,1,50,2|0,0:2|0:0,0:0:0:0:
68,303,238284,5,8,0:2:0:0:
117,305,238355,1,0,0:0:0:0:
164,289,238426,1,2,0:2:0:0:
202,256,238498,1,0,0:0:0:0:
224,212,238569,1,8,0:2:0:0:
246,168,238641,1,0,0:0:0:0:
284,135,238713,1,2,0:2:0:0:
331,119,238784,1,0,0:0:0:0:
380,121,238855,5,8,0:2:0:0:
372,170,238927,1,0,0:0:0:0:
337,206,238998,2,0,P|321:214|304:222,2,25,2|2|2,0:2|0:2|0:2,0:0:0:0:
317,322,239141,1,8,0:2:0:0:
366,320,239212,1,0,0:0:0:0:
411,297,239283,1,2,0:2:0:0:
442,259,239355,1,0,0:0:0:0:
454,211,239427,6,0,L|460:143,3,50,12|0|2|0,0:2|0:0|0:2|0:0,0:0:0:0:
439,40,239712,1,8,0:2:0:0:
389,44,239783,1,0,0:0:0:0:
339,48,239854,1,2,0:2:0:0:
289,53,239926,1,0,0:0:0:0:
239,57,239997,5,2,0:0:0:0:
234,106,240070,1,0,0:0:0:0:
230,156,240142,1,2,0:2:0:0:
225,206,240213,1,0,0:0:0:0:
221,256,240284,1,8,0:2:0:0:
269,262,240355,1,0,0:0:0:0:
315,242,240426,1,2,0:2:0:0:
343,201,240498,1,0,0:0:0:0:
346,152,240570,5,8,0:2:0:0:
394,163,240641,1,0,0:0:0:0:
432,194,240712,1,2,0:2:0:0:
452,240,240784,1,0,0:0:0:0:
450,289,240855,1,8,0:2:0:0:
426,332,240927,1,0,0:0:0:0:
385,360,240998,1,2,0:2:0:0:
336,367,241070,1,0,0:0:0:0:
289,351,241141,5,8,0:2:0:0:
241,336,241212,1,0,0:0:0:0:
191,331,241283,1,2,0:2:0:0:
142,337,241355,1,0,0:0:0:0:
95,353,241427,2,0,P|81:322|81:295,1,50,8|0,0:2|0:0,0:0:0:0:
29,141,241570,2,0,P|14:172|14:199,1,50,2|0,0:2|0:0,0:0:0:0:
164,230,241712,5,10,0:2:0:0:
218,232,241783,1,2,0:2:0:0:
268,212,241854,1,2,0:2:0:0:
305,171,241926,1,2,0:2:0:0:
321,119,241998,1,10,0:2:0:0:
366,87,242070,1,2,0:2:0:0:
421,87,242141,1,2,0:2:0:0:
466,119,242213,1,2,0:2:0:0:
482,171,242284,5,10,0:2:0:0:
466,224,242356,1,2,0:2:0:0:
421,256,242427,1,2,0:2:0:0:
366,256,242499,1,2,0:2:0:0:
322,224,242570,1,10,0:2:0:0:
305,171,242641,1,2,0:2:0:0:
268,130,242712,1,2,0:2:0:0:
218,110,242783,1,2,0:2:0:0:
164,112,242855,6,0,L|71:131,1,55.0000016784668,10|2,0:2|0:2,0:0:0:0:
20,251,242998,1,10,0:2:0:0:
20,251,243070,1,10,0:2:0:0:
20,251,243141,2,0,P|18:286|28:318,1,55.0000016784668,10|2,0:2|0:2,0:0:0:0:
181,247,243284,1,10,0:2:0:0:
181,247,243356,1,10,0:2:0:0:
181,247,243427,2,0,P|182:211|173:180,1,55.0000016784668,10|2,0:2|0:2,0:0:0:0:
290,339,243570,6,0,P|335:350|366:350,1,55.0000016784668,10|2,0:2|0:2,0:0:0:0:
408,273,243712,2,0,P|447:248|469:227,1,55.0000016784668,10|2,0:2|0:2,0:0:0:0:
444,142,243855,2,0,P|455:97|455:66,1,55.0000016784668,10|10,0:2|0:2,0:0:0:0:
247,32,243998,6,0,L|227:153,1,100,10|0,0:2|0:0,0:0:0:0:
309,196,244212,2,0,L|325:97,1,100,2|0,0:2|0:0,0:0:0:0:
420,64,244427,1,2,0:2:0:0:
214,229,244570,6,0,L|234:108,1,100,10|0,0:2|0:0,0:0:0:0:
325,97,244784,2,0,L|305:218,1,100,2|0,0:2|0:0,0:0:0:0:
386,260,244998,1,2,0:2:0:0:
497,128,245141,6,0,L|477:249,1,100,10|0,0:2|0:0,0:0:0:0:
463,324,245355,2,0,L|365:341,1,100,2|0,0:2|0:0,0:0:0:0:
265,357,245570,1,2,0:2:0:0:
480,226,245712,6,0,L|463:324,1,100,10|0,0:2|0:0,0:0:0:0:
363,340,245927,2,0,L|265:357,1,100,2|0,0:2|0:0,0:0:0:0:
165,374,246141,1,2,0:2:0:0:
245,257,246284,6,0,L|147:274,1,100,10|0,0:2|0:0,0:0:0:0:
31,193,246498,2,0,L|129:176,1,100,2|0,0:2|0:0,0:0:0:0:
229,157,246712,1,2,0:2:0:0:
31,193,246855,6,0,L|129:176,1,100,10|0,0:2|0:0,0:0:0:0:
245,257,247070,2,0,L|147:274,1,100,2|0,0:2|0:0,0:0:0:0:
47,291,247284,1,2,0:2:0:0:
163,175,247427,6,0,L|146:273,1,100,10|0,0:2|0:0,0:0:0:0:
262,193,247641,2,0,L|245:95,1,100,2|0,0:2|0:0,0:0:0:0:
145,76,247855,1,2,0:2:0:0:
262,193,247998,6,0,L|245:95,1,100,10|0,0:2|0:0,0:0:0:0:
163,175,248212,2,0,L|146:273,1,100,2|0,0:2|0:0,0:0:0:0:
244,292,248427,1,2,0:2:0:0:
360,175,248570,6,0,L|458:158,1,100,10|0,0:2|0:0,0:0:0:0:
429,250,248784,2,0,L|394:343,1,100,2|0,0:2|0:0,0:0:0:0:
329,272,248998,1,2,0:2:0:0:
296,98,249141,6,0,L|261:191,1,100,10|0,0:2|0:0,0:0:0:0:
360,175,249355,2,0,L|458:158,1,100,2|0,0:2|0:0,0:0:0:0:
394,80,249570,1,2,0:2:0:0:
260,191,249712,6,0,L|162:174,1,100,10|0,0:2|0:0,0:0:0:0:
79,57,249927,2,0,L|177:74,1,100,2|0,0:2|0:0,0:0:0:0:
62,155,250141,1,2,0:2:0:0:
276,92,250284,6,0,L|178:75,1,100,10|0,0:2|0:0,0:0:0:0:
62,155,250498,2,0,L|160:172,1,100,2|0,0:2|0:0,0:0:0:0:
260,191,250712,1,2,0:2:0:0:
374,74,250855,6,0,L|391:172,1,100,10|0,0:2|0:0,0:0:0:0:
408,271,251070,2,0,L|391:173,1,100,2|0,0:2|0:0,0:0:0:0:
472,91,251284,1,2,0:2:0:0:
408,271,251427,6,0,L|391:173,1,100,10|0,0:2|0:0,0:0:0:0:
374,74,251641,2,0,L|391:172,1,100,2|0,0:2|0:0,0:0:0:0:
310,254,251855,1,2,0:2:0:0:
276,57,251998,5,10,0:2:0:0:
123,185,252141,1,2,0:0:0:0:
123,185,252212,1,2,0:0:0:0:
123,185,252284,1,10,0:2:0:0:
310,254,252427,1,2,0:0:0:0:
310,254,252498,1,2,0:0:0:0:
310,254,252570,5,10,0:2:0:0:
162,77,252712,2,0,L|174:145,1,50,10|2,0:2|0:0,0:0:0:0:
196,273,252855,1,10,0:2:0:0:
349,145,252998,2,0,L|294:154,1,50,10|2,0:2|0:0,0:0:0:0:
123,185,253141,6,0,B|102:233|102:233|121:288,1,100,14|0,0:2|0:0,0:0:0:0:
27,351,253355,2,0,B|48:303|48:303|29:248,1,100,2|0,0:2|0:0,0:0:0:0:
42,185,253570,1,2,0:2:0:0:
27,351,253712,6,0,B|48:303|48:303|29:248,1,100,10|0,0:2|0:0,0:0:0:0:
123,185,253927,2,0,B|102:233|102:233|121:288,1,100,2|0,0:2|0:0,0:0:0:0:
108,351,254141,1,2,0:2:0:0:
251,245,254284,6,0,B|307:236|307:236|349:255,1,100,10|0,0:2|0:0,0:0:0:0:
395,323,254498,2,0,B|339:332|339:332|297:313,1,100,2|0,0:2|0:0,0:0:0:0:
215,321,254712,1,2,0:2:0:0:
395,323,254855,6,0,B|339:332|339:332|297:313,1,100,10|0,0:2|0:0,0:0:0:0:
251,245,255070,2,0,B|307:236|307:236|349:255,1,100,2|0,0:2|0:0,0:0:0:0:
431,247,255284,1,2,0:2:0:0:
273,159,255427,6,0,L|223:167|223:167|206:214,1,100,10|0,0:2|0:0,0:0:0:0:
133,186,255641,2,0,L|151:138|151:138|118:100,1,100,2|0,0:2|0:0,0:0:0:0:
106,24,255855,1,2,0:2:0:0:
133,186,255998,6,0,L|151:138|151:138|118:100,1,100,10|0,0:2|0:0,0:0:0:0:
179,51,256212,2,0,L|210:90|210:90|260:81,1,100,2|0,0:2|0:0,0:0:0:0:
332,110,256427,1,2,0:2:0:0:
292,300,256570,6,0,L|283:251|283:251|234:260,1,100,10|0,0:2|0:0,0:0:0:0:
256,127,256784,2,0,L|265:176|265:176|216:185,1,100,2|0,0:2|0:0,0:0:0:0:
159,236,256998,1,2,0:2:0:0:
332,110,257141,6,0,L|341:159|341:159|390:149,1,100,10|0,0:2|0:0,0:0:0:0:
367,283,257355,2,0,L|357:234|357:234|406:225,1,100,2|0,0:2|0:0,0:0:0:0:
464,173,257570,1,2,0:2:0:0:
256,127,257712,6,0,L|206:136|206:136|175:97,1,100,10|0,0:2|0:0,0:0:0:0:
124,152,257927,2,0,L|91:113|91:113|109:66,1,100,2|0,0:2|0:0,0:0:0:0:
36,50,258141,1,2,0:2:0:0:
124,152,258284,6,0,L|91:113|91:113|109:66,1,100,10|0,0:2|0:0,0:0:0:0:
142,226,258498,2,0,L|92:235|92:235|61:196,1,100,2|0,0:2|0:0,0:0:0:0:
215,247,258712,1,2,0:2:0:0:
335,64,258855,6,0,L|342:113|342:113|391:120,1,100,10|0,0:2|0:0,0:0:0:0:
352,244,259070,2,0,L|344:194|344:194|295:187,1,100,2|0,0:2|0:0,0:0:0:0:
257,114,259284,1,2,0:2:0:0:
352,244,259427,6,0,L|344:194|344:194|295:187,1,100,10|0,0:2|0:0,0:0:0:0:
335,64,259641,2,0,L|342:113|342:113|391:120,1,100,2|0,0:2|0:0,0:0:0:0:
430,194,259855,1,2,0:2:0:0:
267,353,259998,6,0,L|317:362|317:362|348:323,1,100,10|0,0:2|0:0,0:0:0:0:
401,377,260212,2,0,L|433:338|433:338|415:291,1,100,2|0,0:2|0:0,0:0:0:0:
488,272,260427,1,2,0:2:0:0:
401,377,260570,6,0,L|433:338|433:338|415:291,1,100,10|0,0:2|0:0,0:0:0:0:
267,353,260784,2,0,L|317:362|317:362|348:323,1,100,2|0,0:2|0:0,0:0:0:0:
238,272,260998,1,2,0:2:0:0:
57,337,261141,5,10,0:2:0:0:
73,195,261284,1,2,0:0:0:0:
73,195,261355,1,10,0:2:0:0:
73,195,261427,1,2,0:0:0:0:
215,179,261570,1,10,0:2:0:0:
215,179,261641,1,2,0:0:0:0:
215,179,261712,5,10,0:2:0:0:
231,37,261855,1,2,0:0:0:0:
231,37,261926,1,10,0:2:0:0:
231,37,261997,1,2,0:0:0:0:
373,21,262142,1,10,0:2:0:0:
373,21,262213,1,2,0:0:0:0:
373,21,262284,6,0,P|395:81|371:147,1,100,14|0,0:2|0:0,0:0:0:0:
335,257,262498,2,0,P|313:197|337:131,1,100,2|0,0:2|0:0,0:0:0:0:
309,81,262712,1,2,0:2:0:0:
335,257,262855,6,0,P|313:197|337:131,1,100,10|0,0:2|0:0,0:0:0:0:
373,21,263070,2,0,P|395:81|371:147,1,100,2|0,0:2|0:0,0:0:0:0:
399,197,263284,1,2,0:2:0:0:
237,131,263427,6,0,P|183:123|142:147,1,100,10|0,0:2|0:0,0:0:0:0:
166,289,263641,2,0,P|194:248|198:199,1,100,2|0,0:2|0:0,0:0:0:0:
63,148,263855,1,2,0:2:0:0:
42,379,263998,6,0,P|96:387|137:363,1,100,10|0,0:2|0:0,0:0:0:0:
112,220,264212,2,0,P|83:260|79:309,1,100,2|0,0:2|0:0,0:0:0:0:
216,362,264426,1,2,0:2:0:0:
426,285,264570,6,0,P|378:271|330:284,1,100,10|0,0:2|0:0,0:0:0:0:
240,195,264784,2,0,P|287:208|335:195,1,100,2|0,0:2|0:0,0:0:0:0:
253,285,264998,1,2,0:2:0:0:
240,195,265141,6,0,P|287:208|335:195,1,100,10|0,0:2|0:0,0:0:0:0:
426,285,265355,2,0,P|378:271|330:284,1,100,2|0,0:2|0:0,0:0:0:0:
413,195,265570,1,2,0:2:0:0:
309,30,265712,6,0,P|285:73|287:123,1,100,10|0,0:2|0:0,0:0:0:0:
462,69,265927,2,0,P|413:70|370:96,1,100,2|0,0:2|0:0,0:0:0:0:
434,155,266141,1,2,0:2:0:0:
462,69,266284,6,0,P|413:70|370:96,1,100,10|0,0:2|0:0,0:0:0:0:
309,30,266498,2,0,P|285:73|287:123,1,100,2|0,0:2|0:0,0:0:0:0:
198,143,266712,1,2,0:2:0:0:
17,49,266855,6,0,P|40:92|39:141,1,100,10|0,0:2|0:0,0:0:0:0:
138,264,267070,2,0,P|114:220|115:171,1,100,2|0,0:2|0:0,0:0:0:0:
124,91,267284,1,2,0:2:0:0:
138,264,267427,6,0,P|114:220|115:171,1,100,10|0,0:2|0:0,0:0:0:0:
17,49,267641,2,0,P|40:92|39:141,1,100,2|0,0:2|0:0,0:0:0:0:
31,222,267855,1,2,0:2:0:0:
216,86,267998,6,0,P|233:139|219:190,1,100,10|0,0:2|0:0,0:0:0:0:
354,241,268212,2,0,P|305:232|258:248,1,100,2|0,0:2|0:0,0:0:0:0:
181,244,268427,1,2,0:2:0:0:
354,241,268570,6,0,P|305:232|258:248,1,100,10|0,0:2|0:0,0:0:0:0:
216,86,268784,2,0,P|233:139|219:190,1,100,2|0,0:2|0:0,0:0:0:0:
316,152,268998,1,2,0:2:0:0:
508,97,269141,6,0,P|461:111|415:92,1,100,10|0,0:2|0:0,0:0:0:0:
383,197,269355,2,0,P|429:182|475:201,1,100,2|0,0:2|0:0,0:0:0:0:
476,280,269570,1,2,0:2:0:0:
383,197,269712,6,0,P|429:182|475:201,1,100,10|0,0:2|0:0,0:0:0:0:
508,97,269927,2,0,P|461:111|415:92,1,100,2|0,0:2|0:0,0:0:0:0:
415,14,270141,1,2,0:2:0:0:
316,152,270284,5,10,0:2:0:0:
156,37,270427,1,8,0:2:0:0:
156,37,270498,1,8,0:2:0:0:
156,37,270570,1,10,0:2:0:0:
137,234,270712,1,8,0:2:0:0:
137,234,270784,1,8,0:2:0:0:
137,234,270855,5,10,0:2:0:0:
316,152,270998,2,0,L|220:144,1,50,10|8,0:2|0:2,0:0:0:0:
121,134,271141,1,10,0:2:0:0:
300,52,271284,2,0,L|396:59,1,50,10|8,0:2|0:2,0:0:0:0:
281,247,271427,6,0,L|264:345,1,100,14|0,0:2|0:0,0:0:0:0:
361,323,271641,2,0,L|378:225,1,100,2|0,0:2|0:0,0:0:0:0:
476,207,271855,1,2,0:2:0:0:
361,323,271998,6,0,L|378:225,1,100,10|0,0:2|0:0,0:0:0:0:
281,247,272212,2,0,L|264:345,1,100,2|0,0:2|0:0,0:0:0:0:
164,362,272427,1,2,0:2:0:0:
36,206,272570,6,0,L|134:189,1,100,10|0,0:2|0:0,0:0:0:0:
174,8,272784,2,0,L|191:106,1,100,2|0,0:2|0:0,0:0:0:0:
273,163,272998,1,2,0:2:0:0:
174,8,273141,6,0,L|191:106,1,100,10|0,0:2|0:0,0:0:0:0:
36,206,273355,2,0,L|134:189,1,100,2|0,0:2|0:0,0:0:0:0:
216,245,273570,1,2,0:2:0:0:
330,81,273712,6,0,B|381:68|381:68|456:88,1,100,10|0,0:2|0:0,0:0:0:0:
384,245,273927,2,0,B|371:194|371:194|391:119,1,100,2|0,0:2|0:0,0:0:0:0:
462,157,274141,1,2,0:2:0:0:
384,245,274284,6,0,B|371:194|371:194|383:148,1,100,10|0,0:2|0:0,0:0:0:0:
433,314,274498,2,0,B|382:327|382:327|337:315,1,100,2|0,0:2|0:0,0:0:0:0:
298,245,274712,1,2,0:2:0:0:
140,341,274855,6,0,L|90:333|90:333|83:284,1,100,10|0,0:2|0:0,0:0:0:0:
19,154,275070,2,0,L|68:161|68:161|75:210,1,100,2|0,0:2|0:0,0:0:0:0:
158,265,275284,1,2,0:2:0:0:
19,154,275427,6,0,L|68:161|68:161|75:210,1,100,10|0,0:2|0:0,0:0:0:0:
140,341,275641,2,0,L|90:333|90:333|83:284,1,100,2|0,0:2|0:0,0:0:0:0:
1,230,275855,1,2,0:2:0:0:
171,136,275998,6,0,P|235:126|295:149,1,100,10|0,0:2|0:0,0:0:0:0:
330,201,276212,2,0,P|339:249|328:298,1,100,2|0,0:2|0:0,0:0:0:0:
220,247,276427,1,2,0:2:0:0:
330,201,276570,6,0,P|339:249|328:298,1,100,10|0,0:2|0:0,0:0:0:0:
269,356,276784,2,0,P|205:366|145:343,1,100,2|0,0:2|0:0,0:0:0:0:
220,247,276998,1,2,0:2:0:0:
427,358,277141,6,0,P|416:309|425:260,1,100,10|0,0:2|0:0,0:0:0:0:
483,167,277355,2,0,P|434:177|385:168,1,100,2|0,0:2|0:0,0:0:0:0:
292,111,277570,1,2,0:2:0:0:
157,358,277712,6,0,P|167:309|158:260,1,100,10|0,0:2|0:0,0:0:0:0:
101,167,277927,2,0,P|149:177|198:168,1,100,2|0,0:2|0:0,0:0:0:0:
292,111,278141,1,2,0:2:0:0:
291,310,278284,5,10,0:2:0:0:
291,285,278355,1,2,0:2:0:0:
291,260,278426,1,2,0:2:0:0:
291,235,278498,1,10,0:2:0:0:
291,210,278569,1,2,0:2:0:0:
291,185,278641,1,2,0:2:0:0:
291,160,278712,1,8,0:2:0:0:
291,135,278784,1,2,0:2:0:0:
292,111,278855,5,10,0:2:0:0:
277,70,278926,1,2,0:2:0:0:
244,41,278997,1,2,0:2:0:0:
202,31,279069,1,10,0:2:0:0:
160,43,279140,1,2,0:2:0:0:
129,73,279212,1,2,0:2:0:0:
116,114,279283,1,8,0:2:0:0:
124,156,279355,1,2,0:2:0:0:
151,190,279427,6,0,P|190:206|206:206,1,50,10|2,0:2|0:2,0:0:0:0:
392,133,279570,1,10,0:2:0:0:
392,133,279641,1,10,0:2:0:0:
392,133,279712,2,0,L|400:197,1,50,10|2,0:2|0:2,0:0:0:0:
311,326,279855,1,10,0:2:0:0:
311,326,279926,1,10,0:2:0:0:
311,326,279998,6,0,L|375:334,1,50,10|2,0:2|0:2,0:0:0:0:
282,113,280141,1,10,0:2:0:0:
282,113,280212,1,10,0:2:0:0:
282,113,280284,2,0,L|232:106,1,50,10|2,0:2|0:2,0:0:0:0:
201,306,280427,1,10,0:2:0:0:
201,306,280498,1,10,0:2:0:0:
201,306,280570,5,14,0:2:0:0:
146,311,280641,1,0,0:0:0:0:
94,295,280712,1,0,0:0:0:0:
53,259,280784,1,2,0:2:0:0:
30,209,280855,1,2,0:0:0:0:
29,154,280927,1,0,0:0:0:0:
50,104,280998,1,2,0:2:0:0:
89,66,281070,1,0,0:0:0:0:
141,47,281141,1,10,0:2:0:0:
195,51,281212,1,0,0:0:0:0:
244,76,281284,1,0,0:0:0:0:
278,118,281355,1,2,0:2:0:0:
292,171,281427,1,2,0:0:0:0:
335,206,281499,1,0,0:0:0:0:
390,209,281570,1,2,0:2:0:0:
436,179,281641,1,0,0:0:0:0:
455,127,281712,5,10,0:2:0:0:
442,74,281783,1,0,0:0:0:0:
399,40,281855,1,0,0:0:0:0:
344,37,281926,1,2,0:2:0:0:
298,66,281998,1,2,0:0:0:0:
278,118,282069,1,0,0:0:0:0:
292,171,282140,1,2,0:2:0:0:
335,206,282212,1,0,0:0:0:0:
390,209,282283,1,10,0:2:0:0:
433,244,282355,1,0,0:0:0:0:
447,297,282426,1,0,0:0:0:0:
427,349,282497,1,2,0:2:0:0:
381,378,282569,1,2,0:0:0:0:
326,375,282640,1,0,0:0:0:0:
283,341,282712,1,2,0:2:0:0:
228,338,282784,1,0,0:0:0:0:
182,367,282855,6,0,P|150:376|87:364,3,55.0000016784668,10|0|0|2,0:2|0:0|0:0|0:2,0:0:0:0:
33,325,283141,1,2,0:0:0:0:
29,295,283212,1,0,0:0:0:0:
25,265,283283,1,2,0:2:0:0:
21,235,283355,1,0,0:0:0:0:
17,205,283427,6,0,L|9:150,3,55.0000016784668,10|0|0|2,0:2|0:0|0:0|0:2,0:0:0:0:
67,63,283712,1,2,0:0:0:0:
108,45,283783,1,0,0:0:0:0:
152,39,283854,1,2,0:2:0:0:
197,44,283926,1,0,0:0:0:0:
238,61,283998,6,0,P|276:93|285:111,3,55.0000016784668,10|0|0|2,0:2|0:0|0:0|0:2,0:0:0:0:
264,234,284284,1,2,0:0:0:0:
322,225,284355,1,0,0:0:0:0:
372,192,284426,1,2,0:2:0:0:
404,142,284498,1,0,0:0:0:0:
412,83,284570,6,0,P|410:44|403:25,3,55.0000016784668,10|0|2|0,0:2|0:0|0:0|0:0,0:0:0:0:
512,144,284855,1,2,0:0:0:0:
506,188,284926,1,0,0:0:0:0:
500,233,284997,1,10,0:2:0:0:
494,277,285069,1,0,0:0:0:0:
488,322,285141,5,14,0:2:0:0:
419,351,285212,1,0,0:0:0:0:
347,338,285283,1,0,0:0:0:0:
292,288,285355,1,2,0:2:0:0:
273,217,285427,1,2,0:0:0:0:
287,143,285498,1,0,0:0:0:0:
260,73,285570,1,2,0:2:0:0:
199,28,285641,1,0,0:0:0:0:
124,25,285712,1,10,0:2:0:0:
58,62,285784,1,0,0:0:0:0:
24,128,285855,1,0,0:0:0:0:
30,203,285927,1,2,0:2:0:0:
76,262,285998,1,2,0:0:0:0:
147,287,286070,1,0,0:0:0:0:
220,270,286141,1,2,0:2:0:0:
273,217,286212,1,0,0:0:0:0:
287,143,286284,5,10,0:2:0:0:
346,98,286355,1,0,0:0:0:0:
419,96,286426,1,0,0:0:0:0:
480,138,286498,1,2,0:2:0:0:
506,207,286569,1,2,0:0:0:0:
487,278,286641,1,0,0:0:0:0:
430,325,286712,1,2,0:2:0:0:
357,330,286784,1,0,0:0:0:0:
294,292,286855,1,10,0:2:0:0:
220,296,286927,1,0,0:0:0:0:
163,343,286998,1,0,0:0:0:0:
89,341,287069,1,2,0:2:0:0:
35,292,287140,1,2,0:0:0:0:
26,219,287212,1,0,0:0:0:0:
67,158,287283,1,2,0:2:0:0:
138,140,287355,1,0,0:0:0:0:
204,173,287427,5,10,0:2:0:0:
251,137,287498,1,0,0:0:0:0:
310,136,287570,1,0,0:0:0:0:
363,164,287641,1,2,0:2:0:0:
421,146,287713,1,2,0:0:0:0:
448,93,287785,1,0,0:0:0:0:
430,36,287856,1,2,0:2:0:0:
376,8,287928,1,0,0:0:0:0:
320,26,287999,1,10,0:2:0:0:
292,79,288070,1,0,0:0:0:0:
310,136,288141,1,0,0:0:0:0:
323,193,288212,1,2,0:2:0:0:
297,245,288283,1,2,0:0:0:0:
242,267,288355,1,0,0:0:0:0:
187,249,288426,1,2,0:2:0:0:
156,198,288498,1,0,0:0:0:0:
166,140,288570,5,10,0:2:0:0:
162,82,288641,1,0,0:0:0:0:
118,43,288712,1,2,0:0:0:0:
59,44,288784,1,2,0:2:0:0:
18,86,288855,1,10,0:2:0:0:
16,144,288927,1,0,0:0:0:0:
55,188,288998,1,2,0:0:0:0:
53,247,289070,1,2,0:2:0:0:
12,288,289141,2,0,P|9:327|30:356,3,55.0000016784668,10|0|10|0,0:2|0:0|0:2|0:0,0:0:0:0:
230,207,289427,2,0,P|233:168|212:139,3,55.0000016784668,10|0|10|2,0:2|0:0|0:2|0:2,0:0:0:0:
84,125,289712,5,14,0:2:0:0:
100,177,289783,1,0,0:0:0:0:
117,229,289855,1,0,0:0:0:0:
134,281,289926,1,2,0:2:0:0:
151,334,289998,1,2,0:0:0:0:
194,366,290069,1,0,0:0:0:0:
248,372,290140,1,2,0:2:0:0:
297,349,290212,1,0,0:0:0:0:
327,304,290283,1,10,0:2:0:0:
330,250,290355,1,0,0:0:0:0:
305,202,290426,1,0,0:0:0:0:
279,154,290498,1,2,0:2:0:0:
282,99,290570,1,2,0:0:0:0:
312,54,290641,1,0,0:0:0:0:
361,32,290713,1,2,0:2:0:0:
415,37,290784,1,0,0:0:0:0:
459,70,290855,6,0,P|476:118|477:142,3,55.0000016784668,10|0|0|2,0:2|0:0|0:0|0:2,0:0:0:0:
440,235,291141,1,2,0:0:0:0:
395,241,291212,1,0,0:0:0:0:
350,247,291283,1,2,0:2:0:0:
306,254,291355,1,0,0:0:0:0:
261,260,291427,6,0,L|200:267,3,55.0000016784668,10|0|0|2,0:2|0:0|0:0|0:2,0:0:0:0:
70,277,291712,1,2,0:0:0:0:
79,223,291783,1,0,0:0:0:0:
108,177,291854,1,2,0:2:0:0:
154,146,291926,1,0,0:0:0:0:
207,136,291998,5,10,0:2:0:0:
184,98,292069,1,0,0:0:0:0:
186,54,292140,1,0,0:0:0:0:
213,19,292212,1,2,0:2:0:0:
256,6,292283,1,2,0:0:0:0:
298,19,292355,1,0,0:0:0:0:
325,54,292426,1,2,0:2:0:0:
328,98,292498,1,0,0:0:0:0:
304,136,292569,1,10,0:2:0:0:
280,173,292641,1,0,0:0:0:0:
283,217,292713,1,0,0:0:0:0:
310,252,292784,1,2,0:2:0:0:
352,265,292856,1,2,0:0:0:0:
395,252,292927,1,0,0:0:0:0:
422,217,292999,1,2,0:2:0:0:
424,173,293070,1,0,0:0:0:0:
401,135,293141,5,10,0:2:0:0:
371,136,293212,1,0,0:0:0:0:
343,147,293283,1,0,0:0:0:0:
321,167,293355,1,2,0:2:0:0:
307,193,293426,1,2,0:0:0:0:
303,223,293498,1,0,0:0:0:0:
310,252,293570,1,2,0:2:0:0:
309,281,293641,1,0,0:0:0:0:
298,309,293712,1,10,0:2:0:0:
277,330,293784,1,0,0:0:0:0:
250,343,293855,1,2,0:0:0:0:
220,345,293927,1,10,0:2:0:0:
192,336,293998,1,2,0:0:0:0:
169,317,294070,1,0,0:0:0:0:
154,291,294141,1,10,0:2:0:0:
150,261,294212,1,0,0:0:0:0:
157,232,294284,5,14,0:2:0:0:
183,267,294355,1,0,0:0:0:0:
185,311,294426,1,0,0:0:0:0:
162,349,294498,1,2,0:2:0:0:
122,367,294569,1,2,0:0:0:0:
78,359,294641,1,0,0:0:0:0:
47,327,294712,1,2,0:2:0:0:
39,284,294784,1,0,0:0:0:0:
57,243,294855,1,10,0:2:0:0:
71,201,294926,1,0,0:0:0:0:
74,156,294997,1,0,0:0:0:0:
65,112,295069,1,2,0:2:0:0:
45,72,295141,1,2,0:0:0:0:
58,29,295212,1,0,0:0:0:0:
92,2,295283,1,2,0:2:0:0:
137,0,295355,1,0,0:0:0:0:
174,24,295426,5,10,0:2:0:0:
190,65,295498,1,0,0:0:0:0:
180,108,295569,1,0,0:0:0:0:
169,151,295641,1,2,0:2:0:0:
186,192,295713,1,2,0:0:0:0:
223,216,295784,1,0,0:0:0:0:
267,214,295856,1,2,0:2:0:0:
302,186,295927,1,0,0:0:0:0:
315,144,295998,1,10,0:2:0:0:
345,111,296069,1,0,0:0:0:0:
387,97,296140,1,0,0:0:0:0:
431,105,296212,1,2,0:2:0:0:
465,133,296283,1,2,0:0:0:0:
481,175,296355,1,0,0:0:0:0:
476,219,296426,1,2,0:2:0:0:
449,255,296498,1,0,0:0:0:0:
409,273,296570,5,10,0:2:0:0:
365,267,296641,1,0,0:0:0:0:
321,275,296712,1,0,0:0:0:0:
283,299,296784,1,2,0:2:0:0:
255,334,296855,1,2,0:0:0:0:
215,354,296926,1,0,0:0:0:0:
170,356,296997,1,2,0:2:0:0:
129,338,297069,1,0,0:0:0:0:
100,305,297140,1,10,0:2:0:0:
88,262,297212,1,0,0:0:0:0:
95,218,297283,1,0,0:0:0:0:
121,181,297355,1,2,0:2:0:0:
160,159,297426,1,2,0:0:0:0:
204,156,297497,1,0,0:0:0:0:
246,172,297569,1,2,0:2:0:0:
290,169,297641,1,0,0:0:0:0:
328,147,297712,6,0,P|347:129|357:110,1,44.999998626709,10|0,0:2|0:0,0:0:0:0:
490,30,297855,1,2,0:0:0:0:
490,30,297927,1,10,0:2:0:0:
490,30,297998,2,0,L|501:94,1,44.999998626709,2|0,0:0|0:0,0:0:0:0:
407,232,298141,1,10,0:2:0:0:
407,232,298213,1,2,0:0:0:0:
407,232,298284,2,0,L|341:232,1,44.999998626709,2|0,0:0|0:0,0:0:0:0:
279,30,298427,1,2,0:0:0:0:
279,30,298499,1,10,0:2:0:0:
279,30,298570,2,0,L|290:94,1,44.999998626709,2|0,0:0|0:0,0:0:0:0:
180,232,298712,2,0,L|147:232,2,22.4999993133545,10|0|2,0:2|0:0|0:0,0:0:0:0:
62,185,298855,5,14,0:2:0:0:
53,238,298926,1,0,0:0:0:0:
68,291,298997,1,0,0:0:0:0:
102,334,299069,1,2,0:2:0:0:
150,359,299140,1,2,0:0:0:0:
205,362,299212,1,0,0:0:0:0:
256,343,299283,1,2,0:2:0:0:
295,305,299355,1,0,0:0:0:0:
316,255,299426,1,10,0:2:0:0:
314,200,299497,1,0,0:0:0:0:
291,151,299570,1,0,0:0:0:0:
294,95,299641,1,2,0:2:0:0:
325,49,299713,1,2,0:0:0:0:
374,24,299784,1,0,0:0:0:0:
429,28,299856,1,2,0:2:0:0:
475,59,299927,1,0,0:0:0:0:
500,108,299999,5,10,0:2:0:0:
497,165,300070,1,0,0:0:0:0:
465,209,300141,1,0,0:0:0:0:
414,233,300213,1,2,0:2:0:0:
359,229,300284,1,2,0:0:0:0:
314,200,300356,1,0,0:0:0:0:
290,149,300427,1,2,0:2:0:0:
249,112,300498,1,0,0:0:0:0:
196,98,300569,1,10,0:2:0:0:
143,109,300641,1,0,0:0:0:0:
100,143,300712,1,0,0:0:0:0:
78,192,300784,1,2,0:2:0:0:
79,247,300855,1,2,0:0:0:0:
106,294,300927,1,0,0:0:0:0:
151,325,300998,1,2,0:2:0:0:
205,332,301069,1,0,0:0:0:0:
256,314,301141,6,0,P|313:306|345:311,3,55.0000016784668,10|0|0|2,0:2|0:0|0:0|0:2,0:0:0:0:
433,287,301427,1,2,0:0:0:0:
437,257,301498,1,0,0:0:0:0:
441,227,301569,1,2,0:2:0:0:
445,197,301641,1,0,0:0:0:0:
449,167,301712,6,0,L|457:112,3,55.0000016784668,10|0|0|2,0:2|0:0|0:0|0:2,0:0:0:0:
355,44,301998,1,2,0:0:0:0:
315,64,302069,1,0,0:0:0:0:
271,74,302140,1,2,0:2:0:0:
226,72,302212,1,0,0:0:0:0:
183,59,302284,6,0,P|157:45|135:20,3,55.0000016784668,10|0|0|2,0:2|0:0|0:0|0:2,0:0:0:0:
23,90,302570,1,2,0:0:0:0:
31,149,302641,1,0,0:0:0:0:
40,208,302712,1,2,0:2:0:0:
48,268,302784,1,0,0:0:0:0:
57,327,302855,6,0,L|66:392,3,55.0000016784668,10|0|2|2,0:2|0:0|0:0|0:2,0:0:0:0:
181,309,303141,1,2,0:0:0:0:
224,298,303212,1,0,0:0:0:0:
269,294,303283,1,10,0:2:0:0:
314,298,303355,1,0,0:0:0:0:
357,310,303427,5,14,0:2:0:0:
394,247,303498,1,0,0:0:0:0:
368,180,303569,1,0,0:0:0:0:
299,158,303641,1,2,0:2:0:0:
240,200,303712,1,2,0:0:0:0:
165,175,303784,1,0,0:0:0:0:
140,105,303855,1,2,0:2:0:0:
177,40,303927,1,0,0:0:0:0:
249,30,303998,1,10,0:2:0:0:
307,81,304069,1,0,0:0:0:0:
299,155,304141,1,0,0:0:0:0:
240,200,304212,1,2,0:2:0:0:
165,175,304284,1,2,0:0:0:0:
97,209,304355,1,0,0:0:0:0:
73,278,304426,1,2,0:2:0:0:
107,347,304498,1,0,0:0:0:0:
178,369,304569,5,10,0:2:0:0:
246,338,304640,1,0,0:0:0:0:
268,266,304712,1,0,0:0:0:0:
240,200,304784,1,2,0:2:0:0:
248,126,304855,1,2,0:0:0:0:
307,81,304926,1,0,0:0:0:0:
382,106,304998,1,2,0:2:0:0:
407,176,305069,1,0,0:0:0:0:
370,241,305140,1,10,0:2:0:0:
298,251,305212,1,0,0:0:0:0:
240,200,305284,1,0,0:0:0:0:
212,132,305355,1,2,0:2:0:0:
145,101,305426,1,2,0:0:0:0:
76,124,305498,1,0,0:0:0:0:
40,188,305569,1,2,0:2:0:0:
58,259,305641,1,0,0:0:0:0:
119,299,305712,5,10,0:2:0:0:
177,283,305783,1,0,0:0:0:0:
233,301,305855,1,0,0:0:0:0:
270,347,305926,1,2,0:2:0:0:
327,363,305997,1,2,0:0:0:0:
383,345,306069,1,0,0:0:0:0:
419,298,306140,1,2,0:2:0:0:
421,239,306212,1,0,0:0:0:0:
389,189,306283,1,10,0:2:0:0:
335,166,306355,1,0,0:0:0:0:
307,112,306426,1,0,0:0:0:0:
320,54,306498,1,2,0:2:0:0:
365,16,306569,1,2,0:0:0:0:
427,20,306640,1,0,0:0:0:0:
472,59,306712,1,2,0:2:0:0:
480,118,306783,1,0,0:0:0:0:
449,171,306855,5,10,0:2:0:0:
390,189,306926,1,0,0:0:0:0:
335,166,306998,1,2,0:0:0:0:
276,168,307069,1,10,0:2:0:0:
231,207,307140,1,2,0:0:0:0:
220,264,307212,1,0,0:0:0:0:
246,317,307283,1,2,0:0:0:0:
300,342,307355,1,10,0:2:0:0:
357,328,307427,2,0,P|374:353|385:383,3,55.0000016784668,10|0|10|0,0:2|0:0|0:2|0:0,0:0:0:0:
413,174,307712,2,0,P|425:147|446:123,3,55.0000016784668,10|0|10|2,0:2|0:0|0:2|0:2,0:0:0:0:
284,66,307998,6,0,L|185:79,1,62.5,14|0,0:2|0:0,0:0:0:0:
113,252,308141,2,0,L|121:190,1,62.5,2|2,0:0|0:2,0:0:0:0:
269,45,308284,2,0,L|170:58,1,62.5,2|0,0:0|0:0,0:0:0:0:
90,241,308427,2,0,L|98:179,1,62.5,10|0,0:2|0:0,0:0:0:0:
84,25,308570,6,0,L|92:86,1,62.5,10|0,0:2|0:0,0:0:0:0:
263,221,308713,2,0,L|201:212,1,62.5,2|2,0:0|0:2,0:0:0:0:
107,14,308856,2,0,L|115:75,1,62.5,2|0,0:0|0:0,0:0:0:0:
278,200,308999,2,0,L|216:191,1,62.5,10|0,0:2|0:0,0:0:0:0:
383,78,309141,5,10,0:2:0:0:
441,88,309212,1,0,0:0:0:0:
485,127,309283,1,2,0:0:0:0:
503,184,309355,1,2,0:2:0:0:
489,241,309426,1,2,0:0:0:0:
448,283,309498,1,0,0:0:0:0:
390,298,309569,1,10,0:2:0:0:
333,281,309641,1,0,0:0:0:0:
294,236,309712,1,10,0:2:0:0:
246,200,309783,1,0,0:0:0:0:
189,183,309854,1,2,0:0:0:0:
130,186,309926,1,2,0:2:0:0:
75,210,309997,1,8,0:2:0:0:
32,251,310069,1,0,0:0:0:0:
24,311,310141,1,10,0:2:0:0:
58,359,310212,1,0,0:0:0:0:
125,367,310284,6,0,P|164:340|178:293,1,67.5000002574921,14|0,0:2|0:0,0:0:0:0:
274,124,310427,2,0,P|313:151|327:198,1,67.5000002574921,2|2,0:0|0:2,0:0:0:0:
321,365,310570,2,0,P|282:338|268:291,1,67.5000002574921,2|0,0:0|0:0,0:0:0:0:
172,122,310713,2,0,P|133:149|119:196,1,67.5000002574921,10|0,0:2|0:0,0:0:0:0:
149,375,310855,6,0,P|188:348|202:301,1,67.5000002574921,10|0,0:2|0:0,0:0:0:0:
298,132,310998,2,0,P|337:159|351:206,1,67.5000002574921,2|2,0:0|0:2,0:0:0:0:
345,373,311141,2,0,P|306:346|292:299,1,67.5000002574921,2|0,0:0|0:0,0:0:0:0:
196,130,311284,2,0,P|157:157|143:204,1,67.5000002574921,10|0,0:2|0:0,0:0:0:0:
369,381,311427,5,14,0:2:0:0:
428,357,311498,1,0,0:0:0:0:
468,307,311569,1,2,0:0:0:0:
477,243,311641,1,2,0:2:0:0:
452,184,311712,1,2,0:0:0:0:
400,145,311784,1,0,0:0:0:0:
337,138,311855,1,10,0:2:0:0:
278,164,311927,1,0,0:0:0:0:
241,216,311998,1,10,0:2:0:0:
203,268,312070,1,0,0:0:0:0:
144,294,312142,1,2,0:0:0:0:
81,287,312213,1,10,0:2:0:0:
29,248,312285,1,2,0:0:0:0:
4,189,312356,1,0,0:0:0:0:
13,125,312428,1,10,0:2:0:0:
53,75,312499,1,0,0:0:0:0:
113,51,312570,6,0,P|176:48|241:75,1,129.999994049073,14|0,0:2|0:0,0:0:0:0:
297,132,312784,2,0,P|268:188|212:230,1,129.999994049073,10|0,0:2|0:0,0:0:0:0:
134,250,312998,2,0,P|99:196|90:142,1,64.9999970245363,10|0,0:2|0:0,0:0:0:0:
139,35,313141,6,0,P|202:32|267:59,1,129.999994049073,10|0,0:2|0:0,0:0:0:0:
323,116,313355,2,0,P|294:172|238:214,1,129.999994049073,10|0,0:2|0:0,0:0:0:0:
160,234,313569,2,0,P|125:180|116:126,1,64.9999970245363,10|0,0:2|0:0,0:0:0:0:
382,37,313712,6,0,P|403:104|375:182,1,145.000004425049,10|0,0:2|0:0,0:0:0:0:
374,263,313927,2,0,P|305:247|251:184,1,145.000004425049,10|0,0:2|0:0,0:0:0:0:
181,143,314141,2,0,P|228:90|288:75,1,72.5000022125245,10|0,0:2|0:0,0:0:0:0:
412,31,314284,6,0,P|433:98|405:176,1,145.000004425049,10|0,0:2|0:0,0:0:0:0:
404,257,314499,2,0,P|335:241|281:178,1,145.000004425049,10|0,0:2|0:0,0:0:0:0:
211,137,314713,2,0,P|258:84|318:69,1,72.5000022125245,10|0,0:2|0:0,0:0:0:0:
296,336,314855,6,0,P|218:320|114:334,1,160,10|0,0:2|0:0,0:0:0:0:
0,325,315070,2,0,P|51:264|90:167,1,160,10|0,0:2|0:0,0:0:0:0:
157,75,315284,2,0,P|182:149|218:197,1,80,10|0,0:2|0:0,0:0:0:0:
322,320,315427,6,0,P|244:304|140:318,1,160,10|0,0:2|0:0,0:0:0:0:
26,309,315642,2,0,P|77:248|116:151,1,160,10|0,0:2|0:0,0:0:0:0:
183,59,315856,2,0,P|208:133|244:181,1,80,10|0,0:2|0:0,0:0:0:0:
218,378,315998,6,0,P|260:294|252:210,1,175.00000166893,10|0,0:2|0:0,0:0:0:0:
258,57,316212,2,0,P|310:134|385:168,1,175.00000166893,10|0,0:2|0:0,0:0:0:0:
511,251,316427,2,0,P|416:255|366:290,1,87.500000834465,10|0,0:2|0:0,0:0:0:0:
188,365,316570,6,0,P|229:280|221:197,1,175.00000166893,10|0,0:2|0:0,0:0:0:0:
228,44,316784,2,0,P|279:121|355:155,1,175.00000166893,10|0,0:2|0:0,0:0:0:0:
480,238,316999,2,0,P|385:242|337:276,1,87.500000834465,10|0,0:2|0:0,0:0:0:0:
123,144,317141,6,0,P|109:222|131:287,1,129.999994049073,14|0,0:2|0:0,0:0:0:0:
164,355,317355,2,0,P|238:327|283:276,1,129.999994049073,10|0,0:2|0:0,0:0:0:0:
326,213,317570,2,0,P|265:162|221:152,1,64.9999970245363,10|0,0:2|0:0,0:0:0:0:
100,136,317712,6,0,P|86:214|108:279,1,129.999994049073,10|0,0:2|0:0,0:0:0:0:
141,347,317927,2,0,P|215:319|260:268,1,129.999994049073,10|0,0:2|0:0,0:0:0:0:
303,205,318141,2,0,P|242:154|198:144,1,64.9999970245363,10|0,0:2|0:0,0:0:0:0:
8,282,318284,6,0,P|50:328|162:354,1,150.000005722046,10|0,0:2|0:0,0:0:0:0:
253,354,318498,2,0,P|271:294|238:184,1,150.000005722046,10|0,0:2|0:0,0:0:0:0:
192,105,318712,2,0,P|131:118|75:164,1,75.0000028610231,10|0,0:2|0:0,0:0:0:0:
1,308,318855,6,0,P|43:354|155:380,1,150.000005722046,10|0,0:2|0:0,0:0:0:0:
246,380,319069,2,0,P|264:320|231:210,1,150.000005722046,10|0,0:2|0:0,0:0:0:0:
185,131,319283,2,0,P|124:144|68:190,1,75.0000028610231,10|0,0:2|0:0,0:0:0:0:
369,288,319427,6,0,P|315:204|302:109,1,170.000003242493,10|0,0:2|0:0,0:0:0:0:
229,8,319641,2,0,P|182:95|107:154,1,170.000003242493,10|0,0:2|0:0,0:0:0:0:
56,269,319855,2,0,P|154:264|202:281,1,85.0000016212464,10|0,0:2|0:0,0:0:0:0:
391,304,319998,6,0,P|337:220|324:125,1,170.000003242493,10|0,0:2|0:0,0:0:0:0:
251,24,320212,2,0,P|204:111|129:170,1,170.000003242493,10|0,0:2|0:0,0:0:0:0:
78,285,320426,2,0,P|176:280|224:297,1,85.0000016212464,10|0,0:2|0:0,0:0:0:0:
444,144,320570,6,0,P|352:162|243:125,1,195.000000743866,10|0,0:2|0:0,0:0:0:0:
75,10,320784,2,0,P|136:80|159:193,1,195.000000743866,10|0,0:2|0:0,0:0:0:0:
162,384,320998,2,0,P|192:295|245:238,1,97.500000371933,10|0,0:2|0:0,0:0:0:0:
475,137,321141,6,0,P|383:155|274:118,1,195.000000743866,10|0,0:2|0:0,0:0:0:0:
106,3,321355,2,0,P|167:73|190:186,1,195.000000743866,10|0,0:2|0:0,0:0:0:0:
193,377,321570,2,0,P|223:288|276:231,1,97.500000371933,10|0,0:2|0:0,0:0:0:0:
506,130,321712,5,6,0:0:0:0:
