osu file format v14

[General]
AudioFilename: audio.mp3
AudioLeadIn: 0
PreviewTime: 280499
Countdown: 0
SampleSet: Soft
StackLeniency: 0.7
Mode: 2
LetterboxInBreaks: 0
WidescreenStoryboard: 0

[Editor]
Bookmarks: 9641,18784,37070,55356,73641,93070,111356,111427,111499,111570,111641,111713,111784,111856,111927,111999,112070,112141,112213,112284,112356,112427,112499,112570,112641,112713,112784,112856,112927,112999,113070,113141,113213,113284,113356,113427,113499,113570,113713,113784,113856,113927,113999,114070,114141,114284,114356,114427,114499,114570,114641,114713,114856,114927,114999,115070,115141,115213,115284,115427,115499,115570,115641,115713,115784,115856,115999,116070,116141,116213,116284,116356,116427,116499,116570,116641,116713,116784,116856,116927,116999,117070,117141,117213,117284,117356,117427,117499,117570,117641,117713,117784,117856,117927,117999,118070,118141,118284,118356,118427,118499,118570,118641,118713,118784,118856,118927,118999,119070,119141,119213,119284,119356,119427,119499,119570,119641,119713,119784,119856,119999,120070,120141,120284,120356,120427,120570,120641,120713,120784,120856,120927,120999,121070,121141,121213,121284,121356,121427,121499,121570,121713,121784,121856,121927,121999,122070,122141,122284,122356,122427,122499,122570,122641,122713,122856,122927,122999,123070,123141,123213,123284,123356,123427,123499,123570,123641,123713,123784,123856,123999,124070,124141,124213,124284,124356,124427,124499,124570,124641,124713,124784,124856,124927,124999,134213,152499,170784,189070,198213,207356,225641,243927,262213,285070,289641,294213,298784,303356,312499
DistanceSpacing: 1.2
BeatDivisor: 4
GridSize: 16
TimelineZoom: 1.7

[Metadata]
Title:WE LUV LAMA
TitleUnicode:WE LUV LAMA
Artist:DJ Sharpnel
ArtistUnicode:DJ Sharpnel
Creator:Razor Sharp
Version:YOU LUV ME?
Source:
Tags:fayew skill issue lol skill_issue_lol electronic instrumental techno a la carte -intersect fractional. vol. 2- happy hardcore speedcore j-core ランニング★★★オールナイトッ!! = Running All Night ranningu★★★orunaito!! ranningu orunaito
BeatmapID:3046354
BeatmapSetID:1485606

[Difficulty]
HPDrainRate:4
CircleSize:4.5
OverallDifficulty:9.8
ApproachRate:9.8
SliderMultiplier:2
SliderTickRate:2

[Events]
//Background and Video events
0,0,"7733f420d3b34220bf366077960aa05e.jpg",0,0
//Break Periods
//Storyboard Layer 0 (Background)
//Storyboard Layer 1 (Fail)
//Storyboard Layer 2 (Pass)
//Storyboard Layer 3 (Foreground)
//Storyboard Layer 4 (Overlay)
//Storyboard Sound Samples

[TimingPoints]
199,285.714285714286,4,2,22,60,1,0
199,-50,4,2,22,60,0,0
627,285.714285714286,4,2,22,60,1,0
18484,-50,4,2,22,60,0,0
18912,-90.9090909090909,4,2,22,60,0,0
55055,-50,4,2,22,60,0,0
55484,-90.9090909090909,4,2,22,60,0,0
73769,-100,4,2,22,60,0,0
74912,-100,4,2,22,50,0,0
75984,-100,4,2,22,5,0,0
76055,-100,4,2,22,50,0,0
76269,-100,4,2,22,5,0,0
76341,-100,4,2,22,50,0,0
80555,-100,4,2,22,5,0,0
80627,-100,4,2,22,50,0,0
80841,-100,4,2,22,5,0,0
80912,-100,4,2,22,50,0,0
85127,-100,4,2,22,5,0,0
85198,-100,4,2,22,50,0,0
85412,-100,4,2,22,5,0,0
85484,-100,4,2,22,50,0,0
89698,-100,4,2,22,5,0,0
89769,-100,4,2,22,50,0,0
89984,-100,4,2,22,5,0,0
90055,-100,4,2,22,50,0,0
94341,-100,4,2,69,50,0,0
94412,-100,4,2,22,50,0,0
94627,-100,4,2,69,50,0,0
94698,-100,4,2,22,50,0,0
94912,-100,4,2,70,50,0,0
94983,-100,4,2,22,50,0,0
95198,-100,4,2,70,50,0,0
95412,-100,4,2,22,50,0,0
96341,-100,4,2,70,50,0,0
96555,-100,4,2,22,50,0,0
97341,-100,4,2,70,50,0,0
97698,-100,4,2,22,50,0,0
98912,-100,4,2,69,50,0,0
98983,-100,4,2,22,50,0,0
99198,-100,4,2,69,50,0,0
99269,-100,4,2,22,50,0,0
99484,-100,4,2,70,50,0,0
99555,-100,4,2,22,50,0,0
99769,-100,4,2,70,50,0,0
99983,-100,4,2,22,50,0,0
100912,-100,4,2,69,50,0,0
101269,-100,4,2,22,50,0,0
101912,-100,4,2,70,50,0,0
101984,-100,4,2,22,50,0,0
102198,-100,4,2,70,50,0,0
102269,-100,4,2,22,50,0,0
103769,-100,4,2,69,50,0,0
103840,-100,4,2,22,50,0,0
104341,-100,4,2,70,50,0,0
104555,-100,4,2,22,50,0,0
105484,-100,4,2,69,50,0,0
105698,-100,4,2,22,50,0,0
106341,-100,4,2,70,50,0,0
106841,-100,4,2,22,50,0,0
108055,-100,4,2,69,50,0,0
108126,-100,4,2,22,50,0,0
108341,-100,4,2,69,50,0,0
108412,-100,4,2,22,50,0,0
108627,-100,4,2,70,50,0,0
108769,-100,4,2,22,50,0,0
108912,-100,4,2,70,50,0,0
109198,-100,4,2,69,50,0,0
109269,-100,4,2,22,50,0,0
110055,-100,4,2,69,50,0,0
110412,-100,4,2,22,50,0,0
110912,-100,4,2,70,50,0,0
111412,-100,4,2,22,50,0,0
111484,-100,4,2,22,50,0,0
113769,-100,4,2,71,50,0,0
113912,-100,4,2,22,50,0,0
114341,-100,4,2,71,50,0,0
114484,-100,4,2,22,50,0,0
114912,-100,4,2,71,50,0,0
115055,-100,4,2,22,50,0,0
115484,-100,4,2,71,50,0,0
115627,-100,4,2,22,50,0,0
116055,-100,4,2,71,50,0,0
116198,-100,4,2,22,50,0,0
118341,-100,4,2,71,50,0,0
118484,-100,4,2,22,50,0,0
120055,-100,4,2,71,50,0,0
120198,-100,4,2,22,50,0,0
120341,-100,4,2,71,50,0,0
120484,-100,4,2,22,50,0,0
120627,-100,4,2,71,50,0,0
120770,-100,4,2,22,50,0,0
121769,-100,4,2,71,50,0,0
121912,-100,4,2,22,50,0,0
122341,-100,4,2,71,50,0,0
122484,-100,4,2,22,50,0,0
122912,-100,4,2,71,50,0,0
123055,-100,4,2,22,50,0,0
124055,-100,4,2,71,50,0,0
124198,-100,4,2,22,50,0,0
125198,-200,4,2,22,50,0,0
126341,-100,4,2,22,50,0,0
134341,-83.3333333333333,4,2,22,70,0,1
205198,-50,4,2,22,70,0,1
206341,-40,4,2,22,70,0,1
207484,-100,4,2,22,50,0,0
225198,-45.4545454545455,4,2,22,50,0,0
225466,-45.4545454545455,4,2,22,5,0,0
225484,-45.4545454545455,4,2,22,50,0,0
225752,-45.4545454545455,4,2,22,5,0,0
225769,-90.9090909090909,4,2,44,70,0,0
280627,-83.3333333333333,4,2,22,80,0,1
314912,-50,4,2,22,80,0,1
316055,-40,4,2,22,80,0,1
317198,-83.3333333333333,4,2,22,80,0,1
319484,-50,4,2,22,80,0,1
320627,-40,4,2,22,80,0,1
321769,-100,4,2,22,60,0,0
322769,-100,4,2,22,45,0,0
323484,-100,4,2,22,30,0,0
324484,-100,4,2,22,15,0,0
325198,-100,4,2,22,5,0,0

[Colours]
Combo1 : 255,91,173
Combo2 : 255,202,149
Combo3 : 155,205,255
Combo4 : 207,255,159
Combo5 : 255,174,255
Combo6 : 255,158,62
Combo7 : 81,168,255
Combo8 : 100,255,100

[HitObjects]
155,163,199,6,0,L|361:163,2,200,2|2|2,0:0|0:0|0:0,0:0:0:0:
355,251,627,6,0,L|427:252,2,50,4|0|0,1:1|0:0|0:0,0:0:0:0:
155,327,912,2,0,L|150:272,1,50,8|0,1:2|0:0,0:0:0:0:
221,275,1055,1,0,0:0:0:0:
98,266,1198,2,0,L|40:265,2,50,0|0|0,1:2|0:0|0:0,0:0:0:0:
300,189,1484,1,8,1:2:0:0:
179,184,1627,2,0,L|238:184,1,50,0|0,1:2|0:0,0:0:0:0:
298,184,1769,6,0,L|237:184,1,50,0|0,1:1|0:0,0:0:0:0:
179,184,1912,1,0,1:1:0:0:
381,205,2055,2,0,L|431:206,2,50,8|0|0,1:2|0:0|0:0,0:0:0:0:
261,222,2341,2,0,L|316:222,1,50,0|0,1:2|0:0,0:0:0:0:
381,221,2484,1,0,0:0:0:0:
163,20,2627,1,8,1:2:0:0:
282,20,2769,2,0,L|230:20,1,50,0|0,1:2|0:0,0:0:0:0:
163,20,2912,6,0,L|215:20,1,50,0|0,1:1|0:0,0:0:0:0:
347,113,3055,2,0,L|399:113,1,50,0|0,1:1|1:1,0:0:0:0:
269,203,3198,2,0,L|214:203,2,50,8|0|0,1:2|0:0|0:0,0:0:0:0:
389,203,3484,2,0,L|394:269,1,50,0|0,1:2|0:0,0:0:0:0:
322,257,3627,1,0,0:0:0:0:
122,295,3769,1,8,1:2:0:0:
242,125,3912,2,0,L|247:183,1,50,0|0,1:2|0:0,0:0:0:0:
176,179,4055,6,0,L|171:237,1,50,0|0,1:1|0:0,0:0:0:0:
243,231,4198,1,0,0:0:0:0:
42,123,4341,2,0,L|100:122,2,50,8|0|0,1:2|0:0|0:0,0:0:0:0:
164,192,4627,1,0,1:2:0:0:
46,294,4769,2,0,L|19:294,2,25,0|0|0,1:2|1:2|1:2,0:0:0:0:
172,168,4912,1,8,1:2:0:0:
53,242,5055,2,0,L|46:178,1,50,0|0,1:2|0:0,0:0:0:0:
201,72,5198,6,0,L|264:72,2,50,4|0|0,1:1|0:0|0:0,0:0:0:0:
81,114,5484,2,0,L|76:178,1,50,8|0,1:2|0:0,0:0:0:0:
147,163,5627,1,0,1:2:0:0:
28,205,5769,2,0,L|18:148,2,50,0|0|0,1:2|0:0|0:0,0:0:0:0:
230,186,6055,1,8,1:2:0:0:
110,192,6198,2,0,L|106:246,1,50
176,249,6341,6,0,L|125:250,1,50,0|0,1:1|0:0,0:0:0:0:
55,246,6484,1,0,1:1:0:0:
259,314,6627,2,0,L|313:315,2,50,8|0|0,1:2|0:0|0:0,0:0:0:0:
378,240,6912,2,0,L|435:240,2,50,0|0|0,1:2|0:0|0:0,0:0:0:0:
176,60,7198,1,8,1:2:0:0:
296,131,7341,2,0,L|348:131,1,50,0|0,1:2|0:0,0:0:0:0:
275,128,7484,6,0,L|268:69,1,50,0|0,1:1|0:0,0:0:0:0:
339,79,7627,1,0,0:0:0:0:
139,233,7769,2,0,L|204:233,1,50,8|0,1:2|0:0,0:0:0:0:
259,236,7912,1,0,1:2:0:0:
138,164,8055,2,0,L|81:163,2,50,0|0|0,1:2|0:0|0:0,0:0:0:0:
341,325,8341,1,8,1:2:0:0:
220,321,8484,2,0,L|213:265,1,50
340,202,8627,6,0,L|344:148,1,50,0|0,1:1|0:0,0:0:0:0:
284,150,8769,1,0,0:0:0:0:
158,49,8841,1,0,1:2:0:0:
217,52,8912,2,0,L|220:104,1,50,8|0,1:2|0:0,0:0:0:0:
94,201,9055,2,0,L|92:146,1,50,0|0,1:2|0:0,0:0:0:0:
244,238,9198,6,0,L|273:238,6,25,8|0|0|0|0|0|0,1:1|0:0|0:0|0:0|0:0|0:0|0:0,0:0:0:0:
395,270,9484,6,0,L|424:270,6,25,8|0|0|0|0|0|0,1:1|0:0|0:0|0:0|0:0|0:0|0:0,0:0:0:0:
204,134,9769,6,0,L|259:134,1,50,4|0,1:0|0:0,0:0:0:0:
324,135,9912,2,0,L|261:134,1,50
148,203,10055,2,0,L|199:203,1,50,8|0,1:2|0:0,0:0:0:0:
127,203,10198,2,0,L|123:138,1,50
194,150,10341,6,0,L|252:151,1,50,0|0,1:2|0:0,0:0:0:0:
173,146,10484,2,0,L|94:146,1,50
249,294,10627,2,0,L|303:293,1,50,8|0,1:2|0:0,0:0:0:0:
174,14,10769,2,0,L|171:77,1,50,0|0,1:2|0:0,0:0:0:0:
298,89,10912,6,0,L|301:152,1,50,0|0,1:2|0:0,0:0:0:0:
427,147,11055,2,0,L|430:210,1,50,0|0,1:2|0:0,0:0:0:0:
303,197,11198,2,0,L|242:196,1,50,8|0,1:2|0:0,0:0:0:0:
323,196,11341,2,0,L|326:262,1,50
254,242,11484,5,0,1:2:0:0:
210,224,11555,1,0,0:0:0:0:
206,177,11626,1,0,0:0:0:0:
247,153,11698,1,0,0:0:0:0:
372,103,11769,2,0,L|321:103,1,50,8|0,1:2|0:0,0:0:0:0:
195,105,11912,2,0,L|144:105,1,50,0|0,1:2|0:0,0:0:0:0:
271,312,12055,6,0,L|274:257,1,50,0|0,1:2|0:0,0:0:0:0:
147,239,12198,1,0,1:2:0:0:
272,208,12269,1,0,1:2:0:0:
398,204,12341,2,0,L|404:257,1,50,8|0,1:2|0:0,0:0:0:0:
333,251,12484,2,0,L|331:309,1,50
401,299,12627,5,0,1:2:0:0:
443,279,12698,1,0,0:0:0:0:
441,231,12769,1,0,0:0:0:0:
397,215,12841,1,0,0:0:0:0:
272,183,12912,2,0,L|269:122,1,50,8|0,1:2|0:0,0:0:0:0:
339,127,13055,2,0,L|284:127,1,50
163,200,13198,6,0,L|223:199,1,50,0|0,1:2|0:0,0:0:0:0:
142,200,13341,2,0,L|140:146,1,50
266,280,13484,2,0,L|317:280,1,50,8|0,1:2|0:0,0:0:0:0:
245,279,13627,2,0,L|191:279,1,50
320,187,13769,6,0,L|323:136,1,50,0|0,1:2|0:0,0:0:0:0:
197,116,13912,2,0,L|165:116,2,25,0|0|0,1:2|1:2|1:2,0:0:0:0:
323,82,14055,2,0,L|373:82,1,50,8|0,1:2|0:0,0:0:0:0:
247,176,14198,2,0,L|244:232,1,50,0|0,1:2|0:0,0:0:0:0:
118,232,14341,6,0,L|180:232,1,50,4|0,1:1|0:0,0:0:0:0:
238,234,14484,2,0,L|182:235,1,50
314,320,14627,2,0,L|367:320,1,50,8|0,1:2|0:0,0:0:0:0:
239,78,14769,2,0,L|185:78,1,50,0|0,1:2|0:0,0:0:0:0:
315,119,14912,6,0,L|371:119,1,50,0|0,1:2|0:0,0:0:0:0:
294,119,15055,2,0,L|292:65,1,50
418,37,15198,2,0,L|424:92,1,50,8|0,1:2|0:0,0:0:0:0:
352,86,15341,2,0,L|290:86,1,50
176,97,15484,6,0,L|119:98,1,50,0|0,1:2|0:0,0:0:0:0:
252,254,15627,2,0,L|257:200,1,50,0|0,1:2|0:0,0:0:0:0:
381,185,15769,2,0,L|432:185,1,50,8|0,1:2|0:0,0:0:0:0:
360,185,15912,2,0,L|303:185,1,50
184,159,16055,6,0,L|237:159,1,50,0|0,1:2|0:0,0:0:0:0:
163,159,16198,2,0,L|161:99,1,50
288,103,16341,2,0,L|290:52,1,50,8|0,1:2|0:0,0:0:0:0:
416,38,16484,2,0,L|363:39,1,50,0|0,1:2|0:0,0:0:0:0:
240,230,16627,6,0,L|296:230,1,50,0|0,1:2|0:0,0:0:0:0:
359,231,16769,2,0,L|292:231,1,50
182,207,16912,2,0,L|123:207,1,50,8|0,1:2|0:0,0:0:0:0:
259,158,17055,2,0,L|316:158,1,50,0|0,1:2|0:0,0:0:0:0:
183,108,17198,6,0,L|126:108,1,50,0|0,1:2|0:0,0:0:0:0:
203,105,17341,2,0,L|207:166,1,50
80,231,17484,2,0,L|76:162,1,50,8|0,1:2|0:0,0:0:0:0:
147,177,17627,2,0,L|86:176,1,50
222,261,17769,6,0,L|331:262,1,100,8|0,1:2|0:0,0:0:0:0:
193,325,17984,2,0,L|136:325,1,50,8|0,1:2|0:0,0:0:0:0:
343,144,18198,1,8,1:2:0:0:
143,86,18341,2,0,L|117:86,2,25,8|0|0,1:1|0:0|0:0,0:0:0:0:
343,144,18484,6,0,L|136:144,2,200,2|2|2,0:0|0:0|0:0,0:0:0:0:
122,307,18912,5,4,1:1:0:0:
71,298,18983,1,0,0:0:0:0:
65,247,19054,1,0,0:0:0:0:
112,227,19126,1,0,0:0:0:0:
252,218,19198,2,0,L|254:158,1,55.0000016784668,8|0,1:2|0:0,0:0:0:0:
187,158,19341,2,0,L|181:98,1,55.0000016784668
320,51,19484,6,0,L|327:111,1,55.0000016784668,0|0,1:2|0:0,0:0:0:0:
260,113,19627,2,0,L|201:113,1,55.0000016784668
342,172,19769,2,0,L|347:242,1,55.0000016784668,8|0,1:2|0:0,0:0:0:0:
207,299,19912,2,0,L|145:299,1,55.0000016784668,0|0,1:2|0:0,0:0:0:0:
291,317,20055,6,0,L|294:260,1,55.0000016784668,0|0,1:1|0:0,0:0:0:0:
433,253,20198,2,0,L|436:196,1,55.0000016784668,0|0,1:1|0:0,0:0:0:0:
297,175,20341,2,0,L|293:116,1,55.0000016784668,8|0,1:2|0:0,0:0:0:0:
359,120,20484,2,0,L|296:120,1,55.0000016784668
165,60,20627,6,0,L|228:60,1,55.0000016784668,0|0,1:2|0:0,0:0:0:0:
154,60,20769,2,0,L|91:59,1,55.0000016784668
238,195,20912,2,0,L|244:266,1,55.0000016784668,8|0,1:2|0:0,0:0:0:0:
382,272,21055,2,0,L|388:343,1,55.0000016784668,0|0,1:2|0:0,0:0:0:0:
248,332,21198,6,0,L|189:332,1,55.0000016784668,0|0,1:1|0:0,0:0:0:0:
331,236,21341,1,0,1:1:0:0:
468,219,21412,1,0,1:1:0:0:
329,144,21484,2,0,L|259:144,1,55.0000016784668,8|0,1:2|0:0,0:0:0:0:
340,145,21627,2,0,L|404:146,1,55.0000016784668
257,214,21769,5,0,1:2:0:0:
202,212,21840,1,0,0:0:0:0:
160,178,21911,1,0,0:0:0:0:
146,126,21983,1,0,0:0:0:0:
286,71,22055,2,0,L|295:130,1,55.0000016784668,8|0,1:2|0:0,0:0:0:0:
227,129,22198,2,0,L|167:128,1,55.0000016784668,0|0,1:2|0:0,0:0:0:0:
311,262,22341,6,0,L|245:261,1,55.0000016784668,0|0,1:1|0:0,0:0:0:0:
322,263,22484,2,0,L|328:199,1,55.0000016784668
188,230,22627,2,0,L|133:229,1,55.0000016784668,8|0,1:2|0:0,0:0:0:0:
198,230,22769,2,0,L|263:230,1,55.0000016784668
114,169,22912,6,0,L|111:111,1,55.0000016784668,0|0,1:2|0:0,0:0:0:0:
251,73,23055,2,0,L|286:73,2,27.5000008392334,0|0|0,1:2|1:2|1:2,0:0:0:0:
112,92,23198,2,0,L|168:93,1,55.0000016784668,8|0,1:2|0:0,0:0:0:0:
306,179,23341,2,0,L|250:180,1,55.0000016784668,0|0,1:2|0:0,0:0:0:0:
84,299,23484,6,0,L|145:299,1,55.0000016784668,4|0,1:1|0:0,0:0:0:0:
205,297,23627,2,0,L|147:297,1,55.0000016784668
287,260,23769,2,0,L|289:202,1,55.0000016784668,8|0,1:2|0:0,0:0:0:0:
150,145,23912,2,0,L|208:145,1,55.0000016784668,0|0,1:2|0:0,0:0:0:0:
344,145,24055,6,0,L|349:87,1,55.0000016784668,0|0,1:2|0:0,0:0:0:0:
282,87,24198,2,0,L|222:86,1,55.0000016784668
366,286,24341,2,0,L|423:286,1,55.0000016784668,8|0,1:2|0:0,0:0:0:0:
487,283,24484,2,0,L|423:284,1,55.0000016784668
293,264,24627,6,0,L|288:204,1,55.0000016784668,0|0,1:1|0:0,0:0:0:0:
152,205,24769,2,0,L|147:145,1,55.0000016784668,0|0,1:1|0:0,0:0:0:0:
286,137,24912,2,0,L|341:137,1,55.0000016784668,8|0,1:2|0:0,0:0:0:0:
274,137,25055,2,0,L|271:80,1,55.0000016784668
410,70,25198,6,0,L|343:71,1,55.0000016784668,0|0,1:2|0:0,0:0:0:0:
288,71,25341,2,0,L|221:72,1,55.0000016784668
371,262,25484,2,0,L|374:202,1,55.0000016784668,8|0,1:2|0:0,0:0:0:0:
235,205,25627,2,0,L|162:204,1,55.0000016784668,0|0,1:2|0:0,0:0:0:0:
317,125,25769,6,0,L|250:126,1,55.0000016784668,0|0,1:1|0:0,0:0:0:0:
195,126,25912,2,0,L|128:127,1,55.0000016784668
278,317,26055,2,0,L|281:257,1,55.0000016784668,8|0,1:2|0:0,0:0:0:0:
142,260,26198,2,0,L|69:259,1,55.0000016784668,0|0,1:2|0:0,0:0:0:0:
226,55,26341,6,0,L|289:55,1,55.0000016784668,0|0,1:2|0:0,0:0:0:0:
214,53,26484,2,0,L|212:118,1,55.0000016784668
351,172,26627,2,0,L|293:171,1,55.0000016784668,8|0,1:2|0:0,0:0:0:0:
230,171,26769,2,0,L|288:170,1,55.0000016784668
424,299,26912,6,0,L|484:298,2,55.0000016784668,0|0|0,1:1|0:0|0:0,0:0:0:0:
284,299,27127,1,0,1:2:0:0:
422,217,27198,2,0,L|365:217,1,55.0000016784668,8|0,1:2|0:0,0:0:0:0:
228,106,27341,2,0,L|282:106,1,55.0000016784668,0|0,1:2|0:0,0:0:0:0:
116,210,27484,6,0,L|81:210,6,27.5000008392334,8|0|0|0|0|0|0,1:1|0:0|0:0|0:0|0:0|0:0|0:0,0:0:0:0:
280,340,27769,6,0,L|315:340,6,27.5000008392334,8|0|0|0|0|0|0,1:1|0:0|0:0|0:0|0:0|0:0|0:0,0:0:0:0:
113,109,28055,6,0,L|106:53,1,55.0000016784668,4|0,1:0|0:0,0:0:0:0:
172,54,28198,2,0,L|230:55,1,55.0000016784668
366,145,28341,2,0,L|293:145,1,55.0000016784668,8|0,1:2|0:0,0:0:0:0:
377,144,28484,2,0,L|438:144,1,55.0000016784668
293,251,28627,6,0,L|287:194,1,55.0000016784668,0|0,1:2|0:0,0:0:0:0:
351,185,28769,2,0,L|409:185,1,55.0000016784668
266,165,28912,2,0,L|261:108,1,55.0000016784668,8|0,1:2|0:0,0:0:0:0:
122,233,29055,2,0,L|117:176,1,55.0000016784668,0|0,1:2|0:0,0:0:0:0:
257,275,29198,6,0,L|262:218,1,55.0000016784668,0|0,1:2|0:0,0:0:0:0:
401,343,29341,2,0,L|406:286,1,55.0000016784668,0|0,1:2|0:0,0:0:0:0:
267,195,29484,2,0,L|206:195,1,55.0000016784668,8|0,1:2|0:0,0:0:0:0:
278,194,29627,2,0,L|337:194,1,55.0000016784668
196,106,29769,5,0,1:2:0:0:
147,122,29840,1,0,0:0:0:0:
144,174,29911,1,0,0:0:0:0:
191,196,29983,1,0,0:0:0:0:
330,198,30055,2,0,L|337:263,1,55.0000016784668,8|0,1:2|0:0,0:0:0:0:
196,327,30198,2,0,L|140:327,1,55.0000016784668,0|0,1:2|0:0,0:0:0:0:
280,279,30341,6,0,L|346:279,1,55.0000016784668,0|0,1:2|0:0,0:0:0:0:
196,133,30484,1,0,1:2:0:0:
59,256,30555,1,0,1:2:0:0:
198,47,30627,2,0,L|259:47,1,55.0000016784668,8|0,1:2|0:0,0:0:0:0:
187,47,30769,2,0,L|184:112,1,55.0000016784668
324,111,30912,6,0,L|264:112,1,55.0000016784668,0|0,1:2|0:0,0:0:0:0:
335,110,31055,2,0,L|401:109,1,55.0000016784668
251,253,31198,2,0,L|247:191,1,55.0000016784668,8|0,1:2|0:0,0:0:0:0:
313,192,31341,2,0,L|374:192,1,55.0000016784668
229,340,31484,5,0,1:2:0:0:
183,313,31555,1,0,0:0:0:0:
183,261,31626,1,0,0:0:0:0:
228,234,31698,1,0,0:0:0:0:
92,219,31769,1,8,1:2:0:0:
46,192,31840,1,0,0:0:0:0:
46,140,31911,1,0,0:0:0:0:
91,113,31983,1,0,0:0:0:0:
230,105,32055,6,0,L|292:105,1,55.0000016784668,0|0,1:2|0:0,0:0:0:0:
146,206,32198,2,0,L|111:205,2,27.5000008392334,0|0|0,1:2|1:2|1:2,0:0:0:0:
285,312,32341,2,0,L|290:238,1,55.0000016784668,8|0,1:2|0:0,0:0:0:0:
149,322,32484,2,0,L|90:323,1,55.0000016784668,0|0,1:2|0:0,0:0:0:0:
261,220,32627,5,4,1:1:0:0:
310,206,32698,1,0,0:0:0:0:
310,155,32769,1,0,0:0:0:0:
261,140,32841,1,0,0:0:0:0:
125,141,32912,2,0,L|122:83,1,55.0000016784668,8|0,1:2|0:0,0:0:0:0:
261,91,33055,2,0,L|264:33,1,55.0000016784668,0|0,1:2|0:0,0:0:0:0:
125,251,33198,5,0,1:2:0:0:
75,237,33269,1,0,0:0:0:0:
75,186,33340,1,0,0:0:0:0:
124,173,33412,1,0,0:0:0:0:
263,299,33484,2,0,L|269:363,1,55.0000016784668,8|0,1:2|0:0,0:0:0:0:
201,359,33627,2,0,L|137:359,1,55.0000016784668
283,199,33769,6,0,L|355:198,1,55.0000016784668,0|0,1:2|0:0,0:0:0:0:
199,62,33912,2,0,L|140:62,1,55.0000016784668,0|0,1:2|0:0,0:0:0:0:
283,104,34055,1,8,1:2:0:0:
332,117,34126,1,0,0:0:0:0:
333,169,34197,1,0,0:0:0:0:
284,184,34269,1,0,0:0:0:0:
146,292,34341,6,0,L|141:227,1,55.0000016784668,0|0,1:2|0:0,0:0:0:0:
208,234,34484,2,0,L|280:234,1,55.0000016784668
124,178,34627,2,0,L|182:146,1,55.0000016784668,8|0,1:2|0:0,0:0:0:0:
309,138,34769,2,0,L|379:140,1,55.0000016784668,0|0,1:2|0:0,0:0:0:0:
225,66,34912,6,0,L|160:67,1,55.0000016784668,0|0,1:2|0:0,0:0:0:0:
236,68,35055,2,0,L|299:69,1,55.0000016784668,8|0,0:3|0:0,0:0:0:0:
152,186,35198,2,0,L|215:186,1,55.0000016784668,8|0,1:2|0:0,0:0:0:0:
346,256,35341,2,0,L|282:255,1,55.0000016784668,8|0,1:3|0:0,0:0:0:0:
152,340,35484,5,0,1:2:0:0:
101,331,35555,1,0,0:0:0:0:
95,280,35626,1,8,0:3:0:0:
142,260,35698,1,0,0:0:0:0:
280,253,35769,2,0,L|202:253,1,55.0000016784668,8|8,1:2|0:3,0:0:0:0:
292,287,35912,2,0,L|370:287,1,55.0000016784668,8|8,0:3|0:3,0:0:0:0:
208,170,36055,6,0,L|149:170,2,55.0000016784668,8|8|8,1:2|0:3|0:3,0:0:0:0:
347,95,36269,2,0,L|288:95,2,55.0000016784668,8|8|8,1:2|0:3|0:3,0:0:0:0:
206,35,36484,2,0,L|130:35,1,55.0000016784668,8|8,1:2|0:3,0:0:0:0:
290,157,36627,6,0,L|292:215,1,55.0000016784668,8|8,1:1|0:3,0:0:0:0:
456,265,36769,5,2,0:0:0:0:
317,264,36841,1,8,0:3:0:0:
153,329,36912,1,2,0:0:0:0:
292,328,36984,1,8,0:3:0:0:
456,265,37055,1,2,0:0:0:0:
317,264,37127,1,8,0:3:0:0:
153,163,37198,6,0,L|92:162,1,55.0000016784668,4|0,1:1|0:0,0:0:0:0:
164,163,37341,2,0,L|233:164,1,55.0000016784668,4|0,0:2|0:0,0:0:0:0:
80,295,37484,1,8,1:2:0:0:
33,272,37555,1,0,0:0:0:0:
34,220,37626,1,4,0:2:0:0:
82,200,37698,1,0,0:0:0:0:
219,201,37769,6,0,L|280:201,1,55.0000016784668,0|0,1:1|0:0,0:0:0:0:
207,200,37912,2,0,L|268:200,1,55.0000016784668,4|0,0:2|0:0,0:0:0:0:
123,42,38055,2,0,L|116:107,1,55.0000016784668,8|0,1:2|0:0,0:0:0:0:
183,103,38198,2,0,L|258:103,1,55.0000016784668,4|0,0:2|0:0,0:0:0:0:
377,195,38341,6,0,L|311:195,1,55.0000016784668,0|0,1:1|0:0,0:0:0:0:
388,190,38484,2,0,L|390:122,1,55.0000016784668,4|0,0:2|0:0,0:0:0:0:
251,296,38627,1,8,1:2:0:0:
202,279,38698,1,0,0:0:0:0:
202,227,38769,1,4,0:2:0:0:
250,211,38841,1,0,0:0:0:0:
114,162,38912,6,0,L|53:161,1,55.0000016784668,0|0,1:1|0:0,0:0:0:0:
125,159,39055,2,0,L|184:158,1,55.0000016784668,4|0,0:2|0:0,0:0:0:0:
319,157,39198,2,0,L|326:99,1,55.0000016784668,8|0,1:2|0:0,0:0:0:0:
259,100,39341,2,0,L|318:100,1,55.0000016784668,4|0,0:2|0:0,0:0:0:0:
175,303,39484,6,0,L|169:244,1,55.0000016784668,0|0,1:1|0:0,0:0:0:0:
235,243,39627,2,0,L|298:241,1,55.0000016784668,4|0,0:2|0:0,0:0:0:0:
427,285,39769,1,8,1:2:0:0:
476,273,39840,1,0,0:0:0:0:
477,223,39911,1,4,0:2:0:0:
428,210,39983,1,0,0:0:0:0:
289,156,40055,6,0,L|349:156,1,55.0000016784668,0|0,1:1|0:0,0:0:0:0:
277,155,40198,2,0,L|337:155,1,55.0000016784668,4|0,0:2|0:0,0:0:0:0:
193,160,40341,1,8,1:2:0:0:
143,150,40412,1,0,0:0:0:0:
145,100,40483,1,4,0:2:0:0:
195,96,40555,1,0,0:0:0:0:
334,52,40627,6,0,L|277:52,1,55.0000016784668,0|0,1:1|0:0,0:0:0:0:
213,52,40769,2,0,L|270:52,1,55.0000016784668,4|0,0:2|0:0,0:0:0:0:
407,153,40912,2,0,L|412:216,1,55.0000016784668,8|0,1:2|0:0,0:0:0:0:
344,210,41055,2,0,L|339:273,1,55.0000016784668,4|0,0:2|0:0,0:0:0:0:
479,356,41198,6,0,L|476:302,1,55.0000016784668,0|0,1:1|0:0,0:0:0:0:
337,293,41341,1,4,1:2:0:0:
309,293,41376,1,0,1:0:0:0:
282,293,41412,1,0,1:0:0:0:
421,232,41484,2,0,L|415:172,1,55.0000016784668,8|0,1:2|0:0,0:0:0:0:
276,179,41627,2,0,L|271:124,1,55.0000016784668,6|0,1:2|0:0,0:0:0:0:
107,239,41769,5,4,1:1:0:0:
60,214,41840,1,0,0:0:0:0:
60,162,41911,1,4,0:2:0:0:
106,137,41983,1,0,0:0:0:0:
245,243,42055,2,0,L|249:184,1,55.0000016784668,8|0,1:2|0:0,0:0:0:0:
182,182,42198,2,0,L|122:181,1,55.0000016784668,4|0,0:2|0:0,0:0:0:0:
266,108,42341,6,0,L|335:109,1,55.0000016784668,0|0,1:1|0:0,0:0:0:0:
254,108,42484,2,0,L|323:109,1,55.0000016784668,4|0,0:2|0:0,0:0:0:0:
448,200,42627,2,0,L|457:260,1,55.0000016784668,8|0,1:2|0:0,0:0:0:0:
390,260,42769,2,0,L|321:262,1,55.0000016784668,4|0,0:2|0:0,0:0:0:0:
195,264,42912,6,0,L|259:263,1,55.0000016784668,0|0,1:1|0:0,0:0:0:0:
183,263,43055,2,0,L|177:202,1,55.0000016784668,4|0,0:2|0:0,0:0:0:0:
316,348,43198,1,8,1:2:0:0:
359,319,43269,1,0,0:0:0:0:
356,266,43340,1,4,0:2:0:0:
309,243,43412,1,0,0:0:0:0:
170,135,43484,6,0,L|232:135,1,55.0000016784668,0|0,1:1|0:0,0:0:0:0:
158,135,43627,2,0,L|220:135,1,55.0000016784668,4|0,0:2|0:0,0:0:0:0:
76,281,43769,2,0,L|11:281,1,55.0000016784668,8|0,1:2|0:0,0:0:0:0:
87,279,43912,2,0,L|159:278,1,55.0000016784668,4|0,0:2|0:0,0:0:0:0:
282,159,44055,6,0,L|216:158,1,55.0000016784668,0|0,1:1|0:0,0:0:0:0:
293,159,44198,2,0,L|358:159,1,55.0000016784668,4|0,0:2|0:0,0:0:0:0:
209,339,44341,2,0,L|203:283,1,55.0000016784668,8|0,1:2|0:0,0:0:0:0:
269,284,44484,2,0,L|331:286,1,55.0000016784668,4|0,0:2|0:0,0:0:0:0:
185,193,44627,6,0,L|129:192,1,55.0000016784668,0|0,1:1|0:0,0:0:0:0:
195,194,44769,2,0,L|139:193,1,55.0000016784668,4|0,0:2|0:0,0:0:0:0:
279,208,44912,1,8,1:2:0:0:
327,193,44983,1,0,0:0:0:0:
325,142,45054,1,4,0:2:0:0:
275,133,45126,1,0,0:0:0:0:
136,73,45198,6,0,L|65:73,1,55.0000016784668,0|0,1:1|0:0,0:0:0:0:
220,170,45341,1,4,1:2:0:0:
359,88,45412,1,0,1:0:0:0:
150,89,45484,6,0,L|79:89,1,55.0000016784668,8|0,1:2|0:0,0:0:0:0:
234,186,45627,1,4,1:2:0:0:
373,104,45698,1,0,1:0:0:0:
165,107,45769,6,0,L|94:107,1,55.0000016784668,0|0,1:1|0:0,0:0:0:0:
249,204,45912,1,4,1:2:0:0:
388,122,45983,1,0,1:0:0:0:
248,216,46055,6,0,L|312:216,1,55.0000016784668,8|0,1:2|0:0,0:0:0:0:
164,316,46198,2,0,L|120:315,2,27.5000008392334,4|0|0,1:2|1:2|1:2,0:0:0:0:
275,317,46305,1,0,1:2:0:0:
386,317,46341,5,4,1:1:0:0:
433,296,46412,1,0,0:0:0:0:
431,245,46483,1,4,0:2:0:0:
383,228,46555,1,0,0:0:0:0:
244,142,46627,2,0,L|311:142,1,55.0000016784668,8|0,1:2|0:0,0:0:0:0:
364,142,46769,2,0,L|297:142,1,55.0000016784668,4|0,0:2|0:0,0:0:0:0:
170,84,46912,6,0,L|234:84,1,55.0000016784668,0|0,1:1|0:0,0:0:0:0:
158,85,47055,2,0,L|222:85,1,55.0000016784668,4|0,0:2|0:0,0:0:0:0:
74,225,47198,1,8,1:2:0:0:
28,199,47269,1,0,0:0:0:0:
27,147,47340,1,4,0:2:0:0:
73,121,47412,1,0,0:0:0:0:
213,192,47484,6,0,L|150:192,1,55.0000016784668,0|0,1:1|0:0,0:0:0:0:
224,190,47627,2,0,L|292:190,1,55.0000016784668,4|0,0:2|0:0,0:0:0:0:
142,352,47769,2,0,L|133:295,1,55.0000016784668,8|0,1:2|0:0,0:0:0:0:
199,292,47912,2,0,L|266:292,1,55.0000016784668,4|0,0:2|0:0,0:0:0:0:
393,232,48055,6,0,L|331:233,1,55.0000016784668,0|0,1:1|0:0,0:0:0:0:
404,230,48198,2,0,L|407:163,1,55.0000016784668,4|0,0:2|0:0,0:0:0:0:
268,146,48341,1,8,1:2:0:0:
218,132,48412,1,0,0:0:0:0:
219,81,48483,1,4,0:2:0:0:
268,69,48555,1,0,0:0:0:0:
129,214,48627,6,0,L|191:214,1,55.0000016784668,0|0,1:1|0:0,0:0:0:0:
118,214,48769,2,0,L|51:215,1,55.0000016784668,4|0,0:2|0:0,0:0:0:0:
202,328,48912,2,0,L|205:269,1,55.0000016784668,8|0,1:2|0:0,0:0:0:0:
138,264,49055,2,0,L|210:265,1,55.0000016784668,4|0,0:2|0:0,0:0:0:0:
332,187,49198,6,0,L|274:187,1,55.0000016784668,0|0,1:1|0:0,0:0:0:0:
210,184,49341,2,0,L|205:127,1,55.0000016784668,4|0,0:2|0:0,0:0:0:0:
344,89,49484,2,0,L|346:30,1,55.0000016784668,8|0,1:2|0:0,0:0:0:0:
279,34,49627,2,0,L|335:33,1,55.0000016784668,4|0,0:2|0:0,0:0:0:0:
196,115,49769,6,0,L|133:115,1,55.0000016784668,0|0,1:1|0:0,0:0:0:0:
207,113,49912,2,0,L|272:114,1,55.0000016784668,4|0,0:2|0:0,0:0:0:0:
122,181,50055,2,0,L|115:243,1,55.0000016784668,8|0,1:2|0:0,0:0:0:0:
182,235,50198,2,0,L|253:235,1,55.0000016784668,4|0,0:2|0:0,0:0:0:0:
376,234,50341,6,0,L|314:233,1,55.0000016784668,0|0,1:1|0:0,0:0:0:0:
460,169,50484,2,0,L|493:168,2,27.5000008392334,4|0|0,1:2|1:0|1:0,0:0:0:0:
321,160,50627,2,0,L|319:93,1,55.0000016784668,8|0,1:2|0:0,0:0:0:0:
182,86,50769,2,0,L|124:86,1,55.0000016784668,6|0,1:2|0:0,0:0:0:0:
294,262,50912,6,0,L|354:262,1,55.0000016784668,4|0,1:1|0:0,0:0:0:0:
282,262,51055,2,0,L|342:262,1,55.0000016784668,4|0,0:2|0:0,0:0:0:0:
476,259,51198,2,0,L|480:203,1,55.0000016784668,8|0,1:2|0:0,0:0:0:0:
413,203,51341,2,0,L|355:202,1,55.0000016784668,4|0,0:2|0:0,0:0:0:0:
218,135,51484,6,0,L|286:136,1,55.0000016784668,0|0,1:1|0:0,0:0:0:0:
206,135,51627,2,0,L|138:136,1,55.0000016784668,4|0,0:2|0:0,0:0:0:0:
288,325,51769,1,8,1:2:0:0:
337,308,51840,1,0,0:0:0:0:
338,257,51911,1,4,0:2:0:0:
291,237,51983,1,0,0:0:0:0:
152,232,52055,6,0,L|79:232,1,55.0000016784668,0|0,1:1|0:0,0:0:0:0:
163,232,52198,2,0,L|90:232,1,55.0000016784668,4|0,0:2|0:0,0:0:0:0:
247,191,52341,2,0,L|250:132,1,55.0000016784668,8|0,1:2|0:0,0:0:0:0:
183,134,52484,2,0,L|241:133,1,55.0000016784668,4|0,0:2|0:0,0:0:0:0:
378,69,52627,6,0,L|317:69,1,55.0000016784668,0|0,1:1|0:0,0:0:0:0:
257,70,52769,2,0,L|196:70,1,55.0000016784668,4|0,0:2|0:0,0:0:0:0:
341,156,52912,2,0,L|402:156,1,55.0000016784668,8|0,1:2|0:0,0:0:0:0:
462,155,53055,2,0,L|401:155,1,55.0000016784668,4|0,0:2|0:0,0:0:0:0:
268,263,53198,6,0,L|326:263,1,55.0000016784668,0|0,1:1|0:0,0:0:0:0:
256,262,53341,2,0,L|314:262,1,55.0000016784668,4|0,0:2|0:0,0:0:0:0:
172,190,53484,2,0,L|117:189,1,55.0000016784668,8|0,1:2|0:0,0:0:0:0:
183,191,53627,2,0,L|248:192,1,55.0000016784668,4|0,0:2|0:0,0:0:0:0:
375,105,53769,6,0,L|320:105,1,55.0000016784668,0|0,1:1|0:0,0:0:0:0:
386,105,53912,2,0,L|392:172,1,55.0000016784668,4|0,0:2|0:0,0:0:0:0:
251,160,54055,2,0,L|248:104,1,55.0000016784668,8|0,1:2|0:0,0:0:0:0:
181,105,54198,2,0,L|238:104,1,55.0000016784668,4|0,0:2|0:0,0:0:0:0:
468,307,54341,6,0,L|480:180,1,110.000003356934,8|2,1:1|0:2,0:0:0:0:
279,216,54627,1,8,1:1:0:0:
478,197,54769,1,2,1:2:0:0:
279,216,54912,1,8,1:1:0:0:
38,122,55055,6,0,L|256:123,2,200,2|8|2,0:0|1:1|0:0,0:0:0:0:
315,310,55484,5,6,1:0:0:0:
366,293,55555,1,0,0:0:0:0:
407,256,55626,1,4,0:2:0:0:
428,205,55698,1,0,0:0:0:0:
426,151,55769,1,2,1:2:0:0:
402,102,55841,1,0,0:0:0:0:
360,67,55912,1,4,0:2:0:0:
307,53,55984,1,0,0:0:0:0:
171,65,56055,5,2,1:2:0:0:
121,79,56126,1,0,0:0:0:0:
120,131,56197,1,4,0:2:0:0:
168,148,56269,1,0,0:0:0:0:
307,179,56341,6,0,L|244:179,1,55.0000016784668,2|0,1:2|0:0,0:0:0:0:
185,177,56484,2,0,L|122:177,1,55.0000016784668,4|0,0:2|0:0,0:0:0:0:
269,301,56627,5,2,1:2:0:0:
322,296,56698,1,0,0:0:0:0:
364,262,56769,1,6,0:2:0:0:
378,209,56841,1,0,0:0:0:0:
242,319,56912,5,2,1:2:0:0:
255,266,56984,1,0,0:0:0:0:
297,232,57055,1,4,0:2:0:0:
351,227,57126,1,0,0:0:0:0:
212,180,57198,6,0,L|149:180,1,55.0000016784668,2|0,1:2|0:0,0:0:0:0:
90,178,57341,2,0,L|27:178,1,55.0000016784668,4|0,0:2|0:0,0:0:0:0:
174,277,57484,6,0,L|174:213,1,55.0000016784668,2|0,1:2|0:0,0:0:0:0:
313,173,57627,6,0,L|313:109,1,55.0000016784668,6|0,0:2|0:0,0:0:0:0:
451,103,57769,5,2,1:2:0:0:
440,156,57840,1,0,0:0:0:0:
402,194,57911,1,4,0:2:0:0:
349,206,57983,1,0,0:0:0:0:
282,208,58055,5,2,1:2:0:0:
293,261,58126,1,0,0:0:0:0:
331,299,58197,1,4,0:2:0:0:
384,311,58269,1,0,0:0:0:0:
245,82,58341,6,0,L|179:81,3,55.0000016784668,2|0|4|0,1:2|0:0|0:2|0:0,0:0:0:0:
51,159,58627,6,0,L|51:225,1,55.0000016784668,2|0,1:2|0:0,0:0:0:0:
188,251,58769,6,0,L|188:317,1,55.0000016784668,6|0,0:2|0:0,0:0:0:0:
327,187,58912,6,0,L|395:187,1,55.0000016784668,2|0,1:2|0:0,0:0:0:0:
448,187,59055,2,0,L|516:187,1,55.0000016784668,4|0,0:2|0:0,0:0:0:0:
364,104,59198,6,0,L|296:104,1,55.0000016784668,2|0,1:2|0:0,0:0:0:0:
243,104,59341,2,0,L|175:104,1,55.0000016784668,4|0,0:2|0:0,0:0:0:0:
327,293,59484,6,0,L|390:293,1,55.0000016784668,2|0,1:2|0:0,0:0:0:0:
243,210,59627,2,0,L|214:209,2,27.5000008392334,4|0|0,1:2|1:2|1:2,0:0:0:0:
380,222,59769,2,0,L|384:165,1,55.0000016784668,2|0,1:2|0:0,0:0:0:0:
245,333,59912,2,0,L|241:276,1,55.0000016784668,4|0,0:2|0:0,0:0:0:0:
102,257,60055,5,4,1:0:0:0:
54,237,60126,1,0,0:0:0:0:
54,185,60197,1,4,0:2:0:0:
102,166,60269,1,0,0:0:0:0:
242,296,60341,5,2,1:2:0:0:
188,284,60412,1,0,0:0:0:0:
146,250,60483,1,4,0:2:0:0:
122,201,60555,1,0,0:0:0:0:
123,146,60626,1,2,1:2:0:0:
147,97,60698,1,0,0:0:0:0:
191,64,60769,1,4,0:2:0:0:
244,54,60841,1,0,0:0:0:0:
107,35,60912,6,0,L|48:35,1,55.0000016784668,2|0,1:2|0:0,0:0:0:0:
118,34,61055,2,0,L|179:35,1,55.0000016784668,4|0,0:2|0:0,0:0:0:0:
313,137,61198,6,0,L|251:137,1,55.0000016784668,2|0,1:2|0:0,0:0:0:0:
191,135,61341,2,0,L|129:135,1,55.0000016784668,6|0,0:2|0:0,0:0:0:0:
275,262,61484,6,0,L|337:262,1,55.0000016784668,2|0,1:2|0:0,0:0:0:0:
397,260,61627,2,0,L|459:260,1,55.0000016784668,4|0,0:2|0:0,0:0:0:0:
315,346,61769,6,0,L|377:346,1,55.0000016784668,2|0,1:2|0:0,0:0:0:0:
436,345,61912,2,0,L|441:280,1,55.0000016784668,4|0,0:2|0:0,0:0:0:0:
301,205,62055,6,0,L|301:148,1,55.0000016784668,2|0,1:2|0:0,0:0:0:0:
162,203,62198,6,0,L|162:146,1,55.0000016784668,6|0,0:2|0:0,0:0:0:0:
301,58,62341,5,2,1:2:0:0:
351,62,62412,1,0,0:0:0:0:
356,113,62483,1,4,0:2:0:0:
308,127,62555,1,0,0:0:0:0:
241,129,62627,1,2,1:2:0:0:
190,134,62698,1,0,0:0:0:0:
185,185,62769,1,4,0:2:0:0:
233,199,62841,1,0,0:0:0:0:
370,278,62912,6,0,L|432:278,3,55.0000016784668,2|0|4|0,1:2|0:0|0:2|0:0,0:0:0:0:
286,343,63198,6,0,L|286:274,1,55.0000016784668,2|0,1:2|0:0,0:0:0:0:
147,273,63341,6,0,L|206:273,1,55.0000016784668,6|0,0:2|0:0,0:0:0:0:
341,166,63484,6,0,L|344:108,1,55.0000016784668,2|0,1:2|0:0,0:0:0:0:
277,107,63627,2,0,L|208:106,1,55.0000016784668,4|0,0:2|0:0,0:0:0:0:
85,111,63769,6,0,L|141:111,1,55.0000016784668,2|0,1:2|0:0,0:0:0:0:
279,204,63912,2,0,L|335:204,1,55.0000016784668,4|0,1:2|0:0,0:0:0:0:
194,316,64055,6,0,L|128:315,1,55.0000016784668,8|0,1:1|0:0,0:0:0:0:
278,265,64198,1,4,1:2:0:0:
415,267,64269,1,0,1:0:0:0:
246,179,64341,6,0,L|180:178,1,55.0000016784668,8|0,1:1|0:0,0:0:0:0:
330,128,64484,1,4,1:2:0:0:
467,130,64555,1,0,0:0:0:0:
300,38,64627,6,0,L|279:99,2,55.0000016784668,4|0|4,1:0|0:0|0:2,0:0:0:0:
366,38,64841,1,0,0:0:0:0:
229,146,64912,6,0,L|208:207,2,55.0000016784668,10|0|4,1:2|0:0|0:2,0:0:0:0:
295,146,65126,1,0,0:0:0:0:
434,254,65198,6,0,L|455:315,2,55.0000016784668,2|0|4,1:2|0:0|0:2,0:0:0:0:
368,254,65412,1,0,0:0:0:0:
229,297,65484,6,0,L|300:297,1,55.0000016784668,10|0,1:2|0:0,0:0:0:0:
350,298,65627,2,0,L|421:298,1,55.0000016784668,4|0,0:2|0:0,0:0:0:0:
268,204,65769,6,0,L|197:204,1,55.0000016784668,2|0,1:2|0:0,0:0:0:0:
147,205,65912,2,0,L|76:205,1,55.0000016784668,6|0,0:2|0:0,0:0:0:0:
231,59,66055,6,0,L|285:59,1,55.0000016784668,10|0,1:2|0:0,0:0:0:0:
352,57,66198,2,0,L|354:111,1,55.0000016784668,4|0,0:2|0:0,0:0:0:0:
216,141,66341,6,0,L|270:141,1,55.0000016784668,2|0,1:2|0:0,0:0:0:0:
337,139,66484,2,0,L|264:139,1,55.0000016784668,4|0,0:2|0:0,0:0:0:0:
143,347,66627,6,0,L|143:282,1,55.0000016784668,10|0,1:2|0:0,0:0:0:0:
280,347,66769,6,0,L|280:282,1,55.0000016784668,6|0,0:2|0:0,0:0:0:0:
419,277,66912,6,0,L|486:277,3,55.0000016784668,2|0|6|0,1:2|0:0|0:2|0:0,0:0:0:0:
407,274,67198,2,0,L|333:274,1,55.0000016784668,10|0,1:2|0:0,0:0:0:0:
285,270,67341,2,0,L|211:270,1,55.0000016784668,4|0,0:2|0:0,0:0:0:0:
369,31,67484,5,2,1:2:0:0:
418,46,67555,1,0,0:0:0:0:
419,97,67626,1,4,0:2:0:0:
370,114,67698,1,0,0:0:0:0:
234,119,67769,6,0,L|234:179,1,55.0000016784668,10|0,1:2|0:0,0:0:0:0:
95,190,67912,6,0,L|95:250,1,55.0000016784668,6|0,0:2|0:0,0:0:0:0:
235,288,68055,6,0,L|240:225,1,55.0000016784668,2|0,1:2|0:0,0:0:0:0:
173,228,68198,2,0,L|112:227,1,55.0000016784668,4|0,0:2|0:0,0:0:0:0:
257,170,68341,6,0,L|326:169,3,55.0000016784668,10|0|4|0,1:2|0:0|0:2|0:0,0:0:0:0:
451,230,68627,6,0,L|395:230,1,55.0000016784668,2|0,1:2|0:0,0:0:0:0:
259,229,68769,2,0,L|225:229,2,27.5000008392334,4|0|0,1:2|1:2|1:2,0:0:0:0:
398,334,68912,6,0,L|405:274,1,55.0000016784668,10|0,1:2|0:0,0:0:0:0:
265,126,69055,2,0,L|258:66,1,55.0000016784668,4|0,0:2|0:0,0:0:0:0:
119,72,69198,5,4,1:0:0:0:
69,84,69269,1,0,0:0:0:0:
66,135,69340,1,4,0:2:0:0:
115,151,69412,1,0,0:0:0:0:
254,193,69484,6,0,L|195:194,1,55.0000016784668,10|0,1:2|0:0,0:0:0:0:
132,191,69627,2,0,L|191:192,1,55.0000016784668,4|0,0:2|0:0,0:0:0:0:
324,282,69769,6,0,L|261:282,1,55.0000016784668,2|0,1:2|0:0,0:0:0:0:
202,279,69912,2,0,L|139:279,1,55.0000016784668,4|0,0:2|0:0,0:0:0:0:
286,147,70055,6,0,L|290:85,1,55.0000016784668,10|0,1:2|0:0,0:0:0:0:
223,91,70198,2,0,L|163:90,1,55.0000016784668,4|0,0:2|0:0,0:0:0:0:
308,34,70341,5,2,1:2:0:0:
360,47,70412,1,0,0:0:0:0:
403,81,70483,1,6,0:2:0:0:
426,131,70555,1,0,0:0:0:0:
426,185,70626,1,10,1:2:0:0:
403,235,70698,1,0,0:0:0:0:
360,269,70769,1,4,0:2:0:0:
307,283,70840,1,0,0:0:0:0:
168,278,70912,6,0,L|164:215,1,55.0000016784668,2|0,1:2|0:0,0:0:0:0:
231,223,71055,2,0,L|235:160,1,55.0000016784668,4|0,0:2|0:0,0:0:0:0:
96,169,71198,6,0,L|96:109,1,55.0000016784668,10|0,1:2|0:0,0:0:0:0:
235,106,71341,6,0,L|235:46,1,55.0000016784668,6|0,0:2|0:0,0:0:0:0:
373,103,71484,6,0,L|317:103,1,55.0000016784668,2|8,1:2|0:3,0:0:0:0:
251,102,71627,2,0,L|195:102,1,55.0000016784668,4|8,0:2|0:3,0:0:0:0:
130,104,71769,2,0,L|186:104,1,55.0000016784668,10|8,1:2|0:3,0:0:0:0:
252,103,71912,2,0,L|308:103,1,55.0000016784668,4|8,0:2|0:3,0:0:0:0:
446,254,72055,6,0,L|383:254,1,55.0000016784668,2|8,1:2|0:3,0:0:0:0:
324,252,72198,2,0,L|261:252,1,55.0000016784668,4|8,0:2|0:3,0:0:0:0:
130,253,72341,6,0,L|130:186,1,55.0000016784668,10|8,1:2|0:3,0:0:0:0:
269,352,72484,6,0,L|269:285,1,55.0000016784668,6|8,0:2|0:3,0:0:0:0:
408,303,72627,6,0,L|470:303,1,55.0000016784668,8|0,1:3|0:0,0:0:0:0:
326,173,72769,1,8,1:3:0:0:
188,169,72841,1,8,1:3:0:0:
380,264,72912,6,0,L|442:264,1,55.0000016784668,8|0,1:3|0:0,0:0:0:0:
298,134,73054,1,8,1:3:0:0:
160,130,73126,1,8,1:3:0:0:
352,225,73198,6,0,L|414:225,1,55.0000016784668,8|0,1:3|0:0,0:0:0:0:
270,95,73340,1,8,1:3:0:0:
132,91,73412,1,8,1:3:0:0:
324,186,73484,6,0,L|386:186,1,55.0000016784668,8|0,1:3|0:0,0:0:0:0:
240,59,73627,2,0,L|208:59,2,27.5000008392334,8|0|8,1:3|1:3|1:3,0:0:0:0:
351,58,73734,1,0,1:3:0:0:
462,59,73769,1,4,3:1:0:0:
256,352,74912,6,0,B|256:0|256:0|256:320|256:320|256:224,1,750,4|0,3:0|0:0,0:0:0:0:
32,256,76055,6,0,L|32:64,1,150,4|0,3:0|0:0,0:0:0:0:
256,192,76341,6,0,B|256:352|256:352|256:288,1,200,4|8,3:0|3:0,0:0:0:0:
256,64,76912,6,0,L|256:160,3,50,8|8|8|8,3:0|3:0|3:0|3:0,0:0:0:0:
480,352,77198,6,0,B|480:32|480:32|480:320,1,600,4|4,3:0|3:0,0:0:0:0:
256,192,78198,5,4,3:0:0:0:
480,160,78341,6,0,B|480:320|480:320|480:64,1,400,4|8,3:0|3:0,0:0:0:0:
480,80,78984,6,0,L|480:160,6,50,8|8|8|8|8|8|8,3:0|3:0|3:0|3:0|3:0|3:0|3:0,0:0:0:0:
256,352,79484,6,0,B|256:0|256:0|256:320|256:320|256:224,1,750,4|0,3:0|0:0,0:0:0:0:
32,352,80627,6,0,L|32:192,1,150,4|0,3:0|0:0,0:0:0:0:
256,32,80912,6,0,L|256:256,1,200,4|8,3:0|3:0,0:0:0:0:
256,232,81484,6,0,L|256:160,3,50,8|8|8|8,3:0|3:0|3:0|3:0,0:0:0:0:
32,352,81769,6,0,B|32:32|32:32|32:320,1,600,4|4,3:0|3:0,0:0:0:0:
256,192,82769,5,4,3:0:0:0:
32,160,82912,6,0,B|32:320|32:320|32:64,1,400,4|8,3:0|3:0,0:0:0:0:
32,80,83555,6,0,L|32:160,6,50,8|8|8|8|8|8|8,3:0|3:0|3:0|3:0|3:0|3:0|3:0,0:0:0:0:
256,352,84055,6,0,B|256:0|256:0|256:320|256:320|256:224,1,750,4|0,3:0|0:0,0:0:0:0:
480,256,85198,6,0,L|480:64,1,150,4|0,3:0|0:0,0:0:0:0:
256,192,85484,6,0,B|256:352|256:352|256:288,1,200,4|8,3:0|3:0,0:0:0:0:
256,64,86055,6,0,L|256:160,3,50,8|8|8|8,3:0|3:0|3:0|3:0,0:0:0:0:
32,352,86341,6,0,B|32:32|32:32|32:320,1,600,4|4,3:0|3:0,0:0:0:0:
256,192,87341,5,4,3:0:0:0:
32,160,87484,6,0,B|32:320|32:320|32:64,1,400,4|8,3:0|3:0,0:0:0:0:
32,80,88127,6,0,L|32:160,6,50,8|8|8|8|8|8|8,3:0|3:0|3:0|3:0|3:0|3:0|3:0,0:0:0:0:
256,352,88627,6,0,B|256:0|256:0|256:320|256:320|256:224,1,750,4|0,3:0|0:0,0:0:0:0:
480,352,89770,6,0,L|480:192,1,150,4|0,3:0|0:0,0:0:0:0:
256,32,90055,6,0,L|256:256,1,200,4|8,3:0|3:0,0:0:0:0:
256,232,90627,6,0,L|256:160,3,50,8|8|8|8,3:0|3:0|3:0|3:0,0:0:0:0:
480,352,90912,6,0,B|480:32|480:32|480:320,1,600,4|4,3:0|3:0,0:0:0:0:
256,192,91912,5,4,3:0:0:0:
480,160,92055,6,0,B|480:320|480:320|480:64,1,400,4|8,3:0|3:0,0:0:0:0:
480,80,92698,6,0,L|480:160,6,50,8|8|8|8|8|8|8,3:0|3:0|3:0|3:0|3:0|3:0|3:0,0:0:0:0:
256,352,93198,6,0,B|175:347|120:234|369:58|369:58|464:95|476:231|296:372|296:372|496:372|496:372|296:366|296:366|289:163|289:163|131:166,1,1550,6|8,3:0|3:3,0:0:0:0:
294,268,95484,6,0,P|347:247|271:35,1,350,4|0,3:3|0:0,0:0:0:0:
221,32,96055,6,0,B|158:47|152:113|221:194|221:194|65:193,1,350
224,355,96627,6,0,P|278:328|198:104,1,350,4|0,3:3|0:0,0:0:0:0:
156,102,97198,6,0,L|376:380,1,350,8|8,3:3|3:3,0:0:0:0:
224,359,97769,6,0,B|9:158|148:57|257:0|401:72|516:140|365:345|365:345|161:346|161:346|390:360|537:212|343:15,1,1550,6|8,3:0|3:3,0:0:0:0:
139,0,100055,6,0,B|-34:-5|-26:378|296:370|296:370|199:338|199:338|296:327|296:327|169:247|165:98|336:88,1,1150,6|0,3:0|0:0,0:0:0:0:
299,1,101769,6,0,P|257:28|311:101,1,150,8|8,3:3|3:3,0:0:0:0:
356,102,102055,6,0,P|398:129|344:202,1,150,8|8,3:3|3:3,0:0:0:0:
207,323,102341,6,0,B|148:321|142:191|241:190|241:190|338:192|332:61|242:60|242:60|169:62|170:185|247:184|247:184|398:187,1,750,6|0,3:0|0:0,0:0:0:0:
243,308,103484,6,0,B|44:308|44:308|235:308,1,350,6|0,3:0|0:0,0:0:0:0:
254,306,104055,6,0,B|315:302|311:203|248:200|248:200|442:202,1,350,8|8,3:3|3:3,0:0:0:0:
286,350,104627,6,0,B|111:372|77:20|297:23|297:23|398:25|398:25|243:32,1,750,6|0,3:3|0:0,0:0:0:0:
100,98,105769,6,0,P|203:359|445:112,1,750,6|8,3:3|3:3,0:0:0:0:
294,78,106912,6,0,B|211:79|209:258|296:373|296:373|390:376|419:178|312:27|195:54|195:54|395:55|395:55|195:58|195:58|192:258|192:258|296:87|296:87|164:83|162:328|289:350|289:350|371:345|377:234|235:214|235:214|336:215|336:215|237:207|237:207|231:22|231:22|235:237|235:237|354:129|441:391|217:369,1,3150,6|8,3:0|3:3,0:0:0:0:
32,352,111484,6,0,B|32:36|32:36|32:367|32:367|32:21|32:21|32:373|32:373|32:119|32:119|432:119|432:119|122:372|122:372|357:48|357:48|253:373|253:373|224:322|224:322|225:20|225:20|224:368|224:368|225:13|225:13|224:376|224:376|225:144|225:144|279:378|279:378|333:147|333:147|381:372|381:372|426:147|426:147|476:370|476:370|484:336|484:336|284:337|284:337|397:172|397:172|397:15|397:15|398:357|398:357|397:54|397:54|37:224|37:224|436:203|436:203|323:9|323:9|95:351|95:351|31:197|31:197|32:8|32:8|32:380|32:380|32:187,1,9550,2|0,0:1|0:0,0:0:0:0:
299,353,125198,5,4,3:0:0:0:
320,339,125269,1,0,0:0:0:0:
339,323,125340,1,0,0:0:0:0:
355,304,125412,1,0,0:0:0:0:
368,283,125483,1,0,0:0:0:0:
379,260,125555,1,0,0:0:0:0:
385,236,125626,1,0,0:0:0:0:
388,211,125697,1,0,0:0:0:0:
388,186,125769,5,0,0:0:0:0:
384,162,125840,1,0,0:0:0:0:
376,138,125912,1,0,0:0:0:0:
365,116,125983,1,0,0:0:0:0:
350,95,126055,1,0,0:0:0:0:
333,77,126126,1,0,0:0:0:0:
313,62,126197,1,0,0:0:0:0:
292,50,126269,1,0,0:0:0:0:
141,261,126341,5,4,3:0:0:0:
99,238,126412,1,0,0:0:0:0:
101,190,126483,1,0,0:0:0:0:
144,171,126555,1,0,0:0:0:0:
297,332,126627,5,4,3:0:0:0:
338,309,126698,1,0,0:0:0:0:
336,261,126769,1,0,0:0:0:0:
293,242,126841,1,0,0:0:0:0:
223,242,126912,6,0,L|223:189,3,50,8|0|0|0,3:0|0:0|0:0|0:0,0:0:0:0:
293,189,127198,2,0,L|293:136,1,50,8|8,3:0|3:0,0:0:0:0:
363,137,127341,2,0,L|363:84,1,50,8|8,3:0|3:0,0:0:0:0:
212,42,127484,5,4,3:0:0:0:
175,75,127555,1,0,0:0:0:0:
158,122,127626,1,0,0:0:0:0:
163,171,127698,1,0,0:0:0:0:
190,213,127769,1,0,0:0:0:0:
233,238,127841,1,0,0:0:0:0:
282,241,127912,1,0,0:0:0:0:
328,222,127983,1,0,0:0:0:0:
360,185,128055,1,0,0:0:0:0:
372,136,128126,1,0,0:0:0:0:
361,88,128198,1,0,0:0:0:0:
330,50,128269,1,0,0:0:0:0:
181,132,128341,6,0,L|126:133,1,50,4|0,3:0|0:0,0:0:0:0:
285,314,128484,6,0,L|337:314,1,50,4|0,3:0|0:0,0:0:0:0:
183,284,128627,6,0,L|179:225,1,50,4|0,3:0|0:0,0:0:0:0:
229,235,128769,2,0,L|232:183,1,50
171,181,128912,2,0,L|142:134,1,50
215,137,129055,2,0,L|290:110,1,50
132,96,129198,6,0,L|74:83,1,50,8|8,3:0|3:0,0:0:0:0:
252,80,129341,2,0,L|311:76,1,50,8|8,3:0|3:0,0:0:0:0:
92,47,129484,2,0,L|31:40,1,50,8|8,3:0|3:0,0:0:0:0:
336,43,129627,2,0,L|393:42,1,50,8|8,3:0|3:0,0:0:0:0:
37,34,129769,5,4,3:0:0:0:
256,192,130627,12,0,130644,0:0:0:0:
256,192,130769,12,0,130786,0:0:0:0:
256,192,130912,12,0,130929,0:0:0:0:
256,192,131484,12,0,131501,0:0:0:0:
256,192,132055,12,0,132072,0:0:0:0:
126,53,133769,5,0,1:0:0:0:
426,163,133912,1,0,1:0:0:0:
300,166,133984,1,0,1:0:0:0:
175,171,134055,2,0,L|137:171,2,25,2|0|0,1:0|1:0|1:0,0:0:0:0:
301,252,134162,1,0,1:0:0:0:
427,171,134198,2,0,L|465:171,2,25,2|0|0,1:0|1:0|1:0,0:0:0:0:
301,252,134305,1,0,1:0:0:0:
176,254,134341,6,0,L|107:254,2,59.9999981689454,6|0|4,1:0|0:0|0:2,0:0:0:0:
327,339,134555,2,0,L|331:264,1,59.9999981689454,2|0,0:2|1:2,0:0:0:0:
257,274,134698,1,0,0:0:0:0:
406,93,134769,2,0,L|336:93,1,59.9999981689454,6|0,0:2|0:0,0:0:0:0:
194,129,134912,6,0,L|255:128,1,59.9999981689454,2|0,1:2|0:0,0:0:0:0:
326,129,135055,1,4,0:2:0:0:
175,236,135127,2,0,L|169:171,1,59.9999981689454,2|0,0:2|1:2,0:0:0:0:
241,174,135269,1,0,0:0:0:0:
90,159,135341,2,0,L|26:157,1,59.9999981689454,6|0,0:2|0:0,0:0:0:0:
181,338,135484,6,0,L|246:337,2,59.9999981689454,2|0|4,1:2|0:0|0:2,0:0:0:0:
332,270,135698,2,0,L|397:269,2,59.9999981689454,2|0|0,0:2|1:2|0:0,0:0:0:0:
181,246,135912,2,0,L|115:245,1,59.9999981689454,6|0,0:2|0:0,0:0:0:0:
273,158,136055,6,0,L|278:95,1,59.9999981689454,2|0,1:2|0:0,0:0:0:0:
205,98,136198,1,4,0:2:0:0:
355,106,136269,1,2,0:2:0:0:
427,102,136341,2,0,L|435:167,1,59.9999981689454,0|0,1:2|0:0,0:0:0:0:
283,323,136484,2,0,L|277:254,1,59.9999981689454,6|0,0:2|0:0,0:0:0:0:
126,208,136627,6,0,L|118:146,1,59.9999981689454,2|0,1:2|0:0,0:0:0:0:
189,142,136769,1,4,0:2:0:0:
341,154,136841,2,0,L|276:154,2,59.9999981689454,2|0|0,0:2|1:2|0:0,0:0:0:0:
190,257,137055,2,0,L|122:257,1,59.9999981689454,6|0,0:2|0:0,0:0:0:0:
281,286,137198,6,0,L|344:286,2,59.9999981689454,2|0|4,1:2|0:0|0:2,0:0:0:0:
129,177,137412,2,0,L|210:176,1,59.9999981689454,2|0,0:2|1:2,0:0:0:0:
261,175,137555,1,0,0:0:0:0:
109,47,137627,2,0,L|186:47,1,59.9999981689454,6|0,0:2|0:0,0:0:0:0:
319,197,137769,6,0,L|327:259,1,59.9999981689454,2|0,1:2|0:0,0:0:0:0:
256,263,137911,1,4,0:2:0:0:
104,251,137984,2,0,L|169:251,2,59.9999981689454,2|0|0,0:2|1:2|0:0,0:0:0:0:
255,148,138197,2,0,L|323:148,1,59.9999981689454,6|0,0:2|0:0,0:0:0:0:
164,119,138340,6,0,L|101:119,1,59.9999981689454,2|0,1:2|0:0,0:0:0:0:
257,232,138484,1,4,1:2:0:0:
407,237,138555,1,2,1:2:0:0:
256,338,138627,2,0,L|194:338,1,59.9999981689454,0|0,1:2|0:0,0:0:0:0:
346,282,138769,2,0,L|409:282,1,59.9999981689454,6|0,1:2|0:0,0:0:0:0:
250,181,138912,6,0,L|187:181,2,59.9999981689454,6|0|4,1:1|0:0|0:2,0:0:0:0:
96,187,139127,1,2,0:2:0:0:
24,187,139198,2,0,L|17:123,1,59.9999981689454,0|0,1:2|0:0,0:0:0:0:
169,60,139341,2,0,L|102:61,1,59.9999981689454,6|0,0:2|0:0,0:0:0:0:
260,203,139484,6,0,L|323:203,2,59.9999981689454,2|0|4,1:2|0:0|0:2,0:0:0:0:
414,197,139699,1,2,0:2:0:0:
486,197,139770,2,0,L|493:261,1,59.9999981689454,0|0,1:2|0:0,0:0:0:0:
341,324,139913,2,0,L|408:323,1,59.9999981689454,6|0,0:2|0:0,0:0:0:0:
252,309,140055,6,0,L|244:246,1,59.9999981689454,2|0,1:2|0:0,0:0:0:0:
317,249,140198,1,4,0:2:0:0:
168,164,140269,1,2,0:2:0:0:
95,168,140341,2,0,L|91:98,1,59.9999981689454,0|0,1:2|0:0,0:0:0:0:
243,47,140484,2,0,L|176:47,1,59.9999981689454,6|0,0:2|0:0,0:0:0:0:
334,98,140627,6,0,L|342:161,1,59.9999981689454,2|0,1:2|0:0,0:0:0:0:
269,158,140770,1,4,0:2:0:0:
418,243,140841,1,2,0:2:0:0:
491,239,140913,2,0,L|495:309,1,59.9999981689454,0|0,1:2|0:0,0:0:0:0:
343,360,141056,2,0,L|410:360,1,59.9999981689454,6|0,0:2|0:0,0:0:0:0:
254,279,141198,6,0,L|191:279,2,59.9999981689454,2|0|4,1:2|0:0|0:2,0:0:0:0:
405,166,141412,2,0,L|325:166,1,59.9999981689454,2|0,0:2|1:2,0:0:0:0:
272,165,141555,1,0,0:0:0:0:
120,162,141627,2,0,L|191:162,1,59.9999981689454,6|0,0:2|0:0,0:0:0:0:
330,93,141769,6,0,L|393:93,2,59.9999981689454,2|0|4,1:2|0:0|0:2,0:0:0:0:
179,206,141983,2,0,L|259:206,1,59.9999981689454,2|0,0:2|1:2,0:0:0:0:
312,207,142126,1,0,0:0:0:0:
464,210,142198,2,0,L|393:210,1,59.9999981689454,6|0,0:2|0:0,0:0:0:0:
253,324,142341,6,0,L|316:325,1,59.9999981689454,2|0,1:2|0:0,0:0:0:0:
449,318,142484,1,4,1:2:0:0:
315,254,142555,1,0,1:2:0:0:
179,246,142627,6,0,L|242:247,1,59.9999981689454,2|0,1:2|0:0,0:0:0:0:
375,241,142770,1,4,1:2:0:0:
241,178,142841,1,0,1:2:0:0:
107,161,142912,6,0,L|170:162,1,59.9999981689454,2|0,1:2|0:0,0:0:0:0:
303,150,143055,1,6,1:2:0:0:
169,94,143126,1,0,1:2:0:0:
340,198,143198,6,0,L|406:198,1,59.9999981689454,2|0,1:2|0:0,0:0:0:0:
249,160,143341,2,0,L|215:160,2,29.9999990844727,4|0|0,1:2|1:2|1:2,0:0:0:0:
370,158,143448,1,0,1:2:0:0:
491,158,143484,6,0,L|494:95,1,59.9999981689454,6|0,1:0|0:0,0:0:0:0:
422,84,143627,1,4,0:2:0:0:
273,78,143698,2,0,L|209:78,2,59.9999981689454,2|0|0,0:2|1:2|0:0,0:0:0:0:
122,240,143912,2,0,L|116:177,1,59.9999981689454,6|0,0:2|0:0,0:0:0:0:
268,234,144055,6,0,L|205:234,1,59.9999981689454,2|0,1:2|0:0,0:0:0:0:
135,233,144198,1,4,0:2:0:0:
285,153,144269,2,0,L|293:91,1,59.9999981689454,2|0,0:2|1:2,0:0:0:0:
220,88,144412,1,0,0:0:0:0:
69,113,144484,2,0,L|131:112,1,59.9999981689454,6|0,0:2|0:0,0:0:0:0:
282,268,144627,6,0,L|341:268,2,59.9999981689454,2|0|4,1:2|0:0|0:2,0:0:0:0:
131,328,144841,2,0,L|190:328,2,59.9999981689454,2|0|0,0:2|1:2|0:0,0:0:0:0:
283,333,145055,2,0,L|354:333,1,59.9999981689454,6|0,0:2|0:0,0:0:0:0:
190,205,145198,6,0,L|130:204,2,59.9999981689454,2|0|4,1:2|0:0|0:2,0:0:0:0:
341,145,145412,2,0,L|281:144,2,59.9999981689454,2|0|0,0:2|1:2|0:0,0:0:0:0:
189,140,145626,2,0,L|118:140,1,59.9999981689454,6|0,0:2|0:0,0:0:0:0:
281,269,145769,5,2,1:2:0:0:
353,267,145841,2,0,L|358:205,1,59.9999981689454,0|4,0:0|0:2,0:0:0:0:
206,185,145984,2,0,L|201:114,1,59.9999981689454,2|0,0:2|1:2,0:0:0:0:
274,125,146127,1,0,0:0:0:0:
423,105,146198,2,0,L|355:105,1,59.9999981689454,6|0,0:2|0:0,0:0:0:0:
212,119,146341,5,2,1:2:0:0:
140,121,146413,2,0,L|135:183,1,59.9999981689454,0|4,0:0|0:2,0:0:0:0:
287,203,146556,2,0,L|292:274,1,59.9999981689454,2|0,0:2|1:2,0:0:0:0:
219,263,146699,1,0,0:0:0:0:
70,283,146770,2,0,L|138:283,1,59.9999981689454,6|0,0:2|0:0,0:0:0:0:
280,355,146912,6,0,L|203:355,1,59.9999981689454,2|0,1:2|0:0,0:0:0:0:
147,352,147055,1,4,0:2:0:0:
299,293,147127,2,0,L|304:228,1,59.9999981689454,2|0,0:2|1:2,0:0:0:0:
232,227,147269,1,0,0:0:0:0:
383,130,147341,2,0,L|452:130,1,59.9999981689454,6|0,0:2|0:0,0:0:0:0:
292,90,147484,6,0,L|221:90,1,59.9999981689454,2|0,1:2|0:0,0:0:0:0:
383,225,147627,2,0,L|420:225,2,29.9999990844727,4|0|2,1:2|1:0|1:2,0:0:0:0:
262,229,147734,1,0,1:0:0:0:
144,233,147769,2,0,L|77:233,1,59.9999981689454,0|0,1:2|0:0,0:0:0:0:
235,147,147912,2,0,L|298:147,1,59.9999981689454,6|0,1:2|0:0,0:0:0:0:
113,100,148055,6,0,L|48:100,2,59.9999981689454,6|0|4,1:1|0:0|0:2,0:0:0:0:
264,205,148269,2,0,L|325:205,2,59.9999981689454,2|0|0,0:2|1:2|0:0,0:0:0:0:
113,100,148484,2,0,L|48:100,1,59.9999981689454,6|0,0:2|0:0,0:0:0:0:
204,192,148627,6,0,L|210:260,2,59.9999981689454,2|0|4,1:2|0:0|0:2,0:0:0:0:
355,270,148841,2,0,L|361:338,2,59.9999981689454,2|0|0,0:2|1:2|0:0,0:0:0:0:
204,145,149055,2,0,L|198:77,1,59.9999981689454,6|0,0:2|0:0,0:0:0:0:
399,100,149198,6,0,L|464:100,2,59.9999981689454,2|0|4,1:2|0:0|0:2,0:0:0:0:
248,205,149412,2,0,L|187:205,2,59.9999981689454,2|0|0,0:2|1:2|0:0,0:0:0:0:
399,100,149627,2,0,L|464:100,1,59.9999981689454,6|0,0:2|0:0,0:0:0:0:
308,192,149770,6,0,L|302:260,2,59.9999981689454,2|0|4,1:2|0:0|0:2,0:0:0:0:
157,270,149984,2,0,L|151:338,2,59.9999981689454,2|0|0,0:2|1:2|0:0,0:0:0:0:
308,145,150198,2,0,L|314:77,1,59.9999981689454,6|0,0:2|0:0,0:0:0:0:
162,88,150341,5,2,1:2:0:0:
102,88,150412,1,0,0:0:0:0:
42,88,150483,1,4,0:2:0:0:
193,198,150555,1,2,0:2:0:0:
253,198,150626,1,0,1:2:0:0:
313,198,150697,1,0,0:0:0:0:
162,88,150769,1,6,0:2:0:0:
102,88,150840,1,0,0:0:0:0:
350,88,150912,5,2,1:2:0:0:
410,88,150983,1,0,0:0:0:0:
470,88,151054,1,4,0:2:0:0:
319,198,151126,1,2,0:2:0:0:
259,198,151197,1,0,1:2:0:0:
199,198,151268,1,0,0:0:0:0:
350,88,151340,1,6,0:2:0:0:
410,88,151411,1,0,0:0:0:0:
197,134,151484,6,0,L|130:133,1,59.9999981689454,2|0,1:2|0:0,0:0:0:0:
288,138,151627,1,4,1:2:0:0:
437,155,151698,1,0,1:2:0:0:
197,134,151769,6,0,L|130:133,1,59.9999981689454,2|0,1:2|0:0,0:0:0:0:
288,138,151912,1,4,1:2:0:0:
437,155,151983,1,0,1:2:0:0:
197,134,152055,6,0,L|130:133,1,59.9999981689454,2|0,1:2|0:0,0:0:0:0:
288,138,152198,1,6,1:2:0:0:
437,155,152269,1,0,1:2:0:0:
288,278,152341,6,0,L|357:278,1,59.9999981689454,2|0,1:2|0:0,0:0:0:0:
197,207,152484,2,0,L|160:207,2,29.9999990844727,4|0|0,1:2|1:2|1:2,0:0:0:0:
318,211,152591,1,0,1:2:0:0:
439,213,152627,6,0,L|503:213,2,59.9999981689454,6|0|4,1:0|0:0|0:2,0:0:0:0:
288,162,152841,2,0,L|299:98,1,59.9999981689454,2|8,0:2|1:2,0:0:0:0:
370,109,152984,1,0,0:0:0:0:
221,271,153055,2,0,L|217:205,1,59.9999981689454,6|0,0:2|0:0,0:0:0:0:
66,194,153198,6,0,L|62:130,1,59.9999981689454,2|0,1:2|0:0,0:0:0:0:
134,133,153341,1,4,0:2:0:0:
284,83,153412,2,0,L|221:83,1,59.9999981689454,2|8,0:2|1:2,0:0:0:0:
151,82,153555,1,0,0:0:0:0:
302,197,153627,2,0,L|306:261,1,59.9999981689454,6|0,0:2|0:0,0:0:0:0:
156,325,153769,6,0,L|149:261,1,59.9999981689454,2|0,1:2|0:0,0:0:0:0:
222,267,153912,1,4,0:2:0:0:
375,129,153984,2,0,L|446:129,2,59.9999981689454,2|8|0,0:2|1:2|0:0,0:0:0:0:
223,127,154198,2,0,L|157:127,1,59.9999981689454,6|0,0:2|0:0,0:0:0:0:
315,252,154341,6,0,L|377:252,2,59.9999981689454,2|0|4,1:2|0:0|0:2,0:0:0:0:
164,186,154555,2,0,L|229:186,1,59.9999981689454,2|8,0:2|1:2,0:0:0:0:
296,184,154698,1,0,0:0:0:0:
147,325,154769,2,0,L|72:323,1,59.9999981689454,6|0,0:2|0:0,0:0:0:0:
238,295,154912,6,0,L|241:229,1,59.9999981689454,2|0,1:2|0:0,0:0:0:0:
168,228,155055,1,4,0:2:0:0:
319,128,155127,1,2,0:2:0:0:
390,129,155198,2,0,L|399:198,1,59.9999981689454,8|0,1:2|0:0,0:0:0:0:
246,354,155341,2,0,L|240:293,1,59.9999981689454,6|0,0:2|0:0,0:0:0:0:
88,231,155484,6,0,L|16:231,2,59.9999981689454,2|0|4,1:2|0:0|0:2,0:0:0:0:
240,181,155698,2,0,L|244:118,1,59.9999981689454,2|8,0:2|1:2,0:0:0:0:
171,116,155841,1,0,0:0:0:0:
320,51,155912,2,0,L|327:116,1,59.9999981689454,6|0,0:2|0:0,0:0:0:0:
175,214,156055,6,0,L|248:216,1,59.9999981689454,2|0,1:2|0:0,0:0:0:0:
307,214,156198,1,4,0:2:0:0:
158,349,156269,2,0,L|152:287,1,59.9999981689454,2|8,0:2|1:2,0:0:0:0:
224,285,156412,1,0,0:0:0:0:
377,346,156484,2,0,L|298:346,1,59.9999981689454,6|0,0:2|0:0,0:0:0:0:
166,217,156627,6,0,L|103:217,1,59.9999981689454,2|0,1:2|0:0,0:0:0:0:
256,105,156769,1,4,1:2:0:0:
407,197,156841,1,2,1:2:0:0:
258,258,156912,2,0,L|255:197,1,59.9999981689454,8|0,1:2|0:0,0:0:0:0:
103,164,157055,2,0,L|100:103,1,59.9999981689454,6|0,1:2|0:0,0:0:0:0:
251,162,157198,5,6,1:1:0:0:
311,162,157269,1,0,0:0:0:0:
371,162,157340,1,4,0:2:0:0:
219,344,157412,1,2,0:2:0:0:
146,339,157484,2,0,L|138:268,1,59.9999981689454,8|0,1:2|0:0,0:0:0:0:
292,217,157627,2,0,L|228:217,1,59.9999981689454,6|0,0:2|0:0,0:0:0:0:
381,265,157769,6,0,L|457:265,2,59.9999981689454,2|0|4,1:2|0:0|0:2,0:0:0:0:
228,57,157984,2,0,L|222:126,1,59.9999981689454,2|8,0:2|1:2,0:0:0:0:
295,116,158127,1,0,0:0:0:0:
143,211,158198,2,0,L|74:212,1,59.9999981689454,6|0,0:2|0:0,0:0:0:0:
234,318,158341,5,2,1:2:0:0:
305,318,158412,2,0,L|310:247,1,59.9999981689454,0|4,0:0|0:2,0:0:0:0:
156,150,158555,2,0,L|231:150,2,59.9999981689454,2|8|0,0:2|1:2|0:0,0:0:0:0:
308,207,158769,2,0,L|313:145,1,59.9999981689454,6|0,0:2|0:0,0:0:0:0:
161,41,158912,6,0,L|226:40,1,59.9999981689454,2|0,1:2|0:0,0:0:0:0:
293,37,159055,1,4,0:2:0:0:
142,254,159127,2,0,L|77:256,2,59.9999981689454,2|8|0,0:2|1:2|0:0,0:0:0:0:
295,328,159341,2,0,L|227:329,1,59.9999981689454,6|0,0:2|0:0,0:0:0:0:
386,263,159484,6,0,L|449:263,2,59.9999981689454,2|0|4,1:2|0:0|0:2,0:0:0:0:
235,177,159698,2,0,L|298:177,2,59.9999981689454,2|8|0,0:2|1:2|0:0,0:0:0:0:
386,76,159912,2,0,L|308:76,1,59.9999981689454,6|0,0:2|0:0,0:0:0:0:
173,124,160055,6,0,L|110:124,2,59.9999981689454,2|0|4,1:2|0:0|0:2,0:0:0:0:
324,210,160269,2,0,L|261:210,2,59.9999981689454,2|8|0,0:2|1:2|0:0,0:0:0:0:
173,311,160483,2,0,L|251:311,1,59.9999981689454,6|0,0:2|0:0,0:0:0:0:
386,307,160627,6,0,L|324:307,1,59.9999981689454,2|0,1:2|0:0,0:0:0:0:
177,259,160769,1,4,1:2:0:0:
328,227,160841,1,0,1:2:0:0:
477,210,160912,6,0,L|415:210,1,59.9999981689454,10|0,1:2|0:0,0:0:0:0:
268,162,161054,1,4,1:2:0:0:
419,130,161126,1,0,1:2:0:0:
268,84,161198,6,0,L|208:84,1,59.9999981689454,2|0,1:2|0:0,0:0:0:0:
342,146,161340,1,6,1:2:0:0:
478,155,161412,1,0,1:2:0:0:
295,171,161484,6,0,L|224:171,1,59.9999981689454,10|0,1:2|0:0,0:0:0:0:
388,226,161627,2,0,L|418:225,2,29.9999990844727,4|0|0,1:2|1:2|1:2,0:0:0:0:
267,232,161734,1,0,1:2:0:0:
149,237,161769,6,0,L|87:237,2,59.9999981689454,6|0|4,1:0|0:0|0:2,0:0:0:0:
302,186,161984,2,0,L|306:117,1,59.9999981689454,2|8,0:2|1:2,0:0:0:0:
232,124,162127,1,0,0:0:0:0:
381,286,162198,2,0,L|306:285,1,59.9999981689454,6|0,0:2|0:0,0:0:0:0:
169,319,162341,6,0,L|238:319,1,59.9999981689454,2|0,1:2|0:0,0:0:0:0:
301,316,162484,1,4,0:2:0:0:
152,212,162555,1,2,0:2:0:0:
79,213,162627,2,0,L|72:144,1,59.9999981689454,8|0,1:2|0:0,0:0:0:0:
223,162,162769,2,0,L|226:101,1,59.9999981689454,6|0,0:2|0:0,0:0:0:0:
378,98,162912,6,0,L|315:99,2,59.9999981689454,2|0|4,1:2|0:0|0:2,0:0:0:0:
224,218,163127,2,0,L|161:219,2,59.9999981689454,2|8|0,0:2|1:2|0:0,0:0:0:0:
375,288,163341,2,0,L|378:225,1,59.9999981689454,6|0,0:2|0:0,0:0:0:0:
225,316,163484,6,0,L|288:315,2,59.9999981689454,2|0|4,1:2|0:0|0:2,0:0:0:0:
379,196,163699,2,0,L|442:195,2,59.9999981689454,2|8|0,0:2|1:2|0:0,0:0:0:0:
228,126,163913,2,0,L|225:189,1,59.9999981689454,6|0,0:2|0:0,0:0:0:0:
76,196,164055,6,0,L|71:132,1,59.9999981689454,2|0,1:2|0:0,0:0:0:0:
143,135,164198,1,4,0:2:0:0:
292,227,164269,1,2,0:2:0:0:
221,228,164341,2,0,L|218:287,1,59.9999981689454,8|0,1:2|0:0,0:0:0:0:
369,319,164484,2,0,L|303:319,1,59.9999981689454,6|0,0:2|0:0,0:0:0:0:
156,252,164627,6,0,L|224:252,1,59.9999981689454,2|0,1:2|0:0,0:0:0:0:
287,252,164769,1,4,0:2:0:0:
136,176,164841,2,0,L|73:175,2,59.9999981689454,2|8|0,0:2|1:2|0:0,0:0:0:0:
288,103,165055,2,0,L|228:103,1,59.9999981689454,6|0,0:2|0:0,0:0:0:0:
379,194,165198,6,0,L|443:194,2,59.9999981689454,2|0|4,1:2|0:0|0:2,0:0:0:0:
225,300,165412,1,2,0:2:0:0:
152,298,165484,2,0,L|147:233,1,59.9999981689454,8|0,1:2|0:0,0:0:0:0:
299,207,165627,2,0,L|371:206,1,59.9999981689454,6|0,0:2|0:0,0:0:0:0:
210,141,165769,6,0,L|206:73,1,59.9999981689454,2|0,1:2|0:0,0:0:0:0:
358,86,165912,2,0,L|404:87,2,29.9999990844727,4|0|2,1:2|1:0|1:2,0:0:0:0:
237,90,166019,1,0,1:0:0:0:
116,90,166055,2,0,L|55:90,1,59.9999981689454,8|0,1:2|0:0,0:0:0:0:
207,229,166198,2,0,L|210:164,1,59.9999981689454,6|0,1:2|0:0,0:0:0:0:
361,151,166341,6,0,L|426:152,2,59.9999981689454,6|0|4,1:1|0:0|0:2,0:0:0:0:
209,336,166555,2,0,L|144:337,2,59.9999981689454,2|8|0,0:2|1:2|0:0,0:0:0:0:
361,151,166769,2,0,L|426:152,1,59.9999981689454,6|0,0:2|0:0,0:0:0:0:
151,233,166912,6,0,L|86:232,2,59.9999981689454,2|0|4,1:2|0:0|0:2,0:0:0:0:
303,48,167126,2,0,L|368:47,2,59.9999981689454,2|8|0,0:2|1:2|0:0,0:0:0:0:
151,233,167340,2,0,L|86:232,1,59.9999981689454,6|0,0:2|0:0,0:0:0:0:
256,328,167484,6,0,L|260:261,2,59.9999981689454,2|0|4,1:2|0:0|0:2,0:0:0:0:
407,256,167698,2,0,L|411:189,2,59.9999981689454,2|8|0,0:2|1:2|0:0,0:0:0:0:
256,328,167912,2,0,L|252:261,1,59.9999981689454,6|0,0:2|0:0,0:0:0:0:
101,182,168055,6,0,L|97:115,2,59.9999981689454,2|0|4,1:2|0:0|0:2,0:0:0:0:
253,142,168269,2,0,L|257:75,2,59.9999981689454,2|8|0,0:2|1:2|0:0,0:0:0:0:
408,133,168484,2,0,L|412:66,1,59.9999981689454,6|0,0:2|0:0,0:0:0:0:
207,61,168627,5,2,1:2:0:0:
147,61,168698,1,0,0:0:0:0:
87,61,168769,1,4,0:2:0:0:
305,61,168841,1,2,0:2:0:0:
364,61,168912,1,8,1:2:0:0:
424,61,168983,1,0,0:0:0:0:
207,61,169055,1,6,0:2:0:0:
147,61,169126,1,0,0:0:0:0:
305,323,169198,5,2,1:2:0:0:
364,322,169269,1,0,0:0:0:0:
424,322,169340,1,4,0:2:0:0:
207,323,169412,1,2,0:2:0:0:
147,322,169483,1,8,1:2:0:0:
87,322,169554,1,0,0:0:0:0:
305,323,169626,1,6,0:2:0:0:
364,322,169697,1,0,0:0:0:0:
212,188,169769,5,8,1:1:0:0:
152,191,169841,2,0,L|134:132,1,59.9999981689454,0|4,0:0|1:2,0:0:0:0:
285,123,169984,1,0,1:2:0:0:
224,127,170056,2,0,L|207:67,1,59.9999981689454,8|0,1:1|0:0,0:0:0:0:
356,61,170198,2,0,L|419:60,1,59.9999981689454,4|0,1:2|1:2,0:0:0:0:
265,179,170341,5,8,1:1:0:0:
329,177,170413,2,0,L|343:235,1,59.9999981689454,0|6,0:0|1:2,0:0:0:0:
192,244,170556,1,0,1:2:0:0:
255,242,170628,2,0,L|270:300,1,59.9999981689454,8|0,1:1|0:0,0:0:0:0:
121,306,170770,2,0,L|58:307,1,59.9999981689454,4|0,1:2|1:2,0:0:0:0:
240,361,170912,6,0,L|309:361,2,59.9999981689454,6|0|4,1:0|0:0|0:2,0:0:0:0:
88,361,171127,2,0,L|19:361,2,59.9999981689454,2|8|0,0:2|1:2|0:0,0:0:0:0:
240,361,171341,2,0,L|312:361,1,59.9999981689454,6|0,0:2|0:0,0:0:0:0:
149,187,171484,6,0,L|145:117,1,59.9999981689454,2|0,1:2|0:0,0:0:0:0:
217,122,171627,1,4,0:2:0:0:
366,118,171698,2,0,L|370:48,1,59.9999981689454,2|8,0:2|1:2,0:0:0:0:
298,53,171841,1,0,0:0:0:0:
148,56,171912,2,0,L|143:118,1,59.9999981689454,6|0,0:2|0:0,0:0:0:0:
295,203,172055,6,0,L|359:202,2,59.9999981689454,2|0|4,1:1|0:0|0:2,0:0:0:0:
446,307,172269,2,0,L|382:307,1,59.9999981689454,2|8,0:2|1:2,0:0:0:0:
313,307,172412,1,0,0:0:0:0:
465,243,172484,2,0,L|510:200,1,59.9999981689454,6|0,0:2|0:0,0:0:0:0:
357,129,172627,6,0,L|294:129,2,59.9999981689454,2|0|4,1:2|0:0|0:2,0:0:0:0:
197,66,172841,2,0,L|256:66,1,59.9999981689454,2|8,0:2|1:2,0:0:0:0:
329,67,172984,1,0,0:0:0:0:
180,182,173055,2,0,L|180:248,1,59.9999981689454,6|0,0:2|0:0,0:0:0:0:
363,290,173198,5,2,1:1:0:0:
434,289,173269,2,0,L|439:222,1,59.9999981689454,0|4,0:0|0:2,0:0:0:0:
287,212,173412,2,0,L|226:213,2,59.9999981689454,2|8|0,0:2|1:2|0:0,0:0:0:0:
439,224,173627,2,0,L|440:161,1,59.9999981689454,6|0,0:2|0:0,0:0:0:0:
289,100,173769,6,0,L|225:100,2,59.9999981689454,2|0|4,1:2|0:0|0:2,0:0:0:0:
443,105,173984,2,0,L|507:105,2,59.9999981689454,2|8|0,0:2|1:2|0:0,0:0:0:0:
289,100,174198,2,0,L|225:100,1,59.9999981689454,6|0,0:2|0:0,0:0:0:0:
380,271,174341,6,0,L|386:211,1,59.9999981689454,2|0,1:1|0:0,0:0:0:0:
313,204,174484,1,4,0:2:0:0:
461,194,174555,2,0,L|467:134,1,59.9999981689454,2|8,0:2|1:2,0:0:0:0:
394,127,174698,1,0,0:0:0:0:
236,133,174769,2,0,L|161:133,1,59.9999981689454,6|0,0:2|0:0,0:0:0:0:
327,300,174912,6,0,L|392:301,1,59.9999981689454,2|0,1:2|0:0,0:0:0:0:
236,293,175055,1,4,1:2:0:0:
85,287,175127,1,2,1:2:0:0:
236,293,175198,2,0,L|241:224,1,59.9999981689454,8|0,1:2|0:0,0:0:0:0:
392,231,175341,2,0,L|397:162,1,59.9999981689454,6|0,1:2|0:0,0:0:0:0:
244,174,175484,6,0,L|179:173,2,59.9999981689454,6|0|4,1:1|0:0|0:2,0:0:0:0:
92,247,175698,2,0,L|27:246,2,59.9999981689454,2|8|0,0:2|1:2|0:0,0:0:0:0:
243,241,175912,2,0,L|310:240,1,59.9999981689454,6|0,0:2|0:0,0:0:0:0:
151,89,176055,6,0,L|216:88,2,59.9999981689454,2|0|4,1:2|0:0|0:2,0:0:0:0:
302,118,176269,2,0,L|310:182,1,59.9999981689454,2|8,0:2|1:2,0:0:0:0:
237,182,176412,1,0,0:0:0:0:
453,200,176483,2,0,L|360:202,1,59.9999981689454,6|0,0:2|0:0,0:0:0:0:
241,295,176627,6,0,L|233:224,2,59.9999981689454,2|0|4,1:1|0:0|0:2,0:0:0:0:
89,180,176841,2,0,L|81:109,2,59.9999981689454,2|8|0,0:2|1:2|0:0,0:0:0:0:
240,365,177055,2,0,L|248:294,1,59.9999981689454,6|0,0:2|0:0,0:0:0:0:
398,286,177198,6,0,L|406:215,2,59.9999981689454,2|0|4,1:2|0:0|0:2,0:0:0:0:
247,175,177412,2,0,L|239:104,2,59.9999981689454,2|8|0,0:2|1:2|0:0,0:0:0:0:
96,312,177626,2,0,L|88:241,1,59.9999981689454,6|0,0:2|0:0,0:0:0:0:
240,241,177769,5,2,1:1:0:0:
300,241,177840,1,0,0:0:0:0:
360,241,177911,1,4,0:2:0:0:
207,188,177984,1,2,0:2:0:0:
147,189,178055,1,8,1:2:0:0:
87,189,178126,1,0,0:0:0:0:
239,109,178198,1,6,0:2:0:0:
299,109,178269,1,0,0:0:0:0:
147,44,178341,5,2,1:2:0:0:
206,44,178412,1,0,0:0:0:0:
266,44,178483,1,4,0:2:0:0:
420,148,178556,1,2,0:2:0:0:
360,149,178627,1,8,1:2:0:0:
300,149,178698,1,0,0:0:0:0:
149,266,178770,1,6,0:2:0:0:
90,266,178841,1,0,0:0:0:0:
241,195,178912,6,0,L|246:134,1,59.9999981689454,2|0,1:1|0:0,0:0:0:0:
383,53,179055,2,0,L|307:53,1,59.9999981689454,4|0,1:2|1:2,0:0:0:0:
474,124,179198,6,0,L|484:187,1,59.9999981689454,10|0,1:2|0:0,0:0:0:0:
332,266,179341,2,0,L|408:266,1,59.9999981689454,4|0,1:2|1:2,0:0:0:0:
241,195,179484,6,0,L|231:132,1,59.9999981689454,2|0,1:2|0:0,0:0:0:0:
383,53,179627,2,0,L|307:53,1,59.9999981689454,6|0,1:2|1:2,0:0:0:0:
474,124,179769,6,0,L|484:187,1,59.9999981689454,10|0,1:2|0:0,0:0:0:0:
332,200,179912,2,0,L|303:199,1,29.9999990844727,4|0,1:2|1:2,0:0:0:0:
177,213,179984,2,0,L|148:212,1,29.9999990844727,0|0,1:2|1:2,0:0:0:0:
269,332,180055,6,0,L|339:332,2,59.9999981689454,6|0|4,1:1|0:0|0:2,0:0:0:0:
116,348,180269,2,0,L|46:348,2,59.9999981689454,2|8|0,0:2|1:2|0:0,0:0:0:0:
269,331,180484,2,0,L|272:255,1,59.9999981689454,6|0,0:2|0:0,0:0:0:0:
120,176,180627,5,2,1:2:0:0:
182,175,180698,2,0,L|194:110,1,59.9999981689454,0|4,0:0|0:2,0:0:0:0:
345,242,180841,1,2,0:2:0:0:
283,240,180912,2,0,L|271:176,1,59.9999981689454,8|0,1:2|0:0,0:0:0:0:
119,55,181055,2,0,L|191:55,1,59.9999981689454,6|0,0:2|0:0,0:0:0:0:
330,62,181198,6,0,L|394:62,2,59.9999981689454,2|0|4,1:1|0:0|0:2,0:0:0:0:
177,109,181412,2,0,L|241:109,2,59.9999981689454,2|8|0,0:2|1:2|0:0,0:0:0:0:
330,62,181627,2,0,L|397:62,1,59.9999981689454,6|0,0:2|0:0,0:0:0:0:
241,209,181769,6,0,L|177:209,2,59.9999981689454,2|0|4,1:2|0:0|0:2,0:0:0:0:
394,252,181984,2,0,L|330:252,2,59.9999981689454,2|8|0,0:2|1:2|0:0,0:0:0:0:
241,209,182198,2,0,L|174:209,1,59.9999981689454,6|0,0:2|0:0,0:0:0:0:
332,325,182341,6,0,L|336:260,1,59.9999981689454,2|0,1:1|0:0,0:0:0:0:
263,261,182484,1,4,0:2:0:0:
114,317,182555,2,0,L|101:251,2,59.9999981689454,2|8|0,0:2|1:2|0:0,0:0:0:0:
263,255,182769,2,0,L|327:255,1,59.9999981689454,6|0,0:2|0:0,0:0:0:0:
171,181,182912,6,0,L|167:116,1,59.9999981689454,2|0,1:2|0:0,0:0:0:0:
240,117,183055,1,4,0:2:0:0:
390,111,183126,2,0,L|403:45,2,59.9999981689454,2|8|0,0:2|1:2|0:0,0:0:0:0:
240,111,183340,2,0,L|176:111,1,59.9999981689454,6|0,0:2|0:0,0:0:0:0:
27,232,183484,6,0,L|115:232,1,59.9999981689454,2|0,1:1|0:0,0:0:0:0:
159,232,183627,1,4,0:2:0:0:
309,330,183698,2,0,L|221:330,1,59.9999981689454,2|8,0:2|1:2,0:0:0:0:
177,330,183841,1,0,0:0:0:0:
28,295,183912,2,0,L|93:296,1,59.9999981689454,6|0,0:2|0:0,0:0:0:0:
238,167,184055,6,0,L|306:166,1,59.9999981689454,2|0,1:2|0:0,0:0:0:0:
146,87,184198,2,0,L|175:87,1,29.9999990844727,4|0,1:2|1:0,0:0:0:0:
298,86,184269,2,0,L|327:86,1,29.9999990844727,2|0,1:2|1:0,0:0:0:0:
452,86,184341,2,0,L|511:86,1,59.9999981689454,8|0,1:2|0:0,0:0:0:0:
360,297,184484,2,0,L|356:236,1,59.9999981689454,6|0,1:2|0:0,0:0:0:0:
204,238,184627,6,0,L|144:238,2,59.9999981689454,6|0|4,1:1|0:0|0:2,0:0:0:0:
357,245,184841,1,2,0:0:0:0:
285,243,184912,2,0,L|276:180,1,59.9999981689454,8|0,1:2|0:2,0:0:0:0:
429,147,185055,2,0,L|366:147,1,59.9999981689454,6|0,0:2|0:0,0:0:0:0:
212,94,185198,6,0,L|282:94,2,59.9999981689454,2|0|4,1:2|0:0|0:2,0:0:0:0:
364,161,185412,2,0,L|303:161,1,59.9999981689454,2|8,0:2|1:2,0:0:0:0:
230,153,185555,1,0,0:0:0:0:
63,161,185627,2,0,L|59:225,1,59.9999981689454,6|0,0:2|0:0,0:0:0:0:
209,277,185769,5,2,1:1:0:0:
269,277,185840,1,0,0:0:0:0:
329,277,185911,1,4,0:2:0:0:
175,348,185984,1,2,0:2:0:0:
235,348,186055,1,8,1:2:0:0:
295,348,186126,1,0,0:0:0:0:
143,260,186198,1,6,0:2:0:0:
203,260,186269,1,0,0:0:0:0:
355,83,186341,5,2,1:1:0:0:
295,83,186412,1,0,0:0:0:0:
235,83,186483,1,4,0:2:0:0:
389,154,186556,1,2,0:2:0:0:
329,154,186627,1,8,1:2:0:0:
269,154,186698,1,0,0:0:0:0:
421,66,186770,1,6,0:2:0:0:
361,66,186841,1,0,0:0:0:0:
207,210,186912,6,0,L|216:150,2,59.9999981689454,2|0|4,1:1|0:0|0:2,0:0:0:0:
361,211,187127,2,0,L|370:151,2,59.9999981689454,2|8|0,0:2|1:2|0:0,0:0:0:0:
207,210,187341,2,0,L|216:150,1,59.9999981689454,6|0,0:2|0:0,0:0:0:0:
368,335,187484,6,0,L|359:275,2,59.9999981689454,2|0|4,1:2|0:0|0:2,0:0:0:0:
213,335,187699,2,0,L|204:275,2,59.9999981689454,2|8|0,0:2|1:2|0:0,0:0:0:0:
368,335,187913,2,0,L|359:275,1,59.9999981689454,6|0,0:2|0:0,0:0:0:0:
210,185,188055,6,0,L|200:122,1,59.9999981689454,2|0,1:1|0:0,0:0:0:0:
352,43,188198,2,0,L|276:43,1,59.9999981689454,4|0,1:2|1:2,0:0:0:0:
443,114,188341,6,0,L|453:177,1,59.9999981689454,10|0,1:2|0:0,0:0:0:0:
301,256,188484,2,0,L|377:256,1,59.9999981689454,4|0,1:2|1:2,0:0:0:0:
210,185,188627,6,0,L|200:122,1,59.9999981689454,2|0,1:2|0:0,0:0:0:0:
352,43,188770,2,0,L|276:43,1,59.9999981689454,6|0,1:2|1:2,0:0:0:0:
443,114,188912,6,0,L|453:177,1,59.9999981689454,10|0,1:2|0:0,0:0:0:0:
301,190,189055,2,0,L|272:189,1,29.9999990844727,4|0,1:2|1:2,0:0:0:0:
146,203,189127,2,0,L|117:202,1,29.9999990844727,0|0,1:2|1:2,0:0:0:0:
237,320,189198,6,0,L|297:321,2,59.9999981689454,6|0|4,1:0|0:0|0:2,0:0:0:0:
85,330,189412,2,0,L|25:331,2,59.9999981689454,2|8|0,0:2|1:2|0:0,0:0:0:0:
237,319,189627,2,0,L|240:251,1,59.9999981689454,6|0,0:2|0:0,0:0:0:0:
90,248,189769,6,0,L|86:186,1,59.9999981689454,2|0,1:2|0:0,0:0:0:0:
158,186,189912,1,4,0:2:0:0:
310,216,189984,2,0,L|314:154,1,59.9999981689454,2|8,0:2|1:2,0:0:0:0:
242,154,190127,1,0,0:0:0:0:
90,123,190198,2,0,L|161:123,1,59.9999981689454,6|0,0:2|0:0,0:0:0:0:
302,107,190341,6,0,L|379:109,2,59.9999981689454,2|0|4,1:1|0:0|0:2,0:0:0:0:
149,87,190555,2,0,L|226:89,2,59.9999981689454,2|8|0,0:2|1:2|0:0,0:0:0:0:
301,107,190769,2,0,L|373:108,1,59.9999981689454,6|0,0:2|0:0,0:0:0:0:
209,270,190912,6,0,L|204:205,1,59.9999981689454,2|0,1:2|0:0,0:0:0:0:
276,211,191055,1,4,0:2:0:0:
124,198,191127,2,0,L|119:133,1,59.9999981689454,2|8,0:2|1:2,0:0:0:0:
191,139,191270,1,0,0:0:0:0:
41,115,191341,2,0,L|101:114,1,59.9999981689454,6|0,0:2|0:0,0:0:0:0:
252,91,191484,6,0,L|190:92,2,59.9999981689454,2|0|4,1:1|0:0|0:2,0:0:0:0:
405,91,191698,2,0,L|469:90,2,59.9999981689454,2|8|0,0:2|1:2|0:0,0:0:0:0:
239,184,191912,2,0,L|322:183,1,59.9999981689454,6|0,0:2|0:0,0:0:0:0:
132,290,192055,6,0,L|71:290,2,59.9999981689454,2|0|4,1:1|0:0|0:2,0:0:0:0:
284,344,192269,2,0,L|348:343,2,59.9999981689454,2|8|0,0:2|1:2|0:0,0:0:0:0:
133,288,192483,2,0,L|216:287,1,59.9999981689454,6|0,0:2|0:0,0:0:0:0:
346,199,192627,6,0,L|414:200,2,59.9999981689454,2|0|4,1:1|0:0|0:2,0:0:0:0:
194,209,192841,2,0,L|126:210,2,59.9999981689454,2|8|0,0:2|1:2|0:0,0:0:0:0:
346,199,193055,2,0,L|414:200,1,59.9999981689454,6|0,0:2|0:0,0:0:0:0:
254,118,193198,6,0,L|189:117,1,59.9999981689454,2|0,1:1|0:0,0:0:0:0:
345,270,193341,1,4,1:2:0:0:
494,266,193412,1,2,1:2:0:0:
343,343,193484,2,0,L|340:278,1,59.9999981689454,8|0,1:2|0:0,0:0:0:0:
189,263,193627,2,0,L|186:198,1,59.9999981689454,6|0,1:2|0:0,0:0:0:0:
337,184,193769,6,0,L|343:112,1,59.9999981689454,6|0,1:1|0:0,0:0:0:0:
269,120,193912,1,4,0:2:0:0:
116,117,193984,2,0,L|183:117,2,59.9999981689454,2|8|0,0:2|1:2|0:0,0:0:0:0:
268,118,194198,2,0,L|271:184,1,59.9999981689454,6|0,0:2|0:0,0:0:0:0:
119,242,194341,6,0,L|113:314,1,59.9999981689454,2|0,1:2|0:0,0:0:0:0:
187,306,194484,1,4,0:2:0:0:
342,335,194556,2,0,L|275:335,2,59.9999981689454,2|8|0,0:2|1:2|0:0,0:0:0:0:
188,308,194770,2,0,L|185:242,1,59.9999981689454,6|0,0:2|0:0,0:0:0:0:
335,215,194912,5,2,1:1:0:0:
275,215,194983,1,0,0:0:0:0:
215,215,195054,1,4,0:2:0:0:
61,193,195127,1,2,0:2:0:0:
121,193,195198,1,8,1:2:0:0:
181,193,195269,1,0,0:0:0:0:
335,215,195341,1,6,0:2:0:0:
275,215,195412,1,0,0:0:0:0:
122,96,195484,5,2,1:2:0:0:
182,96,195555,1,0,0:0:0:0:
242,96,195626,1,4,0:2:0:0:
395,72,195699,1,2,0:2:0:0:
335,72,195770,1,8,1:2:0:0:
275,72,195841,1,0,0:0:0:0:
122,96,195913,1,6,0:2:0:0:
182,96,195984,1,0,0:0:0:0:
331,164,196055,6,0,L|339:227,2,59.9999981689454,2|0|4,1:1|0:0|0:2,0:0:0:0:
483,287,196269,2,0,L|491:350,2,59.9999981689454,2|8|0,0:2|1:2|0:0,0:0:0:0:
328,310,196484,2,0,L|320:373,1,59.9999981689454,6|0,0:2|0:0,0:0:0:0:
169,187,196627,6,0,L|161:250,2,59.9999981689454,2|0|4,1:2|0:0|0:2,0:0:0:0:
18,266,196841,2,0,L|10:329,2,59.9999981689454,2|8|0,0:2|1:2|0:0,0:0:0:0:
171,294,197056,2,0,L|179:357,1,59.9999981689454,6|0,0:2|0:0,0:0:0:0:
329,181,197198,6,0,L|336:115,1,59.9999981689454,2|0,1:1|0:0,0:0:0:0:
184,69,197341,2,0,L|256:69,1,59.9999981689454,4|0,1:2|1:2,0:0:0:0:
92,249,197484,6,0,L|85:183,1,59.9999981689454,10|0,1:2|0:0,0:0:0:0:
237,137,197627,2,0,L|165:137,1,59.9999981689454,4|0,1:2|1:2,0:0:0:0:
326,301,197769,6,0,L|333:235,1,59.9999981689454,2|0,1:1|0:0,0:0:0:0:
181,189,197912,2,0,L|253:189,1,59.9999981689454,6|0,1:2|1:2,0:0:0:0:
90,362,198055,6,0,L|83:296,1,59.9999981689454,10|0,1:2|0:0,0:0:0:0:
235,250,198198,2,0,L|265:250,1,29.9999990844727,4|0,1:2|1:2,0:0:0:0:
386,249,198269,2,0,L|416:249,1,29.9999990844727,0|0,1:2|1:2,0:0:0:0:
258,191,198341,6,0,L|196:191,1,59.9999981689454,6|0,1:1|0:0,0:0:0:0:
39,133,198484,2,0,L|101:133,1,59.9999981689454,4|2,1:2|0:2,0:0:0:0:
247,208,198627,2,0,L|253:270,1,59.9999981689454,8|0,1:2|0:0,0:0:0:0:
404,267,198770,2,0,L|464:266,1,59.9999981689454,6|0,1:2|0:0,0:0:0:0:
261,347,198912,6,0,L|255:285,1,59.9999981689454,2|0,1:2|0:0,0:0:0:0:
104,345,199055,2,0,L|98:283,1,59.9999981689454,4|2,1:2|0:2,0:0:0:0:
250,250,199198,2,0,L|256:188,1,59.9999981689454,8|0,1:2|0:0,0:0:0:0:
106,191,199341,2,0,L|41:191,1,59.9999981689454,6|0,1:2|0:0,0:0:0:0:
254,193,199484,6,0,L|260:255,1,59.9999981689454,2|0,1:1|0:0,0:0:0:0:
411,252,199627,2,0,L|417:314,1,59.9999981689454,4|2,1:2|0:2,0:0:0:0:
265,176,199770,2,0,L|259:114,1,59.9999981689454,8|0,1:2|0:0,0:0:0:0:
108,117,199913,2,0,L|34:119,1,59.9999981689454,6|0,1:2|0:0,0:0:0:0:
251,37,200055,6,0,L|257:99,1,59.9999981689454,2|0,1:1|0:0,0:0:0:0:
408,39,200198,2,0,L|414:101,1,59.9999981689454,4|2,1:2|0:2,0:0:0:0:
262,134,200341,2,0,L|256:196,1,59.9999981689454,8|0,1:2|0:0,0:0:0:0:
406,193,200484,2,0,L|468:196,1,59.9999981689454,6|0,1:2|0:0,0:0:0:0:
285,340,200627,6,0,L|279:278,1,59.9999981689454,2|0,1:1|0:0,0:0:0:0:
154,270,200769,2,0,L|148:208,1,59.9999981689454,4|2,1:2|0:2,0:0:0:0:
21,202,200912,2,0,L|15:140,1,59.9999981689454,8|0,1:2|0:0,0:0:0:0:
285,340,201055,2,0,L|350:339,1,59.9999981689454,6|0,1:2|0:0,0:0:0:0:
163,83,201198,6,0,L|169:145,1,59.9999981689454,2|0,1:2|0:0,0:0:0:0:
294,153,201340,2,0,L|300:215,1,59.9999981689454,4|2,1:2|0:2,0:0:0:0:
427,221,201483,2,0,L|433:283,1,59.9999981689454,8|0,1:2|0:0,0:0:0:0:
151,104,201626,2,0,L|80:105,1,59.9999981689454,6|0,1:2|0:0,0:0:0:0:
463,338,201769,6,0,L|457:276,1,59.9999981689454,2|0,1:1|0:0,0:0:0:0:
330,259,201912,2,0,L|324:197,1,59.9999981689454,4|2,1:2|0:2,0:0:0:0:
197,222,202055,2,0,L|191:160,1,59.9999981689454,8|0,1:2|0:0,0:0:0:0:
64,143,202198,2,0,L|0:142,1,59.9999981689454,6|0,1:2|0:0,0:0:0:0:
240,148,202341,6,0,L|246:86,1,59.9999981689454,2|0,1:2|0:0,0:0:0:0:
94,76,202484,2,0,L|125:77,1,29.9999990844727,4|0,1:2|1:0,0:0:0:0:
245,203,202555,2,0,L|276:204,1,29.9999990844727,2|0,1:2|1:0,0:0:0:0:
400,205,202627,2,0,L|474:205,1,59.9999981689454,8|0,1:2|0:0,0:0:0:0:
279,285,202769,2,0,L|274:212,1,59.9999981689454,6|0,1:2|0:0,0:0:0:0:
117,196,202912,6,0,L|245:196,1,119.999996337891,4|0,1:3|0:0,0:0:0:0:
310,196,203127,2,0,L|182:196,1,119.999996337891,4|0,1:1|0:0,0:0:0:0:
117,195,203341,2,0,L|192:195,1,59.9999981689454,4|0,1:1|0:0,0:0:0:0:
395,196,203484,6,0,L|267:196,1,119.999996337891,4|0,1:1|0:0,0:0:0:0:
202,196,203699,2,0,L|330:196,1,119.999996337891,4|0,1:1|0:0,0:0:0:0:
395,195,203913,2,0,L|320:195,1,59.9999981689454,4|0,1:1|0:0,0:0:0:0:
105,94,204055,6,0,L|233:94,1,119.999996337891,12|0,1:1|0:0,0:0:0:0:
354,92,204270,2,0,L|226:92,1,119.999996337891,12|0,1:1|0:0,0:0:0:0:
105,95,204484,2,0,L|180:95,1,59.9999981689454,12|0,1:1|0:0,0:0:0:0:
407,290,204627,6,0,L|279:290,1,119.999996337891,12|0,1:1|0:0,0:0:0:0:
158,292,204842,2,0,L|286:292,1,119.999996337891,12|0,1:1|0:0,0:0:0:0:
407,289,205056,2,0,L|332:289,1,59.9999981689454,12|0,1:1|0:0,0:0:0:0:
38,180,205198,6,0,L|254:180,1,200,14|0,1:1|0:0,0:0:0:0:
374,180,205412,2,0,L|158:180,1,200,14|0,1:1|0:0,0:0:0:0:
36,136,205627,2,0,L|120:204,1,100,14|0,1:1|0:0,0:0:0:0:
474,180,205769,6,0,L|258:180,1,200,14|0,1:1|0:0,0:0:0:0:
138,180,205984,2,0,L|354:180,1,200,14|0,1:1|0:0,0:0:0:0:
476,136,206198,2,0,L|392:204,1,100,14|0,1:1|0:0,0:0:0:0:
38,86,206341,6,0,L|310:85,1,250,14|0,1:1|0:0,0:0:0:0:
474,86,206555,2,0,L|202:85,1,250,14|0,1:1|0:0,0:0:0:0:
38,86,206769,2,0,L|270:85,1,125,14|0,1:1|0:0,0:0:0:0:
474,298,206912,6,0,L|202:299,1,250,14|0,1:1|0:0,0:0:0:0:
38,298,207126,2,0,L|310:299,1,250,14|0,1:1|0:0,0:0:0:0:
474,298,207340,2,0,L|242:299,1,125,14|0,1:1|0:0,0:0:0:0:
73,254,207484,6,0,L|14:255,2,50,4|0|0,0:3|0:0|0:0,0:0:0:0:
213,249,207769,2,0,L|216:138,1,100,8|0,0:0|0:0,0:0:0:0:
74,143,208055,2,0,L|66:83,1,50
207,89,208269,2,0,L|209:35,1,50,0|8,0:0|0:0,0:0:0:0:
349,33,208484,2,0,L|353:89,1,50
282,83,208627,6,0,L|223:83,2,50
422,86,208912,2,0,L|317:86,1,100,8|0,0:0|0:0,0:0:0:0:
181,80,209198,2,0,L|129:80,1,50
271,196,209412,2,0,L|219:196,1,50,0|8,0:0|0:0,0:0:0:0:
362,196,209627,2,0,L|369:253,1,50
298,244,209769,6,0,L|352:272,1,50
412,270,209912,1,0,0:0:0:0:
271,269,210055,2,0,L|150:269,1,100,8|0,0:0|0:0,0:0:0:0:
312,269,210341,2,0,L|316:213,1,50
175,210,210555,2,0,L|169:154,1,50,0|8,0:0|0:0,0:0:0:0:
309,157,210769,2,0,L|255:157,1,50
329,154,210912,6,0,L|381:155,2,50
187,157,211198,2,0,L|294:157,1,100,8|0,0:0|0:0,0:0:0:0:
145,156,211484,2,0,L|141:103,1,50
281,97,211698,2,0,L|216:98,1,50,0|8,0:0|0:0,0:0:0:0:
371,98,211912,1,0,0:0:0:0:
171,313,212055,6,0,L|162:254,1,50,4|0,0:1|0:0,0:0:0:0:
233,260,212198,1,0,0:0:0:0:
92,263,212341,2,0,L|83:150,1,100,8|0,0:0|0:0,0:0:0:0:
225,157,212627,2,0,L|278:156,1,50
415,152,212841,2,0,L|350:151,1,50,0|8,0:0|0:0,0:0:0:0:
224,151,213055,2,0,L|171:151,1,50
244,152,213198,6,0,L|248:209,1,50
176,199,213341,1,0,0:0:0:0:
35,195,213484,2,0,L|144:196,1,100,8|0,0:0|0:0,0:0:0:0:
275,200,213769,2,0,L|327:199,1,50
184,335,213984,2,0,L|128:334,1,50,0|8,0:0|0:0,0:0:0:0:
274,333,214198,2,0,L|332:333,1,50
253,332,214341,6,0,L|185:329,2,50
394,331,214627,2,0,L|399:222,1,100,8|0,0:0|0:0,0:0:0:0:
258,228,214912,2,0,L|255:167,1,50
114,170,215127,2,0,L|109:113,1,50,0|8,0:0|0:0,0:0:0:0:
249,109,215341,2,0,L|311:108,1,50
228,109,215484,6,0,L|160:111,2,50
87,108,215769,2,0,L|81:218,1,100,8|0,0:0|0:0,0:0:0:0:
283,292,216055,5,0,1:0:0:0:
82,254,216198,1,0,1:0:0:0:
206,164,216269,1,0,1:0:0:0:
332,227,216341,2,0,L|366:227,2,25,8|0|0,1:2|1:0|1:0,0:0:0:0:
231,227,216448,1,0,1:0:0:0:
130,227,216484,2,0,L|96:227,2,25,0|0|0,1:0|1:0|1:0,0:0:0:0:
231,227,216591,1,0,1:0:0:0:
332,227,216627,6,0,L|387:229,2,50,4|0|0,1:1|0:0|0:0,0:0:0:0:
132,209,216912,2,0,L|26:209,1,100,8|0,1:2|0:0,0:0:0:0:
173,203,217198,2,0,L|177:143,1,50,0|0,1:2|0:0,0:0:0:0:
106,144,217341,2,0,L|110:84,1,50
236,36,217484,2,0,L|129:37,1,100,8|0,1:2|1:2,0:0:0:0:
187,86,217698,1,0,0:0:0:0:
311,150,217769,6,0,L|254:162,1,50,0|0,1:1|0:0,0:0:0:0:
191,160,217912,1,0,1:1:0:0:
391,320,218055,2,0,L|398:210,1,100,8|0,1:2|0:0,0:0:0:0:
256,220,218341,2,0,L|205:219,1,50,0|0,1:2|0:0,0:0:0:0:
276,221,218484,2,0,L|331:221,1,50
200,147,218627,2,0,L|80:147,1,100,8|0,1:2|1:2,0:0:0:0:
151,99,218841,1,0,0:0:0:0:
276,73,218912,6,0,L|280:131,1,50,0|0,1:1|0:0,0:0:0:0:
153,224,219055,2,0,L|88:224,1,50,0|0,1:1|1:1,0:0:0:0:
230,308,219198,2,0,L|338:308,1,100,8|0,1:2|0:0,0:0:0:0:
188,308,219484,1,0,1:2:0:0:
145,286,219555,1,0,0:0:0:0:
145,238,219626,1,0,0:0:0:0:
187,216,219698,1,0,0:0:0:0:
312,122,219769,2,0,L|206:122,1,100,8|0,1:2|1:2,0:0:0:0:
201,51,219984,1,0,0:0:0:0:
326,232,220055,6,0,L|332:171,1,50,0|0,1:1|0:0,0:0:0:0:
260,177,220198,1,0,0:0:0:0:
460,275,220341,2,0,L|342:276,1,100,8|0,1:2|0:0,0:0:0:0:
158,288,220627,1,0,1:2:0:0:
297,289,220769,2,0,L|327:288,2,25,0|0|0,1:2|1:2|1:2,0:0:0:0:
171,221,220912,1,8,1:2:0:0:
311,218,221055,1,0,1:2:0:0:
111,147,221198,6,0,L|57:147,2,50,4|0|0,1:1|0:0|0:0,0:0:0:0:
315,64,221484,2,0,L|211:65,1,100,8|0,1:2|1:2,0:0:0:0:
355,62,221769,2,0,L|362:118,1,50,0|0,1:2|0:0,0:0:0:0:
291,121,221912,2,0,L|298:177,1,50
423,182,222055,2,0,P|443:217|422:277,1,100,8|0,1:2|0:0,0:0:0:0:
356,269,222269,1,0,0:0:0:0:
230,259,222341,6,0,L|284:247,1,50,0|0,1:1|0:0,0:0:0:0:
349,246,222484,1,0,1:1:0:0:
149,207,222627,2,0,L|32:208,1,100,8|0,1:2|0:0,0:0:0:0:
189,203,222912,2,0,L|245:202,1,50,0|0,1:2|0:0,0:0:0:0:
168,199,223055,2,0,L|105:198,1,50
244,23,223198,2,0,L|256:125,1,100,8|0,1:2|1:2,0:0:0:0:
205,171,223412,1,0,0:0:0:0:
331,265,223484,6,0,L|385:266,2,50,0|0|0,1:1|0:0|0:0,0:0:0:0:
131,326,223769,2,0,L|234:325,1,100,8|0,1:2|1:2,0:0:0:0:
89,325,224055,1,0,1:2:0:0:
51,294,224126,1,0,0:0:0:0:
51,246,224197,1,0,0:0:0:0:
89,217,224269,1,0,0:0:0:0:
216,136,224341,2,0,L|111:136,1,100,8|0,1:2|0:0,0:0:0:0:
167,88,224555,1,0,0:0:0:0:
293,85,224627,6,0,L|422:85,1,100,8|0,1:2|0:0,0:0:0:0:
266,198,224841,2,0,L|213:197,1,50,8|0,1:2|0:0,0:0:0:0:
416,318,225055,1,8,1:2:0:0:
216,197,225198,6,0,B|436:197|436:197|242:197,1,412.500012588501,8|0,1:1|0:0,0:0:0:0:
216,197,225484,6,0,B|436:197|436:197|242:197,1,412.500012588501,8|0,1:1|0:0,0:0:0:0:
216,331,225769,5,12,1:1:0:0:
164,313,225840,1,0,0:0:0:0:
124,275,225911,1,4,0:0:0:0:
103,225,225983,1,0,0:0:0:0:
104,170,226054,1,8,1:1:0:0:
127,121,226126,1,0,0:0:0:0:
169,85,226197,1,4,0:0:0:0:
221,70,226269,1,0,0:0:0:0:
361,126,226341,6,0,L|297:126,1,55.0000016784668,8|0,1:1|0:0,0:0:0:0:
239,125,226484,2,0,L|175:125,1,55.0000016784668,4|0,0:0|0:0,0:0:0:0:
323,211,226627,6,0,L|334:270,3,55.0000016784668,8|0|4|0,1:1|0:0|0:0|0:0,0:0:0:0:
196,273,226912,5,8,1:1:0:0:
144,254,226983,1,0,0:0:0:0:
110,212,227054,1,4,0:0:0:0:
101,158,227126,1,0,0:0:0:0:
240,346,227198,6,0,L|306:346,1,55.0000016784668,8|0,1:1|0:0,0:0:0:0:
361,346,227341,2,0,L|427:346,1,55.0000016784668,4|0,0:0|0:0,0:0:0:0:
277,189,227484,6,0,L|211:189,1,55.0000016784668,8|0,1:1|0:0,0:0:0:0:
156,189,227627,2,0,L|90:189,1,55.0000016784668,4|0,0:0|0:0,0:0:0:0:
238,282,227769,6,0,L|238:227,1,55.0000016784668,8|0,1:1|0:0,0:0:0:0:
377,280,227912,6,0,L|377:225,1,55.0000016784668,4|0,0:0|0:0,0:0:0:0:
238,161,228055,6,0,L|180:161,3,55.0000016784668,8|0|4|0,1:1|0:0|0:0|0:0,0:0:0:0:
116,159,228341,1,8,1:1:0:0:
65,170,228412,1,0,0:0:0:0:
62,221,228483,1,4,0:0:0:0:
110,240,228555,1,0,0:0:0:0:
249,240,228627,6,0,L|313:240,1,55.0000016784668,8|0,1:1|0:0,0:0:0:0:
369,239,228769,2,0,L|369:176,1,55.0000016784668,4|0,0:0|0:0,0:0:0:0:
230,181,228912,6,0,L|230:126,1,55.0000016784668,8|0,1:1|0:0,0:0:0:0:
91,97,229055,6,0,L|91:42,1,55.0000016784668,4|0,0:0|0:0,0:0:0:0:
230,103,229198,6,0,L|149:103,1,55.0000016784668,8|0,1:1|0:0,0:0:0:0:
108,104,229341,2,0,L|27:104,1,55.0000016784668,4|0,0:0|0:0,0:0:0:0:
192,147,229484,6,0,L|246:146,3,55.0000016784668,8|0|4|0,1:1|0:0|0:0|0:0,0:0:0:0:
384,147,229769,6,0,L|440:146,1,55.0000016784668,8|0,1:1|0:0,0:0:0:0:
300,240,229912,2,0,L|270:240,2,27.5000008392334,4|0|0,1:2|1:2|1:2,0:0:0:0:
439,281,230055,2,0,L|442:222,1,55.0000016784668,8|0,1:1|0:0,0:0:0:0:
303,361,230198,2,0,L|300:302,1,55.0000016784668,4|0,1:2|0:0,0:0:0:0:
161,251,230341,6,0,L|100:251,1,55.0000016784668,12|0,1:1|0:0,0:0:0:0:
39,250,230484,2,0,L|32:188,1,55.0000016784668,4|0,0:0|0:0,0:0:0:0:
173,68,230627,5,8,1:1:0:0:
122,87,230698,1,0,0:0:0:0:
82,125,230769,1,4,0:0:0:0:
61,176,230841,1,0,0:0:0:0:
61,230,230912,1,8,1:1:0:0:
82,280,230984,1,0,0:0:0:0:
121,319,231055,1,4,0:0:0:0:
172,338,231127,1,0,0:0:0:0:
310,339,231198,6,0,L|316:280,3,55.0000016784668,8|0|4|0,1:1|0:0|0:0|0:0,0:0:0:0:
177,140,231484,6,0,L|238:140,1,55.0000016784668,8|0,1:1|0:0,0:0:0:0:
298,141,231627,2,0,L|359:141,1,55.0000016784668,4|0,0:0|0:0,0:0:0:0:
216,255,231769,6,0,L|158:255,1,55.0000016784668,8|0,1:1|0:0,0:0:0:0:
94,256,231912,2,0,L|90:199,1,55.0000016784668,4|0,0:0|0:0,0:0:0:0:
229,64,232055,6,0,L|168:64,1,55.0000016784668,8|0,1:1|0:0,0:0:0:0:
108,65,232198,2,0,L|47:65,1,55.0000016784668,4|0,0:0|0:0,0:0:0:0:
192,196,232341,6,0,L|192:138,1,55.0000016784668,8|0,1:1|0:0,0:0:0:0:
331,255,232484,6,0,L|331:197,1,55.0000016784668,4|0,0:0|0:0,0:0:0:0:
192,321,232627,6,0,L|131:321,3,55.0000016784668,8|0|4|0,1:1|0:0|0:0|0:0,0:0:0:0:
202,321,232912,2,0,L|279:321,1,55.0000016784668,8|0,1:1|0:0,0:0:0:0:
323,323,233055,2,0,L|400:323,1,55.0000016784668,4|0,0:0|0:0,0:0:0:0:
239,194,233198,6,0,L|235:134,1,55.0000016784668,8|0,1:1|0:0,0:0:0:0:
301,135,233341,2,0,L|367:135,1,55.0000016784668,4|0,0:0|0:0,0:0:0:0:
217,100,233484,6,0,L|216:42,1,55.0000016784668,8|0,1:1|0:0,0:0:0:0:
77,198,233627,6,0,L|76:140,1,55.0000016784668,4|0,0:0|0:0,0:0:0:0:
225,287,233769,6,0,L|281:287,1,55.0000016784668,8|0,1:1|0:0,0:0:0:0:
154,210,233911,1,4,1:2:0:0:
26,210,233983,1,0,1:2:0:0:
225,287,234055,6,0,L|281:287,1,55.0000016784668,8|0,1:1|0:0,0:0:0:0:
154,210,234197,1,4,1:2:0:0:
26,210,234269,1,0,1:2:0:0:
225,287,234341,6,0,L|281:287,1,55.0000016784668,8|0,1:1|0:0,0:0:0:0:
154,210,234483,1,4,1:2:0:0:
26,210,234555,1,0,1:2:0:0:
225,287,234627,6,0,L|281:287,1,55.0000016784668,8|0,1:1|0:0,0:0:0:0:
154,210,234769,1,4,1:2:0:0:
26,210,234841,1,0,1:2:0:0:
225,287,234912,5,12,1:1:0:0:
278,275,234983,1,0,0:0:0:0:
320,241,235054,1,4,0:0:0:0:
344,191,235126,1,0,0:0:0:0:
343,137,235197,1,10,1:1:0:0:
318,89,235269,1,0,0:0:0:0:
274,56,235340,1,4,0:0:0:0:
220,46,235412,1,0,0:0:0:0:
81,126,235484,6,0,L|140:126,1,55.0000016784668,8|0,1:1|0:0,0:0:0:0:
202,126,235627,2,0,L|261:126,1,55.0000016784668,4|0,0:0|0:0,0:0:0:0:
394,313,235769,6,0,L|335:313,1,55.0000016784668,10|0,1:1|0:0,0:0:0:0:
273,313,235912,2,0,L|214:313,1,55.0000016784668,4|0,0:0|0:0,0:0:0:0:
357,183,236055,6,0,L|426:184,1,55.0000016784668,8|0,1:1|0:0,0:0:0:0:
345,182,236198,2,0,L|286:181,1,55.0000016784668,4|0,0:0|0:0,0:0:0:0:
151,233,236341,6,0,L|210:233,1,55.0000016784668,10|0,1:1|0:0,0:0:0:0:
272,233,236484,2,0,L|331:233,1,55.0000016784668,4|0,0:0|0:0,0:0:0:0:
188,163,236627,6,0,L|131:164,1,55.0000016784668,8|0,1:1|0:0,0:0:0:0:
67,163,236769,2,0,L|63:103,1,55.0000016784668,4|0,0:0|0:0,0:0:0:0:
202,37,236912,6,0,L|202:93,1,55.0000016784668,10|0,1:1|0:0,0:0:0:0:
341,112,237055,6,0,L|341:168,1,55.0000016784668,4|0,0:0|0:0,0:0:0:0:
202,264,237198,6,0,L|144:264,3,55.0000016784668,8|0|4|0,1:1|0:0|0:0|0:0,0:0:0:0:
286,328,237484,5,10,1:1:0:0:
328,297,237555,1,0,0:0:0:0:
326,244,237626,1,4,0:0:0:0:
280,219,237698,1,0,0:0:0:0:
143,170,237769,6,0,L|129:101,3,55.0000016784668,8|0|4|0,1:1|0:0|0:0|0:0,0:0:0:0:
271,29,238055,6,0,L|271:93,1,55.0000016784668,10|0,1:1|0:0,0:0:0:0:
410,129,238198,6,0,L|410:193,1,55.0000016784668,4|0,0:0|0:0,0:0:0:0:
271,283,238341,6,0,L|331:283,3,55.0000016784668,8|0|4|0,1:1|0:0|0:0|0:0,0:0:0:0:
186,215,238627,6,0,L|124:215,1,55.0000016784668,10|0,1:1|0:0,0:0:0:0:
65,214,238769,2,0,L|59:148,1,55.0000016784668,4|0,0:0|0:0,0:0:0:0:
200,106,238912,6,0,L|257:106,1,55.0000016784668,8|0,1:1|0:0,0:0:0:0:
116,51,239055,2,0,L|89:51,2,27.5000008392334,4|0|0,1:2|1:2|1:2,0:0:0:0:
256,186,239198,2,0,L|262:250,1,55.0000016784668,10|0,1:1|0:0,0:0:0:0:
401,247,239341,2,0,L|407:311,1,55.0000016784668,4|0,1:2|0:0,0:0:0:0:
267,78,239484,5,12,1:1:0:0:
217,90,239555,1,0,0:0:0:0:
214,141,239626,1,4,0:0:0:0:
263,157,239698,1,0,0:0:0:0:
402,325,239770,6,0,L|343:326,1,55.0000016784668,10|0,1:1|0:0,0:0:0:0:
280,323,239913,2,0,L|339:324,1,55.0000016784668,4|0,0:0|0:0,0:0:0:0:
198,250,240055,6,0,L|135:250,1,55.0000016784668,8|0,1:1|0:0,0:0:0:0:
76,247,240198,2,0,L|13:247,1,55.0000016784668,4|0,0:0|0:0,0:0:0:0:
159,182,240341,6,0,L|163:120,1,55.0000016784668,10|0,1:1|0:0,0:0:0:0:
96,126,240484,2,0,L|36:125,1,55.0000016784668,4|0,0:0|0:0,0:0:0:0:
180,40,240627,5,8,1:1:0:0:
128,53,240698,1,8,0:3:0:0:
85,87,240769,1,4,0:0:0:0:
62,137,240841,1,8,0:3:0:0:
62,191,240912,1,10,1:1:0:0:
85,241,240984,1,8,0:3:0:0:
128,275,241055,1,4,0:0:0:0:
181,289,241126,1,8,0:3:0:0:
320,273,241198,6,0,L|324:210,1,55.0000016784668,8|8,1:1|0:3,0:0:0:0:
257,218,241341,2,0,L|253:155,1,55.0000016784668,4|8,0:0|0:3,0:0:0:0:
392,170,241484,6,0,L|392:110,1,55.0000016784668,10|8,1:1|0:3,0:0:0:0:
225,119,241626,6,0,L|225:59,1,55.0000016784668,4|8,0:0|0:3,0:0:0:0:
58,127,241769,6,0,L|114:127,1,55.0000016784668,8|8,1:1|0:3,0:0:0:0:
180,126,241912,2,0,L|236:126,1,55.0000016784668,4|8,0:0|0:3,0:0:0:0:
437,96,242055,2,0,L|381:96,1,55.0000016784668,10|8,1:1|0:3,0:0:0:0:
315,95,242198,2,0,L|259:95,1,55.0000016784668,4|8,0:0|0:3,0:0:0:0:
42,256,242341,6,0,L|105:256,1,55.0000016784668,8|8,1:1|0:3,0:0:0:0:
164,254,242484,2,0,L|227:254,1,55.0000016784668,4|8,0:0|0:3,0:0:0:0:
442,255,242627,6,0,L|442:188,1,55.0000016784668,10|8,1:1|0:3,0:0:0:0:
261,353,242770,6,0,L|261:286,1,55.0000016784668,4|8,0:0|0:3,0:0:0:0:
80,306,242913,6,0,L|18:306,1,55.0000016784668,8|8,1:1|0:3,0:0:0:0:
162,176,243055,1,8,0:3:0:0:
300,172,243127,1,8,0:3:0:0:
108,267,243198,6,0,L|46:267,1,55.0000016784668,8|8,1:1|0:3,0:0:0:0:
217,138,243340,1,8,0:3:0:0:
388,137,243412,1,8,0:3:0:0:
136,228,243484,6,0,L|74:228,1,55.0000016784668,8|8,1:3|1:3,0:0:0:0:
273,97,243626,1,8,1:3:0:0:
468,97,243698,1,8,1:3:0:0:
164,189,243770,6,0,L|102:189,1,55.0000016784668,8|8,1:3|1:3,0:0:0:0:
248,62,243913,2,0,L|280:62,2,27.5000008392334,8|0|8,1:3|0:0|1:3,0:0:0:0:
137,61,244020,1,0,0:0:0:0:
26,62,244055,6,0,L|144:62,1,110.000003356934,12|2,1:1|0:2,0:0:0:0:
202,62,244269,2,0,L|84:62,1,110.000003356934,2|0,0:2|0:0,0:0:0:0:
233,171,244484,6,0,L|239:236,1,55.0000016784668,2|0,0:2|0:0,0:0:0:0:
99,323,244627,6,0,L|219:323,1,110.000003356934,8|2,1:1|0:2,0:0:0:0:
275,322,244841,2,0,L|395:322,1,110.000003356934,2|0,0:2|0:0,0:0:0:0:
247,226,245055,6,0,L|180:226,1,55.0000016784668,2|0,0:2|0:0,0:0:0:0:
331,217,245198,6,0,L|469:217,1,110.000003356934,8|2,1:1|0:2,0:0:0:0:
374,217,245412,2,0,L|512:217,1,110.000003356934,2|0,0:2|0:0,0:0:0:0:
343,55,245627,6,0,L|340:113,1,55.0000016784668,2|0,0:2|0:0,0:0:0:0:
203,148,245769,6,0,L|315:148,1,110.000003356934,8|2,1:1|0:2,0:0:0:0:
380,148,245984,2,0,L|268:148,1,110.000003356934,2|0,0:2|0:0,0:0:0:0:
131,256,246198,6,0,L|195:257,1,55.0000016784668,2|0,0:2|0:0,0:0:0:0:
325,330,246341,6,0,P|335:287|319:217,1,110.000003356934,8|2,1:1|0:2,0:0:0:0:
255,222,246555,2,0,L|141:221,1,110.000003356934,2|0,0:2|0:0,0:0:0:0:
284,173,246769,6,0,L|288:113,1,55.0000016784668,2|0,0:2|0:0,0:0:0:0:
149,122,246912,6,0,L|264:122,1,110.000003356934,8|2,1:1|0:2,0:0:0:0:
326,124,247127,2,0,L|441:124,1,110.000003356934,2|0,0:2|0:0,0:0:0:0:
297,288,247341,6,0,L|293:229,1,55.0000016784668,2|0,0:2|0:0,0:0:0:0:
432,333,247484,6,0,L|317:333,1,110.000003356934,8|2,1:1|0:2,0:0:0:0:
255,331,247699,2,0,L|140:331,1,110.000003356934,2|0,0:2|0:0,0:0:0:0:
284,167,247913,6,0,L|288:226,1,55.0000016784668,2|0,0:2|0:0,0:0:0:0:
151,224,248055,6,0,L|35:224,1,110.000003356934,8|2,1:1|1:2,0:0:0:0:
155,137,248234,1,0,0:0:0:0:
263,91,248269,2,0,L|379:91,1,110.000003356934,2|0,1:2|0:0,0:0:0:0:
232,215,248484,6,0,L|166:215,1,55.0000016784668,2|0,1:2|0:0,0:0:0:0:
316,331,248627,6,0,L|439:332,1,110.000003356934,12|0,1:1|0:0,0:0:0:0:
359,332,248841,2,0,L|231:331,1,110.000003356934,2|0,0:2|0:0,0:0:0:0:
388,113,249055,6,0,L|394:176,1,55.0000016784668,2|0,0:2|0:0,0:0:0:0:
253,158,249198,6,0,L|364:158,1,110.000003356934,8|0,1:1|0:0,0:0:0:0:
296,158,249412,2,0,L|185:158,1,110.000003356934,2|0,0:2|0:0,0:0:0:0:
45,285,249627,6,0,L|40:222,1,55.0000016784668,2|0,0:2|0:0,0:0:0:0:
177,222,249769,6,0,L|294:221,1,110.000003356934,8|0,1:1|0:0,0:0:0:0:
354,219,249984,2,0,L|241:219,1,110.000003356934,2|0,0:2|0:0,0:0:0:0:
383,297,250198,6,0,L|444:296,1,55.0000016784668,2|0,0:2|0:0,0:0:0:0:
298,280,250341,6,0,L|184:279,1,110.000003356934,8|0,1:1|0:0,0:0:0:0:
254,279,250555,2,0,P|263:232|251:160,1,110.000003356934,2|0,0:2|0:0,0:0:0:0:
116,147,250769,6,0,L|176:147,1,55.0000016784668,2|0,0:2|0:0,0:0:0:0:
310,97,250912,6,0,L|190:97,1,110.000003356934,8|0,1:1|0:0,0:0:0:0:
132,99,251127,2,0,L|252:99,1,110.000003356934,2|0,0:2|0:0,0:0:0:0:
103,267,251341,6,0,L|98:207,1,55.0000016784668,2|0,0:2|0:0,0:0:0:0:
238,197,251484,6,0,L|353:197,1,110.000003356934,8|0,1:1|0:0,0:0:0:0:
281,196,251698,2,0,L|166:196,1,110.000003356934,2|0,0:2|0:0,0:0:0:0:
311,278,251912,6,0,L|372:278,1,55.0000016784668,2|0,0:2|0:0,0:0:0:0:
227,323,252055,6,0,L|116:323,1,110.000003356934,8|0,1:1|1:0,0:0:0:0:
172,286,252269,1,2,1:2:0:0:
311,114,252341,1,8,1:1:0:0:
178,116,252484,2,0,L|234:115,1,55.0000016784668,2|0,1:2|0:0,0:0:0:0:
372,184,252627,6,0,L|313:184,1,55.0000016784668,8|0,1:1|0:0,0:0:0:0:
251,184,252769,2,0,L|310:184,1,55.0000016784668,2|0,1:2|1:2,0:0:0:0:
445,285,252912,2,0,L|386:285,1,55.0000016784668,8|0,1:1|0:0,0:0:0:0:
251,285,253055,2,0,L|306:285,1,55.0000016784668,2|0,1:2|1:2,0:0:0:0:
445,223,253198,6,0,L|327:223,1,110.000003356934,12|2,1:1|0:2,0:0:0:0:
268,220,253412,2,0,L|150:220,1,110.000003356934,2|0,0:2|0:0,0:0:0:0:
299,54,253627,6,0,L|305:115,1,55.0000016784668,2|0,0:2|0:0,0:0:0:0:
168,163,253769,6,0,L|286:163,1,110.000003356934,8|2,1:1|0:2,0:0:0:0:
345,166,253984,2,0,L|463:166,1,110.000003356934,2|0,0:2|0:0,0:0:0:0:
314,332,254198,6,0,L|308:271,1,55.0000016784668,2|0,0:2|0:0,0:0:0:0:
169,268,254341,6,0,L|45:268,1,110.000003356934,8|2,1:1|0:2,0:0:0:0:
125,268,254555,2,0,L|235:268,1,110.000003356934,2|0,0:2|0:0,0:0:0:0:
96,148,254769,6,0,L|157:147,1,55.0000016784668,2|0,0:2|0:0,0:0:0:0:
292,170,254912,6,0,L|180:170,1,110.000003356934,8|2,1:1|0:2,0:0:0:0:
249,168,255127,2,0,L|254:54,1,110.000003356934,2|0,0:2|0:0,0:0:0:0:
115,37,255341,6,0,L|110:94,1,55.0000016784668,2|0,0:2|0:0,0:0:0:0:
249,233,255484,6,0,L|360:232,1,110.000003356934,8|2,1:1|0:2,0:0:0:0:
292,232,255698,2,0,L|171:233,1,110.000003356934,2|0,0:2|0:0,0:0:0:0:
321,340,255912,6,0,L|326:283,1,55.0000016784668,2|0,0:2|0:0,0:0:0:0:
187,102,256055,6,0,P|173:151|196:216,1,110.000003356934,8|2,1:1|0:2,0:0:0:0:
255,201,256269,2,0,L|133:204,1,110.000003356934,2|0,0:2|0:0,0:0:0:0:
286,306,256484,6,0,L|347:303,1,55.0000016784668,2|0,0:2|0:0,0:0:0:0:
202,255,256627,6,0,L|86:256,1,110.000003356934,8|2,1:1|0:2,0:0:0:0:
25,251,256841,2,0,L|141:252,1,110.000003356934,2|0,0:2|0:0,0:0:0:0:
274,152,257055,6,0,L|331:152,1,55.0000016784668,2|0,0:2|0:0,0:0:0:0:
190,86,257198,6,0,L|79:88,1,110.000003356934,8|2,1:1|1:2,0:0:0:0:
194,172,257377,1,0,0:0:0:0:
302,234,257412,2,0,L|413:236,1,110.000003356934,2|0,1:2|0:0,0:0:0:0:
271,317,257627,6,0,L|212:318,1,55.0000016784668,2|0,1:2|0:0,0:0:0:0:
354,278,257769,6,0,L|240:278,1,110.000003356934,12|0,1:1|0:0,0:0:0:0:
176,277,257984,2,0,L|290:277,1,110.000003356934,2|0,0:2|0:0,0:0:0:0:
147,177,258198,6,0,L|142:118,1,55.0000016784668,2|0,0:2|0:0,0:0:0:0:
281,93,258341,6,0,L|395:93,1,110.000003356934,8|0,1:1|0:0,0:0:0:0:
459,94,258556,2,0,L|345:94,1,110.000003356934,2|0,0:2|0:0,0:0:0:0:
488,194,258770,6,0,L|493:253,1,55.0000016784668,2|0,0:2|0:0,0:0:0:0:
356,258,258912,6,0,L|240:258,1,110.000003356934,8|0,1:1|0:0,0:0:0:0:
178,253,259127,2,0,L|60:254,1,110.000003356934,2|0,0:2|0:0,0:0:0:0:
207,62,259341,6,0,L|270:62,1,55.0000016784668,2|0,0:2|0:0,0:0:0:0:
123,194,259484,6,0,P|106:146|127:84,1,110.000003356934,8|0,1:1|0:0,0:0:0:0:
188,87,259698,2,0,L|306:86,1,110.000003356934,2|0,0:2|0:0,0:0:0:0:
437,84,259912,6,0,L|495:84,1,55.0000016784668,2|0,0:2|0:0,0:0:0:0:
353,233,260055,6,0,L|229:233,1,110.000003356934,8|0,1:1|0:0,0:0:0:0:
309,232,260269,2,0,L|431:231,1,110.000003356934,2|0,0:2|0:0,0:0:0:0:
278,109,260484,6,0,L|219:110,1,55.0000016784668,2|0,0:2|0:0,0:0:0:0:
84,198,260627,6,0,L|201:198,1,110.000003356934,8|0,1:1|0:0,0:0:0:0:
260,198,260841,2,0,L|143:198,1,110.000003356934,2|0,0:2|0:0,0:0:0:0:
290,312,261055,6,0,L|351:311,1,55.0000016784668,2|0,0:2|0:0,0:0:0:0:
206,261,261198,6,0,L|91:260,1,110.000003356934,8|0,1:1|1:0,0:0:0:0:
235,146,261412,2,0,L|299:146,1,55.0000016784668,2|8,1:2|1:1,0:0:0:0:
68,78,261627,6,0,L|9:79,1,55.0000016784668,2|0,1:2|0:0,0:0:0:0:
150,167,261769,6,0,L|262:168,1,110.000003356934,8|2,1:1|1:2,0:0:0:0:
119,268,261984,2,0,L|56:267,1,55.0000016784668,0|8,1:2|1:1,0:0:0:0:
285,338,262198,6,0,L|344:339,1,55.0000016784668,2|0,1:2|0:0,0:0:0:0:
201,208,262341,6,0,L|314:208,1,110.000003356934,14|2,1:1|0:2,0:0:0:0:
377,205,262555,2,0,L|259:206,1,110.000003356934,2|0,0:2|0:0,0:0:0:0:
128,134,262769,6,0,L|124:195,1,55.0000016784668,2|0,0:2|0:0,0:0:0:0:
263,87,262912,6,0,L|323:87,2,55.0000016784668,8|0|2,1:1|0:0|0:2,0:0:0:0:
195,90,263127,2,0,L|135:90,2,55.0000016784668,2|8|0,0:2|1:1|0:0,0:0:0:0:
334,172,263341,6,0,L|342:234,1,55.0000016784668,2|0,0:2|0:0,0:0:0:0:
202,260,263484,6,0,L|329:259,1,110.000003356934,8|2,1:1|0:2,0:0:0:0:
245,257,263698,2,0,L|118:256,1,110.000003356934,2|0,0:2|0:0,0:0:0:0:
274,333,263912,6,0,L|332:333,1,55.0000016784668,2|0,0:2|0:0,0:0:0:0:
190,190,264055,6,0,L|185:129,1,55.0000016784668,8|0,1:1|0:0,0:0:0:0:
252,134,264198,1,2,0:2:0:0:
317,128,264269,2,0,L|322:67,1,55.0000016784668,2|8,0:2|1:1,0:0:0:0:
255,72,264412,1,0,0:0:0:0:
394,152,264484,6,0,L|455:149,1,55.0000016784668,2|0,0:2|0:0,0:0:0:0:
310,236,264627,6,0,L|190:236,1,110.000003356934,8|2,1:1|0:2,0:0:0:0:
266,236,264841,2,0,L|386:236,1,110.000003356934,2|0,0:2|0:0,0:0:0:0:
237,146,265055,6,0,L|168:146,1,55.0000016784668,2|0,0:2|0:0,0:0:0:0:
321,190,265198,6,0,L|379:190,2,55.0000016784668,8|0|2,1:1|0:0|0:2,0:0:0:0:
254,188,265412,2,0,L|196:188,2,55.0000016784668,2|8|0,0:2|1:1|0:0,0:0:0:0:
113,187,265627,6,0,L|45:187,1,55.0000016784668,2|0,0:2|0:0,0:0:0:0:
195,76,265769,6,0,L|316:75,1,110.000003356934,8|2,1:1|0:2,0:0:0:0:
372,76,265984,2,0,L|493:75,1,110.000003356934,2|0,0:2|0:0,0:0:0:0:
343,243,266198,6,0,L|338:179,1,55.0000016784668,2|0,0:2|0:0,0:0:0:0:
200,167,266341,6,0,L|127:167,2,55.0000016784668,8|0|2,1:1|0:0|1:2,0:0:0:0:
311,165,266519,1,0,0:0:0:0:
422,167,266555,2,0,L|495:167,2,55.0000016784668,2|8|0,1:2|1:1|0:0,0:0:0:0:
283,279,266769,6,0,L|278:220,1,55.0000016784668,2|0,1:2|0:0,0:0:0:0:
140,202,266912,6,0,L|257:202,1,110.000003356934,12|2,1:1|0:2,0:0:0:0:
317,201,267127,2,0,L|200:201,1,110.000003356934,2|0,0:2|0:0,0:0:0:0:
346,65,267341,6,0,L|410:65,1,55.0000016784668,2|0,0:2|0:0,0:0:0:0:
262,103,267484,6,0,L|201:103,2,55.0000016784668,8|0|2,1:1|0:0|0:2,0:0:0:0:
195,103,267698,2,0,L|134:103,2,55.0000016784668,2|8|0,0:2|1:1|0:0,0:0:0:0:
334,170,267912,6,0,L|276:170,1,55.0000016784668,2|0,0:2|0:0,0:0:0:0:
140,275,268055,6,0,L|24:275,1,110.000003356934,8|2,1:1|0:2,0:0:0:0:
96,276,268269,2,0,L|212:276,1,110.000003356934,2|0,0:2|0:0,0:0:0:0:
65,187,268484,6,0,L|61:127,1,55.0000016784668,2|0,0:2|0:0,0:0:0:0:
200,124,268627,5,8,1:1:0:0:
265,125,268698,2,0,L|269:192,1,55.0000016784668,0|2,0:0|0:2,0:0:0:0:
201,178,268841,1,2,0:2:0:0:
136,179,268912,2,0,L|132:246,1,55.0000016784668,8|0,1:1|0:0,0:0:0:0:
271,316,269055,6,0,L|278:253,1,55.0000016784668,2|0,0:2|0:0,0:0:0:0:
416,202,269198,6,0,P|432:157|408:93,1,110.000003356934,8|2,1:1|0:2,0:0:0:0:
347,96,269412,2,0,L|473:97,1,110.000003356934,2|0,0:2|0:0,0:0:0:0:
316,40,269627,6,0,L|260:40,1,55.0000016784668,2|0,0:2|0:0,0:0:0:0:
398,245,269769,6,0,L|464:245,2,55.0000016784668,8|0|2,1:1|0:0|0:2,0:0:0:0:
330,245,269984,2,0,L|264:245,2,55.0000016784668,2|8|0,0:2|1:1|0:0,0:0:0:0:
191,308,270198,6,0,L|188:239,1,55.0000016784668,2|0,0:2|0:0,0:0:0:0:
327,161,270341,6,0,L|441:162,1,110.000003356934,8|0,1:1|1:0,0:0:0:0:
381,124,270555,1,2,1:2:0:0:
242,105,270627,1,8,1:1:0:0:
372,115,270769,2,0,L|304:115,1,55.0000016784668,2|0,1:2|0:0,0:0:0:0:
178,201,270912,6,0,L|172:143,1,55.0000016784668,8|0,1:1|0:0,0:0:0:0:
106,140,271055,2,0,L|100:82,1,55.0000016784668,2|0,1:2|1:2,0:0:0:0:
239,327,271198,2,0,L|245:269,1,55.0000016784668,8|0,1:1|0:0,0:0:0:0:
383,314,271341,2,0,L|389:256,1,55.0000016784668,2|0,1:2|1:2,0:0:0:0:
250,199,271484,6,0,L|131:199,1,110.000003356934,12|2,1:1|0:2,0:0:0:0:
206,199,271698,2,0,P|224:158|201:92,1,110.000003356934,2|0,0:2|0:0,0:0:0:0:
67,100,271912,6,0,L|61:43,1,55.0000016784668,2|0,0:2|0:0,0:0:0:0:
200,40,272055,6,0,L|262:41,2,55.0000016784668,8|0|2,1:1|0:0|0:2,0:0:0:0:
133,39,272269,2,0,L|125:107,1,55.0000016784668,2|10,0:2|1:1,0:0:0:0:
193,91,272412,1,0,0:0:0:0:
332,104,272484,6,0,L|401:103,1,55.0000016784668,2|0,0:2|0:0,0:0:0:0:
248,244,272627,6,0,L|133:244,1,110.000003356934,8|2,1:1|0:2,0:0:0:0:
204,243,272841,2,0,L|89:243,1,110.000003356934,2|0,0:2|0:0,0:0:0:0:
234,326,273055,6,0,L|239:264,1,55.0000016784668,2|0,0:2|0:0,0:0:0:0:
378,246,273198,6,0,L|395:186,2,55.0000016784668,8|0|2,1:1|0:0|0:2,0:0:0:0:
311,245,273412,2,0,L|294:185,2,55.0000016784668,2|10|0,0:2|1:1|0:0,0:0:0:0:
452,333,273627,6,0,L|469:273,1,55.0000016784668,2|0,0:2|0:0,0:0:0:0:
330,165,273769,6,0,L|215:166,1,110.000003356934,8|2,1:1|0:2,0:0:0:0:
287,167,273984,2,0,L|290:53,1,110.000003356934,2|0,0:2|0:0,0:0:0:0:
151,62,274198,6,0,L|148:128,1,55.0000016784668,2|0,0:2|0:0,0:0:0:0:
287,227,274341,6,0,L|294:285,1,55.0000016784668,8|0,1:1|0:0,0:0:0:0:
227,282,274484,1,2,0:2:0:0:
293,281,274555,2,0,L|300:339,1,55.0000016784668,2|10,0:2|1:1,0:0:0:0:
233,336,274698,1,0,0:0:0:0:
370,341,274769,6,0,L|373:278,1,55.0000016784668,2|0,0:2|0:0,0:0:0:0:
234,227,274912,6,0,L|121:226,1,110.000003356934,8|2,1:1|0:2,0:0:0:0:
191,224,275127,2,0,L|304:223,1,110.000003356934,2|0,0:2|0:0,0:0:0:0:
162,138,275341,6,0,L|157:81,1,55.0000016784668,2|0,0:2|0:0,0:0:0:0:
296,69,275484,6,0,L|356:69,2,55.0000016784668,8|0|2,1:1|0:0|1:2,0:0:0:0:
185,67,275662,1,0,0:0:0:0:
74,68,275698,2,0,L|14:68,2,55.0000016784668,2|10|0,1:2|1:1|0:0,0:0:0:0:
213,172,275912,6,0,L|276:172,1,55.0000016784668,2|0,1:2|0:0,0:0:0:0:
407,232,276055,6,0,L|292:232,1,110.000003356934,12|2,1:1|0:2,0:0:0:0:
230,230,276269,2,0,L|115:230,1,110.000003356934,2|0,0:2|0:0,0:0:0:0:
261,328,276484,6,0,L|324:327,1,55.0000016784668,2|0,0:2|0:0,0:0:0:0:
177,146,276627,6,0,L|114:147,2,55.0000016784668,8|0|2,1:1|0:0|0:2,0:0:0:0:
243,147,276841,2,0,L|306:148,2,55.0000016784668,2|8|0,0:2|1:1|0:0,0:0:0:0:
383,55,277055,6,0,L|317:56,1,55.0000016784668,2|0,0:2|0:0,0:0:0:0:
189,188,277198,6,0,L|71:188,1,110.000003356934,8|2,1:1|0:2,0:0:0:0:
135,152,277412,1,2,0:2:0:0:
274,244,277484,2,0,L|280:183,1,55.0000016784668,8|0,1:1|0:0,0:0:0:0:
141,337,277627,6,0,L|135:276,1,55.0000016784668,2|0,0:2|0:0,0:0:0:0:
273,153,277769,6,0,L|294:101,2,55.0000016784668,8|0|2,1:1|0:0|0:2,0:0:0:0:
205,155,277984,1,2,0:2:0:0:
68,154,278055,6,0,L|66:96,1,55.0000016784668,8|0,1:1|0:0,0:0:0:0:
206,277,278198,2,0,L|208:219,1,55.0000016784668,2|0,0:2|0:0,0:0:0:0:
69,67,278341,6,0,L|9:67,2,55.0000016784668,8|8|2,1:1|0:3|0:2,0:0:0:0:
135,67,278555,1,2,0:2:0:0:
274,65,278627,2,0,L|334:65,1,55.0000016784668,8|8,1:1|0:3,0:0:0:0:
191,227,278769,6,0,L|119:226,1,55.0000016784668,2|8,0:2|0:3,0:0:0:0:
275,319,278912,6,0,L|334:320,2,55.0000016784668,8|8|2,1:1|0:3|0:2,0:0:0:0:
207,318,279127,1,2,0:2:0:0:
344,166,279198,2,0,L|407:166,1,55.0000016784668,8|8,1:1|0:3,0:0:0:0:
259,119,279341,6,0,L|199:120,1,55.0000016784668,2|8,0:2|0:3,0:0:0:0:
394,66,279484,6,0,L|406:127,2,55.0000016784668,8|8|8,1:1|1:3|1:3,0:0:0:0:
255,65,279698,1,8,1:3:0:0:
394,66,279769,6,0,L|440:111,2,55.0000016784668,8|8|8,1:3|1:3|1:3,0:0:0:0:
255,65,279983,1,8,1:3:0:0:
394,66,280055,6,0,L|457:66,2,55.0000016784668,8|8|8,1:3|1:3|1:3,0:0:0:0:
255,65,280269,1,8,1:3:0:0:
394,156,280341,6,0,L|450:156,1,55.0000016784668,8|8,1:3|1:3,0:0:0:0:
310,250,280484,2,0,L|245:250,1,55.0000016784668,8|8,1:3|1:3,0:0:0:0:
437,338,280627,6,0,L|441:262,1,59.9999981689454,6|0,1:0|0:0,0:0:0:0:
368,274,280769,1,4,0:2:0:0:
216,186,280841,2,0,L|282:186,1,59.9999981689454,2|8,0:2|1:2,0:0:0:0:
348,186,280984,1,0,0:0:0:0:
199,47,281055,2,0,L|125:47,1,59.9999981689454,6|0,0:2|0:0,0:0:0:0:
290,167,281198,6,0,L|294:104,1,59.9999981689454,2|0,1:2|0:0,0:0:0:0:
221,105,281341,1,4,0:2:0:0:
370,255,281412,2,0,L|374:192,1,59.9999981689454,2|8,0:2|1:2,0:0:0:0:
301,193,281555,1,0,0:0:0:0:
453,327,281627,2,0,L|457:264,1,59.9999981689454,6|0,0:2|0:0,0:0:0:0:
308,263,281769,6,0,L|241:263,2,59.9999981689454,2|0|4,1:1|0:0|0:2,0:0:0:0:
155,268,281984,2,0,L|88:268,2,59.9999981689454,2|8|0,0:2|1:2|0:0,0:0:0:0:
306,127,282198,2,0,L|375:127,1,59.9999981689454,6|0,0:2|0:0,0:0:0:0:
215,55,282341,5,2,1:2:0:0:
286,59,282412,2,0,L|292:133,1,59.9999981689454,0|4,0:0|0:2,0:0:0:0:
139,165,282555,2,0,L|76:166,2,59.9999981689454,2|8|0,0:2|1:2|0:0,0:0:0:0:
291,235,282769,2,0,L|213:236,1,59.9999981689454,6|0,0:2|0:0,0:0:0:0:
382,176,282912,6,0,L|387:116,1,59.9999981689454,2|0,1:1|0:0,0:0:0:0:
314,115,283055,1,4,0:2:0:0:
163,84,283127,2,0,L|224:84,2,59.9999981689454,2|8|0,0:2|1:2|0:0,0:0:0:0:
315,290,283341,2,0,L|387:290,1,59.9999981689454,6|0,0:2|0:0,0:0:0:0:
223,198,283484,5,2,1:2:0:0:
151,198,283555,2,0,L|146:134,1,59.9999981689454,0|4,0:0|0:2,0:0:0:0:
298,110,283698,1,2,0:2:0:0:
226,110,283769,2,0,L|221:46,1,59.9999981689454,8|0,1:2|0:0,0:0:0:0:
373,180,283912,2,0,L|442:179,1,59.9999981689454,6|0,0:2|0:0,0:0:0:0:
282,270,284055,5,2,1:1:0:0:
222,270,284126,1,0,0:0:0:0:
162,270,284197,1,4,0:2:0:0:
313,345,284269,2,0,L|317:282,1,59.9999981689454,2|8,0:2|1:2,0:0:0:0:
244,282,284412,1,0,0:0:0:0:
395,115,284484,2,0,L|322:116,1,59.9999981689454,6|0,0:2|0:0,0:0:0:0:
184,122,284627,6,0,L|113:122,1,59.9999981689454,2|0,1:2|0:0,0:0:0:0:
273,210,284769,1,4,1:2:0:0:
424,215,284841,1,2,1:2:0:0:
273,210,284912,2,0,L|267:146,1,59.9999981689454,8|0,1:2|0:0,0:0:0:0:
115,236,285055,2,0,L|109:172,1,59.9999981689454,6|0,1:2|0:0,0:0:0:0:
261,95,285198,6,0,L|322:94,2,59.9999981689454,6|0|4,1:1|0:0|0:2,0:0:0:0:
109,88,285412,2,0,L|170:87,2,59.9999981689454,2|8|0,0:2|1:2|0:0,0:0:0:0:
262,150,285627,2,0,L|332:149,1,59.9999981689454,6|0,0:2|0:0,0:0:0:0:
172,323,285769,6,0,L|166:255,1,59.9999981689454,2|0,1:2|0:0,0:0:0:0:
238,256,285912,1,4,0:2:0:0:
390,177,285984,2,0,L|320:177,1,59.9999981689454,2|8,0:2|1:2,0:0:0:0:
257,175,286127,1,0,0:0:0:0:
407,29,286198,2,0,L|411:94,1,59.9999981689454,6|0,0:2|0:0,0:0:0:0:
259,298,286341,6,0,L|198:299,2,59.9999981689454,2|0|4,1:1|0:0|0:2,0:0:0:0:
411,305,286555,2,0,L|350:306,2,59.9999981689454,2|8|0,0:2|1:2|0:0,0:0:0:0:
258,243,286770,2,0,L|188:244,1,59.9999981689454,6|0,0:2|0:0,0:0:0:0:
348,70,286912,6,0,L|354:138,1,59.9999981689454,2|0,1:2|0:0,0:0:0:0:
282,137,287055,1,4,0:2:0:0:
130,216,287127,2,0,L|200:216,1,59.9999981689454,2|8,0:2|1:2,0:0:0:0:
263,218,287270,1,0,0:0:0:0:
113,364,287341,2,0,L|109:299,1,59.9999981689454,6|0,0:2|0:0,0:0:0:0:
261,294,287484,5,2,1:1:0:0:
189,292,287555,2,0,L|184:218,1,59.9999981689454,0|4,0:0|0:2,0:0:0:0:
336,175,287698,2,0,L|396:176,2,59.9999981689454,2|8|0,0:2|1:2|0:0,0:0:0:0:
185,136,287912,2,0,L|122:135,1,59.9999981689454,6|0,0:2|0:0,0:0:0:0:
276,77,288055,6,0,L|339:76,2,59.9999981689454,2|0|4,1:2|0:0|0:2,0:0:0:0:
427,225,288269,2,0,L|344:225,1,59.9999981689454,2|8,0:2|1:2,0:0:0:0:
294,223,288412,1,0,0:0:0:0:
445,313,288484,2,0,L|372:313,1,59.9999981689454,6|0,0:2|0:0,0:0:0:0:
234,312,288627,6,0,L|302:312,1,59.9999981689454,2|0,1:1|0:0,0:0:0:0:
443,157,288769,1,4,1:2:0:0:
292,300,288841,1,0,1:2:0:0:
143,234,288912,6,0,L|211:234,1,59.9999981689454,10|0,1:2|0:0,0:0:0:0:
352,79,289054,1,4,1:2:0:0:
201,222,289126,1,0,1:2:0:0:
50,188,289198,6,0,L|118:188,1,59.9999981689454,2|0,1:2|0:0,0:0:0:0:
259,33,289340,1,6,1:2:0:0:
108,176,289412,1,0,1:2:0:0:
261,179,289484,6,0,L|326:179,1,59.9999981689454,10|0,1:2|0:0,0:0:0:0:
170,106,289627,2,0,L|136:105,2,29.9999990844727,4|0|0,1:2|1:2|1:2,0:0:0:0:
291,171,289734,1,0,1:2:0:0:
409,246,289769,6,0,L|473:246,2,59.9999981689454,6|0|4,1:1|0:0|0:2,0:0:0:0:
258,195,289983,2,0,L|269:131,1,59.9999981689454,2|8,0:2|1:2,0:0:0:0:
340,142,290126,1,0,0:0:0:0:
191,304,290197,2,0,L|187:238,1,59.9999981689454,6|0,0:2|0:0,0:0:0:0:
339,262,290340,6,0,L|343:198,1,59.9999981689454,2|0,1:2|0:0,0:0:0:0:
271,201,290483,1,4,0:2:0:0:
420,125,290555,2,0,L|357:125,1,59.9999981689454,2|8,0:2|1:2,0:0:0:0:
287,124,290697,1,0,0:0:0:0:
438,239,290769,2,0,L|442:303,1,59.9999981689454,6|0,0:2|0:0,0:0:0:0:
290,338,290912,6,0,L|225:337,2,59.9999981689454,2|0|4,1:1|0:0|0:2,0:0:0:0:
444,331,291127,2,0,L|509:330,2,59.9999981689454,2|8|0,0:2|1:2|0:0,0:0:0:0:
292,260,291341,2,0,L|286:193,1,59.9999981689454,6|0,0:2|0:0,0:0:0:0:
135,145,291484,5,2,1:2:0:0:
63,150,291555,2,0,L|58:83,1,59.9999981689454,0|4,0:0|0:2,0:0:0:0:
210,242,291698,2,0,L|215:175,1,59.9999981689454,2|8,0:2|1:2,0:0:0:0:
141,180,291841,1,0,0:0:0:0:
290,107,291912,2,0,L|295:171,1,59.9999981689454,6|0,0:2|0:0,0:0:0:0:
143,216,292055,6,0,L|206:216,2,59.9999981689454,2|0|4,1:1|0:0|0:2,0:0:0:0:
294,275,292269,2,0,L|357:275,2,59.9999981689454,2|8|0,0:2|1:2|0:0,0:0:0:0:
141,307,292484,2,0,L|81:307,1,59.9999981689454,6|0,0:2|0:0,0:0:0:0:
232,94,292627,6,0,L|295:94,2,59.9999981689454,2|0|4,1:2|0:0|0:2,0:0:0:0:
383,153,292841,2,0,L|446:153,2,59.9999981689454,2|8|0,0:2|1:2|0:0,0:0:0:0:
230,185,293056,2,0,L|170:185,1,59.9999981689454,6|0,0:2|0:0,0:0:0:0:
319,269,293198,5,2,1:1:0:0:
379,269,293269,1,0,0:0:0:0:
439,269,293340,1,4,0:2:0:0:
287,80,293412,1,2,0:2:0:0:
227,80,293483,1,8,1:2:0:0:
167,80,293554,1,0,0:0:0:0:
320,204,293627,1,6,0:2:0:0:
380,204,293698,1,0,0:0:0:0:
231,324,293769,6,0,L|154:323,1,59.9999981689454,2|0,1:2|0:0,0:0:0:0:
322,349,293912,1,4,1:2:0:0:
473,345,293984,1,2,1:2:0:0:
323,276,294055,6,0,L|319:210,1,59.9999981689454,8|0,1:2|0:0,0:0:0:0:
167,194,294198,2,0,L|163:128,1,59.9999981689454,6|0,1:2|0:0,0:0:0:0:
315,59,294341,6,0,L|384:58,2,59.9999981689454,6|0|4,1:1|0:0|0:2,0:0:0:0:
164,237,294555,2,0,L|95:236,2,59.9999981689454,2|8|0,0:2|1:2|0:0,0:0:0:0:
315,59,294769,2,0,L|384:58,1,59.9999981689454,6|0,0:2|0:0,0:0:0:0:
224,62,294912,6,0,L|212:127,2,59.9999981689454,2|0|4,1:2|0:0|0:2,0:0:0:0:
377,178,295127,2,0,L|389:243,2,59.9999981689454,2|8|0,0:2|1:2|0:0,0:0:0:0:
224,62,295341,2,0,L|212:127,1,59.9999981689454,6|0,0:2|0:0,0:0:0:0:
62,209,295484,6,0,L|129:209,1,59.9999981689454,2|0,1:1|0:0,0:0:0:0:
194,205,295627,1,4,0:2:0:0:
344,280,295698,2,0,L|277:280,1,59.9999981689454,2|8,0:2|1:2,0:0:0:0:
212,276,295841,1,0,0:0:0:0:
361,203,295912,2,0,L|421:203,1,59.9999981689454,6|0,0:2|0:0,0:0:0:0:
270,173,296055,6,0,L|262:110,2,59.9999981689454,2|0|4,1:2|0:0|0:2,0:0:0:0:
118,168,296269,2,0,L|110:105,2,59.9999981689454,2|8|0,0:2|1:2|0:0,0:0:0:0:
273,190,296484,2,0,L|280:249,1,59.9999981689454,6|0,0:2|0:0,0:0:0:0:
431,254,296627,6,0,L|436:191,2,59.9999981689454,2|0|4,1:1|0:0|0:2,0:0:0:0:
279,275,296841,1,2,0:2:0:0:
219,275,296912,1,8,1:2:0:0:
159,275,296983,1,0,0:0:0:0:
310,138,297055,2,0,L|312:73,1,59.9999981689454,6|0,0:2|0:0,0:0:0:0:
160,143,297198,6,0,L|155:206,2,59.9999981689454,2|0|4,1:2|0:0|0:2,0:0:0:0:
312,122,297412,1,2,0:2:0:0:
372,122,297483,1,8,1:2:0:0:
432,122,297554,1,0,0:0:0:0:
281,259,297626,2,0,L|279:324,1,59.9999981689454,6|0,0:2|0:0,0:0:0:0:
431,345,297769,6,0,L|494:345,1,59.9999981689454,2|0,1:1|0:0,0:0:0:0:
340,218,297912,1,4,1:2:0:0:
189,213,297984,1,0,1:2:0:0:
371,345,298055,6,0,L|434:345,1,59.9999981689454,10|0,1:2|0:0,0:0:0:0:
280,218,298198,1,4,1:2:0:0:
129,213,298270,1,0,1:2:0:0:
311,345,298341,6,0,L|374:345,1,59.9999981689454,2|0,1:2|0:0,0:0:0:0:
220,218,298484,1,6,1:2:0:0:
69,213,298556,1,0,1:2:0:0:
265,311,298627,6,0,L|205:311,1,59.9999981689454,10|0,1:2|0:0,0:0:0:0:
400,202,298769,2,0,L|432:202,2,29.9999990844727,4|0|0,1:2|1:2|1:2,0:0:0:0:
275,203,298877,1,0,1:2:0:0:
157,229,298912,6,0,L|93:229,2,59.9999981689454,6|0|4,1:0|0:0|0:2,0:0:0:0:
308,178,299126,2,0,L|297:114,1,59.9999981689454,2|8,0:2|1:2,0:0:0:0:
226,125,299269,1,0,0:0:0:0:
375,287,299340,2,0,L|379:221,1,59.9999981689454,6|0,0:2|0:0,0:0:0:0:
227,249,299483,6,0,L|223:185,1,59.9999981689454,2|0,1:2|0:0,0:0:0:0:
295,188,299626,1,4,0:2:0:0:
445,138,299697,2,0,L|382:138,1,59.9999981689454,2|8,0:2|1:2,0:0:0:0:
312,137,299840,1,0,0:0:0:0:
463,252,299912,2,0,L|467:316,1,59.9999981689454,6|0,0:2|0:0,0:0:0:0:
317,294,300055,6,0,L|310:230,1,59.9999981689454,2|0,1:1|0:0,0:0:0:0:
383,236,300197,1,4,0:2:0:0:
231,99,300269,2,0,L|171:99,2,59.9999981689454,2|8|0,0:2|1:2|0:0,0:0:0:0:
383,96,300483,2,0,L|449:96,1,59.9999981689454,6|0,0:2|0:0,0:0:0:0:
291,212,300626,6,0,L|351:212,2,59.9999981689454,2|0|4,1:2|0:0|0:2,0:0:0:0:
139,211,300841,2,0,L|74:211,2,59.9999981689454,2|8|0,0:2|1:2|0:0,0:0:0:0:
291,152,301055,2,0,L|366:150,1,59.9999981689454,6|0,0:2|0:0,0:0:0:0:
200,317,301197,6,0,L|197:251,1,59.9999981689454,2|0,1:1|0:0,0:0:0:0:
270,250,301340,1,4,0:2:0:0:
421,268,301412,1,2,0:2:0:0:
350,269,301483,2,0,L|341:338,1,59.9999981689454,8|0,1:2|0:0,0:0:0:0:
493,339,301626,2,0,L|499:278,1,59.9999981689454,6|0,0:2|0:0,0:0:0:0:
347,238,301769,6,0,L|266:238,2,59.9999981689454,2|0|4,1:1|0:0|0:2,0:0:0:0:
195,188,301983,2,0,L|191:125,1,59.9999981689454,2|8,0:2|1:2,0:0:0:0:
264,123,302126,1,0,0:0:0:0:
115,58,302197,2,0,L|108:123,1,59.9999981689454,6|0,0:2|0:0,0:0:0:0:
261,196,302340,6,0,L|188:198,1,59.9999981689454,2|0,1:1|0:0,0:0:0:0:
129,196,302483,1,4,0:2:0:0:
278,331,302555,2,0,L|284:269,1,59.9999981689454,2|8,0:2|1:2,0:0:0:0:
212,267,302697,1,0,0:0:0:0:
59,328,302769,2,0,L|138:328,1,59.9999981689454,6|0,0:2|0:0,0:0:0:0:
270,221,302912,6,0,L|333:221,1,59.9999981689454,2|0,1:1|0:0,0:0:0:0:
180,109,303054,1,4,1:2:0:0:
29,201,303126,1,2,1:2:0:0:
180,197,303197,2,0,L|183:136,1,59.9999981689454,8|0,1:2|0:0,0:0:0:0:
335,103,303340,2,0,L|338:42,1,59.9999981689454,6|0,1:2|0:0,0:0:0:0:
187,47,303483,5,6,1:1:0:0:
127,47,303554,1,0,0:0:0:0:
67,47,303627,1,4,0:2:0:0:
219,229,303698,1,2,0:2:0:0:
292,224,303769,2,0,L|300:153,1,59.9999981689454,8|0,1:2|0:0,0:0:0:0:
146,102,303912,2,0,L|210:102,1,59.9999981689454,6|0,0:2|0:0,0:0:0:0:
355,138,304055,6,0,L|431:138,2,59.9999981689454,2|0|4,1:2|0:0|0:2,0:0:0:0:
202,346,304269,2,0,L|196:277,1,59.9999981689454,2|8,0:2|1:2,0:0:0:0:
269,287,304412,1,0,0:0:0:0:
117,192,304483,2,0,L|48:191,1,59.9999981689454,6|0,0:2|0:0,0:0:0:0:
208,256,304626,5,2,1:1:0:0:
137,256,304697,2,0,L|132:185,1,59.9999981689454,0|4,0:0|0:2,0:0:0:0:
286,88,304841,2,0,L|345:88,2,59.9999981689454,2|8|0,0:2|1:2|0:0,0:0:0:0:
134,145,305055,2,0,L|129:83,1,59.9999981689454,6|0,0:2|0:0,0:0:0:0:
281,45,305197,6,0,L|216:44,1,59.9999981689454,2|0,1:2|0:0,0:0:0:0:
149,41,305340,1,4,0:2:0:0:
300,258,305412,2,0,L|365:260,2,59.9999981689454,2|8|0,0:2|1:2|0:0,0:0:0:0:
147,332,305626,2,0,L|215:333,1,59.9999981689454,6|0,0:2|0:0,0:0:0:0:
359,326,305769,6,0,L|422:326,2,59.9999981689454,2|0|4,1:1|0:0|0:2,0:0:0:0:
208,240,305984,2,0,L|271:240,2,59.9999981689454,2|8|0,0:2|1:2|0:0,0:0:0:0:
359,139,306197,2,0,L|281:139,1,59.9999981689454,6|0,0:2|0:0,0:0:0:0:
148,90,306341,6,0,L|85:90,2,59.9999981689454,2|0|4,1:2|0:0|0:2,0:0:0:0:
299,176,306555,2,0,L|236:176,2,59.9999981689454,2|8|0,0:2|1:2|0:0,0:0:0:0:
148,277,306769,2,0,L|76:277,1,59.9999981689454,6|0,0:2|0:0,0:0:0:0:
243,348,306912,6,0,L|305:348,1,59.9999981689454,2|0,1:1|0:0,0:0:0:0:
452,300,307054,1,4,1:2:0:0:
301,268,307126,1,0,1:2:0:0:
152,251,307197,6,0,L|214:251,1,59.9999981689454,10|0,1:2|0:0,0:0:0:0:
361,203,307341,1,4,1:2:0:0:
210,171,307411,1,0,1:2:0:0:
361,125,307483,6,0,L|421:125,1,59.9999981689454,2|0,1:1|0:0,0:0:0:0:
287,187,307627,1,6,1:2:0:0:
151,196,307697,1,0,1:2:0:0:
334,212,307769,6,0,L|405:212,1,59.9999981689454,10|0,1:2|0:0,0:0:0:0:
241,267,307912,2,0,L|211:266,2,29.9999990844727,4|0|0,1:2|1:2|1:2,0:0:0:0:
362,273,308019,1,0,1:2:0:0:
483,278,308055,6,0,L|489:216,1,59.9999981689454,6|0,1:1|0:0,0:0:0:0:
337,200,308198,2,0,L|331:138,1,59.9999981689454,4|2,1:2|0:2,0:0:0:0:
180,142,308341,2,0,L|174:80,1,59.9999981689454,8|0,1:2|0:0,0:0:0:0:
326,125,308484,2,0,L|388:126,1,59.9999981689454,6|0,1:2|0:0,0:0:0:0:
29,106,308627,6,0,L|23:168,1,59.9999981689454,2|0,1:2|0:0,0:0:0:0:
175,184,308770,2,0,L|181:246,1,59.9999981689454,4|2,1:2|0:2,0:0:0:0:
332,242,308913,2,0,L|338:304,1,59.9999981689454,8|0,1:2|0:0,0:0:0:0:
186,259,309056,2,0,L|126:258,1,59.9999981689454,6|0,1:2|0:0,0:0:0:0:
483,278,309198,6,0,L|489:216,1,59.9999981689454,2|0,1:1|0:0,0:0:0:0:
337,200,309341,2,0,L|331:138,1,59.9999981689454,4|2,1:2|0:2,0:0:0:0:
180,142,309484,2,0,L|174:80,1,59.9999981689454,8|0,1:2|0:0,0:0:0:0:
326,125,309627,2,0,L|389:126,1,59.9999981689454,6|0,1:2|0:0,0:0:0:0:
29,106,309770,6,0,L|23:168,1,59.9999981689454,2|0,1:1|0:0,0:0:0:0:
175,184,309913,2,0,L|181:246,1,59.9999981689454,4|2,1:2|0:2,0:0:0:0:
332,242,310056,2,0,L|338:304,1,59.9999981689454,8|0,1:2|0:0,0:0:0:0:
186,259,310199,2,0,L|119:258,1,59.9999981689454,6|0,1:2|0:0,0:0:0:0:
473,297,310341,6,0,L|479:235,1,59.9999981689454,2|0,1:1|0:0,0:0:0:0:
327,215,310484,2,0,L|321:153,1,59.9999981689454,4|2,1:2|0:2,0:0:0:0:
170,200,310627,2,0,L|164:138,1,59.9999981689454,8|0,1:2|0:0,0:0:0:0:
316,118,310770,2,0,L|375:119,1,59.9999981689454,6|0,1:2|0:0,0:0:0:0:
39,297,310912,6,0,L|33:235,1,59.9999981689454,2|0,1:2|0:0,0:0:0:0:
185,215,311055,2,0,L|191:153,1,59.9999981689454,4|2,1:2|0:2,0:0:0:0:
342,200,311198,2,0,L|348:138,1,59.9999981689454,8|0,1:2|0:0,0:0:0:0:
196,118,311341,2,0,L|127:119,1,59.9999981689454,6|0,1:2|0:0,0:0:0:0:
473,297,311484,6,0,L|479:235,1,59.9999981689454,2|0,1:1|0:0,0:0:0:0:
327,215,311627,2,0,L|321:153,1,59.9999981689454,4|2,1:2|0:2,0:0:0:0:
170,200,311770,2,0,L|164:138,1,59.9999981689454,8|0,1:2|0:0,0:0:0:0:
316,118,311913,2,0,L|381:116,1,59.9999981689454,6|0,1:2|0:0,0:0:0:0:
172,180,312055,6,0,L|166:118,1,59.9999981689454,2|0,1:2|0:0,0:0:0:0:
15,106,312198,2,0,L|46:107,1,29.9999990844727,4|0,1:2|1:0,0:0:0:0:
198,230,312269,2,0,L|229:231,1,29.9999990844727,2|0,1:2|1:0,0:0:0:0:
385,231,312341,2,0,L|459:231,1,59.9999981689454,8|0,1:2|0:0,0:0:0:0:
264,311,312483,2,0,L|259:238,1,59.9999981689454,6|0,1:2|0:0,0:0:0:0:
117,196,312627,6,0,L|245:196,1,119.999996337891,4|0,1:3|0:0,0:0:0:0:
310,196,312842,2,0,L|182:196,1,119.999996337891,4|0,1:1|0:0,0:0:0:0:
117,195,313056,2,0,L|192:195,1,59.9999981689454,4|0,1:1|0:0,0:0:0:0:
395,196,313199,6,0,L|267:196,1,119.999996337891,4|0,1:1|0:0,0:0:0:0:
202,196,313412,2,0,L|330:196,1,119.999996337891,4|0,1:1|0:0,0:0:0:0:
395,195,313627,2,0,L|320:195,1,59.9999981689454,4|0,1:1|0:0,0:0:0:0:
105,94,313769,6,0,L|233:94,1,119.999996337891,12|0,1:1|0:0,0:0:0:0:
354,92,313984,2,0,L|226:92,1,119.999996337891,12|0,1:1|0:0,0:0:0:0:
105,95,314198,2,0,L|180:95,1,59.9999981689454,12|0,1:1|0:0,0:0:0:0:
407,290,314341,6,0,L|279:290,1,119.999996337891,12|0,1:1|0:0,0:0:0:0:
158,292,314555,2,0,L|286:292,1,119.999996337891,12|0,1:1|0:0,0:0:0:0:
407,289,314769,2,0,L|332:289,1,59.9999981689454,12|0,1:1|0:0,0:0:0:0:
38,180,314912,6,0,L|254:180,1,200,14|0,1:1|0:0,0:0:0:0:
374,180,315126,2,0,L|158:180,1,200,14|0,1:1|0:0,0:0:0:0:
36,136,315341,2,0,L|120:204,1,100,14|0,1:1|0:0,0:0:0:0:
474,180,315484,6,0,L|258:180,1,200,14|0,1:1|0:0,0:0:0:0:
138,180,315698,2,0,L|354:180,1,200,14|0,1:1|0:0,0:0:0:0:
476,136,315912,2,0,L|392:204,1,100,14|0,1:1|0:0,0:0:0:0:
38,86,316055,6,0,L|310:85,1,250,14|0,1:1|0:0,0:0:0:0:
474,86,316269,2,0,L|202:85,1,250,14|0,1:1|0:0,0:0:0:0:
38,86,316484,2,0,L|270:85,1,125,14|0,1:1|0:0,0:0:0:0:
474,298,316627,6,0,L|202:299,1,250,14|0,1:1|0:0,0:0:0:0:
38,298,316841,2,0,L|310:299,1,250,14|0,1:1|0:0,0:0:0:0:
474,298,317055,2,0,L|242:299,1,125,14|0,1:1|0:0,0:0:0:0:
117,196,317198,6,0,L|245:196,1,119.999996337891,4|0,1:3|0:0,0:0:0:0:
390,336,317413,2,0,L|262:336,1,119.999996337891,4|0,1:1|0:0,0:0:0:0:
117,195,317627,2,0,L|192:195,1,59.9999981689454,4|0,1:1|0:0,0:0:0:0:
395,196,317770,6,0,L|267:196,1,119.999996337891,4|0,1:1|0:0,0:0:0:0:
123,269,317984,2,0,L|251:269,1,119.999996337891,4|0,1:1|0:0,0:0:0:0:
395,195,318199,2,0,L|320:195,1,59.9999981689454,4|0,1:1|0:0,0:0:0:0:
105,94,318341,6,0,L|233:94,1,119.999996337891,12|0,1:1|0:0,0:0:0:0:
354,92,318556,2,0,L|226:92,1,119.999996337891,12|0,1:1|0:0,0:0:0:0:
105,95,318770,2,0,L|180:95,1,59.9999981689454,12|0,1:1|0:0,0:0:0:0:
407,290,318913,6,0,L|279:290,1,119.999996337891,12|0,1:1|0:0,0:0:0:0:
158,292,319128,2,0,L|286:292,1,119.999996337891,12|0,1:1|0:0,0:0:0:0:
407,289,319342,2,0,L|332:289,1,59.9999981689454,12|0,1:1|0:0,0:0:0:0:
38,180,319484,6,0,L|254:180,1,200,14|0,1:1|0:0,0:0:0:0:
374,180,319698,2,0,L|158:180,1,200,14|0,1:1|0:0,0:0:0:0:
36,136,319913,2,0,L|120:204,1,100,14|0,1:1|0:0,0:0:0:0:
474,180,320055,6,0,L|258:180,1,200,14|0,1:1|0:0,0:0:0:0:
138,180,320270,2,0,L|354:180,1,200,14|0,1:1|0:0,0:0:0:0:
476,136,320484,2,0,L|392:204,1,100,14|0,1:1|0:0,0:0:0:0:
38,86,320627,6,0,L|310:85,1,250,14|0,1:1|0:0,0:0:0:0:
474,86,320841,2,0,L|202:85,1,250,14|0,1:1|0:0,0:0:0:0:
38,86,321055,2,0,L|270:85,1,125,14|0,1:1|0:0,0:0:0:0:
474,298,321198,6,0,L|202:299,1,250,14|0,1:1|0:0,0:0:0:0:
38,298,321412,2,0,L|310:299,1,250,14|0,1:1|0:0,0:0:0:0:
474,298,321626,2,0,L|242:299,1,125,14|0,1:1|0:0,0:0:0:0:
38,298,321769,5,4,3:0:0:0:
256,192,321912,12,0,325198,0:0:0:0:
