osu file format v14

[General]
AudioFilename: audio.mp3
AudioLeadIn: 0
PreviewTime: 133785
Countdown: 0
SampleSet: Normal
StackLeniency: 0.7
Mode: 1
LetterboxInBreaks: 0
WidescreenStoryboard: 0

[Editor]
DistanceSpacing: 0.8
BeatDivisor: 4
GridSize: 32
TimelineZoom: 3.1

[Metadata]
Title:WE LUV LAMA
TitleUnicode:WE LUV LAMA
Artist:DJ Sharpnel
ArtistUnicode:DJ Sharpnel
Creator:Nofool
Version:Oni
Source:
Tags:ランニング★オールナイトッ!! sharpnelsound running all night
BeatmapID:1436969
BeatmapSetID:679536

[Difficulty]
HPDrainRate:4
CircleSize:6
OverallDifficulty:7
ApproachRate:8
SliderMultiplier:1.4
SliderTickRate:1

[Events]
//Background and Video events
0,0,"BGlama.png",0,80
//Break Periods
//Storyboard Layer 0 (Background)
//Storyboard Layer 1 (Fail)
//Storyboard Layer 2 (Pass)
//Storyboard Layer 3 (Foreground)
//Storyboard Sound Samples

[TimingPoints]
0,285.714285714286,4,1,0,80,1,8
107,-138.888888888889,4,1,0,80,0,8
250,-135.135135135135,4,1,0,80,0,8
392,-129.87012987013,4,1,0,80,0,8
535,-125,4,1,0,80,0,8
571,285.714285714286,4,1,0,80,1,0
571,-125,4,1,0,80,0,0
9392,-119.047619047619,4,1,0,80,0,0
9678,-111.111111111111,4,1,0,80,0,0
18392,-108.695652173913,4,1,0,80,0,0
18535,-106.382978723404,4,1,0,80,0,0
18678,-103.092783505155,4,1,0,80,0,0
18821,-100,4,1,0,80,0,0
33821,-99.009900990099,4,1,0,80,0,0
33963,-98.0392156862745,4,1,0,80,0,0
34106,-97.0873786407767,4,1,0,80,0,0
34249,-96.1538461538461,4,1,0,80,0,0
34392,-95.2380952380952,4,1,0,80,0,0
34535,-94.3396226415094,4,1,0,80,0,0
34678,-93.4579439252336,4,1,0,80,0,0
34821,-92.5925925925926,4,1,0,80,0,0
34963,-91.743119266055,4,1,0,80,0,0
35106,-90.9090909090909,4,1,0,80,0,0
35249,-90.0900900900901,4,1,0,80,0,0
35392,-89.2857142857143,4,1,0,80,0,0
35535,-88.4955752212389,4,1,0,80,0,0
35678,-87.719298245614,4,1,0,80,0,0
35821,-86.9565217391304,4,1,0,80,0,0
35963,-86.2068965517241,4,1,0,80,0,0
36106,-85.4700854700855,4,1,0,80,0,0
36249,-84.7457627118644,4,1,0,80,0,0
36392,-84.0336134453781,4,1,0,80,0,0
36535,-83.3333333333333,4,1,0,80,0,0
36678,-89.2857142857143,4,1,0,80,0,0
36821,-94.3396226415094,4,1,0,80,0,0
36963,-98.0392156862745,4,1,0,80,0,0
37106,-100,4,1,0,80,0,0
70392,-99.009900990099,4,1,0,80,0,0
70535,-98.0392156862745,4,1,0,80,0,0
70678,-97.0873786407767,4,1,0,80,0,0
70821,-96.1538461538461,4,1,0,80,0,0
70963,-95.2380952380952,4,1,0,80,0,0
71106,-94.3396226415094,4,1,0,80,0,0
71249,-93.4579439252336,4,1,0,80,0,0
71392,-92.5925925925926,4,1,0,80,0,0
71535,-91.743119266055,4,1,0,80,0,0
71678,-90.9090909090909,4,1,0,80,0,0
71821,-90.0900900900901,4,1,0,80,0,0
71963,-89.2857142857143,4,1,0,80,0,0
72106,-88.4955752212389,4,1,0,80,0,0
72249,-87.719298245614,4,1,0,80,0,0
72392,-86.9565217391304,4,1,0,80,0,0
72535,-86.2068965517241,4,1,0,80,0,0
72678,-85.4700854700855,4,1,0,80,0,0
72821,-84.7457627118644,4,1,0,80,0,0
72963,-84.0336134453781,4,1,0,80,0,0
73106,-83.3333333333333,4,1,0,80,0,0
73249,-82.6446280991736,4,1,0,80,0,0
73392,-81.9672131147541,4,1,0,80,0,0
73535,-81.3008130081301,4,1,0,80,0,0
73678,-80.6451612903226,4,1,0,80,0,0
74821,-125,4,1,0,80,0,0
107963,-135.135135135135,4,1,0,80,0,0
109106,-147.058823529412,4,1,0,80,0,0
110249,-156.25,4,1,0,80,0,0
111392,-166.666666666667,4,1,0,80,0,0
125106,-125,4,1,0,80,0,0
133821,-119.047619047619,4,1,0,80,0,0
133892,-116.279069767442,4,1,0,80,0,0
133963,-113.636363636364,4,1,0,80,0,0
134023,-111.111111111111,4,1,0,80,0,0
134071,-108.695652173913,4,1,0,80,0,0
134118,-106.382978723404,4,1,0,80,0,0
134166,-104.166666666667,4,1,0,80,0,0
134213,-102.040816326531,4,1,0,80,0,0
134261,-100,4,1,0,80,0,0
134285,-100,4,1,0,80,0,1
198392,-99.009900990099,4,1,0,80,0,1
198535,-98.0392156862745,4,1,0,80,0,1
198678,-97.0873786407767,4,1,0,80,0,1
198821,-96.1538461538461,4,1,0,80,0,1
198963,-95.2380952380952,4,1,0,80,0,1
199106,-94.3396226415094,4,1,0,80,0,1
199249,-93.4579439252336,4,1,0,80,0,1
199392,-92.5925925925926,4,1,0,80,0,1
199535,-91.743119266055,4,1,0,80,0,1
199678,-90.9090909090909,4,1,0,80,0,1
199821,-90.0900900900901,4,1,0,80,0,1
199963,-89.2857142857143,4,1,0,80,0,1
200106,-88.4955752212389,4,1,0,80,0,1
200249,-87.719298245614,4,1,0,80,0,1
200392,-86.9565217391304,4,1,0,80,0,1
200535,-86.2068965517241,4,1,0,80,0,1
200678,-85.4700854700855,4,1,0,80,0,1
200821,-84.7457627118644,4,1,0,80,0,1
200963,-84.0336134453781,4,1,0,80,0,1
201106,-83.3333333333333,4,1,0,80,0,1
201249,-82.6446280991736,4,1,0,80,0,1
201392,-81.9672131147541,4,1,0,80,0,1
201535,-81.3008130081301,4,1,0,80,0,1
201678,-80.6451612903226,4,1,0,80,0,1
201821,-80,4,1,0,80,0,1
201963,-79.3650793650794,4,1,0,80,0,1
202106,-78.7401574803149,4,1,0,80,0,1
202249,-78.125,4,1,0,80,0,1
202392,-77.5193798449612,4,1,0,80,0,1
202535,-76.9230769230769,4,1,0,80,0,1
202678,-76.3358778625954,4,1,0,80,0,1
202821,-75.7575757575758,4,1,0,80,0,1
207392,-125,4,1,0,80,0,1
207428,-125,4,1,0,80,0,0
215821,-123.456790123457,4,1,0,80,0,0
215963,-121.951219512195,4,1,0,80,0,0
216106,-119.047619047619,4,1,0,80,0,0
216178,-116.279069767442,4,1,0,80,0,0
216249,-113.636363636364,4,1,0,80,0,0
216309,-111.111111111111,4,1,0,80,0,0
216356,-108.695652173913,4,1,0,80,0,0
216404,-106.382978723404,4,1,0,80,0,0
216451,-104.166666666667,4,1,0,80,0,0
216499,-102.040816326531,4,1,0,80,0,0
216547,-100,4,1,0,80,0,0
224749,-106.382978723404,4,1,0,80,0,0
224963,-112.359550561798,4,1,0,80,0,0
225106,-116.279069767442,4,1,0,80,0,0
225678,-100,4,1,0,80,0,0
240678,-99.009900990099,4,1,0,80,0,0
240821,-98.0392156862745,4,1,0,80,0,0
240964,-97.0873786407767,4,1,0,80,0,0
241107,-96.1538461538461,4,1,0,80,0,0
241249,-95.2380952380952,4,1,0,80,0,0
241392,-94.3396226415094,4,1,0,80,0,0
241535,-93.4579439252336,4,1,0,80,0,0
241678,-92.5925925925926,4,1,0,80,0,0
241821,-91.743119266055,4,1,0,80,0,0
241964,-90.9090909090909,4,1,0,80,0,0
242107,-90.0900900900901,4,1,0,80,0,0
242249,-89.2857142857143,4,1,0,80,0,0
242392,-88.4955752212389,4,1,0,80,0,0
242535,-87.719298245614,4,1,0,80,0,0
242678,-86.9565217391304,4,1,0,80,0,0
242821,-86.2068965517241,4,1,0,80,0,0
242964,-85.4700854700855,4,1,0,80,0,0
243107,-84.7457627118644,4,1,0,80,0,0
243249,-84.0336134453781,4,1,0,80,0,0
243392,-83.3333333333333,4,1,0,80,0,0
243535,-87.719298245614,4,1,0,80,0,0
243678,-92.5925925925926,4,1,0,80,0,0
243821,-96.1538461538461,4,1,0,80,0,0
243963,-100,4,1,0,80,0,0
280571,-100,4,1,0,80,0,1
308106,-99.009900990099,4,1,0,80,0,1
308249,-98.0392156862745,4,1,0,80,0,1
308392,-97.0873786407767,4,1,0,80,0,1
308535,-96.1538461538461,4,1,0,80,0,1
308677,-95.2380952380952,4,1,0,80,0,1
308820,-94.3396226415094,4,1,0,80,0,1
308963,-93.4579439252336,4,1,0,80,0,1
309106,-92.5925925925926,4,1,0,80,0,1
309249,-91.743119266055,4,1,0,80,0,1
309392,-90.9090909090909,4,1,0,80,0,1
309535,-90.0900900900901,4,1,0,80,0,1
309677,-89.2857142857143,4,1,0,80,0,1
309820,-88.4955752212389,4,1,0,80,0,1
309963,-87.719298245614,4,1,0,80,0,1
310106,-86.9565217391304,4,1,0,80,0,1
310249,-86.2068965517241,4,1,0,80,0,1
310392,-85.4700854700855,4,1,0,80,0,1
310535,-84.7457627118644,4,1,0,80,0,1
310677,-84.0336134453781,4,1,0,80,0,1
310820,-83.3333333333333,4,1,0,80,0,1
310963,-82.6446280991736,4,1,0,80,0,1
311106,-81.9672131147541,4,1,0,80,0,1
311249,-81.3008130081301,4,1,0,80,0,1
311392,-80.6451612903226,4,1,0,80,0,1
311535,-80,4,1,0,80,0,1
311677,-79.3650793650794,4,1,0,80,0,1
311820,-78.7401574803149,4,1,0,80,0,1
311963,-78.125,4,1,0,80,0,1
312106,-77.5193798449612,4,1,0,80,0,1
312249,-76.9230769230769,4,1,0,80,0,1
312392,-76.3358778625954,4,1,0,80,0,1
312535,-75.7575757575758,4,1,0,80,0,1
321713,-100,4,1,0,80,0,0

[HitObjects]
256,192,142,5,8,0:0:0:0:
256,192,285,1,8,0:0:0:0:
256,192,428,1,8,0:0:0:0:
256,192,571,1,4,0:0:0:0:
256,192,856,1,8,0:0:0:0:
256,192,1142,1,0,0:0:0:0:
256,192,1428,1,8,0:0:0:0:
256,192,1571,1,0,0:0:0:0:
256,192,1713,1,0,0:0:0:0:
256,192,1856,1,0,0:0:0:0:
256,192,1999,1,8,0:0:0:0:
256,192,2285,1,0,0:0:0:0:
256,192,2571,1,8,0:0:0:0:
256,192,2713,1,0,0:0:0:0:
256,192,2856,1,0,0:0:0:0:
256,192,2999,1,0,0:0:0:0:
256,192,3071,1,0,0:0:0:0:
256,192,3142,1,8,0:0:0:0:
256,192,3428,1,0,0:0:0:0:
256,192,3713,1,8,0:0:0:0:
256,192,3999,1,0,0:0:0:0:
256,192,4285,1,8,0:0:0:0:
256,192,4571,1,0,0:0:0:0:
256,192,4713,1,0,0:0:0:0:
256,192,4761,1,0,0:0:0:0:
256,192,4809,1,0,0:0:0:0:
256,192,4856,1,8,0:0:0:0:
256,192,4999,1,0,0:0:0:0:
256,192,5142,1,4,0:0:0:0:
256,192,5428,1,8,0:0:0:0:
256,192,5571,1,0,0:0:0:0:
256,192,5713,1,0,0:0:0:0:
256,192,5999,1,8,0:0:0:0:
256,192,6285,1,0,0:0:0:0:
256,192,6428,1,0,0:0:0:0:
256,192,6571,1,8,0:0:0:0:
256,192,6856,1,0,0:0:0:0:
256,192,7142,1,8,0:0:0:0:
256,192,7285,1,0,0:0:0:0:
256,192,7428,1,0,0:0:0:0:
256,192,7713,1,8,0:0:0:0:
256,192,7856,1,0,0:0:0:0:
256,192,7999,1,0,0:0:0:0:
256,192,8285,1,8,0:0:0:0:
256,192,8571,1,0,0:0:0:0:
256,192,8785,1,0,0:0:0:0:
256,192,8856,1,8,0:0:0:0:
256,192,8999,1,0,0:0:0:0:
256,192,9142,1,12,0:0:0:0:
256,192,9428,1,12,0:0:0:0:
256,192,9713,1,4,0:0:0:0:
256,192,9999,1,8,0:0:0:0:
256,192,10285,1,0,0:0:0:0:
256,192,10428,1,0,0:0:0:0:
256,192,10571,1,8,0:0:0:0:
256,192,10713,1,0,0:0:0:0:
256,192,10856,1,0,0:0:0:0:
256,192,10999,1,0,0:0:0:0:
256,192,11142,1,8,0:0:0:0:
256,192,11428,1,0,0:0:0:0:
256,192,11571,1,0,0:0:0:0:
256,192,11713,1,8,0:0:0:0:
256,192,11856,1,0,0:0:0:0:
256,192,11999,1,0,0:0:0:0:
256,192,12142,1,0,0:0:0:0:
256,192,12213,1,0,0:0:0:0:
256,192,12285,1,8,0:0:0:0:
256,192,12571,1,0,0:0:0:0:
256,192,12713,1,0,0:0:0:0:
256,192,12856,1,8,0:0:0:0:
256,192,12999,1,0,0:0:0:0:
256,192,13071,1,0,0:0:0:0:
256,192,13142,1,0,0:0:0:0:
256,192,13285,1,0,0:0:0:0:
256,192,13428,1,8,0:0:0:0:
256,192,13713,1,0,0:0:0:0:
256,192,13856,1,0,0:0:0:0:
256,192,13904,1,0,0:0:0:0:
256,192,13951,1,0,0:0:0:0:
256,192,13999,1,8,0:0:0:0:
256,192,14142,1,0,0:0:0:0:
256,192,14285,1,4,0:0:0:0:
256,192,14571,1,8,0:0:0:0:
256,192,14713,1,0,0:0:0:0:
256,192,14856,1,0,0:0:0:0:
256,192,14999,1,0,0:0:0:0:
256,192,15142,1,8,0:0:0:0:
256,192,15428,1,0,0:0:0:0:
256,192,15571,1,0,0:0:0:0:
256,192,15713,1,8,0:0:0:0:
256,192,15856,1,0,0:0:0:0:
256,192,15999,1,0,0:0:0:0:
256,192,16142,1,0,0:0:0:0:
256,192,16285,1,8,0:0:0:0:
256,192,16428,1,0,0:0:0:0:
256,192,16571,1,0,0:0:0:0:
256,192,16856,1,8,0:0:0:0:
256,192,16999,1,0,0:0:0:0:
256,192,17142,1,0,0:0:0:0:
256,192,17285,1,0,0:0:0:0:
256,192,17428,1,8,0:0:0:0:
256,192,17713,1,8,0:0:0:0:
256,192,17928,1,8,0:0:0:0:
256,192,18142,1,8,0:0:0:0:
256,192,18285,1,4,0:0:0:0:
256,192,18428,1,8,0:0:0:0:
256,192,18571,1,8,0:0:0:0:
256,192,18713,1,8,0:0:0:0:
256,192,18856,1,4,0:0:0:0:
256,192,18999,1,8,0:0:0:0:
256,192,19071,1,8,0:0:0:0:
256,192,19142,1,8,0:0:0:0:
256,192,19285,1,8,0:0:0:0:
256,192,19428,1,0,0:0:0:0:
256,192,19499,1,8,0:0:0:0:
256,192,19571,1,0,0:0:0:0:
256,192,19713,1,8,0:0:0:0:
256,192,19856,1,8,0:0:0:0:
256,192,19999,1,0,0:0:0:0:
256,192,20071,1,0,0:0:0:0:
256,192,20142,1,0,0:0:0:0:
256,192,20285,1,8,0:0:0:0:
256,192,20428,1,8,0:0:0:0:
256,192,20571,1,0,0:0:0:0:
256,192,20642,1,8,0:0:0:0:
256,192,20713,1,0,0:0:0:0:
256,192,20856,1,8,0:0:0:0:
256,192,20999,1,8,0:0:0:0:
256,192,21142,1,0,0:0:0:0:
256,192,21285,1,0,0:0:0:0:
256,192,21356,1,0,0:0:0:0:
256,192,21428,1,8,0:0:0:0:
256,192,21571,1,8,0:0:0:0:
256,192,21713,1,0,0:0:0:0:
256,192,21785,1,8,0:0:0:0:
256,192,21856,1,0,0:0:0:0:
256,192,21999,1,8,0:0:0:0:
256,192,22142,1,8,0:0:0:0:
256,192,22285,1,0,0:0:0:0:
256,192,22356,1,0,0:0:0:0:
256,192,22428,1,0,0:0:0:0:
256,192,22571,1,8,0:0:0:0:
256,192,22713,1,8,0:0:0:0:
256,192,22856,1,0,0:0:0:0:
256,192,22999,1,0,0:0:0:0:
256,192,23047,1,0,0:0:0:0:
256,192,23094,1,0,0:0:0:0:
256,192,23142,1,8,0:0:0:0:
256,192,23285,1,8,0:0:0:0:
256,192,23428,1,4,0:0:0:0:
256,192,23571,1,8,0:0:0:0:
256,192,23642,1,8,0:0:0:0:
256,192,23713,1,8,0:0:0:0:
256,192,23856,1,8,0:0:0:0:
256,192,23999,1,0,0:0:0:0:
256,192,24071,1,8,0:0:0:0:
256,192,24142,1,0,0:0:0:0:
256,192,24285,1,8,0:0:0:0:
256,192,24428,1,8,0:0:0:0:
256,192,24571,1,0,0:0:0:0:
256,192,24642,1,0,0:0:0:0:
256,192,24713,1,0,0:0:0:0:
256,192,24856,1,8,0:0:0:0:
256,192,24999,1,8,0:0:0:0:
256,192,25142,1,0,0:0:0:0:
256,192,25213,1,8,0:0:0:0:
256,192,25285,1,0,0:0:0:0:
256,192,25428,1,8,0:0:0:0:
256,192,25571,1,8,0:0:0:0:
256,192,25642,1,8,0:0:0:0:
256,192,25713,1,0,0:0:0:0:
256,192,25856,1,0,0:0:0:0:
256,192,25999,1,8,0:0:0:0:
256,192,26142,1,8,0:0:0:0:
256,192,26285,1,0,0:0:0:0:
256,192,26356,1,8,0:0:0:0:
256,192,26428,1,0,0:0:0:0:
256,192,26499,1,0,0:0:0:0:
256,192,26571,1,8,0:0:0:0:
256,192,26713,1,8,0:0:0:0:
256,192,26856,1,0,0:0:0:0:
256,192,26999,1,8,0:0:0:0:
256,192,27071,1,0,0:0:0:0:
256,192,27142,1,8,0:0:0:0:
256,192,27285,1,0,0:0:0:0:
256,192,27428,1,12,0:0:0:0:
256,192,27713,1,12,0:0:0:0:
256,192,27999,1,4,0:0:0:0:
256,192,28142,1,8,0:0:0:0:
256,192,28213,1,8,0:0:0:0:
256,192,28285,1,8,0:0:0:0:
256,192,28428,1,8,0:0:0:0:
256,192,28499,1,8,0:0:0:0:
256,192,28571,1,0,0:0:0:0:
256,192,28642,1,8,0:0:0:0:
256,192,28713,1,0,0:0:0:0:
256,192,28856,1,8,0:0:0:0:
256,192,28999,1,8,0:0:0:0:
256,192,29071,1,0,0:0:0:0:
256,192,29142,1,0,0:0:0:0:
256,192,29213,1,8,0:0:0:0:
256,192,29285,1,0,0:0:0:0:
256,192,29428,1,8,0:0:0:0:
256,192,29499,1,8,0:0:0:0:
256,192,29571,1,0,0:0:0:0:
256,192,29713,1,0,0:0:0:0:
256,192,29785,1,8,0:0:0:0:
256,192,29856,1,0,0:0:0:0:
256,192,29999,1,8,0:0:0:0:
256,192,30142,1,8,0:0:0:0:
256,192,30213,1,0,0:0:0:0:
256,192,30285,1,0,0:0:0:0:
256,192,30356,1,8,0:0:0:0:
256,192,30428,1,0,0:0:0:0:
256,192,30499,1,0,0:0:0:0:
256,192,30571,1,8,0:0:0:0:
256,192,30713,1,8,0:0:0:0:
256,192,30785,1,0,0:0:0:0:
256,192,30856,1,8,0:0:0:0:
256,192,30928,1,8,0:0:0:0:
256,192,30999,1,0,0:0:0:0:
256,192,31142,1,8,0:0:0:0:
256,192,31285,1,8,0:0:0:0:
256,192,31356,1,0,0:0:0:0:
256,192,31428,1,0,0:0:0:0:
256,192,31499,1,8,0:0:0:0:
256,192,31571,1,0,0:0:0:0:
256,192,31713,1,8,0:0:0:0:
256,192,31785,1,8,0:0:0:0:
256,192,31856,1,0,0:0:0:0:
256,192,31999,1,0,0:0:0:0:
256,192,32071,1,8,0:0:0:0:
256,192,32142,1,0,0:0:0:0:
256,192,32190,1,0,0:0:0:0:
256,192,32237,1,0,0:0:0:0:
256,192,32285,1,8,0:0:0:0:
256,192,32428,1,0,0:0:0:0:
256,192,32571,1,4,0:0:0:0:
256,192,32713,1,8,0:0:0:0:
256,192,32785,1,8,0:0:0:0:
256,192,32856,1,8,0:0:0:0:
256,192,32999,1,8,0:0:0:0:
256,192,33142,1,0,0:0:0:0:
256,192,33213,1,8,0:0:0:0:
256,192,33285,1,0,0:0:0:0:
256,192,33428,1,8,0:0:0:0:
256,192,33571,1,8,0:0:0:0:
256,192,33713,1,0,0:0:0:0:
256,192,33785,1,8,0:0:0:0:
256,192,33856,1,0,0:0:0:0:
256,192,33928,1,0,0:0:0:0:
256,192,33999,1,8,0:0:0:0:
256,192,34071,1,0,0:0:0:0:
256,192,34142,1,8,0:0:0:0:
256,192,34213,1,8,0:0:0:0:
256,192,34285,1,0,0:0:0:0:
256,192,34356,1,0,0:0:0:0:
256,192,34428,1,8,0:0:0:0:
256,192,34499,1,8,0:0:0:0:
256,192,34571,1,8,0:0:0:0:
256,192,34642,1,0,0:0:0:0:
256,192,34713,1,8,0:0:0:0:
256,192,34785,1,8,0:0:0:0:
256,192,34856,1,0,0:0:0:0:
256,192,34928,1,8,0:0:0:0:
256,192,34999,1,0,0:0:0:0:
256,192,35071,1,0,0:0:0:0:
256,192,35142,1,8,0:0:0:0:
256,192,35213,1,0,0:0:0:0:
256,192,35285,1,8,0:0:0:0:
256,192,35356,1,8,0:0:0:0:
256,192,35428,1,0,0:0:0:0:
256,192,35499,1,0,0:0:0:0:
256,192,35571,1,8,0:0:0:0:
256,192,35642,1,0,0:0:0:0:
256,192,35713,1,8,0:0:0:0:
256,192,35785,1,8,0:0:0:0:
256,192,35856,1,0,0:0:0:0:
256,192,35928,1,0,0:0:0:0:
256,192,35999,1,8,0:0:0:0:
256,192,36071,1,0,0:0:0:0:
256,192,36142,1,0,0:0:0:0:
256,192,36213,1,8,0:0:0:0:
256,192,36285,1,0,0:0:0:0:
256,192,36356,1,0,0:0:0:0:
256,192,36428,1,8,0:0:0:0:
256,192,36499,1,8,0:0:0:0:
256,192,36571,1,0,0:0:0:0:
256,192,36713,1,8,0:0:0:0:
256,192,36856,1,8,0:0:0:0:
256,192,36999,1,8,0:0:0:0:
256,192,37142,1,4,0:0:0:0:
256,192,37285,1,0,0:0:0:0:
256,192,37356,1,0,0:0:0:0:
256,192,37428,1,8,0:0:0:0:
256,192,37571,1,0,0:0:0:0:
256,192,37713,1,0,0:0:0:0:
256,192,37785,1,0,0:0:0:0:
256,192,37928,1,0,0:0:0:0:
256,192,37999,1,8,0:0:0:0:
256,192,38142,1,0,0:0:0:0:
256,192,38213,1,0,0:0:0:0:
256,192,38285,1,0,0:0:0:0:
256,192,38356,1,8,0:0:0:0:
256,192,38428,1,0,0:0:0:0:
256,192,38571,1,8,0:0:0:0:
256,192,38713,1,0,0:0:0:0:
256,192,38785,1,0,0:0:0:0:
256,192,38856,1,8,0:0:0:0:
256,192,38928,1,0,0:0:0:0:
256,192,39071,1,0,0:0:0:0:
256,192,39142,1,8,0:0:0:0:
256,192,39285,1,0,0:0:0:0:
256,192,39428,1,0,0:0:0:0:
256,192,39499,1,8,0:0:0:0:
256,192,39571,1,0,0:0:0:0:
256,192,39713,1,8,0:0:0:0:
256,192,39856,1,0,0:0:0:0:
256,192,39999,1,0,0:0:0:0:
256,192,40071,1,0,0:0:0:0:
256,192,40213,1,0,0:0:0:0:
256,192,40285,1,8,0:0:0:0:
256,192,40428,1,0,0:0:0:0:
256,192,40499,1,0,0:0:0:0:
256,192,40571,1,0,0:0:0:0:
256,192,40642,1,8,0:0:0:0:
256,192,40713,1,0,0:0:0:0:
256,192,40856,1,8,0:0:0:0:
256,192,40999,1,0,0:0:0:0:
256,192,41142,1,8,0:0:0:0:
256,192,41213,1,0,0:0:0:0:
256,192,41285,1,0,0:0:0:0:
256,192,41332,1,0,0:0:0:0:
256,192,41380,1,0,0:0:0:0:
256,192,41428,1,8,0:0:0:0:
256,192,41571,1,0,0:0:0:0:
256,192,41713,1,4,0:0:0:0:
256,192,41856,1,0,0:0:0:0:
256,192,41928,1,0,0:0:0:0:
256,192,41999,1,8,0:0:0:0:
256,192,42142,1,0,0:0:0:0:
256,192,42285,1,0,0:0:0:0:
256,192,42356,1,0,0:0:0:0:
256,192,42499,1,0,0:0:0:0:
256,192,42571,1,8,0:0:0:0:
256,192,42713,1,0,0:0:0:0:
256,192,42785,1,0,0:0:0:0:
256,192,42856,1,0,0:0:0:0:
256,192,42928,1,8,0:0:0:0:
256,192,42999,1,0,0:0:0:0:
256,192,43142,1,8,0:0:0:0:
256,192,43285,1,0,0:0:0:0:
256,192,43356,1,0,0:0:0:0:
256,192,43428,1,8,0:0:0:0:
256,192,43499,1,0,0:0:0:0:
256,192,43642,1,0,0:0:0:0:
256,192,43713,1,8,0:0:0:0:
256,192,43856,1,0,0:0:0:0:
256,192,43999,1,0,0:0:0:0:
256,192,44071,1,8,0:0:0:0:
256,192,44142,1,0,0:0:0:0:
256,192,44285,1,8,0:0:0:0:
256,192,44428,1,0,0:0:0:0:
256,192,44571,1,0,0:0:0:0:
256,192,44642,1,0,0:0:0:0:
256,192,44785,1,0,0:0:0:0:
256,192,44856,1,8,0:0:0:0:
256,192,44999,1,0,0:0:0:0:
256,192,45142,1,0,0:0:0:0:
256,192,45213,1,8,0:0:0:0:
256,192,45285,1,0,0:0:0:0:
256,192,45356,1,0,0:0:0:0:
256,192,45428,1,8,0:0:0:0:
256,192,45571,1,0,0:0:0:0:
256,192,45642,1,0,0:0:0:0:
256,192,45713,1,0,0:0:0:0:
256,192,45856,1,0,0:0:0:0:
256,192,45928,1,0,0:0:0:0:
256,192,45999,1,8,0:0:0:0:
256,192,46142,1,8,0:0:0:0:
256,192,46190,1,8,0:0:0:0:
256,192,46237,1,8,0:0:0:0:
256,192,46285,1,0,0:0:0:0:
256,192,46428,1,8,0:0:0:0:
256,192,46499,1,0,0:0:0:0:
256,192,46571,1,8,0:0:0:0:
256,192,46713,1,0,0:0:0:0:
256,192,46856,1,8,0:0:0:0:
256,192,46928,1,0,0:0:0:0:
256,192,47071,1,0,0:0:0:0:
256,192,47142,1,8,0:0:0:0:
256,192,47285,1,0,0:0:0:0:
256,192,47356,1,0,0:0:0:0:
256,192,47428,1,8,0:0:0:0:
256,192,47499,1,8,0:0:0:0:
256,192,47571,1,0,0:0:0:0:
256,192,47713,1,8,0:0:0:0:
256,192,47856,1,0,0:0:0:0:
256,192,47928,1,0,0:0:0:0:
256,192,47999,1,8,0:0:0:0:
256,192,48071,1,0,0:0:0:0:
256,192,48213,1,8,0:0:0:0:
256,192,48285,1,8,0:0:0:0:
256,192,48428,1,8,0:0:0:0:
256,192,48571,1,0,0:0:0:0:
256,192,48642,1,8,0:0:0:0:
256,192,48713,1,0,0:0:0:0:
256,192,48856,1,8,0:0:0:0:
256,192,48999,1,0,0:0:0:0:
256,192,49142,1,8,0:0:0:0:
256,192,49213,1,0,0:0:0:0:
256,192,49356,1,0,0:0:0:0:
256,192,49428,1,8,0:0:0:0:
256,192,49571,1,0,0:0:0:0:
256,192,49642,1,0,0:0:0:0:
256,192,49713,1,8,0:0:0:0:
256,192,49785,1,8,0:0:0:0:
256,192,49856,1,0,0:0:0:0:
256,192,49999,1,8,0:0:0:0:
256,192,50142,1,0,0:0:0:0:
256,192,50213,1,0,0:0:0:0:
256,192,50285,1,8,0:0:0:0:
256,192,50428,1,8,0:0:0:0:
256,192,50475,1,0,0:0:0:0:
256,192,50523,1,0,0:0:0:0:
256,192,50571,1,8,0:0:0:0:
256,192,50713,1,8,0:0:0:0:
256,192,50856,1,4,0:0:0:0:
256,192,50999,1,8,0:0:0:0:
256,192,51071,1,0,0:0:0:0:
256,192,51142,1,8,0:0:0:0:
256,192,51285,1,0,0:0:0:0:
256,192,51428,1,8,0:0:0:0:
256,192,51499,1,0,0:0:0:0:
256,192,51642,1,0,0:0:0:0:
256,192,51713,1,8,0:0:0:0:
256,192,51856,1,0,0:0:0:0:
256,192,51928,1,0,0:0:0:0:
256,192,51999,1,8,0:0:0:0:
256,192,52071,1,8,0:0:0:0:
256,192,52142,1,0,0:0:0:0:
256,192,52285,1,8,0:0:0:0:
256,192,52428,1,0,0:0:0:0:
256,192,52499,1,0,0:0:0:0:
256,192,52571,1,8,0:0:0:0:
256,192,52642,1,0,0:0:0:0:
256,192,52785,1,8,0:0:0:0:
256,192,52856,1,8,0:0:0:0:
256,192,52999,1,8,0:0:0:0:
256,192,53142,1,0,0:0:0:0:
256,192,53213,1,8,0:0:0:0:
256,192,53285,1,0,0:0:0:0:
256,192,53428,1,8,0:0:0:0:
256,192,53571,1,0,0:0:0:0:
256,192,53713,1,8,0:0:0:0:
256,192,53785,1,0,0:0:0:0:
256,192,53928,1,0,0:0:0:0:
256,192,53999,1,8,0:0:0:0:
256,192,54142,1,0,0:0:0:0:
256,192,54213,1,0,0:0:0:0:
256,192,54285,1,0,0:0:0:0:
256,192,54428,1,8,0:0:0:0:
256,192,54499,1,8,0:0:0:0:
256,192,54571,1,0,0:0:0:0:
256,192,54713,1,8,0:0:0:0:
256,192,54856,1,0,0:0:0:0:
256,192,54999,1,8,0:0:0:0:
256,192,55071,1,8,0:0:0:0:
256,192,55142,1,8,0:0:0:0:
256,192,55285,1,8,0:0:0:0:
256,192,55428,1,0,0:0:0:0:
256,192,55499,1,0,0:0:0:0:
256,192,55571,1,8,0:0:0:0:
256,192,55642,1,0,0:0:0:0:
256,192,55713,1,8,0:0:0:0:
256,192,55785,1,8,0:0:0:0:
256,192,55856,1,0,0:0:0:0:
256,192,55928,1,8,0:0:0:0:
256,192,55999,1,0,0:0:0:0:
256,192,56071,1,0,0:0:0:0:
256,192,56142,1,8,0:0:0:0:
256,192,56213,1,8,0:0:0:0:
256,192,56285,1,0,0:0:0:0:
256,192,56356,1,0,0:0:0:0:
256,192,56428,1,8,0:0:0:0:
256,192,56499,1,8,0:0:0:0:
256,192,56571,1,0,0:0:0:0:
256,192,56642,1,0,0:0:0:0:
256,192,56713,1,8,0:0:0:0:
256,192,56785,1,0,0:0:0:0:
256,192,56856,1,8,0:0:0:0:
256,192,56928,1,8,0:0:0:0:
256,192,56999,1,0,0:0:0:0:
256,192,57071,1,8,0:0:0:0:
256,192,57142,1,0,0:0:0:0:
256,192,57213,1,0,0:0:0:0:
256,192,57285,1,8,0:0:0:0:
256,192,57356,1,8,0:0:0:0:
256,192,57428,1,8,0:0:0:0:
256,192,57499,1,0,0:0:0:0:
256,192,57571,1,8,0:0:0:0:
256,192,57642,1,8,0:0:0:0:
256,192,57713,1,0,0:0:0:0:
256,192,57785,1,0,0:0:0:0:
256,192,57856,1,8,0:0:0:0:
256,192,57928,1,0,0:0:0:0:
256,192,57999,1,8,0:0:0:0:
256,192,58071,1,8,0:0:0:0:
256,192,58142,1,0,0:0:0:0:
256,192,58213,1,8,0:0:0:0:
256,192,58285,1,0,0:0:0:0:
256,192,58356,1,0,0:0:0:0:
256,192,58428,1,8,0:0:0:0:
256,192,58499,1,0,0:0:0:0:
256,192,58571,1,8,0:0:0:0:
256,192,58642,1,0,0:0:0:0:
256,192,58713,1,8,0:0:0:0:
256,192,58785,1,8,0:0:0:0:
256,192,58856,1,0,0:0:0:0:
256,192,58928,1,0,0:0:0:0:
256,192,58999,1,8,0:0:0:0:
256,192,59071,1,0,0:0:0:0:
256,192,59142,1,8,0:0:0:0:
256,192,59213,1,8,0:0:0:0:
256,192,59285,1,0,0:0:0:0:
256,192,59356,1,8,0:0:0:0:
256,192,59428,1,0,0:0:0:0:
256,192,59571,1,8,0:0:0:0:
256,192,59618,1,8,0:0:0:0:
256,192,59666,1,8,0:0:0:0:
256,192,59713,1,0,0:0:0:0:
256,192,59856,1,8,0:0:0:0:
256,192,59999,1,0,0:0:0:0:
256,192,60071,1,0,0:0:0:0:
256,192,60142,1,8,0:0:0:0:
256,192,60213,1,0,0:0:0:0:
256,192,60285,1,8,0:0:0:0:
256,192,60356,1,8,0:0:0:0:
256,192,60428,1,0,0:0:0:0:
256,192,60499,1,8,0:0:0:0:
256,192,60571,1,0,0:0:0:0:
256,192,60642,1,0,0:0:0:0:
256,192,60713,1,8,0:0:0:0:
256,192,60785,1,8,0:0:0:0:
256,192,60856,1,0,0:0:0:0:
256,192,60928,1,0,0:0:0:0:
256,192,60999,1,8,0:0:0:0:
256,192,61071,1,8,0:0:0:0:
256,192,61142,1,0,0:0:0:0:
256,192,61213,1,0,0:0:0:0:
256,192,61285,1,8,0:0:0:0:
256,192,61356,1,0,0:0:0:0:
256,192,61428,1,8,0:0:0:0:
256,192,61499,1,8,0:0:0:0:
256,192,61571,1,0,0:0:0:0:
256,192,61642,1,8,0:0:0:0:
256,192,61713,1,0,0:0:0:0:
256,192,61785,1,0,0:0:0:0:
256,192,61856,1,8,0:0:0:0:
256,192,61928,1,8,0:0:0:0:
256,192,61999,1,8,0:0:0:0:
256,192,62071,1,0,0:0:0:0:
256,192,62142,1,8,0:0:0:0:
256,192,62213,1,8,0:0:0:0:
256,192,62285,1,0,0:0:0:0:
256,192,62356,1,0,0:0:0:0:
256,192,62428,1,8,0:0:0:0:
256,192,62499,1,0,0:0:0:0:
256,192,62571,1,8,0:0:0:0:
256,192,62642,1,8,0:0:0:0:
256,192,62713,1,0,0:0:0:0:
256,192,62785,1,8,0:0:0:0:
256,192,62856,1,0,0:0:0:0:
256,192,62928,1,0,0:0:0:0:
256,192,62999,1,8,0:0:0:0:
256,192,63071,1,0,0:0:0:0:
256,192,63142,1,8,0:0:0:0:
256,192,63213,1,0,0:0:0:0:
256,192,63285,1,8,0:0:0:0:
256,192,63356,1,8,0:0:0:0:
256,192,63428,1,0,0:0:0:0:
256,192,63499,1,0,0:0:0:0:
256,192,63571,1,8,0:0:0:0:
256,192,63642,1,0,0:0:0:0:
256,192,63713,1,8,0:0:0:0:
256,192,63856,1,0,0:0:0:0:
256,192,63999,1,0,0:0:0:0:
256,192,64142,1,8,0:0:0:0:
256,192,64213,1,8,0:0:0:0:
256,192,64285,1,0,0:0:0:0:
256,192,64428,1,8,0:0:0:0:
256,192,64571,1,0,0:0:0:0:
256,192,64642,1,8,0:0:0:0:
256,192,64713,1,0,0:0:0:0:
256,192,64785,1,0,0:0:0:0:
256,192,64856,1,8,0:0:0:0:
256,192,64928,1,0,0:0:0:0:
256,192,64999,1,0,0:0:0:0:
256,192,65071,1,8,0:0:0:0:
256,192,65142,1,0,0:0:0:0:
256,192,65213,1,8,0:0:0:0:
256,192,65285,1,8,0:0:0:0:
256,192,65356,1,0,0:0:0:0:
256,192,65428,1,8,0:0:0:0:
256,192,65499,1,0,0:0:0:0:
256,192,65571,1,8,0:0:0:0:
256,192,65642,1,8,0:0:0:0:
256,192,65713,1,0,0:0:0:0:
256,192,65785,1,8,0:0:0:0:
256,192,65856,1,0,0:0:0:0:
256,192,65928,1,0,0:0:0:0:
256,192,65999,1,8,0:0:0:0:
256,192,66071,1,0,0:0:0:0:
256,192,66142,1,0,0:0:0:0:
256,192,66213,1,8,0:0:0:0:
256,192,66285,1,0,0:0:0:0:
256,192,66356,1,8,0:0:0:0:
256,192,66428,1,8,0:0:0:0:
256,192,66499,1,8,0:0:0:0:
256,192,66571,1,0,0:0:0:0:
256,192,66642,1,8,0:0:0:0:
256,192,66713,1,8,0:0:0:0:
256,192,66785,1,8,0:0:0:0:
256,192,66856,1,0,0:0:0:0:
256,192,66928,1,8,0:0:0:0:
256,192,66999,1,0,0:0:0:0:
256,192,67071,1,0,0:0:0:0:
256,192,67142,1,8,0:0:0:0:
256,192,67213,1,0,0:0:0:0:
256,192,67285,1,0,0:0:0:0:
256,192,67356,1,8,0:0:0:0:
256,192,67428,1,0,0:0:0:0:
256,192,67499,1,8,0:0:0:0:
256,192,67571,1,8,0:0:0:0:
256,192,67642,1,0,0:0:0:0:
256,192,67713,1,8,0:0:0:0:
256,192,67785,1,0,0:0:0:0:
256,192,67856,1,8,0:0:0:0:
256,192,67928,1,8,0:0:0:0:
256,192,67999,1,0,0:0:0:0:
256,192,68071,1,8,0:0:0:0:
256,192,68142,1,0,0:0:0:0:
256,192,68213,1,0,0:0:0:0:
256,192,68285,1,8,0:0:0:0:
256,192,68356,1,0,0:0:0:0:
256,192,68428,1,8,0:0:0:0:
256,192,68499,1,8,0:0:0:0:
256,192,68571,1,0,0:0:0:0:
256,192,68713,1,8,0:0:0:0:
256,192,68761,1,8,0:0:0:0:
256,192,68809,1,8,0:0:0:0:
256,192,68856,1,0,0:0:0:0:
256,192,68999,1,8,0:0:0:0:
256,192,69142,1,0,0:0:0:0:
256,192,69213,1,0,0:0:0:0:
256,192,69285,1,8,0:0:0:0:
256,192,69356,1,0,0:0:0:0:
256,192,69428,1,8,0:0:0:0:
256,192,69499,1,0,0:0:0:0:
256,192,69571,1,8,0:0:0:0:
256,192,69642,1,8,0:0:0:0:
256,192,69713,1,0,0:0:0:0:
256,192,69785,1,8,0:0:0:0:
256,192,69856,1,0,0:0:0:0:
256,192,69928,1,0,0:0:0:0:
256,192,69999,1,8,0:0:0:0:
256,192,70071,1,0,0:0:0:0:
256,192,70142,1,8,0:0:0:0:
256,192,70213,1,8,0:0:0:0:
256,192,70285,1,0,0:0:0:0:
256,192,70356,1,0,0:0:0:0:
256,192,70428,1,8,0:0:0:0:
256,192,70499,1,0,0:0:0:0:
256,192,70571,1,8,0:0:0:0:
256,192,70642,1,0,0:0:0:0:
256,192,70713,1,8,0:0:0:0:
256,192,70785,1,8,0:0:0:0:
256,192,70856,1,0,0:0:0:0:
256,192,70928,1,0,0:0:0:0:
256,192,70999,1,8,0:0:0:0:
256,192,71071,1,8,0:0:0:0:
256,192,71142,1,0,0:0:0:0:
256,192,71213,1,0,0:0:0:0:
256,192,71285,1,8,0:0:0:0:
256,192,71356,1,8,0:0:0:0:
256,192,71428,1,0,0:0:0:0:
256,192,71499,1,0,0:0:0:0:
256,192,71571,1,8,0:0:0:0:
256,192,71642,1,0,0:0:0:0:
256,192,71713,1,8,0:0:0:0:
256,192,71785,1,0,0:0:0:0:
256,192,71856,1,8,0:0:0:0:
256,192,71928,1,8,0:0:0:0:
256,192,71999,1,0,0:0:0:0:
256,192,72071,1,8,0:0:0:0:
256,192,72142,1,0,0:0:0:0:
256,192,72213,1,0,0:0:0:0:
256,192,72285,1,8,0:0:0:0:
256,192,72356,1,0,0:0:0:0:
256,192,72428,1,8,0:0:0:0:
256,192,72499,1,8,0:0:0:0:
256,192,72571,1,0,0:0:0:0:
256,192,72642,1,0,0:0:0:0:
256,192,72713,1,8,0:0:0:0:
256,192,72785,1,8,0:0:0:0:
256,192,72856,1,0,0:0:0:0:
256,192,72928,1,0,0:0:0:0:
256,192,72999,1,8,0:0:0:0:
256,192,73071,1,8,0:0:0:0:
256,192,73142,1,0,0:0:0:0:
256,192,73213,1,0,0:0:0:0:
256,192,73285,1,8,0:0:0:0:
256,192,73356,1,8,0:0:0:0:
256,192,73428,1,0,0:0:0:0:
256,192,73499,1,0,0:0:0:0:
256,192,73571,1,8,0:0:0:0:
256,192,73618,1,8,0:0:0:0:
256,192,73666,1,8,0:0:0:0:
256,192,73713,1,0,0:0:0:0:
256,192,74856,1,12,0:0:0:0:
256,192,75999,1,12,0:0:0:0:
256,192,76285,1,12,0:0:0:0:
256,192,76571,1,0,0:0:0:0:
256,192,76856,1,0,0:0:0:0:
256,192,76928,1,0,0:0:0:0:
256,192,76999,1,0,0:0:0:0:
256,192,77071,1,0,0:0:0:0:
256,192,77142,1,12,0:0:0:0:
256,192,77999,1,12,0:0:0:0:
256,192,78142,1,12,0:0:0:0:
256,192,78285,1,12,0:0:0:0:
256,192,78856,1,0,0:0:0:0:
256,192,78928,1,0,0:0:0:0:
256,192,78999,1,0,0:0:0:0:
256,192,79071,1,0,0:0:0:0:
256,192,79142,1,0,0:0:0:0:
256,192,79213,1,0,0:0:0:0:
256,192,79285,1,0,0:0:0:0:
256,192,79356,1,0,0:0:0:0:
256,192,79428,1,12,0:0:0:0:
256,192,80571,1,12,0:0:0:0:
256,192,80856,1,12,0:0:0:0:
256,192,81142,1,0,0:0:0:0:
256,192,81428,1,0,0:0:0:0:
256,192,81499,1,0,0:0:0:0:
256,192,81571,1,0,0:0:0:0:
256,192,81642,1,0,0:0:0:0:
256,192,81713,1,12,0:0:0:0:
256,192,82571,1,12,0:0:0:0:
256,192,82713,1,12,0:0:0:0:
256,192,82856,1,12,0:0:0:0:
256,192,83428,1,0,0:0:0:0:
256,192,83499,1,0,0:0:0:0:
256,192,83571,1,0,0:0:0:0:
256,192,83642,1,0,0:0:0:0:
256,192,83713,1,0,0:0:0:0:
256,192,83785,1,0,0:0:0:0:
256,192,83856,1,0,0:0:0:0:
256,192,83928,1,0,0:0:0:0:
256,192,83999,1,12,0:0:0:0:
256,192,85142,1,12,0:0:0:0:
256,192,85428,1,12,0:0:0:0:
256,192,85713,1,0,0:0:0:0:
256,192,85999,1,0,0:0:0:0:
256,192,86071,1,0,0:0:0:0:
256,192,86142,1,0,0:0:0:0:
256,192,86213,1,0,0:0:0:0:
256,192,86285,1,12,0:0:0:0:
256,192,87142,1,12,0:0:0:0:
256,192,87285,1,12,0:0:0:0:
256,192,87428,1,12,0:0:0:0:
256,192,87999,1,0,0:0:0:0:
256,192,88071,1,0,0:0:0:0:
256,192,88142,1,0,0:0:0:0:
256,192,88213,1,0,0:0:0:0:
256,192,88285,1,0,0:0:0:0:
256,192,88356,1,0,0:0:0:0:
256,192,88428,1,0,0:0:0:0:
256,192,88499,1,0,0:0:0:0:
256,192,88571,1,12,0:0:0:0:
256,192,89713,1,12,0:0:0:0:
256,192,89999,1,12,0:0:0:0:
256,192,90285,1,0,0:0:0:0:
256,192,90571,1,0,0:0:0:0:
256,192,90642,1,0,0:0:0:0:
256,192,90713,1,0,0:0:0:0:
256,192,90785,1,0,0:0:0:0:
256,192,90856,1,12,0:0:0:0:
256,192,91713,1,12,0:0:0:0:
256,192,91856,1,12,0:0:0:0:
256,192,91999,1,12,0:0:0:0:
256,192,92571,1,0,0:0:0:0:
256,192,92642,1,0,0:0:0:0:
256,192,92713,1,0,0:0:0:0:
256,192,92785,1,0,0:0:0:0:
256,192,92856,1,0,0:0:0:0:
256,192,92928,1,0,0:0:0:0:
256,192,92999,1,0,0:0:0:0:
256,192,93071,1,0,0:0:0:0:
256,192,93142,1,12,0:0:0:0:
256,192,93285,12,0,95142,0:0:0:0:
256,192,95428,5,12,0:0:0:0:
256,192,96285,1,12,0:0:0:0:
256,192,96428,1,12,0:0:0:0:
256,192,96571,1,12,0:0:0:0:
256,192,97142,1,0,0:0:0:0:
256,192,97213,1,0,0:0:0:0:
256,192,97285,1,0,0:0:0:0:
256,192,97356,1,0,0:0:0:0:
256,192,97428,1,0,0:0:0:0:
256,192,97499,1,0,0:0:0:0:
256,192,97571,1,0,0:0:0:0:
256,192,97642,1,0,0:0:0:0:
256,192,97713,1,12,0:0:0:0:
256,192,97856,12,0,99713,0:0:0:0:
256,192,99999,12,0,101428,0:0:0:0:
256,192,101713,5,0,0:0:0:0:
256,192,101785,1,0,0:0:0:0:
256,192,101856,1,0,0:0:0:0:
256,192,101928,1,0,0:0:0:0:
256,192,101999,1,0,0:0:0:0:
256,192,102071,1,0,0:0:0:0:
256,192,102142,1,0,0:0:0:0:
256,192,102213,1,0,0:0:0:0:
256,192,102285,1,12,0:0:0:0:
256,192,103428,5,12,0:0:0:0:
256,192,103713,1,12,0:0:0:0:
256,192,103999,1,0,0:0:0:0:
256,192,104285,1,0,0:0:0:0:
256,192,104356,1,0,0:0:0:0:
256,192,104428,1,0,0:0:0:0:
256,192,104499,1,0,0:0:0:0:
256,192,104571,1,12,0:0:0:0:
256,192,105428,1,12,0:0:0:0:
256,192,105571,1,12,0:0:0:0:
256,192,105713,1,12,0:0:0:0:
256,192,106285,1,0,0:0:0:0:
256,192,106356,1,0,0:0:0:0:
256,192,106428,1,0,0:0:0:0:
256,192,106499,1,0,0:0:0:0:
256,192,106571,1,0,0:0:0:0:
256,192,106642,1,0,0:0:0:0:
256,192,106713,1,0,0:0:0:0:
256,192,106785,1,0,0:0:0:0:
256,192,106856,1,12,0:0:0:0:
256,192,106999,12,12,111142,0:0:0:0:
256,192,111428,5,12,0:0:0:0:
256,192,113713,1,8,0:0:0:0:
256,192,114285,1,8,0:0:0:0:
256,192,114856,1,8,0:0:0:0:
256,192,115428,1,8,0:0:0:0:
256,192,115999,1,8,0:0:0:0:
256,192,118285,1,8,0:0:0:0:
256,192,119999,1,8,0:0:0:0:
256,192,120285,1,8,0:0:0:0:
256,192,120571,1,8,0:0:0:0:
256,192,121713,1,8,0:0:0:0:
256,192,122285,1,8,0:0:0:0:
256,192,122856,1,8,0:0:0:0:
256,192,123999,1,8,0:0:0:0:
256,192,125142,1,12,0:0:0:0:
256,192,126285,1,12,0:0:0:0:
256,192,126571,1,12,0:0:0:0:
256,192,126856,1,0,0:0:0:0:
256,192,127142,1,0,0:0:0:0:
256,192,127213,1,0,0:0:0:0:
256,192,127285,1,0,0:0:0:0:
256,192,127356,1,0,0:0:0:0:
256,192,127428,1,12,0:0:0:0:
256,192,127571,12,0,129428,0:0:0:0:
256,192,129713,5,4,0:0:0:0:
256,192,130571,1,4,0:0:0:0:
256,192,130713,1,4,0:0:0:0:
256,192,130856,1,4,0:0:0:0:
256,192,131428,1,4,0:0:0:0:
256,192,131999,1,4,0:0:0:0:
256,192,133713,1,0,0:0:0:0:
256,192,133856,1,8,0:0:0:0:
256,192,133928,1,0,0:0:0:0:
256,192,133999,1,8,0:0:0:0:
256,192,134047,1,0,0:0:0:0:
256,192,134094,1,0,0:0:0:0:
256,192,134142,1,8,0:0:0:0:
256,192,134190,1,0,0:0:0:0:
256,192,134237,1,0,0:0:0:0:
256,192,134285,1,8,0:0:0:0:
256,192,134356,1,0,0:0:0:0:
256,192,134428,1,0,0:0:0:0:
256,192,134499,1,8,0:0:0:0:
256,192,134571,1,0,0:0:0:0:
256,192,134642,1,0,0:0:0:0:
256,192,134713,1,8,0:0:0:0:
256,192,134785,1,0,0:0:0:0:
256,192,134856,1,8,0:0:0:0:
256,192,134928,1,8,0:0:0:0:
256,192,134999,1,0,0:0:0:0:
256,192,135071,1,8,0:0:0:0:
256,192,135142,1,8,0:0:0:0:
256,192,135213,1,8,0:0:0:0:
256,192,135285,1,0,0:0:0:0:
256,192,135356,1,0,0:0:0:0:
256,192,135428,1,8,0:0:0:0:
256,192,135499,1,0,0:0:0:0:
256,192,135571,1,0,0:0:0:0:
256,192,135642,1,8,0:0:0:0:
256,192,135713,1,0,0:0:0:0:
256,192,135785,1,0,0:0:0:0:
256,192,135856,1,8,0:0:0:0:
256,192,135928,1,0,0:0:0:0:
256,192,135999,1,8,0:0:0:0:
256,192,136071,1,8,0:0:0:0:
256,192,136142,1,0,0:0:0:0:
256,192,136213,1,8,0:0:0:0:
256,192,136285,1,0,0:0:0:0:
256,192,136356,1,0,0:0:0:0:
256,192,136428,1,8,0:0:0:0:
256,192,136499,1,0,0:0:0:0:
256,192,136571,1,8,0:0:0:0:
256,192,136642,1,0,0:0:0:0:
256,192,136713,1,0,0:0:0:0:
256,192,136785,1,8,0:0:0:0:
256,192,136856,1,0,0:0:0:0:
256,192,136928,1,0,0:0:0:0:
256,192,136999,1,8,0:0:0:0:
256,192,137071,1,0,0:0:0:0:
256,192,137142,1,8,0:0:0:0:
256,192,137213,1,8,0:0:0:0:
256,192,137285,1,0,0:0:0:0:
256,192,137356,1,8,0:0:0:0:
256,192,137428,1,0,0:0:0:0:
256,192,137499,1,0,0:0:0:0:
256,192,137571,1,8,0:0:0:0:
256,192,137642,1,0,0:0:0:0:
256,192,137713,1,8,0:0:0:0:
256,192,137785,1,0,0:0:0:0:
256,192,137856,1,0,0:0:0:0:
256,192,137928,1,8,0:0:0:0:
256,192,137999,1,0,0:0:0:0:
256,192,138071,1,0,0:0:0:0:
256,192,138142,1,8,0:0:0:0:
256,192,138213,1,0,0:0:0:0:
256,192,138285,1,8,0:0:0:0:
256,192,138428,1,0,0:0:0:0:
256,192,138475,1,0,0:0:0:0:
256,192,138523,1,0,0:0:0:0:
256,192,138571,1,8,0:0:0:0:
256,192,138713,1,0,0:0:0:0:
256,192,138856,1,8,0:0:0:0:
256,192,138928,1,0,0:0:0:0:
256,192,138999,1,0,0:0:0:0:
256,192,139071,1,8,0:0:0:0:
256,192,139142,1,0,0:0:0:0:
256,192,139213,1,0,0:0:0:0:
256,192,139285,1,8,0:0:0:0:
256,192,139356,1,0,0:0:0:0:
256,192,139428,1,8,0:0:0:0:
256,192,139499,1,8,0:0:0:0:
256,192,139571,1,0,0:0:0:0:
256,192,139642,1,8,0:0:0:0:
256,192,139713,1,8,0:0:0:0:
256,192,139785,1,8,0:0:0:0:
256,192,139856,1,0,0:0:0:0:
256,192,139928,1,0,0:0:0:0:
256,192,139999,1,8,0:0:0:0:
256,192,140071,1,0,0:0:0:0:
256,192,140142,1,0,0:0:0:0:
256,192,140213,1,8,0:0:0:0:
256,192,140285,1,8,0:0:0:0:
256,192,140356,1,8,0:0:0:0:
256,192,140428,1,0,0:0:0:0:
256,192,140499,1,0,0:0:0:0:
256,192,140571,1,8,0:0:0:0:
256,192,140642,1,0,0:0:0:0:
256,192,140713,1,0,0:0:0:0:
256,192,140785,1,8,0:0:0:0:
256,192,140856,1,0,0:0:0:0:
256,192,140928,1,0,0:0:0:0:
256,192,140999,1,8,0:0:0:0:
256,192,141071,1,0,0:0:0:0:
256,192,141142,1,8,0:0:0:0:
256,192,141213,1,8,0:0:0:0:
256,192,141285,1,0,0:0:0:0:
256,192,141356,1,8,0:0:0:0:
256,192,141428,1,8,0:0:0:0:
256,192,141499,1,8,0:0:0:0:
256,192,141571,1,0,0:0:0:0:
256,192,141642,1,0,0:0:0:0:
256,192,141713,1,8,0:0:0:0:
256,192,141785,1,0,0:0:0:0:
256,192,141856,1,0,0:0:0:0:
256,192,141928,1,8,0:0:0:0:
256,192,141999,1,0,0:0:0:0:
256,192,142071,1,0,0:0:0:0:
256,192,142142,1,8,0:0:0:0:
256,192,142213,1,0,0:0:0:0:
256,192,142285,1,8,0:0:0:0:
256,192,142428,1,0,0:0:0:0:
256,192,142499,1,0,0:0:0:0:
256,192,142571,1,8,0:0:0:0:
256,192,142713,1,0,0:0:0:0:
256,192,142785,1,0,0:0:0:0:
256,192,142856,1,8,0:0:0:0:
256,192,142928,1,0,0:0:0:0:
256,192,142999,1,8,0:0:0:0:
256,192,143071,1,8,0:0:0:0:
256,192,143142,1,0,0:0:0:0:
256,192,143285,1,8,0:0:0:0:
256,192,143428,1,8,0:0:0:0:
256,192,143499,1,0,0:0:0:0:
256,192,143571,1,0,0:0:0:0:
256,192,143642,1,8,0:0:0:0:
256,192,143713,1,0,0:0:0:0:
256,192,143785,1,0,0:0:0:0:
256,192,143856,1,8,0:0:0:0:
256,192,143928,1,0,0:0:0:0:
256,192,143999,1,8,0:0:0:0:
256,192,144071,1,8,0:0:0:0:
256,192,144142,1,0,0:0:0:0:
256,192,144213,1,8,0:0:0:0:
256,192,144285,1,8,0:0:0:0:
256,192,144356,1,8,0:0:0:0:
256,192,144428,1,0,0:0:0:0:
256,192,144499,1,0,0:0:0:0:
256,192,144571,1,8,0:0:0:0:
256,192,144642,1,0,0:0:0:0:
256,192,144713,1,0,0:0:0:0:
256,192,144785,1,8,0:0:0:0:
256,192,144856,1,8,0:0:0:0:
256,192,144928,1,8,0:0:0:0:
256,192,144999,1,0,0:0:0:0:
256,192,145071,1,0,0:0:0:0:
256,192,145142,1,8,0:0:0:0:
256,192,145213,1,0,0:0:0:0:
256,192,145285,1,0,0:0:0:0:
256,192,145356,1,8,0:0:0:0:
256,192,145428,1,0,0:0:0:0:
256,192,145499,1,0,0:0:0:0:
256,192,145571,1,8,0:0:0:0:
256,192,145642,1,0,0:0:0:0:
256,192,145713,1,8,0:0:0:0:
256,192,145785,1,8,0:0:0:0:
256,192,145856,1,0,0:0:0:0:
256,192,145928,1,8,0:0:0:0:
256,192,145999,1,0,0:0:0:0:
256,192,146071,1,0,0:0:0:0:
256,192,146142,1,8,0:0:0:0:
256,192,146213,1,0,0:0:0:0:
256,192,146285,1,8,0:0:0:0:
256,192,146356,1,8,0:0:0:0:
256,192,146428,1,0,0:0:0:0:
256,192,146499,1,8,0:0:0:0:
256,192,146571,1,8,0:0:0:0:
256,192,146642,1,8,0:0:0:0:
256,192,146713,1,0,0:0:0:0:
256,192,146785,1,0,0:0:0:0:
256,192,146856,1,8,0:0:0:0:
256,192,146928,1,0,0:0:0:0:
256,192,146999,1,0,0:0:0:0:
256,192,147071,1,8,0:0:0:0:
256,192,147142,1,0,0:0:0:0:
256,192,147213,1,0,0:0:0:0:
256,192,147285,1,8,0:0:0:0:
256,192,147356,1,0,0:0:0:0:
256,192,147428,1,8,0:0:0:0:
256,192,147571,1,0,0:0:0:0:
256,192,147618,1,8,0:0:0:0:
256,192,147666,1,8,0:0:0:0:
256,192,147713,1,0,0:0:0:0:
256,192,147856,1,0,0:0:0:0:
256,192,147999,1,8,0:0:0:0:
256,192,148071,1,8,0:0:0:0:
256,192,148142,1,0,0:0:0:0:
256,192,148213,1,8,0:0:0:0:
256,192,148285,1,0,0:0:0:0:
256,192,148356,1,0,0:0:0:0:
256,192,148428,1,8,0:0:0:0:
256,192,148499,1,0,0:0:0:0:
256,192,148571,1,8,0:0:0:0:
256,192,148642,1,8,0:0:0:0:
256,192,148713,1,0,0:0:0:0:
256,192,148785,1,8,0:0:0:0:
256,192,148856,1,8,0:0:0:0:
256,192,148928,1,8,0:0:0:0:
256,192,148999,1,0,0:0:0:0:
256,192,149071,1,0,0:0:0:0:
256,192,149142,1,8,0:0:0:0:
256,192,149213,1,8,0:0:0:0:
256,192,149285,1,0,0:0:0:0:
256,192,149356,1,8,0:0:0:0:
256,192,149428,1,0,0:0:0:0:
256,192,149499,1,0,0:0:0:0:
256,192,149571,1,8,0:0:0:0:
256,192,149642,1,8,0:0:0:0:
256,192,149713,1,0,0:0:0:0:
256,192,149785,1,0,0:0:0:0:
256,192,149856,1,0,0:0:0:0:
256,192,149928,1,8,0:0:0:0:
256,192,149999,1,0,0:0:0:0:
256,192,150071,1,0,0:0:0:0:
256,192,150142,1,8,0:0:0:0:
256,192,150213,1,0,0:0:0:0:
256,192,150285,1,8,0:0:0:0:
256,192,150356,1,8,0:0:0:0:
256,192,150428,1,0,0:0:0:0:
256,192,150499,1,8,0:0:0:0:
256,192,150571,1,0,0:0:0:0:
256,192,150642,1,0,0:0:0:0:
256,192,150713,1,8,0:0:0:0:
256,192,150785,1,0,0:0:0:0:
256,192,150856,1,8,0:0:0:0:
256,192,150928,1,8,0:0:0:0:
256,192,150999,1,0,0:0:0:0:
256,192,151071,1,8,0:0:0:0:
256,192,151142,1,0,0:0:0:0:
256,192,151213,1,0,0:0:0:0:
256,192,151285,1,8,0:0:0:0:
256,192,151356,1,0,0:0:0:0:
256,192,151428,1,8,0:0:0:0:
256,192,151571,1,8,0:0:0:0:
256,192,151642,1,8,0:0:0:0:
256,192,151713,1,0,0:0:0:0:
256,192,151856,1,8,0:0:0:0:
256,192,151928,1,8,0:0:0:0:
256,192,151999,1,8,0:0:0:0:
256,192,152142,1,0,0:0:0:0:
256,192,152213,1,8,0:0:0:0:
256,192,152285,1,8,0:0:0:0:
256,192,152428,1,0,0:0:0:0:
256,192,152571,1,8,0:0:0:0:
256,192,152642,1,0,0:0:0:0:
256,192,152713,1,0,0:0:0:0:
256,192,152785,1,8,0:0:0:0:
256,192,152856,1,0,0:0:0:0:
256,192,152928,1,0,0:0:0:0:
256,192,152999,1,8,0:0:0:0:
256,192,153071,1,0,0:0:0:0:
256,192,153142,1,8,0:0:0:0:
256,192,153213,1,8,0:0:0:0:
256,192,153285,1,0,0:0:0:0:
256,192,153356,1,8,0:0:0:0:
256,192,153428,1,8,0:0:0:0:
256,192,153499,1,8,0:0:0:0:
256,192,153571,1,0,0:0:0:0:
256,192,153642,1,0,0:0:0:0:
256,192,153713,1,8,0:0:0:0:
256,192,153785,1,0,0:0:0:0:
256,192,153856,1,0,0:0:0:0:
256,192,153928,1,8,0:0:0:0:
256,192,153999,1,0,0:0:0:0:
256,192,154071,1,0,0:0:0:0:
256,192,154142,1,8,0:0:0:0:
256,192,154213,1,0,0:0:0:0:
256,192,154285,1,8,0:0:0:0:
256,192,154356,1,8,0:0:0:0:
256,192,154428,1,0,0:0:0:0:
256,192,154499,1,8,0:0:0:0:
256,192,154571,1,0,0:0:0:0:
256,192,154642,1,0,0:0:0:0:
256,192,154713,1,8,0:0:0:0:
256,192,154785,1,0,0:0:0:0:
256,192,154856,1,8,0:0:0:0:
256,192,154928,1,0,0:0:0:0:
256,192,154999,1,0,0:0:0:0:
256,192,155071,1,8,0:0:0:0:
256,192,155142,1,0,0:0:0:0:
256,192,155213,1,0,0:0:0:0:
256,192,155285,1,8,0:0:0:0:
256,192,155356,1,0,0:0:0:0:
256,192,155428,1,8,0:0:0:0:
256,192,155499,1,8,0:0:0:0:
256,192,155571,1,0,0:0:0:0:
256,192,155642,1,8,0:0:0:0:
256,192,155713,1,0,0:0:0:0:
256,192,155785,1,0,0:0:0:0:
256,192,155856,1,8,0:0:0:0:
256,192,155928,1,0,0:0:0:0:
256,192,155999,1,8,0:0:0:0:
256,192,156071,1,0,0:0:0:0:
256,192,156142,1,0,0:0:0:0:
256,192,156213,1,8,0:0:0:0:
256,192,156285,1,0,0:0:0:0:
256,192,156356,1,0,0:0:0:0:
256,192,156428,1,8,0:0:0:0:
256,192,156499,1,0,0:0:0:0:
256,192,156571,1,8,0:0:0:0:
256,192,156713,1,0,0:0:0:0:
256,192,156761,1,0,0:0:0:0:
256,192,156809,1,0,0:0:0:0:
256,192,156856,1,8,0:0:0:0:
256,192,156999,1,0,0:0:0:0:
256,192,157142,1,8,0:0:0:0:
256,192,157213,1,0,0:0:0:0:
256,192,157285,1,0,0:0:0:0:
256,192,157356,1,8,0:0:0:0:
256,192,157428,1,0,0:0:0:0:
256,192,157499,1,0,0:0:0:0:
256,192,157571,1,8,0:0:0:0:
256,192,157642,1,0,0:0:0:0:
256,192,157713,1,8,0:0:0:0:
256,192,157785,1,8,0:0:0:0:
256,192,157856,1,0,0:0:0:0:
256,192,157928,1,8,0:0:0:0:
256,192,157999,1,8,0:0:0:0:
256,192,158071,1,8,0:0:0:0:
256,192,158142,1,0,0:0:0:0:
256,192,158213,1,0,0:0:0:0:
256,192,158285,1,8,0:0:0:0:
256,192,158356,1,0,0:0:0:0:
256,192,158428,1,0,0:0:0:0:
256,192,158499,1,8,0:0:0:0:
256,192,158571,1,8,0:0:0:0:
256,192,158642,1,8,0:0:0:0:
256,192,158713,1,0,0:0:0:0:
256,192,158785,1,0,0:0:0:0:
256,192,158856,1,8,0:0:0:0:
256,192,158928,1,0,0:0:0:0:
256,192,158999,1,0,0:0:0:0:
256,192,159071,1,8,0:0:0:0:
256,192,159142,1,0,0:0:0:0:
256,192,159213,1,0,0:0:0:0:
256,192,159285,1,8,0:0:0:0:
256,192,159356,1,0,0:0:0:0:
256,192,159428,1,8,0:0:0:0:
256,192,159499,1,8,0:0:0:0:
256,192,159571,1,0,0:0:0:0:
256,192,159642,1,8,0:0:0:0:
256,192,159713,1,8,0:0:0:0:
256,192,159785,1,8,0:0:0:0:
256,192,159856,1,0,0:0:0:0:
256,192,159928,1,0,0:0:0:0:
256,192,159999,1,8,0:0:0:0:
256,192,160071,1,0,0:0:0:0:
256,192,160142,1,0,0:0:0:0:
256,192,160213,1,8,0:0:0:0:
256,192,160285,1,0,0:0:0:0:
256,192,160356,1,0,0:0:0:0:
256,192,160428,1,8,0:0:0:0:
256,192,160499,1,0,0:0:0:0:
256,192,160571,1,8,0:0:0:0:
256,192,160713,1,0,0:0:0:0:
256,192,160785,1,0,0:0:0:0:
256,192,160856,1,8,0:0:0:0:
256,192,160999,1,0,0:0:0:0:
256,192,161071,1,0,0:0:0:0:
256,192,161142,1,8,0:0:0:0:
256,192,161213,1,0,0:0:0:0:
256,192,161285,1,8,0:0:0:0:
256,192,161356,1,8,0:0:0:0:
256,192,161428,1,0,0:0:0:0:
256,192,161571,1,8,0:0:0:0:
256,192,161713,1,8,0:0:0:0:
256,192,161785,1,0,0:0:0:0:
256,192,161856,1,0,0:0:0:0:
256,192,161928,1,8,0:0:0:0:
256,192,161999,1,0,0:0:0:0:
256,192,162071,1,0,0:0:0:0:
256,192,162142,1,8,0:0:0:0:
256,192,162213,1,0,0:0:0:0:
256,192,162285,1,8,0:0:0:0:
256,192,162356,1,8,0:0:0:0:
256,192,162428,1,0,0:0:0:0:
256,192,162499,1,8,0:0:0:0:
256,192,162571,1,8,0:0:0:0:
256,192,162642,1,8,0:0:0:0:
256,192,162713,1,0,0:0:0:0:
256,192,162785,1,0,0:0:0:0:
256,192,162856,1,8,0:0:0:0:
256,192,162928,1,0,0:0:0:0:
256,192,162999,1,0,0:0:0:0:
256,192,163071,1,8,0:0:0:0:
256,192,163142,1,8,0:0:0:0:
256,192,163213,1,8,0:0:0:0:
256,192,163285,1,0,0:0:0:0:
256,192,163356,1,0,0:0:0:0:
256,192,163428,1,8,0:0:0:0:
256,192,163499,1,0,0:0:0:0:
256,192,163571,1,0,0:0:0:0:
256,192,163642,1,8,0:0:0:0:
256,192,163713,1,0,0:0:0:0:
256,192,163785,1,0,0:0:0:0:
256,192,163856,1,8,0:0:0:0:
256,192,163928,1,0,0:0:0:0:
256,192,163999,1,8,0:0:0:0:
256,192,164071,1,8,0:0:0:0:
256,192,164142,1,0,0:0:0:0:
256,192,164213,1,8,0:0:0:0:
256,192,164285,1,0,0:0:0:0:
256,192,164356,1,0,0:0:0:0:
256,192,164428,1,8,0:0:0:0:
256,192,164499,1,0,0:0:0:0:
256,192,164571,1,8,0:0:0:0:
256,192,164642,1,8,0:0:0:0:
256,192,164713,1,0,0:0:0:0:
256,192,164785,1,8,0:0:0:0:
256,192,164856,1,8,0:0:0:0:
256,192,164928,1,8,0:0:0:0:
256,192,164999,1,0,0:0:0:0:
256,192,165071,1,0,0:0:0:0:
256,192,165142,1,8,0:0:0:0:
256,192,165213,1,0,0:0:0:0:
256,192,165285,1,0,0:0:0:0:
256,192,165356,1,8,0:0:0:0:
256,192,165428,1,0,0:0:0:0:
256,192,165499,1,0,0:0:0:0:
256,192,165571,1,8,0:0:0:0:
256,192,165642,1,0,0:0:0:0:
256,192,165713,1,8,0:0:0:0:
256,192,165856,1,0,0:0:0:0:
256,192,165904,1,8,0:0:0:0:
256,192,165951,1,8,0:0:0:0:
256,192,165999,1,0,0:0:0:0:
256,192,166142,1,0,0:0:0:0:
256,192,166285,1,8,0:0:0:0:
256,192,166356,1,8,0:0:0:0:
256,192,166428,1,0,0:0:0:0:
256,192,166499,1,8,0:0:0:0:
256,192,166571,1,0,0:0:0:0:
256,192,166642,1,0,0:0:0:0:
256,192,166713,1,8,0:0:0:0:
256,192,166785,1,0,0:0:0:0:
256,192,166856,1,8,0:0:0:0:
256,192,166928,1,8,0:0:0:0:
256,192,166999,1,0,0:0:0:0:
256,192,167071,1,8,0:0:0:0:
256,192,167142,1,8,0:0:0:0:
256,192,167213,1,8,0:0:0:0:
256,192,167285,1,0,0:0:0:0:
256,192,167356,1,0,0:0:0:0:
256,192,167428,1,8,0:0:0:0:
256,192,167499,1,8,0:0:0:0:
256,192,167571,1,0,0:0:0:0:
256,192,167642,1,8,0:0:0:0:
256,192,167713,1,0,0:0:0:0:
256,192,167785,1,0,0:0:0:0:
256,192,167856,1,8,0:0:0:0:
256,192,167928,1,8,0:0:0:0:
256,192,167999,1,0,0:0:0:0:
256,192,168071,1,0,0:0:0:0:
256,192,168142,1,0,0:0:0:0:
256,192,168213,1,8,0:0:0:0:
256,192,168285,1,0,0:0:0:0:
256,192,168356,1,0,0:0:0:0:
256,192,168428,1,8,0:0:0:0:
256,192,168499,1,0,0:0:0:0:
256,192,168571,1,8,0:0:0:0:
256,192,168642,1,8,0:0:0:0:
256,192,168713,1,0,0:0:0:0:
256,192,168785,1,8,0:0:0:0:
256,192,168856,1,0,0:0:0:0:
256,192,168928,1,0,0:0:0:0:
256,192,168999,1,8,0:0:0:0:
256,192,169071,1,0,0:0:0:0:
256,192,169142,1,8,0:0:0:0:
256,192,169213,1,8,0:0:0:0:
256,192,169285,1,0,0:0:0:0:
256,192,169356,1,8,0:0:0:0:
256,192,169428,1,0,0:0:0:0:
256,192,169499,1,0,0:0:0:0:
256,192,169571,1,8,0:0:0:0:
256,192,169642,1,0,0:0:0:0:
256,192,169713,1,8,0:0:0:0:
256,192,169928,1,0,0:0:0:0:
256,192,170142,1,0,0:0:0:0:
256,192,170285,1,8,0:0:0:0:
256,192,170428,1,0,0:0:0:0:
256,192,170499,1,0,0:0:0:0:
256,192,170571,1,0,0:0:0:0:
256,192,170713,1,0,0:0:0:0:
256,192,170856,1,8,0:0:0:0:
256,192,170928,1,8,0:0:0:0:
256,192,170999,1,0,0:0:0:0:
256,192,171071,1,8,0:0:0:0:
256,192,171142,1,0,0:0:0:0:
256,192,171213,1,0,0:0:0:0:
256,192,171285,1,8,0:0:0:0:
256,192,171356,1,0,0:0:0:0:
256,192,171428,1,8,0:0:0:0:
256,192,171499,1,8,0:0:0:0:
256,192,171571,1,0,0:0:0:0:
256,192,171642,1,8,0:0:0:0:
256,192,171713,1,8,0:0:0:0:
256,192,171785,1,8,0:0:0:0:
256,192,171856,1,0,0:0:0:0:
256,192,171928,1,0,0:0:0:0:
256,192,171999,1,8,0:0:0:0:
256,192,172071,1,8,0:0:0:0:
256,192,172142,1,0,0:0:0:0:
256,192,172213,1,8,0:0:0:0:
256,192,172285,1,0,0:0:0:0:
256,192,172356,1,0,0:0:0:0:
256,192,172428,1,8,0:0:0:0:
256,192,172499,1,0,0:0:0:0:
256,192,172571,1,8,0:0:0:0:
256,192,172642,1,8,0:0:0:0:
256,192,172713,1,0,0:0:0:0:
256,192,172785,1,8,0:0:0:0:
256,192,172856,1,8,0:0:0:0:
256,192,172928,1,0,0:0:0:0:
256,192,172999,1,8,0:0:0:0:
256,192,173071,1,0,0:0:0:0:
256,192,173142,1,8,0:0:0:0:
256,192,173213,1,8,0:0:0:0:
256,192,173285,1,0,0:0:0:0:
256,192,173356,1,8,0:0:0:0:
256,192,173428,1,0,0:0:0:0:
256,192,173499,1,0,0:0:0:0:
256,192,173571,1,8,0:0:0:0:
256,192,173642,1,0,0:0:0:0:
256,192,173713,1,8,0:0:0:0:
256,192,173785,1,0,0:0:0:0:
256,192,173856,1,0,0:0:0:0:
256,192,173928,1,8,0:0:0:0:
256,192,173999,1,0,0:0:0:0:
256,192,174071,1,0,0:0:0:0:
256,192,174142,1,8,0:0:0:0:
256,192,174213,1,0,0:0:0:0:
256,192,174285,1,8,0:0:0:0:
256,192,174356,1,8,0:0:0:0:
256,192,174428,1,0,0:0:0:0:
256,192,174499,1,8,0:0:0:0:
256,192,174571,1,0,0:0:0:0:
256,192,174642,1,0,0:0:0:0:
256,192,174713,1,8,0:0:0:0:
256,192,174785,1,0,0:0:0:0:
256,192,174856,1,8,0:0:0:0:
256,192,174999,1,0,0:0:0:0:
256,192,175047,1,0,0:0:0:0:
256,192,175094,1,0,0:0:0:0:
256,192,175142,1,8,0:0:0:0:
256,192,175285,1,0,0:0:0:0:
256,192,175428,1,8,0:0:0:0:
256,192,175499,1,8,0:0:0:0:
256,192,175571,1,0,0:0:0:0:
256,192,175642,1,8,0:0:0:0:
256,192,175713,1,0,0:0:0:0:
256,192,175785,1,0,0:0:0:0:
256,192,175856,1,8,0:0:0:0:
256,192,175928,1,0,0:0:0:0:
256,192,175999,1,8,0:0:0:0:
256,192,176071,1,8,0:0:0:0:
256,192,176142,1,0,0:0:0:0:
256,192,176213,1,8,0:0:0:0:
256,192,176285,1,8,0:0:0:0:
256,192,176356,1,8,0:0:0:0:
256,192,176428,1,0,0:0:0:0:
256,192,176499,1,0,0:0:0:0:
256,192,176571,1,8,0:0:0:0:
256,192,176642,1,8,0:0:0:0:
256,192,176713,1,0,0:0:0:0:
256,192,176785,1,8,0:0:0:0:
256,192,176856,1,8,0:0:0:0:
256,192,176928,1,8,0:0:0:0:
256,192,176999,1,0,0:0:0:0:
256,192,177071,1,0,0:0:0:0:
256,192,177142,1,8,0:0:0:0:
256,192,177213,1,8,0:0:0:0:
256,192,177285,1,0,0:0:0:0:
256,192,177356,1,8,0:0:0:0:
256,192,177428,1,0,0:0:0:0:
256,192,177499,1,0,0:0:0:0:
256,192,177571,1,8,0:0:0:0:
256,192,177642,1,0,0:0:0:0:
256,192,177713,1,8,0:0:0:0:
256,192,177785,1,8,0:0:0:0:
256,192,177856,1,0,0:0:0:0:
256,192,177928,1,8,0:0:0:0:
256,192,177999,1,8,0:0:0:0:
256,192,178071,1,8,0:0:0:0:
256,192,178142,1,0,0:0:0:0:
256,192,178213,1,0,0:0:0:0:
256,192,178285,1,8,0:0:0:0:
256,192,178356,1,8,0:0:0:0:
256,192,178428,1,0,0:0:0:0:
256,192,178499,1,8,0:0:0:0:
256,192,178571,1,0,0:0:0:0:
256,192,178642,1,0,0:0:0:0:
256,192,178713,1,8,0:0:0:0:
256,192,178785,1,0,0:0:0:0:
256,192,178856,1,8,0:0:0:0:
256,192,178999,1,0,0:0:0:0:
256,192,179071,1,0,0:0:0:0:
256,192,179142,1,8,0:0:0:0:
256,192,179285,1,0,0:0:0:0:
256,192,179356,1,0,0:0:0:0:
256,192,179428,1,8,0:0:0:0:
256,192,179499,1,0,0:0:0:0:
256,192,179571,1,8,0:0:0:0:
256,192,179642,1,8,0:0:0:0:
256,192,179713,1,0,0:0:0:0:
256,192,179856,1,8,0:0:0:0:
256,192,179999,1,8,0:0:0:0:
256,192,180071,1,8,0:0:0:0:
256,192,180142,1,0,0:0:0:0:
256,192,180213,1,8,0:0:0:0:
256,192,180285,1,0,0:0:0:0:
256,192,180356,1,0,0:0:0:0:
256,192,180428,1,8,0:0:0:0:
256,192,180499,1,0,0:0:0:0:
256,192,180571,1,8,0:0:0:0:
256,192,180642,1,8,0:0:0:0:
256,192,180713,1,0,0:0:0:0:
256,192,180785,1,8,0:0:0:0:
256,192,180856,1,8,0:0:0:0:
256,192,180928,1,8,0:0:0:0:
256,192,180999,1,0,0:0:0:0:
256,192,181071,1,0,0:0:0:0:
256,192,181142,1,8,0:0:0:0:
256,192,181213,1,8,0:0:0:0:
256,192,181285,1,0,0:0:0:0:
256,192,181356,1,8,0:0:0:0:
256,192,181428,1,8,0:0:0:0:
256,192,181499,1,8,0:0:0:0:
256,192,181571,1,0,0:0:0:0:
256,192,181642,1,0,0:0:0:0:
256,192,181713,1,8,0:0:0:0:
256,192,181785,1,8,0:0:0:0:
256,192,181856,1,0,0:0:0:0:
256,192,181928,1,8,0:0:0:0:
256,192,181999,1,0,0:0:0:0:
256,192,182071,1,0,0:0:0:0:
256,192,182142,1,8,0:0:0:0:
256,192,182213,1,0,0:0:0:0:
256,192,182285,1,8,0:0:0:0:
256,192,182356,1,8,0:0:0:0:
256,192,182428,1,0,0:0:0:0:
256,192,182499,1,8,0:0:0:0:
256,192,182571,1,0,0:0:0:0:
256,192,182642,1,0,0:0:0:0:
256,192,182713,1,8,0:0:0:0:
256,192,182785,1,0,0:0:0:0:
256,192,182856,1,8,0:0:0:0:
256,192,182928,1,8,0:0:0:0:
256,192,182999,1,0,0:0:0:0:
256,192,183071,1,8,0:0:0:0:
256,192,183142,1,8,0:0:0:0:
256,192,183213,1,8,0:0:0:0:
256,192,183285,1,0,0:0:0:0:
256,192,183356,1,0,0:0:0:0:
256,192,183428,1,8,0:0:0:0:
256,192,183499,1,8,0:0:0:0:
256,192,183571,1,0,0:0:0:0:
256,192,183642,1,8,0:0:0:0:
256,192,183713,1,0,0:0:0:0:
256,192,183785,1,0,0:0:0:0:
256,192,183856,1,8,0:0:0:0:
256,192,183928,1,0,0:0:0:0:
256,192,183999,1,8,0:0:0:0:
256,192,184142,1,0,0:0:0:0:
256,192,184190,1,8,0:0:0:0:
256,192,184237,1,8,0:0:0:0:
256,192,184285,1,0,0:0:0:0:
256,192,184428,1,0,0:0:0:0:
256,192,184571,1,8,0:0:0:0:
256,192,184642,1,8,0:0:0:0:
256,192,184713,1,0,0:0:0:0:
256,192,184785,1,8,0:0:0:0:
256,192,184856,1,0,0:0:0:0:
256,192,184928,1,0,0:0:0:0:
256,192,184999,1,8,0:0:0:0:
256,192,185071,1,0,0:0:0:0:
256,192,185142,1,8,0:0:0:0:
256,192,185213,1,8,0:0:0:0:
256,192,185285,1,0,0:0:0:0:
256,192,185356,1,8,0:0:0:0:
256,192,185428,1,8,0:0:0:0:
256,192,185499,1,8,0:0:0:0:
256,192,185571,1,0,0:0:0:0:
256,192,185642,1,0,0:0:0:0:
256,192,185713,1,8,0:0:0:0:
256,192,185785,1,8,0:0:0:0:
256,192,185856,1,0,0:0:0:0:
256,192,185928,1,8,0:0:0:0:
256,192,185999,1,0,0:0:0:0:
256,192,186071,1,0,0:0:0:0:
256,192,186142,1,8,0:0:0:0:
256,192,186213,1,8,0:0:0:0:
256,192,186285,1,0,0:0:0:0:
256,192,186356,1,0,0:0:0:0:
256,192,186428,1,0,0:0:0:0:
256,192,186499,1,8,0:0:0:0:
256,192,186571,1,0,0:0:0:0:
256,192,186642,1,0,0:0:0:0:
256,192,186713,1,8,0:0:0:0:
256,192,186785,1,0,0:0:0:0:
256,192,186856,1,8,0:0:0:0:
256,192,186928,1,8,0:0:0:0:
256,192,186999,1,0,0:0:0:0:
256,192,187071,1,8,0:0:0:0:
256,192,187142,1,0,0:0:0:0:
256,192,187213,1,0,0:0:0:0:
256,192,187285,1,8,0:0:0:0:
256,192,187356,1,0,0:0:0:0:
256,192,187428,1,8,0:0:0:0:
256,192,187499,1,8,0:0:0:0:
256,192,187571,1,0,0:0:0:0:
256,192,187642,1,8,0:0:0:0:
256,192,187713,1,0,0:0:0:0:
256,192,187785,1,0,0:0:0:0:
256,192,187856,1,8,0:0:0:0:
256,192,187928,1,0,0:0:0:0:
256,192,187999,1,8,0:0:0:0:
256,192,188142,1,8,0:0:0:0:
256,192,188213,1,8,0:0:0:0:
256,192,188285,1,0,0:0:0:0:
256,192,188428,1,8,0:0:0:0:
256,192,188499,1,8,0:0:0:0:
256,192,188571,1,8,0:0:0:0:
256,192,188713,1,0,0:0:0:0:
256,192,188785,1,8,0:0:0:0:
256,192,188856,1,8,0:0:0:0:
256,192,188999,1,0,0:0:0:0:
256,192,189142,1,8,0:0:0:0:
256,192,189213,1,8,0:0:0:0:
256,192,189285,1,0,0:0:0:0:
256,192,189356,1,8,0:0:0:0:
256,192,189428,1,0,0:0:0:0:
256,192,189499,1,0,0:0:0:0:
256,192,189571,1,8,0:0:0:0:
256,192,189642,1,0,0:0:0:0:
256,192,189713,1,8,0:0:0:0:
256,192,189785,1,8,0:0:0:0:
256,192,189856,1,0,0:0:0:0:
256,192,189928,1,8,0:0:0:0:
256,192,189999,1,8,0:0:0:0:
256,192,190071,1,8,0:0:0:0:
256,192,190142,1,0,0:0:0:0:
256,192,190213,1,0,0:0:0:0:
256,192,190285,1,8,0:0:0:0:
256,192,190356,1,8,0:0:0:0:
256,192,190428,1,0,0:0:0:0:
256,192,190499,1,8,0:0:0:0:
256,192,190571,1,0,0:0:0:0:
256,192,190642,1,0,0:0:0:0:
256,192,190713,1,8,0:0:0:0:
256,192,190785,1,0,0:0:0:0:
256,192,190856,1,8,0:0:0:0:
256,192,190928,1,8,0:0:0:0:
256,192,190999,1,0,0:0:0:0:
256,192,191071,1,8,0:0:0:0:
256,192,191142,1,8,0:0:0:0:
256,192,191213,1,0,0:0:0:0:
256,192,191285,1,8,0:0:0:0:
256,192,191356,1,0,0:0:0:0:
256,192,191428,1,8,0:0:0:0:
256,192,191499,1,8,0:0:0:0:
256,192,191571,1,0,0:0:0:0:
256,192,191642,1,8,0:0:0:0:
256,192,191713,1,0,0:0:0:0:
256,192,191785,1,0,0:0:0:0:
256,192,191856,1,8,0:0:0:0:
256,192,191928,1,0,0:0:0:0:
256,192,191999,1,8,0:0:0:0:
256,192,192071,1,0,0:0:0:0:
256,192,192142,1,0,0:0:0:0:
256,192,192213,1,8,0:0:0:0:
256,192,192285,1,0,0:0:0:0:
256,192,192356,1,0,0:0:0:0:
256,192,192428,1,8,0:0:0:0:
256,192,192499,1,0,0:0:0:0:
256,192,192571,1,8,0:0:0:0:
256,192,192642,1,8,0:0:0:0:
256,192,192713,1,0,0:0:0:0:
256,192,192785,1,8,0:0:0:0:
256,192,192856,1,0,0:0:0:0:
256,192,192928,1,0,0:0:0:0:
256,192,192999,1,8,0:0:0:0:
256,192,193071,1,0,0:0:0:0:
256,192,193142,1,8,0:0:0:0:
256,192,193285,1,0,0:0:0:0:
256,192,193332,1,0,0:0:0:0:
256,192,193380,1,0,0:0:0:0:
256,192,193428,1,8,0:0:0:0:
256,192,193571,1,0,0:0:0:0:
256,192,193713,1,8,0:0:0:0:
256,192,193785,1,8,0:0:0:0:
256,192,193856,1,0,0:0:0:0:
256,192,193928,1,8,0:0:0:0:
256,192,193999,1,0,0:0:0:0:
256,192,194071,1,0,0:0:0:0:
256,192,194142,1,8,0:0:0:0:
256,192,194213,1,0,0:0:0:0:
256,192,194285,1,8,0:0:0:0:
256,192,194356,1,8,0:0:0:0:
256,192,194428,1,0,0:0:0:0:
256,192,194499,1,8,0:0:0:0:
256,192,194571,1,8,0:0:0:0:
256,192,194642,1,8,0:0:0:0:
256,192,194713,1,0,0:0:0:0:
256,192,194785,1,0,0:0:0:0:
256,192,194856,1,8,0:0:0:0:
256,192,194928,1,8,0:0:0:0:
256,192,194999,1,0,0:0:0:0:
256,192,195071,1,8,0:0:0:0:
256,192,195142,1,8,0:0:0:0:
256,192,195213,1,8,0:0:0:0:
256,192,195285,1,0,0:0:0:0:
256,192,195356,1,0,0:0:0:0:
256,192,195428,1,8,0:0:0:0:
256,192,195499,1,8,0:0:0:0:
256,192,195571,1,0,0:0:0:0:
256,192,195642,1,8,0:0:0:0:
256,192,195713,1,0,0:0:0:0:
256,192,195785,1,0,0:0:0:0:
256,192,195856,1,8,0:0:0:0:
256,192,195928,1,0,0:0:0:0:
256,192,195999,1,8,0:0:0:0:
256,192,196071,1,8,0:0:0:0:
256,192,196142,1,0,0:0:0:0:
256,192,196213,1,8,0:0:0:0:
256,192,196285,1,8,0:0:0:0:
256,192,196356,1,8,0:0:0:0:
256,192,196428,1,0,0:0:0:0:
256,192,196499,1,0,0:0:0:0:
256,192,196571,1,8,0:0:0:0:
256,192,196642,1,8,0:0:0:0:
256,192,196713,1,0,0:0:0:0:
256,192,196785,1,8,0:0:0:0:
256,192,196856,1,0,0:0:0:0:
256,192,196928,1,0,0:0:0:0:
256,192,196999,1,8,0:0:0:0:
256,192,197071,1,0,0:0:0:0:
256,192,197142,1,8,0:0:0:0:
256,192,197285,1,0,0:0:0:0:
256,192,197356,1,0,0:0:0:0:
256,192,197428,1,8,0:0:0:0:
256,192,197571,1,0,0:0:0:0:
256,192,197642,1,0,0:0:0:0:
256,192,197713,1,8,0:0:0:0:
256,192,197785,1,0,0:0:0:0:
256,192,197856,1,8,0:0:0:0:
256,192,197928,1,8,0:0:0:0:
256,192,197999,1,0,0:0:0:0:
256,192,198142,1,8,0:0:0:0:
256,192,198190,1,0,0:0:0:0:
256,192,198237,1,0,0:0:0:0:
256,192,198285,1,8,0:0:0:0:
256,192,198428,1,0,0:0:0:0:
256,192,198499,1,8,0:0:0:0:
256,192,198571,1,0,0:0:0:0:
256,192,198713,1,8,0:0:0:0:
256,192,198856,1,8,0:0:0:0:
256,192,198999,1,0,0:0:0:0:
256,192,199071,1,0,0:0:0:0:
256,192,199142,1,0,0:0:0:0:
256,192,199213,1,8,0:0:0:0:
256,192,199285,1,0,0:0:0:0:
256,192,199428,1,8,0:0:0:0:
256,192,199571,1,0,0:0:0:0:
256,192,199642,1,8,0:0:0:0:
256,192,199713,1,8,0:0:0:0:
256,192,199856,1,0,0:0:0:0:
256,192,199999,1,8,0:0:0:0:
256,192,200142,1,0,0:0:0:0:
256,192,200213,1,0,0:0:0:0:
256,192,200285,1,0,0:0:0:0:
256,192,200428,1,0,0:0:0:0:
256,192,200571,1,8,0:0:0:0:
256,192,200713,1,0,0:0:0:0:
256,192,200785,1,8,0:0:0:0:
256,192,200856,1,0,0:0:0:0:
256,192,200999,1,8,0:0:0:0:
256,192,201142,1,8,0:0:0:0:
256,192,201285,1,0,0:0:0:0:
256,192,201356,1,0,0:0:0:0:
256,192,201428,1,0,0:0:0:0:
256,192,201499,1,8,0:0:0:0:
256,192,201571,1,0,0:0:0:0:
256,192,201713,1,8,0:0:0:0:
256,192,201856,1,0,0:0:0:0:
256,192,201928,1,8,0:0:0:0:
256,192,201999,1,0,0:0:0:0:
256,192,202071,1,0,0:0:0:0:
256,192,202142,1,8,0:0:0:0:
256,192,202213,1,0,0:0:0:0:
256,192,202285,1,8,0:0:0:0:
256,192,202428,1,0,0:0:0:0:
256,192,202476,1,8,0:0:0:0:
256,192,202523,1,8,0:0:0:0:
256,192,202571,1,0,0:0:0:0:
256,192,202714,1,0,0:0:0:0:
256,192,202856,1,12,0:0:0:0:
256,192,203071,1,4,0:0:0:0:
256,192,203285,1,12,0:0:0:0:
256,192,203428,1,12,0:0:0:0:
256,192,203642,1,12,0:0:0:0:
256,192,203856,1,4,0:0:0:0:
256,192,203999,1,12,0:0:0:0:
256,192,204213,1,4,0:0:0:0:
256,192,204428,1,12,0:0:0:0:
256,192,204571,1,4,0:0:0:0:
256,192,204785,1,4,0:0:0:0:
256,192,204999,1,12,0:0:0:0:
256,192,205142,1,12,0:0:0:0:
256,192,205285,12,0,207285,0:0:0:0:
256,192,207428,5,0,0:0:0:0:
256,192,207571,1,0,0:0:0:0:
256,192,207713,1,8,0:0:0:0:
256,192,207856,1,0,0:0:0:0:
256,192,208142,1,0,0:0:0:0:
256,192,208285,1,8,0:0:0:0:
256,192,208428,1,0,0:0:0:0:
256,192,208571,1,0,0:0:0:0:
256,192,208642,1,8,0:0:0:0:
256,192,208713,1,0,0:0:0:0:
256,192,208856,1,8,0:0:0:0:
256,192,208999,1,0,0:0:0:0:
256,192,209285,1,0,0:0:0:0:
256,192,209428,1,8,0:0:0:0:
256,192,209571,1,0,0:0:0:0:
256,192,209713,1,0,0:0:0:0:
256,192,209785,1,0,0:0:0:0:
256,192,209928,1,0,0:0:0:0:
256,192,209999,1,8,0:0:0:0:
256,192,210142,1,0,0:0:0:0:
256,192,210428,1,0,0:0:0:0:
256,192,210571,1,8,0:0:0:0:
256,192,210713,1,0,0:0:0:0:
256,192,210785,1,8,0:0:0:0:
256,192,210856,1,0,0:0:0:0:
256,192,210999,1,0,0:0:0:0:
256,192,211142,1,8,0:0:0:0:
256,192,211285,1,0,0:0:0:0:
256,192,211428,1,8,0:0:0:0:
256,192,211499,1,8,0:0:0:0:
256,192,211642,1,0,0:0:0:0:
256,192,211713,1,8,0:0:0:0:
256,192,211856,1,8,0:0:0:0:
256,192,211928,1,8,0:0:0:0:
256,192,211999,1,0,0:0:0:0:
256,192,212142,1,0,0:0:0:0:
256,192,212285,1,8,0:0:0:0:
256,192,212428,1,0,0:0:0:0:
256,192,212713,1,0,0:0:0:0:
256,192,212856,1,8,0:0:0:0:
256,192,212999,1,0,0:0:0:0:
256,192,213142,1,0,0:0:0:0:
256,192,213213,1,8,0:0:0:0:
256,192,213285,1,0,0:0:0:0:
256,192,213428,1,8,0:0:0:0:
256,192,213571,1,0,0:0:0:0:
256,192,213856,1,0,0:0:0:0:
256,192,213999,1,8,0:0:0:0:
256,192,214142,1,0,0:0:0:0:
256,192,214285,1,0,0:0:0:0:
256,192,214356,1,0,0:0:0:0:
256,192,214499,1,0,0:0:0:0:
256,192,214571,1,8,0:0:0:0:
256,192,214713,1,0,0:0:0:0:
256,192,214999,1,0,0:0:0:0:
256,192,215142,1,8,0:0:0:0:
256,192,215285,1,8,0:0:0:0:
256,192,215356,1,8,0:0:0:0:
256,192,215428,1,0,0:0:0:0:
256,192,215571,1,0,0:0:0:0:
256,192,215713,1,8,0:0:0:0:
256,192,215856,1,0,0:0:0:0:
256,192,215999,1,8,0:0:0:0:
256,192,216142,1,8,0:0:0:0:
256,192,216213,1,0,0:0:0:0:
256,192,216285,1,8,0:0:0:0:
256,192,216332,1,0,0:0:0:0:
256,192,216380,1,0,0:0:0:0:
256,192,216428,1,8,0:0:0:0:
256,192,216475,1,8,0:0:0:0:
256,192,216523,1,8,0:0:0:0:
256,192,216571,1,0,0:0:0:0:
256,192,216713,1,0,0:0:0:0:
256,192,216785,1,0,0:0:0:0:
256,192,216856,1,8,0:0:0:0:
256,192,216999,1,0,0:0:0:0:
256,192,217142,1,0,0:0:0:0:
256,192,217356,1,0,0:0:0:0:
256,192,217428,1,8,0:0:0:0:
256,192,217571,1,0,0:0:0:0:
256,192,217642,1,0,0:0:0:0:
256,192,217713,1,0,0:0:0:0:
256,192,217856,1,0,0:0:0:0:
256,192,217999,1,8,0:0:0:0:
256,192,218142,1,0,0:0:0:0:
256,192,218285,1,0,0:0:0:0:
256,192,218499,1,0,0:0:0:0:
256,192,218571,1,8,0:0:0:0:
256,192,218713,1,0,0:0:0:0:
256,192,218856,1,0,0:0:0:0:
256,192,218928,1,8,0:0:0:0:
256,192,218999,1,0,0:0:0:0:
256,192,219071,1,0,0:0:0:0:
256,192,219142,1,8,0:0:0:0:
256,192,219285,1,0,0:0:0:0:
256,192,219428,1,0,0:0:0:0:
256,192,219642,1,0,0:0:0:0:
256,192,219713,1,8,0:0:0:0:
256,192,219856,1,0,0:0:0:0:
256,192,219928,1,0,0:0:0:0:
256,192,219999,1,0,0:0:0:0:
256,192,220142,1,0,0:0:0:0:
256,192,220285,1,8,0:0:0:0:
256,192,220428,1,0,0:0:0:0:
256,192,220571,1,8,0:0:0:0:
256,192,220713,1,0,0:0:0:0:
256,192,220761,1,0,0:0:0:0:
256,192,220808,1,0,0:0:0:0:
256,192,220856,1,8,0:0:0:0:
256,192,220999,1,0,0:0:0:0:
256,192,221142,1,4,0:0:0:0:
256,192,221285,1,0,0:0:0:0:
256,192,221356,1,0,0:0:0:0:
256,192,221428,1,8,0:0:0:0:
256,192,221571,1,0,0:0:0:0:
256,192,221713,1,0,0:0:0:0:
256,192,221928,1,0,0:0:0:0:
256,192,221999,1,8,0:0:0:0:
256,192,222142,1,0,0:0:0:0:
256,192,222213,1,0,0:0:0:0:
256,192,222285,1,0,0:0:0:0:
256,192,222428,1,0,0:0:0:0:
256,192,222571,1,8,0:0:0:0:
256,192,222713,1,0,0:0:0:0:
256,192,222856,1,0,0:0:0:0:
256,192,223071,1,0,0:0:0:0:
256,192,223142,1,8,0:0:0:0:
256,192,223285,1,0,0:0:0:0:
256,192,223356,1,8,0:0:0:0:
256,192,223428,1,0,0:0:0:0:
256,192,223499,1,8,0:0:0:0:
256,192,223571,1,0,0:0:0:0:
256,192,223713,1,8,0:0:0:0:
256,192,223856,1,0,0:0:0:0:
256,192,223999,1,0,0:0:0:0:
256,192,224213,1,0,0:0:0:0:
256,192,224285,1,8,0:0:0:0:
256,192,224428,1,0,0:0:0:0:
256,192,224499,1,0,0:0:0:0:
256,192,224571,1,8,0:0:0:0:
256,192,224785,1,8,0:0:0:0:
256,192,224999,1,8,0:0:0:0:
256,192,225142,1,4,0:0:0:0:
256,192,225428,1,4,0:0:0:0:
256,192,225713,1,0,0:0:0:0:
256,192,225785,1,0,0:0:0:0:
256,192,225856,1,8,0:0:0:0:
256,192,225928,1,0,0:0:0:0:
256,192,225999,1,8,0:0:0:0:
256,192,226071,1,8,0:0:0:0:
256,192,226142,1,0,0:0:0:0:
256,192,226213,1,8,0:0:0:0:
256,192,226285,1,0,0:0:0:0:
256,192,226356,1,0,0:0:0:0:
256,192,226428,1,8,0:0:0:0:
256,192,226499,1,8,0:0:0:0:
256,192,226571,1,0,0:0:0:0:
256,192,226642,1,0,0:0:0:0:
256,192,226713,1,8,0:0:0:0:
256,192,226785,1,8,0:0:0:0:
256,192,226856,1,0,0:0:0:0:
256,192,226928,1,0,0:0:0:0:
256,192,226999,1,8,0:0:0:0:
256,192,227071,1,0,0:0:0:0:
256,192,227142,1,8,0:0:0:0:
256,192,227213,1,8,0:0:0:0:
256,192,227285,1,0,0:0:0:0:
256,192,227356,1,8,0:0:0:0:
256,192,227428,1,0,0:0:0:0:
256,192,227499,1,0,0:0:0:0:
256,192,227571,1,8,0:0:0:0:
256,192,227642,1,8,0:0:0:0:
256,192,227713,1,8,0:0:0:0:
256,192,227785,1,0,0:0:0:0:
256,192,227856,1,8,0:0:0:0:
256,192,227928,1,8,0:0:0:0:
256,192,227999,1,0,0:0:0:0:
256,192,228071,1,0,0:0:0:0:
256,192,228142,1,8,0:0:0:0:
256,192,228213,1,0,0:0:0:0:
256,192,228285,1,8,0:0:0:0:
256,192,228356,1,8,0:0:0:0:
256,192,228428,1,0,0:0:0:0:
256,192,228499,1,8,0:0:0:0:
256,192,228571,1,0,0:0:0:0:
256,192,228642,1,0,0:0:0:0:
256,192,228713,1,8,0:0:0:0:
256,192,228785,1,0,0:0:0:0:
256,192,228856,1,8,0:0:0:0:
256,192,228928,1,0,0:0:0:0:
256,192,228999,1,8,0:0:0:0:
256,192,229071,1,8,0:0:0:0:
256,192,229142,1,0,0:0:0:0:
256,192,229213,1,0,0:0:0:0:
256,192,229285,1,8,0:0:0:0:
256,192,229356,1,0,0:0:0:0:
256,192,229428,1,8,0:0:0:0:
256,192,229499,1,8,0:0:0:0:
256,192,229571,1,0,0:0:0:0:
256,192,229642,1,8,0:0:0:0:
256,192,229713,1,0,0:0:0:0:
256,192,229856,1,8,0:0:0:0:
256,192,229904,1,8,0:0:0:0:
256,192,229951,1,8,0:0:0:0:
256,192,229999,1,0,0:0:0:0:
256,192,230142,1,8,0:0:0:0:
256,192,230285,1,0,0:0:0:0:
256,192,230356,1,0,0:0:0:0:
256,192,230428,1,8,0:0:0:0:
256,192,230499,1,0,0:0:0:0:
256,192,230571,1,8,0:0:0:0:
256,192,230642,1,8,0:0:0:0:
256,192,230713,1,0,0:0:0:0:
256,192,230785,1,8,0:0:0:0:
256,192,230856,1,0,0:0:0:0:
256,192,230928,1,0,0:0:0:0:
256,192,230999,1,8,0:0:0:0:
256,192,231071,1,8,0:0:0:0:
256,192,231142,1,0,0:0:0:0:
256,192,231213,1,0,0:0:0:0:
256,192,231285,1,8,0:0:0:0:
256,192,231356,1,8,0:0:0:0:
256,192,231428,1,0,0:0:0:0:
256,192,231499,1,0,0:0:0:0:
256,192,231571,1,8,0:0:0:0:
256,192,231642,1,0,0:0:0:0:
256,192,231713,1,8,0:0:0:0:
256,192,231785,1,8,0:0:0:0:
256,192,231856,1,0,0:0:0:0:
256,192,231928,1,8,0:0:0:0:
256,192,231999,1,0,0:0:0:0:
256,192,232071,1,0,0:0:0:0:
256,192,232142,1,8,0:0:0:0:
256,192,232213,1,8,0:0:0:0:
256,192,232285,1,8,0:0:0:0:
256,192,232356,1,0,0:0:0:0:
256,192,232428,1,8,0:0:0:0:
256,192,232499,1,8,0:0:0:0:
256,192,232571,1,0,0:0:0:0:
256,192,232642,1,0,0:0:0:0:
256,192,232713,1,8,0:0:0:0:
256,192,232785,1,0,0:0:0:0:
256,192,232856,1,8,0:0:0:0:
256,192,232928,1,8,0:0:0:0:
256,192,232999,1,0,0:0:0:0:
256,192,233071,1,8,0:0:0:0:
256,192,233142,1,0,0:0:0:0:
256,192,233213,1,0,0:0:0:0:
256,192,233285,1,8,0:0:0:0:
256,192,233356,1,0,0:0:0:0:
256,192,233428,1,8,0:0:0:0:
256,192,233499,1,0,0:0:0:0:
256,192,233571,1,8,0:0:0:0:
256,192,233642,1,8,0:0:0:0:
256,192,233713,1,0,0:0:0:0:
256,192,233856,1,8,0:0:0:0:
256,192,233928,1,0,0:0:0:0:
256,192,233999,1,0,0:0:0:0:
256,192,234142,1,8,0:0:0:0:
256,192,234213,1,8,0:0:0:0:
256,192,234285,1,0,0:0:0:0:
256,192,234428,1,8,0:0:0:0:
256,192,234499,1,8,0:0:0:0:
256,192,234571,1,8,0:0:0:0:
256,192,234713,1,8,0:0:0:0:
256,192,234856,1,0,0:0:0:0:
256,192,234928,1,8,0:0:0:0:
256,192,234999,1,0,0:0:0:0:
256,192,235071,1,0,0:0:0:0:
256,192,235142,1,8,0:0:0:0:
256,192,235213,1,0,0:0:0:0:
256,192,235285,1,0,0:0:0:0:
256,192,235356,1,8,0:0:0:0:
256,192,235428,1,0,0:0:0:0:
256,192,235499,1,8,0:0:0:0:
256,192,235571,1,8,0:0:0:0:
256,192,235642,1,0,0:0:0:0:
256,192,235713,1,8,0:0:0:0:
256,192,235785,1,0,0:0:0:0:
256,192,235856,1,8,0:0:0:0:
256,192,235928,1,8,0:0:0:0:
256,192,235999,1,0,0:0:0:0:
256,192,236071,1,8,0:0:0:0:
256,192,236142,1,0,0:0:0:0:
256,192,236213,1,0,0:0:0:0:
256,192,236285,1,8,0:0:0:0:
256,192,236356,1,0,0:0:0:0:
256,192,236428,1,0,0:0:0:0:
256,192,236499,1,8,0:0:0:0:
256,192,236571,1,0,0:0:0:0:
256,192,236642,1,8,0:0:0:0:
256,192,236713,1,8,0:0:0:0:
256,192,236785,1,8,0:0:0:0:
256,192,236856,1,0,0:0:0:0:
256,192,236928,1,8,0:0:0:0:
256,192,236999,1,8,0:0:0:0:
256,192,237071,1,8,0:0:0:0:
256,192,237142,1,0,0:0:0:0:
256,192,237213,1,8,0:0:0:0:
256,192,237285,1,0,0:0:0:0:
256,192,237356,1,0,0:0:0:0:
256,192,237428,1,8,0:0:0:0:
256,192,237499,1,0,0:0:0:0:
256,192,237571,1,0,0:0:0:0:
256,192,237642,1,8,0:0:0:0:
256,192,237713,1,0,0:0:0:0:
256,192,237785,1,8,0:0:0:0:
256,192,237856,1,8,0:0:0:0:
256,192,237928,1,0,0:0:0:0:
256,192,237999,1,8,0:0:0:0:
256,192,238071,1,0,0:0:0:0:
256,192,238142,1,8,0:0:0:0:
256,192,238213,1,8,0:0:0:0:
256,192,238285,1,0,0:0:0:0:
256,192,238356,1,8,0:0:0:0:
256,192,238428,1,0,0:0:0:0:
256,192,238499,1,0,0:0:0:0:
256,192,238571,1,8,0:0:0:0:
256,192,238642,1,0,0:0:0:0:
256,192,238713,1,8,0:0:0:0:
256,192,238785,1,8,0:0:0:0:
256,192,238856,1,0,0:0:0:0:
256,192,238999,1,8,0:0:0:0:
256,192,239047,1,8,0:0:0:0:
256,192,239094,1,8,0:0:0:0:
256,192,239142,1,0,0:0:0:0:
256,192,239285,1,8,0:0:0:0:
256,192,239428,1,0,0:0:0:0:
256,192,239499,1,0,0:0:0:0:
256,192,239571,1,8,0:0:0:0:
256,192,239642,1,0,0:0:0:0:
256,192,239713,1,8,0:0:0:0:
256,192,239785,1,0,0:0:0:0:
256,192,239856,1,8,0:0:0:0:
256,192,239928,1,8,0:0:0:0:
256,192,239999,1,0,0:0:0:0:
256,192,240071,1,8,0:0:0:0:
256,192,240142,1,0,0:0:0:0:
256,192,240213,1,0,0:0:0:0:
256,192,240285,1,8,0:0:0:0:
256,192,240356,1,0,0:0:0:0:
256,192,240428,1,8,0:0:0:0:
256,192,240499,1,8,0:0:0:0:
256,192,240571,1,0,0:0:0:0:
256,192,240642,1,0,0:0:0:0:
256,192,240713,1,8,0:0:0:0:
256,192,240785,1,0,0:0:0:0:
256,192,240856,1,8,0:0:0:0:
256,192,240928,1,0,0:0:0:0:
256,192,240999,1,8,0:0:0:0:
256,192,241071,1,8,0:0:0:0:
256,192,241142,1,0,0:0:0:0:
256,192,241213,1,0,0:0:0:0:
256,192,241285,1,8,0:0:0:0:
256,192,241356,1,8,0:0:0:0:
256,192,241428,1,0,0:0:0:0:
256,192,241499,1,0,0:0:0:0:
256,192,241571,1,8,0:0:0:0:
256,192,241642,1,8,0:0:0:0:
256,192,241713,1,0,0:0:0:0:
256,192,241785,1,0,0:0:0:0:
256,192,241856,1,8,0:0:0:0:
256,192,241928,1,0,0:0:0:0:
256,192,241999,1,8,0:0:0:0:
256,192,242071,1,0,0:0:0:0:
256,192,242142,1,8,0:0:0:0:
256,192,242213,1,8,0:0:0:0:
256,192,242285,1,0,0:0:0:0:
256,192,242356,1,8,0:0:0:0:
256,192,242428,1,0,0:0:0:0:
256,192,242499,1,0,0:0:0:0:
256,192,242571,1,8,0:0:0:0:
256,192,242642,1,0,0:0:0:0:
256,192,242713,1,8,0:0:0:0:
256,192,242785,1,8,0:0:0:0:
256,192,242856,1,0,0:0:0:0:
256,192,242928,1,0,0:0:0:0:
256,192,242999,1,8,0:0:0:0:
256,192,243071,1,8,0:0:0:0:
256,192,243142,1,0,0:0:0:0:
256,192,243213,1,0,0:0:0:0:
256,192,243285,1,8,0:0:0:0:
256,192,243356,1,8,0:0:0:0:
256,192,243428,1,0,0:0:0:0:
256,192,243571,1,8,0:0:0:0:
256,192,243713,1,0,0:0:0:0:
256,192,243856,1,0,0:0:0:0:
256,192,243999,1,8,0:0:0:0:
256,192,244142,1,0,0:0:0:0:
256,192,244213,1,8,0:0:0:0:
256,192,244356,1,8,0:0:0:0:
256,192,244428,1,0,0:0:0:0:
256,192,244571,1,0,0:0:0:0:
256,192,244642,1,0,0:0:0:0:
256,192,244713,1,8,0:0:0:0:
256,192,244785,1,0,0:0:0:0:
256,192,244928,1,0,0:0:0:0:
256,192,244999,1,8,0:0:0:0:
256,192,245142,1,8,0:0:0:0:
256,192,245285,1,0,0:0:0:0:
256,192,245356,1,8,0:0:0:0:
256,192,245499,1,8,0:0:0:0:
256,192,245571,1,0,0:0:0:0:
256,192,245713,1,0,0:0:0:0:
256,192,245785,1,8,0:0:0:0:
256,192,245856,1,8,0:0:0:0:
256,192,245928,1,0,0:0:0:0:
256,192,246071,1,0,0:0:0:0:
256,192,246142,1,8,0:0:0:0:
256,192,246285,1,8,0:0:0:0:
256,192,246428,1,0,0:0:0:0:
256,192,246499,1,0,0:0:0:0:
256,192,246642,1,0,0:0:0:0:
256,192,246713,1,8,0:0:0:0:
256,192,246856,1,8,0:0:0:0:
256,192,246999,1,0,0:0:0:0:
256,192,247071,1,0,0:0:0:0:
256,192,247213,1,8,0:0:0:0:
256,192,247285,1,0,0:0:0:0:
256,192,247428,1,8,0:0:0:0:
256,192,247571,1,0,0:0:0:0:
256,192,247642,1,0,0:0:0:0:
256,192,247785,1,0,0:0:0:0:
256,192,247856,1,8,0:0:0:0:
256,192,247999,1,8,0:0:0:0:
256,192,248142,1,0,0:0:0:0:
256,192,248190,1,0,0:0:0:0:
256,192,248237,1,0,0:0:0:0:
256,192,248285,1,8,0:0:0:0:
256,192,248428,1,0,0:0:0:0:
256,192,248571,1,12,0:0:0:0:
256,192,248713,1,0,0:0:0:0:
256,192,248785,1,0,0:0:0:0:
256,192,248928,1,0,0:0:0:0:
256,192,248999,1,8,0:0:0:0:
256,192,249142,1,8,0:0:0:0:
256,192,249285,1,0,0:0:0:0:
256,192,249356,1,0,0:0:0:0:
256,192,249428,1,0,0:0:0:0:
256,192,249499,1,8,0:0:0:0:
256,192,249571,1,0,0:0:0:0:
256,192,249713,1,8,0:0:0:0:
256,192,249856,1,0,0:0:0:0:
256,192,249928,1,0,0:0:0:0:
256,192,250071,1,8,0:0:0:0:
256,192,250142,1,0,0:0:0:0:
256,192,250285,1,8,0:0:0:0:
256,192,250428,1,0,0:0:0:0:
256,192,250499,1,0,0:0:0:0:
256,192,250642,1,0,0:0:0:0:
256,192,250713,1,8,0:0:0:0:
256,192,250856,1,8,0:0:0:0:
256,192,250999,1,0,0:0:0:0:
256,192,251071,1,0,0:0:0:0:
256,192,251142,1,0,0:0:0:0:
256,192,251213,1,8,0:0:0:0:
256,192,251285,1,0,0:0:0:0:
256,192,251428,1,8,0:0:0:0:
256,192,251571,1,0,0:0:0:0:
256,192,251642,1,0,0:0:0:0:
256,192,251785,1,0,0:0:0:0:
256,192,251856,1,8,0:0:0:0:
256,192,251999,1,8,0:0:0:0:
256,192,252142,1,0,0:0:0:0:
256,192,252213,1,0,0:0:0:0:
256,192,252285,1,8,0:0:0:0:
256,192,252428,1,0,0:0:0:0:
256,192,252499,1,0,0:0:0:0:
256,192,252571,1,8,0:0:0:0:
256,192,252642,1,0,0:0:0:0:
256,192,252713,1,8,0:0:0:0:
256,192,252785,1,8,0:0:0:0:
256,192,252856,1,0,0:0:0:0:
256,192,252999,1,8,0:0:0:0:
256,192,253142,1,12,0:0:0:0:
256,192,253285,1,0,0:0:0:0:
256,192,253356,1,0,0:0:0:0:
256,192,253499,1,0,0:0:0:0:
256,192,253571,1,8,0:0:0:0:
256,192,253642,1,8,0:0:0:0:
256,192,253713,1,8,0:0:0:0:
256,192,253856,1,0,0:0:0:0:
256,192,253928,1,0,0:0:0:0:
256,192,254071,1,8,0:0:0:0:
256,192,254142,1,0,0:0:0:0:
256,192,254285,1,8,0:0:0:0:
256,192,254428,1,0,0:0:0:0:
256,192,254499,1,0,0:0:0:0:
256,192,254642,1,8,0:0:0:0:
256,192,254713,1,0,0:0:0:0:
256,192,254856,1,8,0:0:0:0:
256,192,254999,1,0,0:0:0:0:
256,192,255071,1,0,0:0:0:0:
256,192,255213,1,0,0:0:0:0:
256,192,255285,1,8,0:0:0:0:
256,192,255428,1,8,0:0:0:0:
256,192,255571,1,0,0:0:0:0:
256,192,255642,1,0,0:0:0:0:
256,192,255785,1,0,0:0:0:0:
256,192,255856,1,8,0:0:0:0:
256,192,255928,1,8,0:0:0:0:
256,192,255999,1,8,0:0:0:0:
256,192,256142,1,0,0:0:0:0:
256,192,256213,1,0,0:0:0:0:
256,192,256356,1,8,0:0:0:0:
256,192,256428,1,0,0:0:0:0:
256,192,256571,1,8,0:0:0:0:
256,192,256713,1,0,0:0:0:0:
256,192,256785,1,0,0:0:0:0:
256,192,256928,1,8,0:0:0:0:
256,192,256999,1,0,0:0:0:0:
256,192,257142,1,0,0:0:0:0:
256,192,257285,1,0,0:0:0:0:
256,192,257332,1,8,0:0:0:0:
256,192,257380,1,8,0:0:0:0:
256,192,257428,1,0,0:0:0:0:
256,192,257571,1,0,0:0:0:0:
256,192,257713,1,12,0:0:0:0:
256,192,257856,1,0,0:0:0:0:
256,192,257928,1,0,0:0:0:0:
256,192,258071,1,8,0:0:0:0:
256,192,258142,1,0,0:0:0:0:
256,192,258213,1,0,0:0:0:0:
256,192,258285,1,8,0:0:0:0:
256,192,258428,1,0,0:0:0:0:
256,192,258499,1,0,0:0:0:0:
256,192,258642,1,0,0:0:0:0:
256,192,258713,1,8,0:0:0:0:
256,192,258856,1,8,0:0:0:0:
256,192,258999,1,0,0:0:0:0:
256,192,259071,1,0,0:0:0:0:
256,192,259213,1,0,0:0:0:0:
256,192,259285,1,8,0:0:0:0:
256,192,259356,1,8,0:0:0:0:
256,192,259428,1,0,0:0:0:0:
256,192,259499,1,0,0:0:0:0:
256,192,259571,1,8,0:0:0:0:
256,192,259642,1,0,0:0:0:0:
256,192,259785,1,0,0:0:0:0:
256,192,259856,1,8,0:0:0:0:
256,192,259999,1,8,0:0:0:0:
256,192,260142,1,0,0:0:0:0:
256,192,260213,1,0,0:0:0:0:
256,192,260356,1,0,0:0:0:0:
256,192,260428,1,8,0:0:0:0:
256,192,260571,1,8,0:0:0:0:
256,192,260713,1,0,0:0:0:0:
256,192,260785,1,0,0:0:0:0:
256,192,260928,1,0,0:0:0:0:
256,192,260999,1,8,0:0:0:0:
256,192,261142,1,8,0:0:0:0:
256,192,261285,1,0,0:0:0:0:
256,192,261356,1,0,0:0:0:0:
256,192,261428,1,0,0:0:0:0:
256,192,261571,1,8,0:0:0:0:
256,192,261642,1,0,0:0:0:0:
256,192,261713,1,8,0:0:0:0:
256,192,261856,1,0,0:0:0:0:
256,192,261928,1,8,0:0:0:0:
256,192,261999,1,0,0:0:0:0:
256,192,262142,1,8,0:0:0:0:
256,192,262285,1,12,0:0:0:0:
256,192,262428,1,0,0:0:0:0:
256,192,262499,1,8,0:0:0:0:
256,192,262642,1,8,0:0:0:0:
256,192,262713,1,0,0:0:0:0:
256,192,262856,1,0,0:0:0:0:
256,192,262928,1,0,0:0:0:0:
256,192,262999,1,0,0:0:0:0:
256,192,263071,1,8,0:0:0:0:
256,192,263142,1,0,0:0:0:0:
256,192,263213,1,0,0:0:0:0:
256,192,263285,1,8,0:0:0:0:
256,192,263428,1,8,0:0:0:0:
256,192,263571,1,0,0:0:0:0:
256,192,263642,1,8,0:0:0:0:
256,192,263785,1,8,0:0:0:0:
256,192,263856,1,0,0:0:0:0:
256,192,263999,1,0,0:0:0:0:
256,192,264071,1,0,0:0:0:0:
256,192,264142,1,8,0:0:0:0:
256,192,264213,1,8,0:0:0:0:
256,192,264285,1,0,0:0:0:0:
256,192,264356,1,0,0:0:0:0:
256,192,264428,1,8,0:0:0:0:
256,192,264571,1,8,0:0:0:0:
256,192,264713,1,0,0:0:0:0:
256,192,264785,1,0,0:0:0:0:
256,192,264928,1,0,0:0:0:0:
256,192,264999,1,8,0:0:0:0:
256,192,265142,1,8,0:0:0:0:
256,192,265285,1,0,0:0:0:0:
256,192,265356,1,0,0:0:0:0:
256,192,265499,1,8,0:0:0:0:
256,192,265571,1,0,0:0:0:0:
256,192,265713,1,8,0:0:0:0:
256,192,265856,1,0,0:0:0:0:
256,192,265928,1,0,0:0:0:0:
256,192,266071,1,0,0:0:0:0:
256,192,266142,1,8,0:0:0:0:
256,192,266285,1,8,0:0:0:0:
256,192,266428,1,0,0:0:0:0:
256,192,266475,1,0,0:0:0:0:
256,192,266523,1,0,0:0:0:0:
256,192,266571,1,8,0:0:0:0:
256,192,266713,1,0,0:0:0:0:
256,192,266856,1,12,0:0:0:0:
256,192,266999,1,0,0:0:0:0:
256,192,267071,1,0,0:0:0:0:
256,192,267213,1,0,0:0:0:0:
256,192,267285,1,8,0:0:0:0:
256,192,267356,1,8,0:0:0:0:
256,192,267428,1,8,0:0:0:0:
256,192,267571,1,0,0:0:0:0:
256,192,267642,1,0,0:0:0:0:
256,192,267785,1,8,0:0:0:0:
256,192,267856,1,0,0:0:0:0:
256,192,267928,1,0,0:0:0:0:
256,192,267999,1,8,0:0:0:0:
256,192,268142,1,0,0:0:0:0:
256,192,268213,1,0,0:0:0:0:
256,192,268356,1,8,0:0:0:0:
256,192,268428,1,0,0:0:0:0:
256,192,268571,1,8,0:0:0:0:
256,192,268713,1,0,0:0:0:0:
256,192,268785,1,0,0:0:0:0:
256,192,268928,1,0,0:0:0:0:
256,192,268999,1,8,0:0:0:0:
256,192,269071,1,8,0:0:0:0:
256,192,269142,1,8,0:0:0:0:
256,192,269285,1,0,0:0:0:0:
256,192,269356,1,0,0:0:0:0:
256,192,269499,1,8,0:0:0:0:
256,192,269571,1,0,0:0:0:0:
256,192,269642,1,0,0:0:0:0:
256,192,269713,1,8,0:0:0:0:
256,192,269856,1,0,0:0:0:0:
256,192,269928,1,0,0:0:0:0:
256,192,270071,1,0,0:0:0:0:
256,192,270142,1,8,0:0:0:0:
256,192,270285,1,8,0:0:0:0:
256,192,270428,1,0,0:0:0:0:
256,192,270499,1,0,0:0:0:0:
256,192,270571,1,8,0:0:0:0:
256,192,270713,1,0,0:0:0:0:
256,192,270785,1,0,0:0:0:0:
256,192,270856,1,8,0:0:0:0:
256,192,270928,1,0,0:0:0:0:
256,192,270999,1,8,0:0:0:0:
256,192,271071,1,8,0:0:0:0:
256,192,271142,1,0,0:0:0:0:
256,192,271285,1,8,0:0:0:0:
256,192,271428,1,12,0:0:0:0:
256,192,271571,1,0,0:0:0:0:
256,192,271642,1,0,0:0:0:0:
256,192,271785,1,0,0:0:0:0:
256,192,271856,1,8,0:0:0:0:
256,192,271999,1,8,0:0:0:0:
256,192,272142,1,0,0:0:0:0:
256,192,272213,1,0,0:0:0:0:
256,192,272285,1,0,0:0:0:0:
256,192,272356,1,8,0:0:0:0:
256,192,272428,1,0,0:0:0:0:
256,192,272571,1,8,0:0:0:0:
256,192,272713,1,0,0:0:0:0:
256,192,272785,1,0,0:0:0:0:
256,192,272928,1,8,0:0:0:0:
256,192,272999,1,0,0:0:0:0:
256,192,273142,1,8,0:0:0:0:
256,192,273285,1,0,0:0:0:0:
256,192,273356,1,0,0:0:0:0:
256,192,273499,1,0,0:0:0:0:
256,192,273571,1,8,0:0:0:0:
256,192,273713,1,8,0:0:0:0:
256,192,273856,1,0,0:0:0:0:
256,192,273928,1,0,0:0:0:0:
256,192,274071,1,0,0:0:0:0:
256,192,274142,1,8,0:0:0:0:
256,192,274285,1,8,0:0:0:0:
256,192,274428,1,0,0:0:0:0:
256,192,274499,1,0,0:0:0:0:
256,192,274571,1,0,0:0:0:0:
256,192,274642,1,8,0:0:0:0:
256,192,274713,1,0,0:0:0:0:
256,192,274856,1,8,0:0:0:0:
256,192,274999,1,0,0:0:0:0:
256,192,275071,1,8,0:0:0:0:
256,192,275213,1,8,0:0:0:0:
256,192,275285,1,0,0:0:0:0:
256,192,275428,1,0,0:0:0:0:
256,192,275571,1,0,0:0:0:0:
256,192,275618,1,8,0:0:0:0:
256,192,275666,1,8,0:0:0:0:
256,192,275713,1,0,0:0:0:0:
256,192,275856,1,0,0:0:0:0:
256,192,275999,1,12,0:0:0:0:
256,192,276142,1,0,0:0:0:0:
256,192,276214,1,0,0:0:0:0:
256,192,276356,1,8,0:0:0:0:
256,192,276428,1,0,0:0:0:0:
256,192,276499,1,0,0:0:0:0:
256,192,276571,1,8,0:0:0:0:
256,192,276713,1,0,0:0:0:0:
256,192,276785,1,0,0:0:0:0:
256,192,276928,1,0,0:0:0:0:
256,192,276999,1,8,0:0:0:0:
256,192,277142,1,8,0:0:0:0:
256,192,277285,1,0,0:0:0:0:
256,192,277356,1,0,0:0:0:0:
256,192,277499,1,0,0:0:0:0:
256,192,277571,1,8,0:0:0:0:
256,192,277642,1,8,0:0:0:0:
256,192,277713,1,0,0:0:0:0:
256,192,277785,1,0,0:0:0:0:
256,192,277856,1,8,0:0:0:0:
256,192,277928,1,0,0:0:0:0:
256,192,278071,1,0,0:0:0:0:
256,192,278142,1,8,0:0:0:0:
256,192,278285,1,8,0:0:0:0:
256,192,278428,1,0,0:0:0:0:
256,192,278499,1,8,0:0:0:0:
256,192,278571,1,0,0:0:0:0:
256,192,278642,1,0,0:0:0:0:
256,192,278713,1,8,0:0:0:0:
256,192,278856,1,8,0:0:0:0:
256,192,278999,1,0,0:0:0:0:
256,192,279071,1,0,0:0:0:0:
256,192,279213,1,0,0:0:0:0:
256,192,279285,1,8,0:0:0:0:
256,192,279428,1,8,0:0:0:0:
256,192,279571,1,0,0:0:0:0:
256,192,279642,1,8,0:0:0:0:
256,192,279713,1,0,0:0:0:0:
256,192,279785,1,0,0:0:0:0:
256,192,279856,1,8,0:0:0:0:
256,192,279928,1,0,0:0:0:0:
256,192,279999,1,8,0:0:0:0:
256,192,280142,1,8,0:0:0:0:
256,192,280213,1,8,0:0:0:0:
256,192,280285,1,0,0:0:0:0:
256,192,280428,1,0,0:0:0:0:
256,192,280571,1,8,0:0:0:0:
256,192,280642,1,8,0:0:0:0:
256,192,280713,1,0,0:0:0:0:
256,192,280785,1,8,0:0:0:0:
256,192,280856,1,0,0:0:0:0:
256,192,280928,1,0,0:0:0:0:
256,192,280999,1,8,0:0:0:0:
256,192,281071,1,0,0:0:0:0:
256,192,281142,1,8,0:0:0:0:
256,192,281213,1,8,0:0:0:0:
256,192,281285,1,0,0:0:0:0:
256,192,281356,1,8,0:0:0:0:
256,192,281428,1,8,0:0:0:0:
256,192,281499,1,8,0:0:0:0:
256,192,281571,1,0,0:0:0:0:
256,192,281642,1,0,0:0:0:0:
256,192,281713,1,8,0:0:0:0:
256,192,281785,1,8,0:0:0:0:
256,192,281856,1,0,0:0:0:0:
256,192,281928,1,8,0:0:0:0:
256,192,281999,1,0,0:0:0:0:
256,192,282071,1,0,0:0:0:0:
256,192,282142,1,8,0:0:0:0:
256,192,282213,1,0,0:0:0:0:
256,192,282285,1,8,0:0:0:0:
256,192,282356,1,8,0:0:0:0:
256,192,282428,1,0,0:0:0:0:
256,192,282499,1,8,0:0:0:0:
256,192,282571,1,8,0:0:0:0:
256,192,282642,1,0,0:0:0:0:
256,192,282713,1,8,0:0:0:0:
256,192,282785,1,0,0:0:0:0:
256,192,282856,1,8,0:0:0:0:
256,192,282928,1,8,0:0:0:0:
256,192,282999,1,0,0:0:0:0:
256,192,283071,1,8,0:0:0:0:
256,192,283142,1,0,0:0:0:0:
256,192,283213,1,0,0:0:0:0:
256,192,283285,1,8,0:0:0:0:
256,192,283356,1,0,0:0:0:0:
256,192,283428,1,8,0:0:0:0:
256,192,283499,1,0,0:0:0:0:
256,192,283571,1,0,0:0:0:0:
256,192,283642,1,8,0:0:0:0:
256,192,283713,1,0,0:0:0:0:
256,192,283785,1,0,0:0:0:0:
256,192,283856,1,8,0:0:0:0:
256,192,283928,1,0,0:0:0:0:
256,192,283999,1,8,0:0:0:0:
256,192,284071,1,8,0:0:0:0:
256,192,284142,1,0,0:0:0:0:
256,192,284213,1,8,0:0:0:0:
256,192,284285,1,0,0:0:0:0:
256,192,284356,1,0,0:0:0:0:
256,192,284428,1,8,0:0:0:0:
256,192,284499,1,0,0:0:0:0:
256,192,284571,1,8,0:0:0:0:
256,192,284642,1,8,0:0:0:0:
256,192,284713,1,0,0:0:0:0:
256,192,284761,1,0,0:0:0:0:
256,192,284809,1,0,0:0:0:0:
256,192,284856,1,8,0:0:0:0:
256,192,284928,1,8,0:0:0:0:
256,192,284999,1,0,0:0:0:0:
256,192,285047,1,0,0:0:0:0:
256,192,285094,1,0,0:0:0:0:
256,192,285142,1,8,0:0:0:0:
256,192,285213,1,8,0:0:0:0:
256,192,285285,1,0,0:0:0:0:
256,192,285356,1,8,0:0:0:0:
256,192,285428,1,0,0:0:0:0:
256,192,285499,1,0,0:0:0:0:
256,192,285571,1,8,0:0:0:0:
256,192,285642,1,0,0:0:0:0:
256,192,285713,1,8,0:0:0:0:
256,192,285785,1,8,0:0:0:0:
256,192,285856,1,0,0:0:0:0:
256,192,285928,1,8,0:0:0:0:
256,192,285999,1,8,0:0:0:0:
256,192,286071,1,8,0:0:0:0:
256,192,286142,1,0,0:0:0:0:
256,192,286213,1,0,0:0:0:0:
256,192,286285,1,8,0:0:0:0:
256,192,286356,1,8,0:0:0:0:
256,192,286428,1,0,0:0:0:0:
256,192,286499,1,8,0:0:0:0:
256,192,286571,1,8,0:0:0:0:
256,192,286642,1,8,0:0:0:0:
256,192,286713,1,0,0:0:0:0:
256,192,286785,1,0,0:0:0:0:
256,192,286856,1,8,0:0:0:0:
256,192,286928,1,8,0:0:0:0:
256,192,286999,1,0,0:0:0:0:
256,192,287071,1,8,0:0:0:0:
256,192,287142,1,0,0:0:0:0:
256,192,287213,1,0,0:0:0:0:
256,192,287285,1,8,0:0:0:0:
256,192,287356,1,0,0:0:0:0:
256,192,287428,1,8,0:0:0:0:
256,192,287499,1,8,0:0:0:0:
256,192,287571,1,0,0:0:0:0:
256,192,287642,1,8,0:0:0:0:
256,192,287713,1,8,0:0:0:0:
256,192,287785,1,8,0:0:0:0:
256,192,287856,1,0,0:0:0:0:
256,192,287928,1,0,0:0:0:0:
256,192,287999,1,8,0:0:0:0:
256,192,288071,1,8,0:0:0:0:
256,192,288142,1,0,0:0:0:0:
256,192,288213,1,8,0:0:0:0:
256,192,288285,1,0,0:0:0:0:
256,192,288356,1,0,0:0:0:0:
256,192,288428,1,8,0:0:0:0:
256,192,288499,1,0,0:0:0:0:
256,192,288571,1,8,0:0:0:0:
256,192,288713,1,0,0:0:0:0:
256,192,288785,1,0,0:0:0:0:
256,192,288856,1,8,0:0:0:0:
256,192,288999,1,0,0:0:0:0:
256,192,289071,1,8,0:0:0:0:
256,192,289142,1,0,0:0:0:0:
256,192,289213,1,0,0:0:0:0:
256,192,289285,1,8,0:0:0:0:
256,192,289356,1,8,0:0:0:0:
256,192,289428,1,0,0:0:0:0:
256,192,289571,1,8,0:0:0:0:
256,192,289713,1,8,0:0:0:0:
256,192,289785,1,8,0:0:0:0:
256,192,289856,1,0,0:0:0:0:
256,192,289928,1,8,0:0:0:0:
256,192,289999,1,0,0:0:0:0:
256,192,290071,1,0,0:0:0:0:
256,192,290142,1,8,0:0:0:0:
256,192,290213,1,0,0:0:0:0:
256,192,290285,1,8,0:0:0:0:
256,192,290356,1,8,0:0:0:0:
256,192,290428,1,0,0:0:0:0:
256,192,290499,1,8,0:0:0:0:
256,192,290571,1,8,0:0:0:0:
256,192,290642,1,8,0:0:0:0:
256,192,290713,1,0,0:0:0:0:
256,192,290785,1,0,0:0:0:0:
256,192,290856,1,8,0:0:0:0:
256,192,290928,1,8,0:0:0:0:
256,192,290999,1,0,0:0:0:0:
256,192,291071,1,8,0:0:0:0:
256,192,291142,1,8,0:0:0:0:
256,192,291213,1,8,0:0:0:0:
256,192,291285,1,0,0:0:0:0:
256,192,291356,1,0,0:0:0:0:
256,192,291428,1,8,0:0:0:0:
256,192,291499,1,8,0:0:0:0:
256,192,291571,1,0,0:0:0:0:
256,192,291642,1,8,0:0:0:0:
256,192,291713,1,0,0:0:0:0:
256,192,291785,1,0,0:0:0:0:
256,192,291856,1,8,0:0:0:0:
256,192,291928,1,0,0:0:0:0:
256,192,291999,1,8,0:0:0:0:
256,192,292071,1,8,0:0:0:0:
256,192,292142,1,0,0:0:0:0:
256,192,292213,1,8,0:0:0:0:
256,192,292285,1,0,0:0:0:0:
256,192,292356,1,0,0:0:0:0:
256,192,292428,1,8,0:0:0:0:
256,192,292499,1,0,0:0:0:0:
256,192,292571,1,8,0:0:0:0:
256,192,292642,1,8,0:0:0:0:
256,192,292713,1,0,0:0:0:0:
256,192,292785,1,8,0:0:0:0:
256,192,292856,1,8,0:0:0:0:
256,192,292928,1,8,0:0:0:0:
256,192,292999,1,0,0:0:0:0:
256,192,293071,1,0,0:0:0:0:
256,192,293142,1,8,0:0:0:0:
256,192,293213,1,8,0:0:0:0:
256,192,293285,1,0,0:0:0:0:
256,192,293356,1,8,0:0:0:0:
256,192,293428,1,0,0:0:0:0:
256,192,293499,1,0,0:0:0:0:
256,192,293571,1,8,0:0:0:0:
256,192,293642,1,0,0:0:0:0:
256,192,293713,1,8,0:0:0:0:
256,192,293785,1,8,0:0:0:0:
256,192,293856,1,0,0:0:0:0:
256,192,293904,1,8,0:0:0:0:
256,192,293951,1,8,0:0:0:0:
256,192,293999,1,0,0:0:0:0:
256,192,294071,1,8,0:0:0:0:
256,192,294142,1,0,0:0:0:0:
256,192,294190,1,0,0:0:0:0:
256,192,294237,1,0,0:0:0:0:
256,192,294285,1,8,0:0:0:0:
256,192,294356,1,8,0:0:0:0:
256,192,294428,1,0,0:0:0:0:
256,192,294499,1,8,0:0:0:0:
256,192,294571,1,0,0:0:0:0:
256,192,294642,1,0,0:0:0:0:
256,192,294713,1,8,0:0:0:0:
256,192,294785,1,0,0:0:0:0:
256,192,294856,1,8,0:0:0:0:
256,192,294928,1,8,0:0:0:0:
256,192,294999,1,0,0:0:0:0:
256,192,295071,1,8,0:0:0:0:
256,192,295142,1,8,0:0:0:0:
256,192,295213,1,8,0:0:0:0:
256,192,295285,1,0,0:0:0:0:
256,192,295356,1,0,0:0:0:0:
256,192,295428,1,8,0:0:0:0:
256,192,295499,1,8,0:0:0:0:
256,192,295571,1,0,0:0:0:0:
256,192,295642,1,8,0:0:0:0:
256,192,295713,1,0,0:0:0:0:
256,192,295785,1,0,0:0:0:0:
256,192,295856,1,8,0:0:0:0:
256,192,295928,1,8,0:0:0:0:
256,192,295999,1,0,0:0:0:0:
256,192,296071,1,0,0:0:0:0:
256,192,296142,1,0,0:0:0:0:
256,192,296213,1,8,0:0:0:0:
256,192,296285,1,0,0:0:0:0:
256,192,296356,1,0,0:0:0:0:
256,192,296428,1,8,0:0:0:0:
256,192,296499,1,0,0:0:0:0:
256,192,296571,1,8,0:0:0:0:
256,192,296642,1,8,0:0:0:0:
256,192,296713,1,0,0:0:0:0:
256,192,296785,1,8,0:0:0:0:
256,192,296856,1,0,0:0:0:0:
256,192,296928,1,0,0:0:0:0:
256,192,296999,1,8,0:0:0:0:
256,192,297071,1,0,0:0:0:0:
256,192,297142,1,8,0:0:0:0:
256,192,297213,1,8,0:0:0:0:
256,192,297285,1,0,0:0:0:0:
256,192,297356,1,8,0:0:0:0:
256,192,297428,1,0,0:0:0:0:
256,192,297499,1,0,0:0:0:0:
256,192,297571,1,8,0:0:0:0:
256,192,297642,1,0,0:0:0:0:
256,192,297713,1,8,0:0:0:0:
256,192,297856,1,8,0:0:0:0:
256,192,297928,1,8,0:0:0:0:
256,192,297999,1,0,0:0:0:0:
256,192,298071,1,0,0:0:0:0:
256,192,298142,1,8,0:0:0:0:
256,192,298213,1,0,0:0:0:0:
256,192,298285,1,8,0:0:0:0:
256,192,298428,1,0,0:0:0:0:
256,192,298499,1,0,0:0:0:0:
256,192,298571,1,0,0:0:0:0:
256,192,298713,1,0,0:0:0:0:
256,192,298856,1,8,0:0:0:0:
256,192,298928,1,8,0:0:0:0:
256,192,298999,1,0,0:0:0:0:
256,192,299071,1,8,0:0:0:0:
256,192,299142,1,0,0:0:0:0:
256,192,299213,1,0,0:0:0:0:
256,192,299285,1,8,0:0:0:0:
256,192,299356,1,0,0:0:0:0:
256,192,299428,1,8,0:0:0:0:
256,192,299499,1,8,0:0:0:0:
256,192,299571,1,0,0:0:0:0:
256,192,299642,1,8,0:0:0:0:
256,192,299713,1,8,0:0:0:0:
256,192,299785,1,8,0:0:0:0:
256,192,299856,1,0,0:0:0:0:
256,192,299928,1,0,0:0:0:0:
256,192,299999,1,8,0:0:0:0:
256,192,300071,1,8,0:0:0:0:
256,192,300142,1,0,0:0:0:0:
256,192,300213,1,8,0:0:0:0:
256,192,300285,1,0,0:0:0:0:
256,192,300356,1,0,0:0:0:0:
256,192,300428,1,8,0:0:0:0:
256,192,300499,1,0,0:0:0:0:
256,192,300571,1,8,0:0:0:0:
256,192,300642,1,8,0:0:0:0:
256,192,300713,1,0,0:0:0:0:
256,192,300785,1,8,0:0:0:0:
256,192,300856,1,8,0:0:0:0:
256,192,300928,1,0,0:0:0:0:
256,192,300999,1,8,0:0:0:0:
256,192,301071,1,0,0:0:0:0:
256,192,301142,1,8,0:0:0:0:
256,192,301213,1,8,0:0:0:0:
256,192,301285,1,0,0:0:0:0:
256,192,301356,1,8,0:0:0:0:
256,192,301428,1,0,0:0:0:0:
256,192,301499,1,0,0:0:0:0:
256,192,301571,1,8,0:0:0:0:
256,192,301642,1,0,0:0:0:0:
256,192,301713,1,8,0:0:0:0:
256,192,301785,1,0,0:0:0:0:
256,192,301856,1,0,0:0:0:0:
256,192,301928,1,8,0:0:0:0:
256,192,301999,1,0,0:0:0:0:
256,192,302071,1,0,0:0:0:0:
256,192,302142,1,8,0:0:0:0:
256,192,302213,1,0,0:0:0:0:
256,192,302285,1,8,0:0:0:0:
256,192,302356,1,8,0:0:0:0:
256,192,302428,1,0,0:0:0:0:
256,192,302499,1,8,0:0:0:0:
256,192,302571,1,0,0:0:0:0:
256,192,302642,1,0,0:0:0:0:
256,192,302713,1,8,0:0:0:0:
256,192,302785,1,0,0:0:0:0:
256,192,302856,1,8,0:0:0:0:
256,192,302928,1,8,0:0:0:0:
256,192,302999,1,0,0:0:0:0:
256,192,303047,1,0,0:0:0:0:
256,192,303094,1,0,0:0:0:0:
256,192,303142,1,8,0:0:0:0:
256,192,303213,1,8,0:0:0:0:
256,192,303285,1,0,0:0:0:0:
256,192,303332,1,0,0:0:0:0:
256,192,303380,1,0,0:0:0:0:
256,192,303428,1,8,0:0:0:0:
256,192,303499,1,8,0:0:0:0:
256,192,303571,1,0,0:0:0:0:
256,192,303642,1,8,0:0:0:0:
256,192,303713,1,0,0:0:0:0:
256,192,303785,1,0,0:0:0:0:
256,192,303856,1,8,0:0:0:0:
256,192,303928,1,0,0:0:0:0:
256,192,303999,1,8,0:0:0:0:
256,192,304071,1,8,0:0:0:0:
256,192,304142,1,0,0:0:0:0:
256,192,304213,1,8,0:0:0:0:
256,192,304285,1,8,0:0:0:0:
256,192,304356,1,8,0:0:0:0:
256,192,304428,1,0,0:0:0:0:
256,192,304499,1,0,0:0:0:0:
256,192,304571,1,8,0:0:0:0:
256,192,304642,1,8,0:0:0:0:
256,192,304713,1,0,0:0:0:0:
256,192,304785,1,8,0:0:0:0:
256,192,304856,1,8,0:0:0:0:
256,192,304928,1,8,0:0:0:0:
256,192,304999,1,0,0:0:0:0:
256,192,305071,1,0,0:0:0:0:
256,192,305142,1,8,0:0:0:0:
256,192,305213,1,8,0:0:0:0:
256,192,305285,1,0,0:0:0:0:
256,192,305356,1,8,0:0:0:0:
256,192,305428,1,0,0:0:0:0:
256,192,305499,1,0,0:0:0:0:
256,192,305571,1,8,0:0:0:0:
256,192,305642,1,0,0:0:0:0:
256,192,305713,1,8,0:0:0:0:
256,192,305785,1,8,0:0:0:0:
256,192,305856,1,0,0:0:0:0:
256,192,305928,1,8,0:0:0:0:
256,192,305999,1,8,0:0:0:0:
256,192,306071,1,8,0:0:0:0:
256,192,306142,1,0,0:0:0:0:
256,192,306213,1,0,0:0:0:0:
256,192,306285,1,8,0:0:0:0:
256,192,306356,1,8,0:0:0:0:
256,192,306428,1,0,0:0:0:0:
256,192,306499,1,8,0:0:0:0:
256,192,306571,1,0,0:0:0:0:
256,192,306642,1,0,0:0:0:0:
256,192,306713,1,8,0:0:0:0:
256,192,306785,1,0,0:0:0:0:
256,192,306856,1,8,0:0:0:0:
256,192,306999,1,0,0:0:0:0:
256,192,307071,1,0,0:0:0:0:
256,192,307142,1,8,0:0:0:0:
256,192,307285,1,0,0:0:0:0:
256,192,307428,1,8,0:0:0:0:
256,192,307499,1,0,0:0:0:0:
256,192,307571,1,8,0:0:0:0:
256,192,307642,1,8,0:0:0:0:
256,192,307713,1,0,0:0:0:0:
256,192,307856,1,8,0:0:0:0:
256,192,307904,1,0,0:0:0:0:
256,192,307951,1,0,0:0:0:0:
256,192,307999,1,8,0:0:0:0:
256,192,308142,1,0,0:0:0:0:
256,192,308213,1,8,0:0:0:0:
256,192,308285,1,0,0:0:0:0:
256,192,308428,1,8,0:0:0:0:
256,192,308571,1,8,0:0:0:0:
256,192,308713,1,0,0:0:0:0:
256,192,308785,1,0,0:0:0:0:
256,192,308856,1,0,0:0:0:0:
256,192,308928,1,8,0:0:0:0:
256,192,308999,1,0,0:0:0:0:
256,192,309142,1,8,0:0:0:0:
256,192,309285,1,0,0:0:0:0:
256,192,309356,1,8,0:0:0:0:
256,192,309428,1,8,0:0:0:0:
256,192,309571,1,0,0:0:0:0:
256,192,309713,1,8,0:0:0:0:
256,192,309856,1,0,0:0:0:0:
256,192,309928,1,0,0:0:0:0:
256,192,309999,1,0,0:0:0:0:
256,192,310142,1,0,0:0:0:0:
256,192,310285,1,8,0:0:0:0:
256,192,310428,1,0,0:0:0:0:
256,192,310499,1,8,0:0:0:0:
256,192,310571,1,0,0:0:0:0:
256,192,310713,1,8,0:0:0:0:
256,192,310856,1,8,0:0:0:0:
256,192,310999,1,0,0:0:0:0:
256,192,311071,1,0,0:0:0:0:
256,192,311142,1,0,0:0:0:0:
256,192,311213,1,8,0:0:0:0:
256,192,311285,1,0,0:0:0:0:
256,192,311428,1,8,0:0:0:0:
256,192,311571,1,0,0:0:0:0:
256,192,311642,1,8,0:0:0:0:
256,192,311713,1,0,0:0:0:0:
256,192,311785,1,0,0:0:0:0:
256,192,311856,1,8,0:0:0:0:
256,192,311928,1,0,0:0:0:0:
256,192,311999,1,8,0:0:0:0:
256,192,312142,1,0,0:0:0:0:
256,192,312190,1,8,0:0:0:0:
256,192,312237,1,8,0:0:0:0:
256,192,312285,1,0,0:0:0:0:
256,192,312428,1,0,0:0:0:0:
256,192,312571,1,12,0:0:0:0:
256,192,312785,1,4,0:0:0:0:
256,192,312999,1,12,0:0:0:0:
256,192,313142,1,12,0:0:0:0:
256,192,313356,1,12,0:0:0:0:
256,192,313571,1,4,0:0:0:0:
256,192,313713,1,12,0:0:0:0:
256,192,313928,1,4,0:0:0:0:
256,192,314142,1,12,0:0:0:0:
256,192,314285,1,4,0:0:0:0:
256,192,314499,1,4,0:0:0:0:
256,192,314713,1,12,0:0:0:0:
256,192,314856,1,12,0:0:0:0:
256,192,315071,1,4,0:0:0:0:
256,192,315285,1,12,0:0:0:0:
256,192,315428,1,12,0:0:0:0:
256,192,315642,1,4,0:0:0:0:
256,192,315856,1,12,0:0:0:0:
256,192,315999,1,12,0:0:0:0:
256,192,316213,1,4,0:0:0:0:
256,192,316428,1,12,0:0:0:0:
256,192,316571,1,12,0:0:0:0:
256,192,316785,1,4,0:0:0:0:
256,192,316999,1,12,0:0:0:0:
256,192,317143,5,4,0:0:0:0:
256,192,317285,12,0,321571,0:0:0:0:
256,192,321713,5,4,0:0:0:0:
