osu file format v14

[General]
AudioFilename: audio.mp3
AudioLeadIn: 0
PreviewTime: 133784
Countdown: 1
SampleSet: Soft
StackLeniency: 0.7
Mode: 2
LetterboxInBreaks: 0
WidescreenStoryboard: 1

[Editor]
Bookmarks: 18356,36642,54928,73642,74785,93071,111356,113642,114213,114785,115356,115928,118213,119928,120213,120499,121642,122213,122785,123928,125071,129642,133785,207356,215927,225642,243499,280071,280499,321642
DistanceSpacing: 0.6
BeatDivisor: 8
GridSize: 4
TimelineZoom: 2.719998

[Metadata]
Title:WE LUV LAMA
TitleUnicode:WE LUV LAMA
Artist:DJ Sharpnel
ArtistUnicode:DJ Sharpnel
Creator:LeWind
Version:Show Time
Source:
Tags:Zyzyx lewind
BeatmapID:1641759
BeatmapSetID:781761

[Difficulty]
HPDrainRate:0
CircleSize:4
OverallDifficulty:10
ApproachRate:9.7
SliderMultiplier:3.59999990463257
SliderTickRate:1

[Events]
//Background and Video events
0,0,"BG.png",0,0
//Break Periods
//Storyboard Layer 0 (Background)
//Storyboard Layer 1 (Fail)
//Storyboard Layer 2 (Pass)
//Storyboard Layer 3 (Foreground)
//Storyboard Sound Samples

[TimingPoints]
71,285.714285714286,4,2,0,100,1,0
499,285.714285714286,4,2,0,100,1,0
499,-200,4,2,0,100,0,0
9070,-66.6666666666667,4,2,0,100,0,0
9071,-66.6666666666667,4,2,0,100,0,0
9642,-200,4,2,0,100,0,0
17856,-133.333333333333,4,2,0,100,0,0
18070,-100,4,2,0,100,0,0
18213,-80,4,2,0,100,0,0
18356,-66.6666666666667,4,2,0,100,0,0
18784,-133.333333333333,4,2,0,100,0,0
27356,-66.6666666666667,4,2,0,100,0,0
27856,-200,4,2,0,100,0,0
36641,-66.6666666666667,4,2,0,100,0,0
37070,-200,4,2,0,100,0,0
54213,-50,4,2,0,100,0,0
55356,-133.333333333333,4,2,0,100,0,1
73641,-200,4,2,0,100,0,0
82498,-50,4,2,0,100,0,0
82784,-200,4,2,0,100,0,0
111356,-500,4,2,0,100,0,0
125213,-100,4,2,0,100,0,0
129641,-200,4,2,0,100,0,0
133784,-66.6666666666667,4,2,0,100,0,0
134213,285.714285714286,4,2,0,100,1,1
134213,-117.647058823529,4,2,0,100,0,1
202784,-66.6666666666667,4,2,0,100,0,1
205499,-50,4,2,0,100,0,1
205641,-66.6666666666667,4,2,0,100,0,1
206070,-50,4,2,0,100,0,1
206213,-66.6666666666667,4,2,0,100,0,1
206641,-50,4,2,0,100,0,1
206784,-57.1428571428571,4,2,0,100,0,1
207213,-66.6666666666667,4,2,0,100,0,1
207356,-200,4,2,0,100,0,0
225070,-66.6666666666667,4,2,0,100,0,0
225641,-133.333333333333,4,2,0,100,0,1
243927,-100,4,2,0,100,0,0
280499,-117.647058823529,4,2,0,100,0,1
312499,-66.6666666666667,4,2,0,100,0,1
314784,-100,4,2,0,100,0,1
317070,-50,4,2,0,100,0,1
319356,-44.4444444444445,4,2,0,100,0,1
321641,-80,4,2,0,100,0,0

[HitObjects]
164,200,71,5,0,0:0:0:0:
352,216,213,1,0,0:0:0:0:
208,224,356,1,0,0:0:0:0:
484,196,499,2,0,L|384:192,2,89.9999976158143
136,208,927,2,0,L|28:208,1,89.9999976158143
272,196,1213,6,0,L|192:120,1,89.9999976158143
424,200,1499,2,0,L|400:112,1,89.9999976158143
140,196,1784,2,0,L|244:196,1,89.9999976158143
384,200,2070,2,0,L|340:104,1,89.9999976158143
232,224,2356,6,0,L|156:136,1,89.9999976158143
340,152,2641,1,0,0:0:0:0:
44,180,2784,2,0,L|160:144,1,89.9999976158143
452,204,3070,2,0,L|324:200,2,89.9999976158143
100,208,3499,6,0,L|200:200,1,89.9999976158143
424,184,3784,2,0,L|344:104,1,89.9999976158143
136,204,4070,2,0,L|236:200,2,89.9999976158143
388,176,4499,5,0,0:0:0:0:
200,192,4641,1,0,0:0:0:0:
428,176,4784,2,0,L|312:180,1,89.9999976158143
176,208,5070,2,0,L|276:196,1,89.9999976158143
396,168,5356,5,0,0:0:0:0:
184,236,5499,2,0,P|104:164|136:92,1,179.999995231629
432,128,5927,1,0,0:0:0:0:
124,256,6070,6,0,L|228:248,2,89.9999976158143
416,216,6499,2,0,L|324:176,1,89.9999976158143
432,140,6784,2,0,L|528:112,1,89.9999976158143
160,216,7070,6,0,L|280:212,1,89.9999976158143
100,216,7356,2,0,L|96:120,1,89.9999976158143
404,172,7641,2,0,L|220:168,1,179.999995231629
36,256,8070,6,0,L|136:256,2,89.9999976158143
396,192,8499,1,0,0:0:0:0:
116,252,8641,2,0,L|180:184,1,89.9999976158143
400,188,8927,1,0,0:0:0:0:
80,248,9070,6,0,L|312:24,1,270.000003147125
428,224,9356,2,0,L|164:52,1,270.000003147125
436,248,9641,1,0,0:0:0:0:
124,228,9784,2,0,L|224:224,1,89.9999976158143
508,208,10070,6,0,L|396:208,2,89.9999976158143
200,224,10499,2,0,L|324:176,1,89.9999976158143
60,220,10784,2,0,L|40:128,1,89.9999976158143
368,208,11070,6,0,L|240:212,1,89.9999976158143
500,216,11356,2,0,L|544:120,1,89.9999976158143
160,168,11641,1,0,0:0:0:0:
472,188,11784,2,0,L|352:188,2,89.9999976158143
84,220,12213,6,0,L|176:208,3,89.9999976158143
488,236,12784,2,0,L|408:176,1,89.9999976158143
268,272,13070,2,0,L|344:208,1,89.9999976158143
212,208,13356,6,0,L|96:208,1,89.9999976158143
384,200,13641,2,0,L|268:208,1,89.9999976158143
200,184,13927,2,0,L|248:92,1,89.9999976158143
484,208,14213,6,0,L|356:208,1,89.9999976158143
104,232,14499,2,0,L|212:224,2,89.9999976158143
488,216,14927,2,0,L|400:136,1,89.9999976158143
160,176,15213,5,0,0:0:0:0:
388,208,15356,2,0,L|280:176,1,89.9999976158143
496,124,15641,1,0,0:0:0:0:
48,168,15784,1,0,0:0:0:0:
376,208,15927,2,0,L|268:208,2,89.9999976158143
44,236,16356,6,0,L|120:152,1,89.9999976158143
480,244,16641,2,0,L|480:140,1,89.9999976158143
272,252,16927,2,0,L|272:128,1,89.9999976158143
128,232,17213,6,0,L|128:128,1,89.9999976158143
8,224,17499,2,0,L|8:120,1,89.9999976158143
488,240,17784,6,0,L|468:176,1,44.9999988079071
184,248,17927,2,0,L|204:168,1,67.5000007867814
508,224,18070,2,0,L|464:136,1,89.9999976158143
168,256,18213,2,0,L|220:152,1,112.499997019768
460,252,18356,2,0,L|416:120,1,135.000001573563
72,268,18499,2,0,L|132:136,1,135.000001573563
512,260,18641,2,0,L|452:136,1,135.000001573563
176,272,18784,6,0,L|88:136,1,135.000001573563
436,208,19070,2,0,L|280:212,2,135.000001573563
84,200,19499,1,0,0:0:0:0:
476,248,19641,2,0,L|364:136,1,135.000001573563
76,212,19927,6,0,L|224:208,1,135.000001573563
392,236,20213,2,0,L|388:88,1,135.000001573563
308,108,20499,2,0,L|144:108,1,135.000001573563
336,220,20784,2,0,L|504:216,1,135.000001573563
320,188,21070,6,0,L|272:56,1,135.000001573563
232,144,21356,2,0,L|88:136,1,135.000001573563
400,208,21641,6,0,L|500:200,1,67.5000007867814
240,212,21784,2,0,L|220:108,1,67.5000007867814
500,196,21927,2,0,L|412:144,1,67.5000007867814
152,208,22070,2,0,L|208:152,1,67.5000007867814
460,224,22213,2,0,L|420:64,1,135.000001573563
84,192,22499,6,0,L|-8:48,1,135.000001573563
216,204,22784,2,0,L|276:108,1,67.5000007867814
496,180,22927,2,0,L|416:176,1,67.5000007867814
280,212,23070,2,0,L|200:120,1,67.5000007867814
424,180,23213,2,0,L|516:176,1,67.5000007867814
64,240,23356,6,0,L|208:112,1,135.000001573563
460,208,23641,2,0,L|284:224,1,135.000001573563
72,264,23927,2,0,L|124:196,1,67.5000007867814
408,200,24070,2,0,L|336:172,1,67.5000007867814
84,276,24213,2,0,L|80:80,1,135.000001573563
428,220,24499,6,0,L|272:216,1,135.000001573563
68,232,24784,2,0,L|176:144,1,135.000001573563
276,192,25070,2,0,L|432:188,1,135.000001573563
488,184,25356,2,0,L|196:184,1,270.000003147125
44,236,25784,6,0,L|112:104,1,135.000001573563
464,220,26070,2,0,L|396:76,1,135.000001573563
96,200,26356,2,0,L|240:184,1,135.000001573563
504,212,26641,6,0,L|352:208,2,135.000001573563
68,268,27070,2,0,L|176:160,1,135.000001573563
504,252,27356,6,0,L|340:252,3,135.000001573563
56,244,27641,2,0,L|160:120,1,135.000001573563
472,236,27784,2,0,L|416:88,1,135.000001573563
72,256,27927,6,0,L|144:188,1,89.9999976158143
460,248,28213,2,0,L|388:136,1,89.9999976158143
48,224,28499,2,0,L|156:224,1,89.9999976158143
456,264,28784,2,0,L|424:152,1,89.9999976158143
68,220,29070,6,0,L|176:216,2,89.9999976158143
496,204,29499,2,0,L|376:192,1,89.9999976158143
52,236,29784,6,0,L|148:224,2,89.9999976158143
360,232,30213,2,0,L|276:136,1,89.9999976158143
512,200,30499,2,0,L|472:92,1,89.9999976158143
188,224,30784,6,0,L|256:136,1,89.9999976158143
492,216,31070,2,0,L|456:116,1,89.9999976158143
92,204,31356,2,0,L|188:204,1,89.9999976158143
448,208,31641,6,0,L|336:208,2,89.9999976158143
80,224,32070,2,0,L|176:220,1,89.9999976158143
364,180,32356,2,0,L|264:100,1,89.9999976158143
84,264,32641,2,0,L|92:132,1,89.9999976158143
464,204,32927,6,0,L|352:156,2,89.9999976158143
152,252,33356,2,0,L|88:168,1,89.9999976158143
492,248,33641,2,0,L|532:144,1,89.9999976158143
100,248,33927,6,0,L|72:172,1,44.9999988079071
312,236,34070,2,0,L|332:184,1,44.9999988079071
100,248,34213,2,0,L|72:172,1,44.9999988079071
312,236,34356,2,0,L|332:184,1,44.9999988079071
100,248,34499,2,0,L|72:172,1,44.9999988079071
312,236,34642,2,0,L|332:184,1,44.9999988079071
104,248,34784,6,0,L|76:172,1,44.9999988079071
316,236,34927,2,0,L|336:184,1,44.9999988079071
100,248,35070,2,0,L|72:172,1,44.9999988079071
312,236,35213,2,0,L|332:184,1,44.9999988079071
100,248,35356,2,0,L|72:172,1,44.9999988079071
312,236,35499,2,0,L|332:184,1,44.9999988079071
100,248,35641,6,0,L|72:172,1,44.9999988079071
312,236,35784,2,0,L|332:184,1,44.9999988079071
100,248,35927,2,0,L|72:172,1,44.9999988079071
312,236,36070,2,0,L|332:184,1,44.9999988079071
100,248,36213,2,0,L|72:172,1,44.9999988079071
312,236,36356,2,0,L|332:184,1,44.9999988079071
100,248,36499,2,0,L|72:172,1,44.9999988079071
484,224,36641,6,0,L|172:224,3,270.000003147125
420,156,37213,6,0,L|548:156,2,89.9999976158143
160,244,37641,2,0,L|72:172,1,89.9999976158143
412,220,37927,2,0,L|508:204,1,89.9999976158143
216,244,38213,2,0,L|272:148,1,89.9999976158143
52,248,38499,6,0,L|4:128,1,89.9999976158143
276,216,38784,2,0,L|184:168,1,89.9999976158143
488,228,39070,2,0,L|528:136,1,89.9999976158143
220,236,39356,6,0,L|336:224,2,89.9999976158143
444,172,39784,1,0,0:0:0:0:
80,212,39927,1,0,0:0:0:0:
440,268,40070,2,0,L|356:188,1,89.9999976158143
72,188,40356,1,0,0:0:0:0:
300,172,40499,1,0,0:0:0:0:
28,248,40641,6,0,L|84:152,1,89.9999976158143
424,176,40927,1,0,0:0:0:0:
56,188,41070,1,0,0:0:0:0:
484,200,41213,6,0,L|368:200,2,89.9999976158143
176,156,41641,1,0,0:0:0:0:
500,156,41784,1,0,0:0:0:0:
180,292,41927,2,0,L|256:192,1,89.9999976158143
28,188,42213,1,0,0:0:0:0:
328,256,42356,6,0,L|280:156,1,89.9999976158143
488,188,42641,1,0,0:0:0:0:
108,204,42784,2,0,L|212:204,2,89.9999976158143
472,200,43213,2,0,L|412:100,1,89.9999976158143
204,260,43499,6,0,L|160:144,1,89.9999976158143
464,236,43784,2,0,L|464:116,1,89.9999976158143
248,256,44070,2,0,L|252:144,1,89.9999976158143
508,248,44356,6,0,L|448:200,1,44.9999988079071
332,244,44499,2,0,L|272:184,1,44.9999988079071
164,240,44641,2,0,L|112:188,1,44.9999988079071
368,232,44784,2,0,L|324:176,1,44.9999988079071
108,252,44927,2,0,L|64:196,1,44.9999988079071
428,200,45070,6,0,L|392:104,1,89.9999976158143
56,188,45356,2,0,L|144:112,1,89.9999976158143
408,228,45641,6,0,L|440:172,1,44.9999988079071
196,228,45784,2,0,L|188:164,1,44.9999988079071
430,188,45927,2,0,L|400:136,1,44.9999988079071
104,212,46070,2,0,L|68:172,1,44.9999988079071
452,244,46213,6,0,L|488:120,1,89.9999976158143
96,212,46499,2,0,L|176:136,1,89.9999976158143
476,200,46784,2,0,L|368:196,2,89.9999976158143
132,188,47213,2,0,L|240:184,1,89.9999976158143
468,188,47499,6,0,L|352:200,1,89.9999976158143
160,240,47784,2,0,L|100:144,1,89.9999976158143
480,208,48070,2,0,L|516:100,1,89.9999976158143
208,224,48356,6,0,L|308:208,2,89.9999976158143
508,216,48784,2,0,L|436:120,1,89.9999976158143
40,152,49070,1,0,0:0:0:0:
312,176,49213,1,0,0:0:0:0:
8,248,49356,6,0,L|96:168,1,89.9999976158143
396,172,49641,1,0,0:0:0:0:
60,160,49784,1,0,0:0:0:0:
216,272,49927,2,0,L|140:200,1,89.9999976158143
364,176,50213,1,0,0:0:0:0:
512,184,50356,1,0,0:0:0:0:
264,196,50499,1,0,0:0:0:0:
500,192,50641,1,0,0:0:0:0:
40,264,50784,6,0,L|104:184,1,89.9999976158143
452,176,51070,1,0,0:0:0:0:
208,264,51213,2,0,L|128:192,1,89.9999976158143
456,232,51499,2,0,L|400:152,1,89.9999976158143
152,272,51784,2,0,L|156:164,1,89.9999976158143
480,244,52070,6,0,L|472:148,1,89.9999976158143
228,256,52356,2,0,L|304:176,1,89.9999976158143
60,244,52641,2,0,L|20:152,1,89.9999976158143
280,228,52927,2,0,L|296:136,1,89.9999976158143
40,200,53213,1,0,0:0:0:0:
272,248,53356,6,0,L|224:144,1,89.9999976158143
496,180,53641,1,0,0:0:0:0:
264,196,53784,1,0,0:0:0:0:
504,188,53927,1,0,0:0:0:0:
256,200,54070,1,0,0:0:0:0:
0,196,54213,5,0,0:0:0:0:
248,192,54356,1,0,0:0:0:0:
4,196,54499,1,0,0:0:0:0:
500,192,54641,1,0,0:0:0:0:
144,212,54784,1,0,0:0:0:0:
316,208,54927,1,0,0:0:0:0:
152,204,55070,1,0,0:0:0:0:
336,208,55213,1,0,0:0:0:0:
120,256,55356,6,0,L|116:112,1,135.000001573563
484,224,55641,2,0,L|380:116,1,135.000001573563
108,220,55927,2,0,L|252:212,2,135.000001573563
488,196,56356,2,0,L|380:76,1,135.000001573563
80,220,56641,6,0,L|256:216,2,135.000001573563
488,272,57070,2,0,L|448:144,1,135.000001573563
264,252,57356,2,0,L|240:100,1,135.000001573563
40,248,57641,6,0,L|136:216,1,67.5000007867814
40,248,57784,2,0,L|0:166,1,67.5000007867814
140,144,57927,2,0,L|214:123,1,67.5000007867814
488,204,58070,2,0,L|396:76,1,135.000001573563
160,216,58356,2,0,L|284:136,1,135.000001573563
500,204,58641,6,0,L|360:208,2,135.000001573563
72,212,59070,2,0,L|144:172,1,67.5000007867814
280,216,59213,2,0,L|288:120,1,67.5000007867814
100,216,59356,2,0,L|36:128,1,67.5000007867814
264,124,59499,2,0,L|344:120,1,67.5000007867814
100,280,59641,2,0,L|80:120,1,135.000001573563
480,224,59927,6,0,L|344:136,1,135.000001573563
72,232,60213,2,0,L|220:224,2,135.000001573563
472,208,60641,2,0,L|320:184,2,135.000001573563
96,224,61070,2,0,L|156:76,1,135.000001573563
400,160,61356,1,0,0:0:0:0:
120,248,61499,2,0,P|128:160|160:108,1,135.000001573563
432,244,61784,6,0,B|372:176|372:176|460:128,1,135.000001573563
140,188,62070,1,0,0:0:0:0:
444,240,62213,2,0,L|416:104,1,135.000001573563
88,236,62499,2,0,L|200:140,1,135.000001573563
472,168,62784,1,0,0:0:0:0:
180,252,62927,6,0,L|104:136,1,135.000001573563
488,176,63213,1,0,0:0:0:0:
100,240,63356,2,0,L|236:236,4,135.000001573563
464,216,64070,6,0,L|392:88,1,135.000001573563
168,136,64356,1,0,0:0:0:0:
444,240,64499,2,0,L|484:104,1,135.000001573563
248,236,64784,2,0,L|256:80,1,135.000001573563
20,220,65070,2,0,L|48:72,1,135.000001573563
296,232,65356,6,0,L|200:136,1,135.000001573563
488,144,65641,1,0,0:0:0:0:
72,148,65784,1,0,0:0:0:0:
368,236,65927,2,0,L|296:104,1,135.000001573563
52,172,66213,1,0,0:0:0:0:
512,196,66356,1,0,0:0:0:0:
164,216,66499,6,0,L|312:216,2,135.000001573563
508,232,66927,2,0,L|448:92,1,135.000001573563
52,208,67213,2,0,L|160:100,1,135.000001573563
496,204,67499,6,0,L|368:200,5,67.5000007867814
108,204,67927,6,0,L|240:96,1,135.000001573563
492,216,68213,2,0,L|436:80,1,135.000001573563
112,204,68499,2,0,L|252:200,2,135.000001573563
452,180,68927,1,0,0:0:0:0:
200,192,69070,1,0,0:0:0:0:
500,232,69213,2,0,L|500:76,1,135.000001573563
176,236,69499,6,0,L|176:84,1,135.000001573563
232,104,69784,1,0,0:0:0:0:
500,216,69927,2,0,L|496:56,1,135.000001573563
392,88,70213,1,0,0:0:0:0:
80,224,70356,2,0,L|220:220,2,135.000001573563
504,212,70784,6,0,L|428:96,1,135.000001573563
88,220,71070,2,0,L|160:88,1,135.000001573563
456,176,71356,1,0,0:0:0:0:
264,192,71499,1,0,0:0:0:0:
76,200,71641,1,0,0:0:0:0:
408,208,71784,6,0,L|256:208,2,135.000001573563
88,196,72213,1,0,0:0:0:0:
400,228,72356,2,0,L|328:96,1,135.000001573563
104,232,72570,6,0,L|80:132,1,67.5000007867814
288,224,72713,2,0,L|316:120,1,67.5000007867814
104,232,72856,2,0,L|80:132,1,67.5000007867814
288,224,72999,2,0,L|316:120,1,67.5000007867814
104,232,73141,2,0,L|80:132,1,67.5000007867814
288,224,73284,2,0,L|316:120,1,67.5000007867814
104,232,73427,2,0,L|80:132,1,67.5000007867814
104,352,73641,6,0,B|88:244|396:252|480:200|472:84|260:156|80:184|104:124|356:48,1,719.999980926514
184,252,75927,2,0,L|360:152,1,179.999995231629
196,280,76784,2,0,L|120:264,3,44.9999988079071
412,172,77070,1,0,0:0:0:0:
428,256,77927,6,0,L|368:160,1,89.9999976158143
104,160,78213,1,0,0:0:0:0:
248,224,78784,6,0,L|316:224,8,44.9999988079071
136,236,80499,5,0,0:0:0:0:
424,248,80784,1,0,0:0:0:0:
452,228,81070,1,0,0:0:0:0:
48,212,81356,2,0,L|112:212,4,44.9999988079071
136,204,82499,2,0,L|520:204,2,359.999990463257
132,208,83356,6,0,L|200:200,8,44.9999988079071
348,184,85070,1,0,0:0:0:0:
144,184,85356,1,0,0:0:0:0:
332,204,85927,6,0,L|396:200,4,44.9999988079071
368,188,87070,1,0,0:0:0:0:
204,180,87213,1,0,0:0:0:0:
416,180,87356,1,0,0:0:0:0:
264,212,87927,6,0,L|344:212,8,44.9999988079071
384,196,89641,1,0,0:0:0:0:
200,208,89927,1,0,0:0:0:0:
384,216,90213,1,0,0:0:0:0:
68,192,90499,6,0,L|136:196,4,44.9999988079071
132,216,91641,1,0,0:0:0:0:
372,208,91927,1,0,0:0:0:0:
132,208,92499,6,0,L|180:208,7,44.9999988079071
464,216,93070,1,0,0:0:0:0:
168,180,94213,1,0,0:0:0:0:
388,184,94499,1,0,0:0:0:0:
288,216,95070,6,0,L|340:216,4,44.9999988079071
192,160,96213,1,0,0:0:0:0:
364,152,96356,1,0,0:0:0:0:
152,184,96499,1,0,0:0:0:0:
304,188,97070,6,0,L|368:188,8,44.9999988079071
112,180,98784,1,0,0:0:0:0:
312,164,99070,1,0,0:0:0:0:
260,212,99641,2,0,L|324:212,4,44.9999988079071
144,204,100784,1,0,0:0:0:0:
360,188,101070,1,0,0:0:0:0:
364,180,101641,6,0,L|412:180,8,44.9999988079071
176,224,103356,1,0,0:0:0:0:
360,216,103641,1,0,0:0:0:0:
64,232,104213,6,0,L|144:232,4,44.9999988079071
372,208,105356,1,0,0:0:0:0:
144,232,105641,1,0,0:0:0:0:
356,220,106213,6,0,L|440:224,8,44.9999988079071
148,184,107927,1,0,0:0:0:0:
400,188,108213,1,0,0:0:0:0:
304,188,108784,2,0,L|372:184,4,44.9999988079071
128,164,109927,2,0,L|228:160,2,89.9999976158143
232,204,110784,6,0,L|296:196,7,44.9999988079071
128,320,111356,6,0,B|88:248|136:180|192:112|540:24,1,557.999985218048
344,320,113641,6,0,P|360:232|340:176,1,143.999996185303
76,276,114284,6,0,P|68:192|104:160,1,125.99999666214
432,284,114856,6,0,P|432:208|424:148,1,125.99999666214
164,264,115427,6,0,L|264:176,1,125.99999666214
440,240,115999,6,0,B|476:144|376:80|160:64|128:80|112:152|136:228|196:248|272:212,1,557.999985218048
456,308,118284,6,0,B|476:232|336:248|252:268|340:172|456:156|148:92,1,413.999989032746
136,272,119999,6,0,L|112:216,1,53.9999985694885
396,240,120284,6,0,L|344:208,1,53.9999985694885
104,340,120570,6,0,P|80:284|184:124,1,269.999992847443
440,284,121713,6,0,P|456:208|416:168,1,125.99999666214
112,316,122284,6,0,L|200:224,1,125.99999666214
420,308,122856,6,0,P|356:260|424:112,1,269.999992847443
84,352,123999,6,0,B|104:284|256:288|364:296|316:280,1,269.999992847443
40,236,125213,6,0,L|0:156,1,89.9999976158143
160,228,125356,2,0,L|220:144,1,89.9999976158143
40,236,125499,6,0,L|0:156,1,89.9999976158143
188,260,125641,2,0,L|256:168,1,89.9999976158143
40,236,125784,6,0,L|0:156,1,89.9999976158143
264,280,125927,2,0,L|316:196,1,89.9999976158143
40,236,126070,6,0,L|0:156,1,89.9999976158143
340,292,126213,2,0,L|384:200,1,89.9999976158143
40,236,126356,6,0,L|0:156,1,89.9999976158143
380,288,126499,2,0,L|412:196,1,89.9999976158143
40,236,126641,6,0,L|0:156,1,89.9999976158143
408,324,126784,2,0,L|440:224,1,89.9999976158143
40,236,126927,6,0,L|0:156,1,89.9999976158143
456,348,127070,2,0,L|480:256,1,89.9999976158143
40,236,127213,6,0,L|0:156,1,89.9999976158143
276,244,127356,2,0,L|304:136,1,89.9999976158143
40,236,127499,6,0,L|0:156,1,89.9999976158143
496,228,127641,2,0,L|516:132,1,89.9999976158143
40,236,127784,6,0,L|0:156,1,89.9999976158143
244,248,127927,2,0,L|264:148,1,89.9999976158143
40,236,128070,6,0,L|0:156,1,89.9999976158143
472,240,128213,2,0,L|504:144,1,89.9999976158143
40,236,128356,6,0,L|0:156,1,89.9999976158143
320,232,128499,2,0,L|364:136,1,89.9999976158143
40,236,128641,6,0,L|0:156,1,89.9999976158143
224,208,128784,2,0,L|264:116,1,89.9999976158143
40,236,128927,6,0,L|0:156,1,89.9999976158143
448,208,129070,2,0,L|472:116,1,89.9999976158143
40,236,129213,6,0,L|0:156,1,89.9999976158143
288,204,129356,2,0,L|328:120,1,89.9999976158143
40,236,129499,6,0,L|0:156,1,89.9999976158143
260,208,129641,1,0,0:0:0:0:
416,212,130499,5,0,0:0:0:0:
112,220,130641,1,0,0:0:0:0:
328,236,131356,1,0,0:0:0:0:
352,168,131927,1,0,0:0:0:0:
336,220,133784,5,0,0:0:0:0:
152,224,133927,1,0,0:0:0:0:
336,184,134070,1,0,0:0:0:0:
60,276,134213,6,0,L|76:172,1,67.5000007867814
256,204,134355,6,0,L|324:124,1,76.4999994325638
488,216,134498,6,0,L|456:112,1,76.4999994325638
272,220,134641,6,0,L|224:132,1,76.4999994325638
28,240,134784,6,0,L|48:144,1,76.4999994325638
296,224,134927,6,0,L|184:184,1,76.4999994325638
480,216,135070,6,0,L|516:124,1,76.4999994325638
160,288,135213,6,0,L|148:192,1,76.4999994325638
180,192,135355,6,0,L|256:128,1,76.4999994325638
428,232,135498,6,0,L|448:136,1,76.4999994325638
200,176,135641,6,0,L|276:120,1,76.4999994325638
72,240,135784,6,0,L|8:144,1,76.4999994325638
396,220,135927,6,0,L|268:180,1,76.4999994325638
112,248,136070,6,0,L|128:160,1,76.4999994325638
476,208,136213,6,0,L|376:188,1,76.4999994325638
80,232,136355,6,0,L|148:104,1,76.4999994325638
444,208,136498,6,0,L|456:80,1,76.4999994325638
148,200,136641,6,0,L|244:108,1,76.4999994325638
352,172,136784,6,0,L|364:72,1,76.4999994325638
140,208,136927,6,0,L|52:140,1,76.4999994325638
380,168,137070,6,0,L|292:128,1,76.4999994325638
64,212,137213,6,0,L|128:132,1,76.4999994325638
368,216,137355,6,0,L|416:120,1,76.4999994325638
136,216,137498,6,0,L|64:128,1,76.4999994325638
444,236,137641,5,0,0:0:0:0:
471,165,137712,5,0,0:0:0:0:
460,90,137783,5,0,0:0:0:0:
413,30,137855,5,0,0:0:0:0:
344,0,137926,5,0,0:0:0:0:
100,220,137998,6,0,L|176:172,1,76.4999994325638
452,224,138141,6,0,L|484:152,1,76.4999994325638
232,248,138284,6,0,L|124:192,1,76.4999994325638
24,200,138427,6,0,L|52:112,1,76.4999994325638
288,204,138570,6,0,L|212:164,1,76.4999994325638
488,224,138713,6,0,L|464:128,1,76.4999994325638
132,228,138855,6,0,L|268:216,1,76.4999994325638
456,224,138998,6,0,L|484:124,1,76.4999994325638
252,240,139141,6,0,L|208:144,1,76.4999994325638
36,240,139284,6,0,L|-4:136,1,76.4999994325638
332,220,139427,6,0,L|244:144,1,76.4999994325638
508,192,139570,6,0,L|524:96,1,76.4999994325638
216,204,139713,6,0,L|252:124,1,76.4999994325638
24,224,139855,6,0,L|28:104,1,76.4999994325638
296,212,139998,6,0,L|200:168,1,76.4999994325638
488,212,140141,6,0,L|488:124,1,76.4999994325638
224,228,140284,6,0,L|336:224,1,76.4999994325638
64,196,140427,6,0,L|144:188,1,76.4999994325638
488,224,140570,6,0,L|404:180,1,76.4999994325638
192,224,140713,6,0,L|240:148,1,76.4999994325638
60,212,140855,6,0,L|4:124,1,76.4999994325638
292,208,140998,6,0,L|372:144,1,76.4999994325638
60,248,141141,6,0,L|56:160,1,76.4999994325638
296,184,141284,6,0,L|372:116,1,76.4999994325638
72,196,141427,6,0,L|128:136,1,76.4999994325638
416,272,141570,6,0,L|472:176,1,76.4999994325638
296,200,141713,6,0,L|184:152,1,76.4999994325638
452,184,141855,6,0,L|464:104,1,76.4999994325638
60,196,141998,6,0,L|196:184,1,76.4999994325638
468,188,142141,6,0,L|380:128,1,76.4999994325638
96,188,142284,6,0,L|188:192,1,76.4999994325638
428,216,142427,6,0,L|408:92,1,76.4999994325638
80,224,142570,6,0,L|76:104,1,76.4999994325638
352,216,142713,6,0,L|288:148,1,76.4999994325638
64,236,142855,6,0,L|24:116,1,76.4999994325638
356,196,142998,6,0,L|240:184,1,76.4999994325638
448,208,143141,6,0,L|508:112,1,76.4999994325638
116,236,143284,6,0,L|160:152,1,76.4999994325638
340,224,143427,6,0,L|424:120,1,76.4999994325638
388,164,143570,6,0,L|316:104,1,76.4999994325638
88,216,143713,6,0,L|28:144,1,76.4999994325638
336,136,143855,6,0,L|264:104,1,76.4999994325638
266,104,143998,6,0,L|168:152,1,76.4999994325638
36,236,144141,6,0,L|0:148,1,76.4999994325638
452,212,144284,6,0,L|480:136,1,76.4999994325638
136,216,144427,6,0,L|216:208,1,76.4999994325638
484,228,144570,6,0,L|448:140,1,76.4999994325638
212,244,144713,6,0,L|268:152,1,76.4999994325638
56,224,144855,6,0,L|-36:132,1,76.4999994325638
304,184,144998,6,0,L|220:120,1,76.4999994325638
492,200,145141,6,0,L|496:116,1,76.4999994325638
176,236,145284,6,0,L|224:156,1,76.4999994325638
492,200,145427,6,0,L|416:144,1,76.4999994325638
12,232,145570,6,0,L|60:148,1,76.4999994325638
308,224,145713,6,0,L|232:144,1,76.4999994325638
496,212,145855,6,0,L|516:120,1,76.4999994325638
144,248,145998,6,0,L|224:160,1,76.4999994325638
488,220,146141,6,0,P|428:132|424:128,1,76.4999994325638
32,248,146284,6,0,L|24:148,1,76.4999994325638
328,232,146427,6,0,L|248:144,1,76.4999994325638
48,256,146570,6,0,L|32:172,1,76.4999994325638
112,216,146713,6,0,L|88:116,1,76.4999994325638
192,200,146855,6,0,L|176:100,1,76.4999994325638
292,192,146998,6,0,L|264:80,1,76.4999994325638
400,196,147141,6,0,L|368:96,1,76.4999994325638
472,168,147284,6,0,L|464:60,1,76.4999994325638
84,196,147427,6,0,L|196:128,1,76.4999994325638
420,196,147570,6,0,L|368:88,1,76.4999994325638
184,212,147713,6,0,L|88:128,1,76.4999994325638
372,236,147855,6,0,L|432:144,1,76.4999994325638
304,136,147998,6,0,L|384:56,1,76.4999994325638
140,240,148141,6,0,L|52:124,1,76.4999994325638
76,132,148284,6,0,L|-16:120,1,76.4999994325638
340,208,148427,6,0,L|380:120,1,76.4999994325638
84,148,148570,6,0,L|164:88,1,76.4999994325638
456,216,148713,6,0,L|376:148,1,76.4999994325638
216,212,148855,6,0,L|264:144,1,76.4999994325638
36,152,148998,6,0,L|116:96,1,76.4999994325638
396,184,149141,6,0,L|444:112,1,76.4999994325638
396,184,149284,6,0,L|284:124,1,76.4999994325638
56,200,149427,6,0,L|80:124,1,76.4999994325638
252,184,149570,6,0,L|396:168,1,76.4999994325638
100,200,149713,6,0,L|56:108,1,76.4999994325638
456,108,149855,6,0,L|384:56,1,76.4999994325638
184,208,149998,6,0,L|152:104,1,76.4999994325638
452,152,150141,6,0,L|412:80,1,76.4999994325638
144,152,150284,6,0,L|212:96,1,76.4999994325638
468,140,150427,6,0,L|520:60,1,76.4999994325638
216,176,150570,6,0,L|120:116,1,76.4999994325638
400,264,150713,6,0,L|456:200,1,76.4999994325638
144,268,150855,6,0,L|80:176,1,76.4999994325638
324,160,150998,6,0,L|400:92,1,76.4999994325638
188,152,151141,6,0,L|120:96,1,76.4999994325638
380,252,151284,6,0,L|404:176,1,76.4999994325638
144,252,151427,6,0,L|112:176,1,76.4999994325638
488,232,151570,6,0,L|424:160,1,76.4999994325638
76,256,151713,6,0,L|124:176,1,76.4999994325638
444,224,151855,6,0,L|400:148,1,76.4999994325638
168,264,151998,6,0,L|116:168,1,76.4999994325638
472,304,152141,6,0,L|384:256,1,76.4999994325638
96,304,152284,6,0,L|72:216,1,76.4999994325638
384,268,152427,5,0,0:0:0:0:
408,248,152498,5,0,0:0:0:0:
441,180,152569,5,0,0:0:0:0:
441,104,152640,5,0,0:0:0:0:
408,35,152712,5,0,0:0:0:0:
112,268,152784,6,0,L|140:168,1,76.4999994325638
424,240,152927,6,0,L|368:148,1,76.4999994325638
72,236,153070,6,0,L|32:152,1,76.4999994325638
288,212,153213,6,0,L|200:144,1,76.4999994325638
480,208,153355,6,0,L|492:128,1,76.4999994325638
216,300,153498,6,0,L|248:200,1,76.4999994325638
136,200,153641,6,0,L|112:120,1,76.4999994325638
472,208,153784,6,0,L|352:144,1,76.4999994325638
128,224,153927,6,0,L|172:112,1,76.4999994325638
460,160,154070,6,0,L|352:80,1,76.4999994325638
152,224,154213,6,0,L|68:180,1,76.4999994325638
328,220,154355,6,0,L|360:148,1,76.4999994325638
180,160,154498,6,0,L|208:84,1,76.4999994325638
464,172,154641,6,0,L|372:96,1,76.4999994325638
120,212,154784,6,0,L|40:160,1,76.4999994325638
288,180,154927,6,0,L|340:108,1,76.4999994325638
496,188,155070,6,0,L|496:92,1,76.4999994325638
228,208,155213,6,0,L|272:124,1,76.4999994325638
68,208,155355,6,0,L|96:104,1,76.4999994325638
496,216,155498,6,0,L|416:120,1,76.4999994325638
160,240,155641,6,0,L|56:148,1,76.4999994325638
464,176,155784,6,0,L|368:100,1,76.4999994325638
96,216,155927,6,0,L|40:120,1,76.4999994325638
264,168,156070,6,0,L|348:108,1,76.4999994325638
496,184,156213,6,0,L|464:72,1,76.4999994325638
76,216,156355,6,0,L|32:116,1,76.4999994325638
376,176,156498,6,0,L|268:92,1,76.4999994325638
488,180,156641,6,0,L|520:88,1,76.4999994325638
124,224,156784,6,0,L|48:156,1,76.4999994325638
124,224,156927,6,0,L|176:168,1,76.4999994325638
508,196,157070,6,0,L|460:96,1,76.4999994325638
136,192,157213,6,0,L|192:120,1,76.4999994325638
468,196,157355,6,0,L|504:124,1,76.4999994325638
188,216,157498,6,0,L|104:148,1,76.4999994325638
416,200,157641,6,0,L|456:92,1,76.4999994325638
112,208,157784,6,0,L|72:140,1,76.4999994325638
444,168,157927,6,0,L|356:128,1,76.4999994325638
112,208,158070,6,0,L|64:120,1,76.4999994325638
284,176,158213,6,0,L|376:120,1,76.4999994325638
164,200,158355,6,0,L|104:120,1,76.4999994325638
404,308,158498,5,0,0:0:0:0:
441,241,158569,5,0,0:0:0:0:
450,166,158640,5,0,0:0:0:0:
431,92,158712,5,0,0:0:0:0:
108,320,158784,5,0,0:0:0:0:
68,255,158855,5,0,0:0:0:0:
61,179,158926,5,0,0:0:0:0:
89,109,158998,5,0,0:0:0:0:
452,272,159070,6,0,L|364:172,1,76.4999994325638
104,240,159213,6,0,L|80:140,1,76.4999994325638
392,184,159355,6,0,L|484:136,1,76.4999994325638
136,224,159498,6,0,L|72:120,1,76.4999994325638
368,160,159641,6,0,L|292:136,1,76.4999994325638
160,188,159784,6,0,L|100:132,1,76.4999994325638
328,172,159927,6,0,L|416:104,1,76.4999994325638
108,236,160070,6,0,L|60:140,1,76.4999994325638
384,244,160213,6,0,L|384:148,1,76.4999994325638
104,212,160355,6,0,L|196:140,1,76.4999994325638
328,216,160498,6,0,L|400:100,1,76.4999994325638
132,192,160641,6,0,L|68:132,1,76.4999994325638
352,184,160784,6,0,L|396:100,1,76.4999994325638
48,196,160927,6,0,L|132:132,1,76.4999994325638
440,168,161070,6,0,L|356:112,1,76.4999994325638
144,212,161213,6,0,L|44:128,1,76.4999994325638
396,200,161355,6,0,L|476:132,1,76.4999994325638
160,184,161498,6,0,L|240:120,1,76.4999994325638
448,192,161641,6,0,L|472:116,1,76.4999994325638
108,224,161784,6,0,L|40:160,1,76.4999994325638
368,220,161927,6,0,L|472:148,1,76.4999994325638
76,232,162070,6,0,L|128:128,1,76.4999994325638
448,188,162213,6,0,L|412:116,1,76.4999994325638
52,212,162355,6,0,L|-40:168,1,76.4999994325638
444,196,162498,6,0,L|372:128,1,76.4999994325638
72,216,162641,6,0,L|148:160,1,76.4999994325638
324,216,162784,6,0,L|376:148,1,76.4999994325638
56,220,162927,6,0,L|144:176,1,76.4999994325638
364,204,163070,6,0,L|312:144,1,76.4999994325638
76,208,163213,6,0,L|-8:160,1,76.4999994325638
328,216,163355,6,0,L|364:144,1,76.4999994325638
64,220,163498,6,0,L|96:148,1,76.4999994325638
412,216,163641,6,0,L|312:192,1,76.4999994325638
88,212,163784,6,0,L|140:120,1,76.4999994325638
432,184,163927,6,0,L|308:128,1,76.4999994325638
124,272,164070,6,0,L|64:208,1,76.4999994325638
472,248,164213,6,0,L|428:152,1,76.4999994325638
120,248,164355,6,0,L|116:160,1,76.4999994325638
480,208,164498,6,0,L|396:140,1,76.4999994325638
200,224,164641,6,0,L|96:132,1,76.4999994325638
416,212,164784,6,0,L|468:128,1,76.4999994325638
292,208,164927,6,0,L|304:104,1,76.4999994325638
144,220,165070,6,0,L|152:120,1,76.4999994325638
0,192,165213,6,0,L|4:88,1,76.4999994325638
192,200,165355,6,0,L|180:100,1,76.4999994325638
392,212,165498,6,0,L|396:120,1,76.4999994325638
112,224,165641,6,0,L|112:128,1,76.4999994325638
488,208,165784,6,0,L|480:120,1,76.4999994325638
304,212,165927,6,0,L|308:112,1,76.4999994325638
36,224,166070,6,0,L|48:128,1,76.4999994325638
284,176,166213,6,0,L|368:176,19,76.4999994325638
40,184,167641,6,0,L|124:184,19,76.4999994325638
416,196,169070,6,0,L|500:196,23,76.4999994325638
80,220,170784,6,0,L|116:124,1,76.4999994325638
412,204,170927,6,0,L|352:140,1,76.4999994325638
84,208,171070,6,0,L|168:176,1,76.4999994325638
392,212,171213,6,0,L|456:160,1,76.4999994325638
156,248,171355,6,0,L|68:168,1,76.4999994325638
428,196,171498,6,0,L|304:180,1,76.4999994325638
40,196,171641,6,0,L|88:136,1,76.4999994325638
248,200,171784,6,0,L|292:108,1,76.4999994325638
456,208,171927,6,0,L|500:120,1,76.4999994325638
208,212,172070,6,0,L|284:132,1,76.4999994325638
504,188,172213,6,0,L|444:104,1,76.4999994325638
80,232,172355,6,0,L|32:148,1,76.4999994325638
264,304,172498,5,0,0:0:0:0:
327,261,172569,5,0,0:0:0:0:
370,199,172640,5,0,0:0:0:0:
387,125,172712,5,0,0:0:0:0:
52,224,172784,6,0,L|112:160,1,76.4999994325638
280,212,172927,6,0,L|332:156,1,76.4999994325638
496,208,173070,6,0,L|468:128,1,76.4999994325638
152,236,173213,6,0,L|224:144,1,76.4999994325638
428,224,173355,6,0,L|376:148,1,76.4999994325638
140,216,173498,6,0,L|76:144,1,76.4999994325638
472,192,173641,6,0,L|428:120,1,76.4999994325638
220,208,173784,6,0,L|280:128,1,76.4999994325638
28,208,173927,6,0,L|4:96,1,76.4999994325638
256,192,174070,6,0,L|192:120,1,76.4999994325638
472,200,174213,6,0,L|520:88,1,76.4999994325638
172,184,174355,6,0,L|304:144,1,76.4999994325638
40,200,174498,6,0,L|-24:112,1,76.4999994325638
344,176,174641,6,0,L|256:104,1,76.4999994325638
52,252,174784,6,0,L|36:160,1,76.4999994325638
232,216,174927,6,0,L|224:120,1,76.4999994325638
376,208,175070,6,0,L|376:124,1,76.4999994325638
504,224,175213,6,0,L|508:120,1,76.4999994325638
224,232,175355,6,0,L|324:168,1,76.4999994325638
444,224,175498,6,0,L|504:152,1,76.4999994325638
124,232,175641,6,0,L|176:164,1,76.4999994325638
468,224,175784,6,0,L|396:136,1,76.4999994325638
140,232,175927,6,0,L|60:172,1,76.4999994325638
424,216,176070,6,0,L|328:180,1,76.4999994325638
104,232,176213,6,0,L|160:180,1,76.4999994325638
448,224,176355,6,0,L|488:152,1,76.4999994325638
104,208,176498,6,0,L|220:208,1,76.4999994325638
416,224,176641,6,0,L|444:120,1,76.4999994325638
160,232,176784,6,0,L|72:164,1,76.4999994325638
448,208,176927,6,0,L|384:140,1,76.4999994325638
112,236,177070,6,0,L|56:156,1,76.4999994325638
112,236,177213,6,0,L|180:168,1,76.4999994325638
488,216,177355,6,0,L|428:144,1,76.4999994325638
164,236,177498,6,0,L|64:160,1,76.4999994325638
400,220,177641,6,0,L|464:144,1,76.4999994325638
132,240,177784,6,0,L|192:148,1,76.4999994325638
432,220,177927,6,0,L|480:144,1,76.4999994325638
432,220,178070,6,0,L|296:176,1,76.4999994325638
56,228,178213,6,0,L|112:168,1,76.4999994325638
344,216,178355,6,0,L|412:152,1,76.4999994325638
116,236,178498,6,0,L|72:164,1,76.4999994325638
320,220,178641,6,0,L|300:144,1,76.4999994325638
484,224,178784,6,0,L|476:136,1,76.4999994325638
160,220,178927,6,0,L|272:120,1,76.4999994325638
440,216,179070,6,0,L|424:140,1,76.4999994325638
112,244,179213,6,0,L|52:152,1,76.4999994325638
276,228,179355,6,0,L|284:144,1,76.4999994325638
480,188,179498,6,0,L|432:88,1,76.4999994325638
68,200,179641,6,0,L|120:128,1,76.4999994325638
376,224,179784,6,0,L|456:144,1,76.4999994325638
128,228,179927,6,0,L|44:152,1,76.4999994325638
488,208,180070,6,0,L|444:136,1,76.4999994325638
140,224,180213,6,0,L|212:124,1,76.4999994325638
468,208,180355,6,0,L|488:120,1,76.4999994325638
184,216,180498,6,0,L|272:144,1,76.4999994325638
48,204,180641,6,0,L|-8:104,1,76.4999994325638
260,224,180784,6,0,L|184:172,1,76.4999994325638
500,208,180927,6,0,L|512:92,1,76.4999994325638
148,232,181070,6,0,L|268:176,1,76.4999994325638
476,208,181213,6,0,L|512:132,1,76.4999994325638
248,208,181355,6,0,L|316:128,1,76.4999994325638
28,200,181498,6,0,L|44:120,1,76.4999994325638
308,208,181641,6,0,L|220:124,1,76.4999994325638
488,176,181784,6,0,L|464:80,1,76.4999994325638
248,212,181927,6,0,L|276:116,1,76.4999994325638
40,232,182070,6,0,L|32:132,1,76.4999994325638
296,208,182213,6,0,L|232:144,1,76.4999994325638
480,208,182355,6,0,L|512:132,1,76.4999994325638
104,236,182498,6,0,L|192:208,1,76.4999994325638
360,220,182641,6,0,L|432:168,1,76.4999994325638
204,192,182784,6,0,L|248:124,1,76.4999994325638
496,180,182927,6,0,L|456:104,1,76.4999994325638
248,196,183070,6,0,L|208:120,1,76.4999994325638
464,184,183213,6,0,L|512:112,1,76.4999994325638
228,188,183355,6,0,L|296:120,1,76.4999994325638
60,184,183498,6,0,L|100:104,1,76.4999994325638
256,188,183641,6,0,L|296:104,1,76.4999994325638
492,180,183784,6,0,L|472:96,1,76.4999994325638
236,184,183927,6,0,L|176:108,1,76.4999994325638
448,160,184070,6,0,L|504:88,1,76.4999994325638
116,176,184213,6,0,L|184:128,1,76.4999994325638
440,188,184355,6,0,L|424:76,1,76.4999994325638
48,196,184498,6,0,L|128:196,15,76.4999994325638
296,200,185641,6,0,L|376:200,15,76.4999994325638
48,196,186784,6,0,L|128:196,15,76.4999994325638
412,180,187927,6,0,L|492:180,15,76.4999994325638
80,224,189070,6,0,L|44:120,1,76.4999994325638
296,200,189213,6,0,L|384:108,1,76.4999994325638
100,208,189355,6,0,L|36:128,1,76.4999994325638
328,176,189498,6,0,L|248:120,1,76.4999994325638
500,224,189641,6,0,L|504:128,1,76.4999994325638
220,216,189784,6,0,L|256:148,1,76.4999994325638
512,200,189927,6,0,L|440:140,1,76.4999994325638
188,216,190070,6,0,L|88:164,1,76.4999994325638
400,216,190213,6,0,L|460:168,1,76.4999994325638
16,212,190355,6,0,L|88:184,1,76.4999994325638
276,196,190498,6,0,L|168:120,1,76.4999994325638
456,236,190641,6,0,L|496:144,1,76.4999994325638
244,260,190784,6,0,L|140:208,1,76.4999994325638
244,260,190927,6,0,L|288:192,1,76.4999994325638
504,180,191070,6,0,L|424:128,1,76.4999994325638
68,224,191213,6,0,L|96:124,1,76.4999994325638
400,220,191355,6,0,L|296:160,1,76.4999994325638
333,181,191498,6,0,L|380:112,1,76.4999994325638
60,248,191641,6,0,L|112:164,1,76.4999994325638
424,200,191784,6,0,L|368:144,1,76.4999994325638
192,216,191927,6,0,L|112:168,1,76.4999994325638
440,200,192070,6,0,L|448:124,1,76.4999994325638
80,200,192213,6,0,L|144:132,1,76.4999994325638
360,196,192355,6,0,L|312:116,1,76.4999994325638
36,196,192498,6,0,L|60:104,1,76.4999994325638
220,176,192641,6,0,L|320:160,1,76.4999994325638
456,200,192784,6,0,L|432:120,1,76.4999994325638
180,228,192927,6,0,L|112:168,1,76.4999994325638
348,184,193070,6,0,L|408:116,1,76.4999994325638
24,148,193213,6,0,L|88:96,1,76.4999994325638
452,240,193355,6,0,L|384:136,1,76.4999994325638
116,268,193498,6,0,L|64:168,1,76.4999994325638
400,256,193641,6,0,L|432:172,1,76.4999994325638
160,264,193784,6,0,L|76:176,1,76.4999994325638
432,180,193927,6,0,L|292:132,1,76.4999994325638
88,316,194070,6,0,L|208:224,1,76.4999994325638
412,272,194213,6,0,L|468:180,1,76.4999994325638
136,296,194355,6,0,L|80:216,1,76.4999994325638
172,224,194498,6,0,L|108:144,1,76.4999994325638
48,168,194641,6,0,L|8:88,1,76.4999994325638
368,288,194784,6,0,L|424:208,1,76.4999994325638
116,240,194927,6,0,L|116:152,1,76.4999994325638
384,240,195070,6,0,L|440:160,1,76.4999994325638
427,177,195213,6,0,L|344:132,1,76.4999994325638
108,280,195355,6,0,L|56:196,1,76.4999994325638
416,284,195498,6,0,L|480:192,1,76.4999994325638
176,240,195641,6,0,L|92:196,1,76.4999994325638
108,204,195784,6,0,L|160:136,1,76.4999994325638
464,232,195927,6,0,L|448:144,1,76.4999994325638
100,236,196070,6,0,L|176:168,1,76.4999994325638
484,216,196213,6,0,L|396:156,1,76.4999994325638
104,264,196355,6,0,L|44:192,1,76.4999994325638
392,216,196498,6,0,L|272:208,1,76.4999994325638
20,224,196641,6,0,L|100:224,1,76.4999994325638
428,240,196784,6,0,L|372:168,1,76.4999994325638
104,248,196927,6,0,L|44:164,1,76.4999994325638
340,228,197070,6,0,L|376:144,1,76.4999994325638
24,232,197213,6,0,L|116:160,1,76.4999994325638
464,216,197355,6,0,L|376:128,1,76.4999994325638
140,252,197498,6,0,L|204:120,1,76.4999994325638
512,224,197641,6,0,L|448:132,1,76.4999994325638
64,216,197784,6,0,L|164:160,1,76.4999994325638
432,220,197927,6,0,L|488:128,1,76.4999994325638
200,212,198070,6,0,L|164:140,1,76.4999994325638
480,192,198213,6,0,L|440:104,1,76.4999994325638
216,188,198355,6,0,L|276:120,1,76.4999994325638
24,200,198498,6,0,L|52:120,1,76.4999994325638
324,200,198641,6,0,L|264:128,1,76.4999994325638
496,184,198784,6,0,L|472:96,1,76.4999994325638
96,224,198927,6,0,L|56:120,1,76.4999994325638
272,200,199070,6,0,L|244:112,1,76.4999994325638
464,216,199213,6,0,L|460:112,1,76.4999994325638
208,240,199355,6,0,L|272:120,1,76.4999994325638
28,212,199498,6,0,L|64:108,1,76.4999994325638
304,200,199641,6,0,L|244:108,1,76.4999994325638
456,184,199784,6,0,L|504:96,1,76.4999994325638
164,184,199927,6,0,L|244:96,1,76.4999994325638
468,184,200070,6,0,L|432:72,1,76.4999994325638
104,184,200213,6,0,L|8:96,1,76.4999994325638
296,196,200355,6,0,L|336:104,1,76.4999994325638
472,196,200498,6,0,L|456:88,1,76.4999994325638
140,172,200641,6,0,L|200:68,1,76.4999994325638
444,176,200784,6,0,L|416:68,1,76.4999994325638
4,188,200927,6,0,L|60:80,1,76.4999994325638
296,264,201070,6,0,L|224:172,1,76.4999994325638
32,268,201213,6,0,L|80:136,1,76.4999994325638
364,272,201355,6,0,L|344:156,1,76.4999994325638
104,264,201498,6,0,L|132:160,1,76.4999994325638
440,240,201641,6,0,L|360:172,1,76.4999994325638
120,248,201784,6,0,L|72:168,1,76.4999994325638
376,256,201927,6,0,L|456:152,1,76.4999994325638
100,244,202070,6,0,L|188:152,1,76.4999994325638
464,228,202213,6,0,L|428:144,1,76.4999994325638
144,224,202355,6,0,L|232:172,1,76.4999994325638
444,236,202498,6,0,L|424:132,1,76.4999994325638
64,240,202641,6,0,L|80:160,1,76.4999994325638
456,276,202784,6,0,L|444:64,1,202.500002360344
136,268,202927,6,0,L|100:-40,1,270.000003147125
456,264,203105,6,0,L|324:92,1,202.500002360344
68,260,203248,6,0,L|160:68,1,202.500002360344
384,256,203391,6,0,L|448:64,1,202.500002360344
0,248,203534,6,0,L|156:96,1,202.500002360344
484,240,203677,6,0,L|360:72,1,202.500002360344
136,224,203820,6,0,L|100:76,1,135.000001573563
472,268,203927,6,0,L|472:16,1,202.500002360344
256,268,204070,6,0,L|256:0,1,202.500002360344
8,248,204213,6,0,L|128:16,1,202.500002360344
304,264,204355,6,0,L|436:32,1,202.500002360344
120,252,204498,6,0,L|60:44,1,202.500002360344
472,228,204641,6,0,L|416:28,1,202.500002360344
88,244,204784,6,0,L|208:60,1,202.500002360344
464,248,204927,6,0,L|504:8,1,202.500002360344
168,256,205070,6,0,L|112:48,1,202.500002360344
472,208,205213,6,0,L|368:16,1,202.500002360344
104,228,205391,6,0,L|192:40,1,202.500002360344
468,276,205534,6,0,L|392:0,1,269.999992847443
120,272,205677,6,0,L|224:64,1,202.500002360344
508,252,205820,6,0,L|400:52,1,202.500002360344
112,272,205963,6,0,L|248:80,1,202.500002360344
500,272,206105,6,0,L|468:24,1,179.999995231629
144,288,206213,6,0,L|152:72,1,202.500002360344
480,248,206355,6,0,L|420:28,1,202.500002360344
144,288,206498,6,0,L|232:76,1,202.500002360344
496,264,206641,6,0,L|360:4,1,269.999992847443
52,284,206820,6,0,L|136:88,1,157.499997329712
440,296,206927,6,0,L|336:60,1,236.249995994568
100,288,207070,6,0,L|208:-40,1,314.999994659424
456,176,207355,5,0,0:0:0:0:
84,216,207641,2,0,L|160:160,1,89.9999976158143
352,216,207927,2,0,L|276:156,1,89.9999976158143
44,204,208213,2,0,L|148:204,1,89.9999976158143
216,208,208498,6,0,L|324:212,1,89.9999976158143
192,208,208784,2,0,L|96:200,1,89.9999976158143
248,136,209070,2,0,L|352:136,1,89.9999976158143
500,204,209355,2,0,L|468:108,1,89.9999976158143
328,204,209641,6,0,L|248:136,1,89.9999976158143
492,160,209927,2,0,L|500:48,1,89.9999976158143
228,200,210213,2,0,L|340:184,1,89.9999976158143
112,200,210498,2,0,L|40:112,1,89.9999976158143
316,188,210784,6,0,L|216:160,1,89.9999976158143
372,248,211070,2,0,L|416:160,1,89.9999976158143
152,224,211355,2,0,L|256:216,1,89.9999976158143
408,208,211641,6,0,L|344:132,1,89.9999976158143
128,232,211927,2,0,L|204:156,1,89.9999976158143
368,212,212213,2,0,L|428:124,1,89.9999976158143
188,208,212498,2,0,L|160:104,1,89.9999976158143
292,204,212784,2,0,L|396:184,1,89.9999976158143
60,216,213070,6,0,L|180:188,1,89.9999976158143
300,208,213355,2,0,L|208:124,1,89.9999976158143
412,120,213641,2,0,L|324:80,1,89.9999976158143
216,136,213927,2,0,L|304:52,1,89.9999976158143
376,180,214213,2,0,L|404:56,1,89.9999976158143
208,168,214498,6,0,L|176:64,1,89.9999976158143
340,216,214784,2,0,L|456:180,3,89.9999976158143
88,220,215355,2,0,L|172:176,1,89.9999976158143
440,228,215641,2,0,L|368:152,1,89.9999976158143
108,272,215927,6,0,L|92:240,1,22.4999994039536
280,288,215998,2,0,L|296:264,1,22.4999994039536
108,272,216070,2,0,L|92:240,1,22.4999994039536
280,288,216141,2,0,L|296:264,1,22.4999994039536
108,272,216213,2,0,L|92:240,1,22.4999994039536
280,288,216284,2,0,L|296:264,1,22.4999994039536
108,272,216355,2,0,L|92:240,1,22.4999994039536
280,288,216426,2,0,L|296:264,1,22.4999994039536
48,184,216498,6,0,L|132:136,1,89.9999976158143
372,212,216784,2,0,L|324:112,1,89.9999976158143
164,220,217070,2,0,L|56:220,1,89.9999976158143
312,220,217355,2,0,L|436:220,1,89.9999976158143
164,224,217641,6,0,L|296:224,1,89.9999976158143
476,232,217927,2,0,L|428:144,1,89.9999976158143
248,236,218213,2,0,L|188:136,1,89.9999976158143
476,220,218498,6,0,L|352:212,2,89.9999976158143
176,232,218927,2,0,L|288:172,1,89.9999976158143
8,208,219213,2,0,L|120:144,1,89.9999976158143
404,200,219498,6,0,L|272:200,2,89.9999976158143
76,256,219927,2,0,L|140:168,1,89.9999976158143
308,248,220213,2,0,L|364:164,1,89.9999976158143
132,248,220498,2,0,L|84:144,1,89.9999976158143
452,224,220784,6,0,L|396:132,1,89.9999976158143
96,224,221070,2,0,L|208:220,2,89.9999976158143
392,232,221498,2,0,L|328:128,1,89.9999976158143
100,228,221784,6,0,L|156:152,1,89.9999976158143
372,192,222070,2,0,L|484:184,1,89.9999976158143
128,216,222355,2,0,L|232:208,1,89.9999976158143
492,220,222641,2,0,L|436:132,1,89.9999976158143
220,212,222927,6,0,L|88:196,1,89.9999976158143
412,224,223213,2,0,L|472:140,1,89.9999976158143
136,216,223498,2,0,L|220:140,1,89.9999976158143
396,220,223784,2,0,L|396:108,1,89.9999976158143
184,204,224070,6,0,L|76:208,1,89.9999976158143
388,220,224355,2,0,L|420:136,1,89.9999976158143
104,216,224641,2,0,L|192:196,1,89.9999976158143
456,224,224927,2,0,L|396:136,1,89.9999976158143
120,220,225213,1,0,0:0:0:0:
320,208,225355,1,0,0:0:0:0:
504,224,225498,1,0,0:0:0:0:
208,240,225641,6,0,L|144:180,1,67.5000007867814
280,184,225784,2,0,L|356:160,1,67.5000007867814
240,112,225927,2,0,L|208:48,1,67.5000007867814
348,104,226070,2,0,L|316:24,1,67.5000007867814
208,128,226213,2,0,L|244:60,1,67.5000007867814
328,88,226355,2,0,L|404:76,1,67.5000007867814
296,88,226498,6,0,L|248:28,1,67.5000007867814
196,80,226641,2,0,L|224:4,1,67.5000007867814
296,160,226784,2,0,L|336:88,1,67.5000007867814
80,208,226927,2,0,L|132:152,1,67.5000007867814
240,192,227070,2,0,L|280:132,1,67.5000007867814
156,160,227213,2,0,L|192:96,1,67.5000007867814
88,148,227355,6,0,L|124:72,1,67.5000007867814
276,152,227498,2,0,L|208:112,1,67.5000007867814
280,244,227641,2,0,L|344:216,1,67.5000007867814
341,216,227784,2,0,L|301:104,1,67.5000007867814
188,248,227927,2,0,L|252:220,1,67.5000007867814
249,220,228070,6,0,L|209:108,1,67.5000007867814
96,256,228213,2,0,L|160:228,1,67.5000007867814
157,228,228356,2,0,L|117:116,1,67.5000007867814
284,168,228498,6,0,L|192:120,1,67.5000007867814
356,132,228641,2,0,L|284:128,1,67.5000007867814
396,112,228784,2,0,L|364:44,1,67.5000007867814
448,104,228927,2,0,L|488:32,1,67.5000007867814
376,96,229070,6,0,L|416:40,1,67.5000007867814
328,104,229213,2,0,L|280:44,1,67.5000007867814
332,108,229355,2,0,L|448:92,1,67.5000007867814
472,128,229498,2,0,L|432:64,1,67.5000007867814
272,184,229641,2,0,L|312:104,1,67.5000007867814
224,120,229784,2,0,L|184:60,1,67.5000007867814
320,112,229927,6,0,L|296:36,1,67.5000007867814
388,104,230070,2,0,L|368:32,1,67.5000007867814
252,104,230213,2,0,L|316:48,1,67.5000007867814
220,128,230355,2,0,L|164:56,1,67.5000007867814
320,144,230498,2,0,L|344:80,1,67.5000007867814
448,152,230641,6,0,L|408:68,1,67.5000007867814
360,172,230784,2,0,L|280:128,1,67.5000007867814
164,188,230927,2,0,L|240:120,1,67.5000007867814
424,204,231070,2,0,L|468:128,1,67.5000007867814
164,252,231213,2,0,L|104:184,1,67.5000007867814
340,216,231355,6,0,L|404:176,1,67.5000007867814
264,196,231498,2,0,L|252:120,1,67.5000007867814
76,188,231641,2,0,L|128:128,1,67.5000007867814
240,164,231784,2,0,L|168:76,1,67.5000007867814
328,164,231927,6,0,L|376:96,1,67.5000007867814
492,176,232070,2,0,L|432:80,1,67.5000007867814
292,196,232213,2,0,L|236:120,1,67.5000007867814
140,220,232355,2,0,L|108:148,1,67.5000007867814
244,184,232498,6,0,L|320:152,1,67.5000007867814
480,184,232641,2,0,L|408:108,1,67.5000007867814
228,212,232784,2,0,L|336:196,1,67.5000007867814
88,188,232927,2,0,L|172:184,1,67.5000007867814
264,196,233070,6,0,L|180:120,1,67.5000007867814
328,136,233213,2,0,L|404:136,1,67.5000007867814
208,216,233355,2,0,L|212:120,1,67.5000007867814
460,184,233498,2,0,L|340:168,1,67.5000007867814
264,224,233641,2,0,L|208:140,1,67.5000007867814
336,164,233784,6,0,L|412:168,1,67.5000007867814
196,228,233927,2,0,L|240:148,1,67.5000007867814
168,172,234070,2,0,L|84:152,1,67.5000007867814
240,196,234213,2,0,L|260:120,1,67.5000007867814
348,144,234355,2,0,L|416:140,1,67.5000007867814
484,100,234498,6,0,L|472:192,1,67.5000007867814
392,200,234641,2,0,L|328:152,1,67.5000007867814
396,108,234784,2,0,L|444:52,1,67.5000007867814
236,92,234927,2,0,L|148:96,1,67.5000007867814
264,152,235070,2,0,L|320:92,1,67.5000007867814
452,180,235213,6,0,L|412:104,1,67.5000007867814
312,156,235355,2,0,L|224:156,1,67.5000007867814
140,144,235498,2,0,L|180:72,1,67.5000007867814
260,104,235641,2,0,L|328:100,1,67.5000007867814
236,248,235784,2,0,L|160:176,1,67.5000007867814
280,140,235927,6,0,L|360:124,1,67.5000007867814
448,148,236070,2,0,L|412:84,1,67.5000007867814
296,100,236213,2,0,L|220:112,1,67.5000007867814
116,192,236355,2,0,L|96:112,1,67.5000007867814
308,172,236498,6,0,L|384:160,1,67.5000007867814
308,80,236641,2,0,L|380:76,1,67.5000007867814
164,112,236784,2,0,L|264:112,1,67.5000007867814
68,108,236927,2,0,L|156:108,1,67.5000007867814
356,108,237070,2,0,L|436:108,1,67.5000007867814
264,160,237213,6,0,L|148:156,1,67.5000007867814
444,168,237355,2,0,L|364:164,1,67.5000007867814
160,212,237498,2,0,L|216:120,1,67.5000007867814
412,168,237641,2,0,L|316:80,1,67.5000007867814
116,180,237784,2,0,L|56:120,1,67.5000007867814
288,152,237927,6,0,L|356:128,1,67.5000007867814
436,204,238070,2,0,L|488:144,1,67.5000007867814
192,232,238213,2,0,L|256:176,1,67.5000007867814
44,196,238355,2,0,L|104:140,1,67.5000007867814
304,184,238498,6,0,L|232:128,1,67.5000007867814
444,196,238641,2,0,L|452:128,1,67.5000007867814
176,248,238784,2,0,L|260:184,1,67.5000007867814
472,204,238927,2,0,L|404:120,1,67.5000007867814
88,224,239070,6,0,L|56:164,1,67.5000007867814
292,184,239213,2,0,L|220:176,1,67.5000007867814
484,208,239355,2,0,L|400:200,1,67.5000007867814
188,276,239498,2,0,L|236:180,1,67.5000007867814
32,216,239641,6,0,L|132:196,1,67.5000007867814
332,216,239784,2,0,L|272:152,1,67.5000007867814
472,168,239927,2,0,L|376:176,1,67.5000007867814
156,220,240070,6,0,L|244:188,1,67.5000007867814
4,192,240213,2,0,L|4:124,1,67.5000007867814
216,156,240355,2,0,L|128:148,1,67.5000007867814
472,160,240498,6,0,L|344:168,1,67.5000007867814
172,196,240641,2,0,L|236:144,1,67.5000007867814
340,180,240784,2,0,L|400:96,1,67.5000007867814
172,196,240927,2,0,L|108:148,1,67.5000007867814
296,188,241070,6,0,L|372:192,1,67.5000007867814
208,256,241213,2,0,L|144:192,1,67.5000007867814
148,196,241355,2,0,L|220:140,1,67.5000007867814
336,168,241498,2,0,L|384:104,1,67.5000007867814
136,192,241641,2,0,L|164:124,1,67.5000007867814
356,184,241784,6,0,L|308:124,1,67.5000007867814
112,288,241927,2,0,L|48:256,1,67.5000007867814
272,268,242070,2,0,L|340:260,1,67.5000007867814
136,212,242213,2,0,L|220:192,1,67.5000007867814
428,164,242355,6,0,L|440:72,1,67.5000007867814
212,160,242498,2,0,L|236:96,1,67.5000007867814
56,184,242641,2,0,L|88:72,1,67.5000007867814
368,184,242784,2,0,L|264:132,1,67.5000007867814
452,224,242927,6,0,L|468:124,1,67.5000007867814
160,244,243070,2,0,L|104:140,1,67.5000007867814
208,124,243213,2,0,L|288:96,1,67.5000007867814
472,160,243355,2,0,L|456:80,1,67.5000007867814
200,148,243498,6,0,L|84:156,1,67.5000007867814
336,148,243641,2,0,L|388:80,1,67.5000007867814
140,224,243784,2,0,L|96:124,1,67.5000007867814
304,296,243927,6,0,L|360:212,1,89.9999976158143
248,204,244070,6,0,L|324:112,1,89.9999976158143
208,144,244213,6,0,L|272:64,1,89.9999976158143
448,232,244355,6,0,L|424:120,1,89.9999976158143
204,232,244498,6,0,L|128:136,1,89.9999976158143
280,208,244641,6,0,L|224:104,1,89.9999976158143
368,192,244784,6,0,L|312:88,1,89.9999976158143
448,168,244927,6,0,L|400:72,1,89.9999976158143
124,184,245070,6,0,L|188:88,1,89.9999976158143
300,168,245213,6,0,L|248:64,1,89.9999976158143
364,144,245355,6,0,L|348:32,1,89.9999976158143
464,144,245498,6,0,L|444:48,1,89.9999976158143
304,164,245641,6,0,L|344:56,1,89.9999976158143
196,184,245784,6,0,L|244:96,1,89.9999976158143
352,172,245927,6,0,L|316:80,1,89.9999976158143
440,148,246070,6,0,L|400:36,1,89.9999976158143
368,144,246213,6,0,L|356:48,1,89.9999976158143
288,200,246355,6,0,L|292:88,1,89.9999976158143
224,188,246498,6,0,L|232:88,1,89.9999976158143
152,188,246641,6,0,L|172:88,1,89.9999976158143
288,184,246784,6,0,L|264:80,1,89.9999976158143
408,200,246927,6,0,L|356:104,1,89.9999976158143
496,184,247070,6,0,L|444:80,1,89.9999976158143
352,204,247213,6,0,L|364:92,1,89.9999976158143
224,192,247355,6,0,L|268:92,1,89.9999976158143
64,208,247498,6,0,L|140:116,1,89.9999976158143
316,188,247641,6,0,L|264:96,1,89.9999976158143
428,172,247784,6,0,L|440:68,1,89.9999976158143
212,184,247927,6,0,L|336:168,1,89.9999976158143
32,176,248070,6,0,L|140:184,1,89.9999976158143
408,180,248213,6,0,L|268:168,1,89.9999976158143
176,192,248355,6,0,L|144:88,1,89.9999976158143
304,136,248498,6,0,L|412:128,1,89.9999976158143
204,224,248641,6,0,L|188:120,1,89.9999976158143
92,168,248784,6,0,L|8:136,1,89.9999976158143
288,168,248927,6,0,L|380:128,1,89.9999976158143
220,280,249070,6,0,L|148:184,1,89.9999976158143
236,160,249213,6,0,L|336:104,1,89.9999976158143
452,232,249355,6,0,L|444:124,1,89.9999976158143
176,168,249498,6,0,L|292:160,1,89.9999976158143
448,184,249641,6,0,L|488:76,1,89.9999976158143
324,168,249784,6,0,L|188:152,1,89.9999976158143
96,280,249927,6,0,L|80:168,1,89.9999976158143
168,172,250070,6,0,L|340:164,1,89.9999976158143
476,256,250213,6,0,L|488:136,1,89.9999976158143
240,144,250355,6,0,L|352:124,1,89.9999976158143
76,168,250498,6,0,L|200:108,1,89.9999976158143
396,212,250641,6,0,L|360:112,1,89.9999976158143
200,228,250784,6,0,L|144:124,1,89.9999976158143
336,168,250927,6,0,L|440:156,1,89.9999976158143
164,248,251070,6,0,L|116:120,1,89.9999976158143
392,168,251213,6,0,L|276:152,1,89.9999976158143
408,220,251355,6,0,L|512:208,1,89.9999976158143
276,192,251498,6,0,L|396:176,1,89.9999976158143
144,160,251641,6,0,L|292:156,1,89.9999976158143
388,136,251784,6,0,L|480:104,1,89.9999976158143
328,124,251927,6,0,L|176:124,1,89.9999976158143
376,192,252070,6,0,L|468:180,1,89.9999976158143
360,120,252213,6,0,L|460:116,1,89.9999976158143
172,204,252355,6,0,L|236:108,1,89.9999976158143
328,152,252498,6,0,L|452:132,1,89.9999976158143
200,216,252641,6,0,L|152:96,1,89.9999976158143
280,104,252784,6,0,L|424:80,1,89.9999976158143
124,168,252927,6,0,L|232:152,1,89.9999976158143
432,208,253070,6,0,L|396:112,1,89.9999976158143
288,144,253213,6,0,L|192:148,1,89.9999976158143
296,280,253355,6,0,L|368:196,1,89.9999976158143
156,240,253498,6,0,L|88:160,1,89.9999976158143
244,140,253641,6,0,L|356:128,1,89.9999976158143
432,248,253784,6,0,L|444:128,1,89.9999976158143
284,156,253927,6,0,L|160:148,1,89.9999976158143
124,148,254070,6,0,L|32:144,1,89.9999976158143
216,164,254213,6,0,L|308:156,1,89.9999976158143
384,160,254355,6,0,L|480:144,1,89.9999976158143
164,196,254498,6,0,L|296:184,1,89.9999976158143
412,200,254641,6,0,L|500:160,1,89.9999976158143
252,268,254784,6,0,L|280:168,1,89.9999976158143
188,232,254927,6,0,L|200:128,1,89.9999976158143
92,208,255070,6,0,L|108:112,1,89.9999976158143
0,80,255213,5,0,0:0:0:0:
272,228,255284,6,0,L|256:120,1,89.9999976158143
412,184,255427,6,0,L|388:84,1,89.9999976158143
316,188,255570,6,0,L|312:88,1,89.9999976158143
200,208,255713,6,0,L|204:104,1,89.9999976158143
300,196,255855,6,0,L|288:96,1,89.9999976158143
416,168,255998,6,0,L|388:80,1,89.9999976158143
336,184,256141,6,0,L|328:84,1,89.9999976158143
244,176,256284,6,0,L|240:80,1,89.9999976158143
320,164,256427,6,0,L|312:56,1,89.9999976158143
404,144,256570,6,0,L|392:44,1,89.9999976158143
60,180,256713,6,0,L|52:80,1,89.9999976158143
384,176,256855,6,0,L|372:80,1,89.9999976158143
88,208,256998,6,0,L|168:104,1,89.9999976158143
456,192,257141,6,0,L|368:96,1,89.9999976158143
96,200,257284,6,0,L|204:200,1,89.9999976158143
472,184,257427,6,0,L|356:184,1,89.9999976158143
156,224,257570,6,0,L|80:140,1,89.9999976158143
324,192,257713,6,0,L|440:184,1,89.9999976158143
96,208,257855,6,0,L|200:204,1,89.9999976158143
444,228,257998,6,0,L|472:100,1,89.9999976158143
216,188,258141,6,0,L|88:176,1,89.9999976158143
356,192,258284,6,0,L|424:108,1,89.9999976158143
260,180,258427,6,0,L|324:92,1,89.9999976158143
160,196,258570,6,0,L|184:96,1,89.9999976158143
84,212,258713,6,0,L|56:112,1,89.9999976158143
204,212,258855,6,0,L|252:96,1,89.9999976158143
340,176,258998,6,0,L|432:80,1,89.9999976158143
284,172,259141,6,0,L|240:76,1,89.9999976158143
132,172,259284,6,0,L|72:88,1,89.9999976158143
188,140,259427,6,0,L|296:80,1,89.9999976158143
332,188,259570,6,0,L|424:112,1,89.9999976158143
444,240,259713,6,0,L|480:128,1,89.9999976158143
288,160,259855,6,0,L|312:60,1,89.9999976158143
140,224,259998,6,0,L|132:96,1,89.9999976158143
364,212,260141,6,0,L|448:92,1,89.9999976158143
168,184,260284,6,0,L|264:164,1,89.9999976158143
436,168,260427,6,0,L|304:168,1,89.9999976158143
136,256,260570,6,0,L|88:144,1,89.9999976158143
312,188,260713,6,0,L|188:180,1,89.9999976158143
428,232,260855,6,0,L|432:108,1,89.9999976158143
104,196,260998,6,0,L|248:120,1,89.9999976158143
412,212,261141,6,0,L|444:120,1,89.9999976158143
224,228,261284,6,0,L|104:168,1,89.9999976158143
368,236,261427,6,0,L|420:124,1,89.9999976158143
104,212,261570,6,0,L|216:200,1,89.9999976158143
296,192,261713,6,0,L|404:184,1,89.9999976158143
112,208,261855,6,0,L|220:200,1,89.9999976158143
352,200,261998,6,0,L|456:184,1,89.9999976158143
188,216,262141,6,0,L|292:204,1,89.9999976158143
480,208,262284,6,0,L|400:132,1,89.9999976158143
204,216,262427,6,0,L|164:136,1,89.9999976158143
256,128,262570,6,0,L|368:120,1,89.9999976158143
108,216,262713,6,0,L|64:108,1,89.9999976158143
244,104,262855,6,0,L|136:100,1,89.9999976158143
368,212,262998,6,0,L|392:88,1,89.9999976158143
172,164,263141,6,0,L|44:148,1,89.9999976158143
212,136,263284,6,0,L|316:120,1,89.9999976158143
352,240,263427,6,0,L|412:108,1,89.9999976158143
152,204,263570,6,0,L|72:144,1,89.9999976158143
280,192,263713,6,0,L|392:144,1,89.9999976158143
164,276,263855,6,0,L|136:168,1,89.9999976158143
208,148,263998,6,0,L|368:136,1,89.9999976158143
384,256,264141,6,0,L|400:132,1,89.9999976158143
104,188,264284,6,0,L|120:96,1,89.9999976158143
248,92,264427,6,0,L|356:92,1,89.9999976158143
360,248,264570,6,0,L|436:148,1,89.9999976158143
88,140,264713,6,0,L|204:144,1,89.9999976158143
280,136,264855,6,0,L|400:124,1,89.9999976158143
452,80,264998,6,0,L|548:84,1,89.9999976158143
144,120,265141,6,0,L|256:128,1,89.9999976158143
24,108,265284,6,0,L|132:112,1,89.9999976158143
424,224,265427,6,0,L|356:104,1,89.9999976158143
184,232,265570,6,0,L|96:200,1,89.9999976158143
248,160,265713,6,0,L|392:144,1,89.9999976158143
436,296,265855,6,0,L|448:168,1,89.9999976158143
272,208,265998,6,0,L|180:144,1,89.9999976158143
268,120,266141,6,0,L|388:104,1,89.9999976158143
116,248,266284,6,0,L|96:136,1,89.9999976158143
320,128,266427,6,0,L|208:128,1,89.9999976158143
156,88,266570,6,0,L|332:88,1,89.9999976158143
444,240,266713,6,0,L|504:124,1,89.9999976158143
256,264,266855,6,0,L|316:168,1,89.9999976158143
32,244,266998,6,0,L|152:212,1,89.9999976158143
332,240,267141,6,0,L|280:152,1,89.9999976158143
408,184,267284,6,0,L|512:120,1,89.9999976158143
332,268,267427,6,0,L|304:136,1,89.9999976158143
176,280,267570,6,0,L|140:184,1,89.9999976158143
288,208,267713,6,0,L|424:180,1,89.9999976158143
160,228,267855,6,0,L|40:220,1,89.9999976158143
296,208,267998,6,0,L|360:88,1,89.9999976158143
64,152,268141,6,0,L|168:148,1,89.9999976158143
416,240,268284,6,0,L|360:136,1,89.9999976158143
164,264,268427,6,0,L|224:160,1,89.9999976158143
372,200,268570,6,0,L|488:132,1,89.9999976158143
184,292,268713,6,0,L|104:196,1,89.9999976158143
236,216,268855,6,0,L|372:160,1,89.9999976158143
484,232,268998,6,0,L|436:136,1,89.9999976158143
352,184,269141,6,0,L|204:204,1,89.9999976158143
112,308,269284,6,0,L|80:224,1,89.9999976158143
168,224,269427,6,0,L|288:176,1,89.9999976158143
424,256,269570,6,0,L|424:136,1,89.9999976158143
344,180,269713,6,0,L|232:176,1,89.9999976158143
124,304,269855,6,0,L|96:200,1,89.9999976158143
48,212,269998,6,0,L|-4:76,1,89.9999976158143
216,208,270141,6,0,L|164:76,1,89.9999976158143
404,200,270284,6,0,L|368:76,1,89.9999976158143
180,260,270427,6,0,L|136:144,1,89.9999976158143
496,264,270570,6,0,L|472:116,1,89.9999976158143
184,280,270713,6,0,L|104:160,1,89.9999976158143
388,192,270855,6,0,L|280:168,1,89.9999976158143
20,248,270998,6,0,L|128:220,1,89.9999976158143
444,252,271141,6,0,L|320:184,1,89.9999976158143
136,280,271284,6,0,L|128:156,1,89.9999976158143
264,200,271427,6,0,L|396:184,1,89.9999976158143
92,268,271570,6,0,L|32:160,1,89.9999976158143
352,160,271713,6,0,L|200:180,1,89.9999976158143
140,292,271855,6,0,L|76:200,1,89.9999976158143
256,252,271998,6,0,L|412:216,1,89.9999976158143
388,176,272141,6,0,L|468:112,1,89.9999976158143
312,244,272284,6,0,L|248:152,1,89.9999976158143
72,264,272427,6,0,L|176:220,1,89.9999976158143
296,196,272570,6,0,L|396:144,1,89.9999976158143
176,224,272713,6,0,L|60:136,1,89.9999976158143
360,128,272855,6,0,L|224:152,1,89.9999976158143
344,320,272998,6,0,L|236:216,1,89.9999976158143
392,208,273141,6,0,L|472:136,1,89.9999976158143
124,260,273284,6,0,L|196:192,1,89.9999976158143
312,184,273427,6,0,L|240:108,1,89.9999976158143
456,56,273570,6,0,L|312:96,1,89.9999976158143
220,184,273713,6,0,L|100:200,1,89.9999976158143
328,232,273855,6,0,L|280:116,1,89.9999976158143
372,152,273998,6,0,L|444:76,1,89.9999976158143
152,248,274141,6,0,L|248:168,1,89.9999976158143
368,192,274284,6,0,L|304:108,1,89.9999976158143
512,60,274427,6,0,L|416:100,1,89.9999976158143
184,248,274570,6,0,L|256:160,1,89.9999976158143
380,188,274713,6,0,L|312:100,1,89.9999976158143
76,272,274855,6,0,L|192:184,1,89.9999976158143
464,228,274998,6,0,L|396:132,1,89.9999976158143
184,232,275141,6,0,L|284:152,1,89.9999976158143
376,240,275284,6,0,L|432:144,1,89.9999976158143
232,220,275427,6,0,L|96:172,1,89.9999976158143
316,144,275570,6,0,L|412:72,1,89.9999976158143
160,272,275713,6,0,L|136:144,1,89.9999976158143
396,240,275855,6,0,L|304:108,1,89.9999976158143
116,260,275998,6,0,L|216:184,1,89.9999976158143
424,240,276141,6,0,L|340:128,1,89.9999976158143
216,224,276284,6,0,L|132:132,1,89.9999976158143
292,172,276427,6,0,L|408:104,1,89.9999976158143
100,256,276570,6,0,L|200:180,1,89.9999976158143
396,184,276713,6,0,L|324:96,1,89.9999976158143
216,192,276855,6,0,L|72:144,1,89.9999976158143
312,192,276998,6,0,L|408:120,1,89.9999976158143
476,252,277141,6,0,L|484:120,1,89.9999976158143
196,232,277284,6,0,L|320:172,1,89.9999976158143
40,216,277427,6,0,L|124:160,1,89.9999976158143
296,220,277570,6,0,L|252:128,1,89.9999976158143
496,172,277713,6,0,L|408:132,1,89.9999976158143
164,248,277855,6,0,L|240:160,1,89.9999976158143
8,208,277998,6,0,L|68:116,1,89.9999976158143
284,228,278141,6,0,L|228:152,1,89.9999976158143
392,212,278284,6,0,L|360:104,1,89.9999976158143
280,200,278427,6,0,L|252:88,1,89.9999976158143
164,192,278570,6,0,L|136:84,1,89.9999976158143
408,168,278713,6,0,L|336:80,1,89.9999976158143
148,200,278855,6,0,L|184:96,1,89.9999976158143
344,156,278998,6,0,L|424:76,1,89.9999976158143
116,216,279141,6,0,L|72:124,1,89.9999976158143
276,208,279284,6,0,L|364:132,1,89.9999976158143
128,232,279427,6,0,L|56:152,1,89.9999976158143
296,220,279570,6,0,L|372:136,1,89.9999976158143
116,220,279713,6,0,L|44:132,1,89.9999976158143
320,212,279855,6,0,L|380:120,1,89.9999976158143
112,212,279998,6,0,L|48:128,1,89.9999976158143
360,208,280105,6,0,L|400:144,1,44.9999988079071
124,212,280177,6,0,L|88:160,1,44.9999988079071
360,208,280248,6,0,L|400:144,1,44.9999988079071
124,212,280320,6,0,L|88:160,1,44.9999988079071
360,208,280391,6,0,L|400:144,1,44.9999988079071
100,276,280498,6,0,L|192:176,1,112.499997019768
468,244,280641,6,0,L|412:128,1,76.4999994325638
92,240,280784,6,0,L|204:192,1,76.4999994325638
468,220,280927,6,0,L|428:108,1,76.4999994325638
152,244,281070,6,0,L|64:156,1,76.4999994325638
416,204,281213,6,0,L|444:108,1,76.4999994325638
96,224,281355,6,0,L|180:128,1,76.4999994325638
440,208,281498,6,0,L|408:104,1,76.4999994325638
176,236,281641,6,0,L|40:172,1,76.4999994325638
428,236,281784,6,0,L|460:136,1,76.4999994325638
188,208,281927,6,0,L|160:112,1,76.4999994325638
456,200,282070,6,0,L|376:136,1,76.4999994325638
68,208,282213,6,0,L|128:136,1,76.4999994325638
296,200,282355,6,0,L|344:100,1,76.4999994325638
84,192,282498,6,0,L|36:96,1,76.4999994325638
276,208,282641,6,0,L|236:112,1,76.4999994325638
512,216,282784,6,0,L|456:104,1,76.4999994325638
248,260,282927,6,0,L|308:136,1,76.4999994325638
64,232,283070,6,0,L|116:116,1,76.4999994325638
296,236,283213,6,0,L|228:148,1,76.4999994325638
472,224,283355,6,0,L|500:128,1,76.4999994325638
212,216,283498,6,0,L|112:156,1,76.4999994325638
212,216,283641,6,0,L|256:148,1,76.4999994325638
500,208,283784,6,0,L|432:140,1,76.4999994325638
48,244,283927,6,0,L|120:136,1,76.4999994325638
340,240,284070,6,0,L|400:152,1,76.4999994325638
340,240,284213,6,0,L|200:188,1,76.4999994325638
88,240,284355,6,0,L|80:124,1,76.4999994325638
368,216,284498,6,0,L|312:136,1,76.4999994325638
96,216,284641,6,0,L|144:108,1,76.4999994325638
400,184,284784,6,0,L|336:128,1,76.4999994325638
64,204,284927,6,0,L|128:148,1,76.4999994325638
364,192,285070,6,0,L|432:108,1,76.4999994325638
412,132,285213,6,0,L|316:96,1,76.4999994325638
112,264,285355,6,0,L|60:160,1,76.4999994325638
368,248,285498,6,0,L|448:176,1,76.4999994325638
88,208,285641,6,0,L|148:128,1,76.4999994325638
380,200,285784,6,0,L|324:128,1,76.4999994325638
84,236,285927,6,0,L|168:168,1,76.4999994325638
340,212,286070,6,0,L|424:152,1,76.4999994325638
108,252,286213,6,0,L|92:156,1,76.4999994325638
384,216,286355,6,0,L|296:156,1,76.4999994325638
484,144,286498,6,0,L|496:64,1,76.4999994325638
144,240,286641,6,0,L|216:160,1,76.4999994325638
468,228,286784,6,0,L|376:128,1,76.4999994325638
112,232,286927,6,0,L|152:116,1,76.4999994325638
400,216,287070,6,0,L|336:148,1,76.4999994325638
128,260,287213,6,0,L|76:180,1,76.4999994325638
464,208,287355,6,0,L|384:136,1,76.4999994325638
96,244,287498,6,0,L|164:136,1,76.4999994325638
484,192,287641,6,0,L|388:136,1,76.4999994325638
417,153,287784,6,0,L|468:84,1,76.4999994325638
108,220,287927,6,0,L|184:132,1,76.4999994325638
488,220,288070,6,0,L|444:132,1,76.4999994325638
128,220,288213,6,0,L|212:168,1,76.4999994325638
456,216,288355,6,0,L|432:116,1,76.4999994325638
192,220,288498,6,0,L|256:144,1,76.4999994325638
4,216,288641,6,0,L|64:136,1,76.4999994325638
280,208,288784,6,0,L|216:144,1,76.4999994325638
496,216,288927,6,0,L|424:116,1,76.4999994325638
168,224,289070,6,0,L|252:152,1,76.4999994325638
472,224,289213,6,0,L|504:124,1,76.4999994325638
240,200,289355,6,0,L|336:140,1,76.4999994325638
4,228,289498,6,0,L|72:148,1,76.4999994325638
368,204,289641,6,0,L|248:136,1,76.4999994325638
508,204,289784,6,0,L|472:120,1,76.4999994325638
204,236,289927,6,0,L|288:160,1,76.4999994325638
492,208,290070,6,0,L|416:116,1,76.4999994325638
64,252,290213,6,0,L|80:160,1,76.4999994325638
248,232,290355,6,0,L|304:152,1,76.4999994325638
488,212,290498,6,0,L|384:164,1,76.4999994325638
100,236,290641,6,0,L|12:200,1,76.4999994325638
332,224,290784,6,0,L|396:168,1,76.4999994325638
72,212,290927,6,0,L|144:144,1,76.4999994325638
440,188,291070,6,0,L|360:108,1,76.4999994325638
120,224,291213,6,0,L|52:136,1,76.4999994325638
316,208,291355,6,0,L|360:96,1,76.4999994325638
108,216,291498,6,0,L|80:128,1,76.4999994325638
444,200,291641,6,0,L|340:140,1,76.4999994325638
116,216,291784,6,0,L|172:132,1,76.4999994325638
352,192,291927,6,0,L|304:120,1,76.4999994325638
500,188,292070,6,0,L|472:96,1,76.4999994325638
208,204,292213,6,0,L|260:112,1,76.4999994325638
16,204,292355,6,0,L|80:144,1,76.4999994325638
352,204,292498,6,0,L|416:132,1,76.4999994325638
352,208,292641,6,0,L|248:152,1,76.4999994325638
16,232,292784,6,0,L|72:160,1,76.4999994325638
248,212,292927,6,0,L|304:132,1,76.4999994325638
508,184,293070,6,0,L|436:140,1,76.4999994325638
128,252,293213,6,0,L|64:168,1,76.4999994325638
416,240,293355,6,0,L|368:144,1,76.4999994325638
156,248,293498,6,0,L|184:144,1,76.4999994325638
480,200,293641,6,0,L|444:80,1,76.4999994325638
256,224,293784,6,0,L|252:100,1,76.4999994325638
76,224,293927,6,0,L|84:120,1,76.4999994325638
192,212,294070,6,0,L|180:76,1,76.4999994325638
312,212,294213,6,0,L|276:80,1,76.4999994325638
456,212,294355,6,0,L|376:96,1,76.4999994325638
100,228,294498,6,0,L|152:124,1,76.4999994325638
432,184,294641,6,0,L|348:80,1,76.4999994325638
24,208,294784,6,0,L|132:140,1,76.4999994325638
452,204,294927,6,0,L|356:104,1,76.4999994325638
132,224,295070,6,0,L|44:116,1,76.4999994325638
276,200,295213,6,0,L|340:120,1,76.4999994325638
76,200,295355,6,0,L|152:128,1,76.4999994325638
444,192,295498,6,0,L|368:120,1,76.4999994325638
116,180,295641,6,0,L|156:72,1,76.4999994325638
456,160,295784,6,0,L|364:60,1,76.4999994325638
112,224,295927,6,0,L|200:108,1,76.4999994325638
456,192,296070,6,0,L|340:144,1,76.4999994325638
208,200,296213,6,0,L|128:108,1,76.4999994325638
440,208,296355,6,0,L|472:108,1,76.4999994325638
200,192,296498,6,0,L|240:120,1,76.4999994325638
24,208,296641,6,0,L|16:120,1,76.4999994325638
280,208,296784,6,0,L|248:112,1,76.4999994325638
504,208,296927,6,0,L|488:112,1,76.4999994325638
376,208,297070,6,0,L|376:112,1,76.4999994325638
264,228,297213,6,0,L|252:120,1,76.4999994325638
144,264,297355,6,0,L|136:168,1,76.4999994325638
12,252,297498,6,0,L|0:152,1,76.4999994325638
232,232,297641,6,0,L|160:148,1,76.4999994325638
400,204,297784,6,0,L|344:128,1,76.4999994325638
496,152,297927,6,0,L|424:80,1,76.4999994325638
212,224,298070,6,0,L|280:132,1,76.4999994325638
104,176,298213,6,0,L|136:84,1,76.4999994325638
376,176,298355,6,0,L|288:80,1,76.4999994325638
484,120,298498,6,0,L|420:56,1,76.4999994325638
208,236,298641,6,0,L|264:152,1,76.4999994325638
16,228,298784,6,0,L|-8:120,1,76.4999994325638
220,220,298927,6,0,L|104:160,1,76.4999994325638
456,232,299070,6,0,L|360:172,1,76.4999994325638
176,232,299213,6,0,L|212:132,1,76.4999994325638
488,200,299355,6,0,L|500:104,1,76.4999994325638
276,220,299498,6,0,L|364:148,1,76.4999994325638
84,228,299641,6,0,L|100:120,1,76.4999994325638
324,176,299784,6,0,L|228:92,1,76.4999994325638
500,200,299927,6,0,L|496:76,1,76.4999994325638
232,220,300070,6,0,L|316:152,1,76.4999994325638
52,232,300213,6,0,L|88:156,1,76.4999994325638
296,208,300355,6,0,L|344:140,1,76.4999994325638
492,176,300498,6,0,L|432:88,1,76.4999994325638
120,220,300641,6,0,L|188:156,1,76.4999994325638
480,176,300784,6,0,L|384:128,1,76.4999994325638
176,208,300927,6,0,L|220:136,1,76.4999994325638
32,208,301070,6,0,L|-4:112,1,76.4999994325638
304,184,301213,6,0,L|188:88,1,76.4999994325638
504,156,301355,6,0,L|444:60,1,76.4999994325638
252,176,301498,6,0,P|296:80|296:80,1,76.4999994325638
60,188,301641,6,0,L|108:104,1,76.4999994325638
97,121,301784,6,0,L|176:112,1,76.4999994325638
512,172,301927,6,0,L|424:80,1,76.4999994325638
200,244,302070,6,0,L|128:136,1,76.4999994325638
380,132,302213,6,0,L|288:96,1,76.4999994325638
112,224,302355,6,0,L|40:132,1,76.4999994325638
112,224,302498,6,0,L|172:172,1,76.4999994325638
460,184,302641,6,0,L|384:120,1,76.4999994325638
100,216,302784,6,0,L|132:144,1,76.4999994325638
376,184,302927,6,0,L|456:104,1,76.4999994325638
156,200,303070,6,0,L|208:124,1,76.4999994325638
452,188,303213,6,0,L|512:120,1,76.4999994325638
28,220,303355,6,0,L|56:148,1,76.4999994325638
464,176,303498,6,0,L|376:120,1,76.4999994325638
120,200,303641,6,0,L|20:120,1,76.4999994325638
464,148,303784,6,0,L|376:92,1,76.4999994325638
76,212,303927,6,0,L|120:132,1,76.4999994325638
288,224,304070,6,0,L|236:132,1,76.4999994325638
476,212,304213,6,0,L|504:128,1,76.4999994325638
256,224,304355,6,0,L|340:140,1,76.4999994325638
40,208,304498,6,0,L|100:128,1,76.4999994325638
332,236,304641,6,0,L|284:136,1,76.4999994325638
500,184,304784,6,0,L|552:96,1,76.4999994325638
272,196,304927,6,0,L|348:112,1,76.4999994325638
40,224,305070,6,0,L|28:116,1,76.4999994325638
272,204,305213,6,0,L|232:116,1,76.4999994325638
504,192,305355,6,0,L|568:96,1,76.4999994325638
212,212,305498,6,0,L|328:152,1,76.4999994325638
44,220,305641,6,0,L|28:88,1,76.4999994325638
316,196,305784,6,0,L|220:128,1,76.4999994325638
508,164,305927,6,0,L|512:76,1,76.4999994325638
280,192,306070,6,0,L|408:144,1,76.4999994325638
44,216,306213,6,0,L|136:160,1,76.4999994325638
408,196,306355,6,0,L|312:120,1,76.4999994325638
100,212,306498,6,0,L|80:120,1,76.4999994325638
336,208,306641,6,0,L|264:148,1,76.4999994325638
128,212,306784,6,0,L|28:136,1,76.4999994325638
308,204,306927,6,0,L|240:144,1,76.4999994325638
500,208,307070,6,0,L|456:128,1,76.4999994325638
208,216,307213,6,0,L|304:132,1,76.4999994325638
28,208,307355,6,0,L|84:120,1,76.4999994325638
308,220,307498,6,0,L|248:132,1,76.4999994325638
464,192,307641,6,0,L|540:104,1,76.4999994325638
220,208,307784,6,0,L|296:164,1,76.4999994325638
44,216,307927,6,0,L|24:136,1,76.4999994325638
288,200,308070,6,0,L|216:156,1,76.4999994325638
512,176,308213,6,0,L|536:92,1,76.4999994325638
232,220,308355,6,0,L|324:152,1,76.4999994325638
32,216,308498,6,0,L|116:136,1,76.4999994325638
336,228,308641,6,0,L|276:164,1,76.4999994325638
488,208,308784,6,0,L|524:120,1,76.4999994325638
232,208,308927,6,0,L|320:144,1,76.4999994325638
64,212,309070,6,0,L|24:136,1,76.4999994325638
324,208,309213,6,0,L|368:144,1,76.4999994325638
80,220,309355,6,0,L|36:148,1,76.4999994325638
320,192,309498,6,0,L|236:164,1,76.4999994325638
432,208,309641,6,0,L|476:92,1,76.4999994325638
124,208,309784,6,0,L|220:132,1,76.4999994325638
416,188,309927,6,0,L|464:108,1,76.4999994325638
76,196,310070,6,0,L|152:128,1,76.4999994325638
352,188,310213,6,0,L|320:104,1,76.4999994325638
76,176,310355,6,0,L|68:96,1,76.4999994325638
300,176,310498,6,0,L|292:88,1,76.4999994325638
512,184,310641,6,0,L|508:84,1,76.4999994325638
144,200,310784,6,0,L|144:88,1,76.4999994325638
484,192,310927,6,0,L|404:112,1,76.4999994325638
52,208,311070,6,0,L|136:124,1,76.4999994325638
468,204,311213,6,0,L|392:100,1,76.4999994325638
108,216,311355,6,0,L|224:176,1,76.4999994325638
432,208,311498,6,0,L|376:136,1,76.4999994325638
164,208,311641,6,0,L|72:140,1,76.4999994325638
344,208,311784,6,0,L|296:128,1,76.4999994325638
504,176,311927,6,0,L|484:92,1,76.4999994325638
296,168,312070,6,0,L|352:104,1,76.4999994325638
64,160,312213,6,0,L|148:104,1,76.4999994325638
456,216,312355,6,0,L|344:148,1,76.4999994325638
84,288,312498,6,0,L|100:152,1,114.749999148846
416,252,312641,6,0,L|472:8,1,202.500002360344
100,296,312784,6,0,L|168:72,1,202.500002360344
436,264,312927,6,0,L|376:60,1,202.500002360344
112,304,313070,6,0,L|40:56,1,202.500002360344
376,284,313213,6,0,L|408:76,1,202.500002360344
116,260,313355,6,0,L|196:52,1,202.500002360344
452,256,313498,6,0,L|324:56,1,202.500002360344
112,292,313641,6,0,L|88:76,1,202.500002360344
420,276,313784,6,0,L|452:72,1,202.500002360344
108,312,313927,6,0,L|168:80,1,202.500002360344
456,296,314070,6,0,L|372:88,1,202.500002360344
144,292,314213,6,0,L|100:80,1,202.500002360344
392,276,314355,6,0,L|420:68,1,202.500002360344
104,292,314498,6,0,L|144:80,1,202.500002360344
452,300,314641,6,0,L|356:100,1,202.500002360344
104,336,314784,6,0,L|112:184,1,134.999996423721
432,296,314927,6,0,L|364:136,1,134.999996423721
96,296,315070,6,0,L|176:156,1,134.999996423721
428,284,315213,6,0,L|472:116,1,134.999996423721
148,288,315355,6,0,L|80:168,1,134.999996423721
448,288,315498,6,0,L|364:132,1,134.999996423721
88,308,315641,6,0,L|84:136,1,134.999996423721
304,280,315784,6,0,L|296:124,1,134.999996423721
500,272,315927,6,0,L|504:104,1,134.999996423721
280,284,316070,6,0,L|280:128,1,134.999996423721
16,272,316213,6,0,L|16:100,1,134.999996423721
268,256,316355,6,0,L|200:112,1,134.999996423721
504,248,316498,6,0,L|440:100,1,134.999996423721
248,272,316641,6,0,L|248:136,1,134.999996423721
12,268,316784,6,0,L|80:136,1,134.999996423721
280,272,316927,6,0,L|276:116,1,134.999996423721
504,264,317070,6,0,L|440:-12,1,269.999992847443
264,304,317213,6,0,L|264:0,1,269.999992847443
16,300,317355,6,0,L|80:32,1,269.999992847443
456,320,317498,6,0,L|352:64,1,269.999992847443
140,328,317641,6,0,L|48:48,1,269.999992847443
380,328,317784,6,0,L|424:12,1,269.999992847443
100,328,317927,6,0,L|168:28,1,269.999992847443
416,288,318070,6,0,L|288:32,1,269.999992847443
116,328,318213,6,0,L|32:48,1,269.999992847443
400,304,318355,6,0,L|464:16,1,269.999992847443
144,316,318498,6,0,L|40:56,1,269.999992847443
384,296,318641,6,0,L|440:16,1,269.999992847443
148,316,318784,6,0,L|52:56,1,269.999992847443
352,308,318927,6,0,L|424:20,1,269.999992847443
140,312,319070,6,0,L|48:40,1,269.999992847443
472,292,319213,6,0,L|376:32,1,269.999992847443
44,280,319355,6,0,L|40:-8,1,269.999992847443
172,280,319498,6,0,L|172:-72,1,303.750003540516
296,276,319641,6,0,L|292:-12,1,269.999992847443
44,280,319784,6,0,L|40:-8,1,269.999992847443
464,280,319927,6,0,L|460:-8,1,269.999992847443
252,304,320070,6,0,L|248:16,1,269.999992847443
44,280,320213,6,0,L|40:-8,1,269.999992847443
436,304,320355,6,0,L|432:16,1,269.999992847443
44,280,320498,6,0,L|40:-8,1,269.999992847443
360,300,320641,6,0,L|356:12,1,269.999992847443
156,308,320784,6,0,L|152:20,1,269.999992847443
504,312,320927,6,0,L|500:24,1,269.999992847443
44,280,321070,6,0,L|40:-8,1,269.999992847443
452,316,321213,6,0,L|448:28,1,269.999992847443
44,280,321355,6,0,L|40:-8,1,269.999992847443
240,384,321498,6,0,L|248:-28,1,405.000004720688
