osu file format v14

[General]
AudioFilename: 12._DJ_Sharpnel_-_WE_LUV_LAMA.mp3
AudioLeadIn: 0
PreviewTime: 281561
Countdown: 0
SampleSet: None
StackLeniency: 0.7
Mode: 3
LetterboxInBreaks: 0
SpecialStyle: 0
WidescreenStoryboard: 0

[Editor]
DistanceSpacing: 0.8
BeatDivisor: 4
GridSize: 32
TimelineZoom: 2.6

[Metadata]
Title:WE LUV LAMA
TitleUnicode:WE LUV LAMA
Artist:DJ Sharpnel
ArtistUnicode:DJ Sharpnel
Creator:IcyWorld
Version:NB4 Hard 16
Source:
Tags:stepmania ランニング★★★オールナイトッ!! Running All Night!! Sharpnelsound Jea Ryuta Nakagami 仲上竜太 Lemmy SRPC-0022 Brad Ira Fiedel The Terminator Delay Lama AudioNerdz Electronic Instrumental J-Core Soundtrack c73 comiket73 comic market 73 コミックマーケット73 コミケ73 Nuclear Blast JS Awesome Bomb Filez 4
BeatmapID:3106438
BeatmapSetID:1517419

[Difficulty]
HPDrainRate:8
CircleSize:4
OverallDifficulty:8
ApproachRate:5
SliderMultiplier:1.4
SliderTickRate:1

[Events]
//Background and Video events
0,0,"BG.png",0,0
//Break Periods
//Storyboard Layer 0 (Background)
//Storyboard Layer 1 (Fail)
//Storyboard Layer 2 (Pass)
//Storyboard Layer 3 (Foreground)
//Storyboard Layer 4 (Overlay)
//Storyboard Sound Samples

[TimingPoints]
523,285.714286,4,1,0,15,1,0
523,-100,4,1,0,15,0,0
190523,285.737417,4,1,0,15,1,0
190523,-100,4,1,0,15,0,0
190808,285.714286,4,1,0,15,1,0
190808,-100,4,1,0,15,0,0
317380,285.737417,4,1,0,15,1,0
317380,-100,4,1,0,15,0,0
317665,285.714286,4,1,0,15,1,0
317665,-100,4,1,0,15,0,0

[HitObjects]
64,192,94,5,0,0:0:0:0:
192,192,237,1,0,0:0:0:0:
320,192,380,1,0,0:0:0:0:
64,192,523,1,0,0:0:0:0:
448,192,523,1,0,0:0:0:0:
320,192,594,1,0,0:0:0:0:
192,192,665,1,0,0:0:0:0:
320,192,808,1,0,0:0:0:0:
448,192,808,1,0,0:0:0:0:
64,192,880,1,0,0:0:0:0:
192,192,951,1,0,0:0:0:0:
320,192,1094,1,0,0:0:0:0:
192,192,1165,1,0,0:0:0:0:
64,192,1237,1,0,0:0:0:0:
320,192,1380,1,0,0:0:0:0:
448,192,1380,1,0,0:0:0:0:
192,192,1523,1,0,0:0:0:0:
320,192,1594,1,0,0:0:0:0:
64,192,1665,1,0,0:0:0:0:
192,192,1737,1,0,0:0:0:0:
320,192,1808,1,0,0:0:0:0:
64,192,1951,1,0,0:0:0:0:
448,192,1951,1,0,0:0:0:0:
192,192,2023,1,0,0:0:0:0:
320,192,2094,1,0,0:0:0:0:
192,192,2237,1,0,0:0:0:0:
448,192,2308,1,0,0:0:0:0:
320,192,2380,1,0,0:0:0:0:
64,192,2523,1,0,0:0:0:0:
192,192,2523,1,0,0:0:0:0:
320,192,2665,1,0,0:0:0:0:
192,192,2737,1,0,0:0:0:0:
448,192,2808,1,0,0:0:0:0:
192,192,2880,1,0,0:0:0:0:
320,192,2951,1,0,0:0:0:0:
64,192,3023,1,0,0:0:0:0:
320,192,3094,1,0,0:0:0:0:
448,192,3094,1,0,0:0:0:0:
192,192,3237,1,0,0:0:0:0:
448,192,3380,1,0,0:0:0:0:
320,192,3451,1,0,0:0:0:0:
192,192,3523,1,0,0:0:0:0:
320,192,3665,1,0,0:0:0:0:
448,192,3665,1,0,0:0:0:0:
192,192,3808,1,0,0:0:0:0:
448,192,3880,1,0,0:0:0:0:
64,192,3951,1,0,0:0:0:0:
448,192,4023,1,0,0:0:0:0:
192,192,4094,1,0,0:0:0:0:
320,192,4237,1,0,0:0:0:0:
448,192,4237,1,0,0:0:0:0:
192,192,4380,1,0,0:0:0:0:
64,192,4523,1,0,0:0:0:0:
448,192,4594,1,0,0:0:0:0:
320,192,4665,1,0,0:0:0:0:
192,192,4701,1,0,0:0:0:0:
64,192,4737,1,0,0:0:0:0:
320,192,4808,1,0,0:0:0:0:
448,192,4808,1,0,0:0:0:0:
192,192,4951,1,0,0:0:0:0:
320,192,5023,1,0,0:0:0:0:
64,192,5094,1,0,0:0:0:0:
448,192,5094,1,0,0:0:0:0:
320,192,5165,1,0,0:0:0:0:
192,192,5237,1,0,0:0:0:0:
320,192,5380,1,0,0:0:0:0:
448,192,5380,1,0,0:0:0:0:
64,192,5523,1,0,0:0:0:0:
448,192,5665,1,0,0:0:0:0:
192,192,5737,1,0,0:0:0:0:
320,192,5808,1,0,0:0:0:0:
64,192,5951,1,0,0:0:0:0:
448,192,5951,1,0,0:0:0:0:
192,192,6094,1,0,0:0:0:0:
320,192,6165,1,0,0:0:0:0:
448,192,6237,1,0,0:0:0:0:
320,192,6308,1,0,0:0:0:0:
192,192,6380,1,0,0:0:0:0:
64,192,6523,1,0,0:0:0:0:
448,192,6523,1,0,0:0:0:0:
320,192,6665,1,0,0:0:0:0:
64,192,6808,1,0,0:0:0:0:
192,192,6880,1,0,0:0:0:0:
320,192,6951,1,0,0:0:0:0:
64,192,7094,1,0,0:0:0:0:
448,192,7094,1,0,0:0:0:0:
320,192,7237,1,0,0:0:0:0:
192,192,7308,1,0,0:0:0:0:
448,192,7380,1,0,0:0:0:0:
320,192,7451,1,0,0:0:0:0:
192,192,7523,1,0,0:0:0:0:
64,192,7665,1,0,0:0:0:0:
448,192,7665,1,0,0:0:0:0:
192,192,7808,1,0,0:0:0:0:
320,192,7951,1,0,0:0:0:0:
448,192,8023,1,0,0:0:0:0:
192,192,8094,1,0,0:0:0:0:
64,192,8237,1,0,0:0:0:0:
448,192,8237,1,0,0:0:0:0:
320,192,8380,1,0,0:0:0:0:
192,192,8451,1,0,0:0:0:0:
320,192,8523,1,0,0:0:0:0:
192,192,8594,1,0,0:0:0:0:
448,192,8665,1,0,0:0:0:0:
320,192,8737,1,0,0:0:0:0:
192,192,8808,1,0,0:0:0:0:
64,192,8951,1,0,0:0:0:0:
320,192,9094,1,0,0:0:0:0:
448,192,9094,1,0,0:0:0:0:
192,192,9165,1,0,0:0:0:0:
64,192,9237,1,0,0:0:0:0:
320,192,9308,1,0,0:0:0:0:
64,192,9380,1,0,0:0:0:0:
448,192,9380,1,0,0:0:0:0:
192,192,9451,1,0,0:0:0:0:
320,192,9523,1,0,0:0:0:0:
448,192,9594,1,0,0:0:0:0:
64,192,9665,1,0,0:0:0:0:
192,192,9665,1,0,0:0:0:0:
320,192,9737,1,0,0:0:0:0:
448,192,9808,1,0,0:0:0:0:
64,192,9951,1,0,0:0:0:0:
192,192,9951,1,0,0:0:0:0:
320,192,10023,1,0,0:0:0:0:
192,192,10094,1,0,0:0:0:0:
448,192,10237,1,0,0:0:0:0:
192,192,10308,1,0,0:0:0:0:
448,192,10380,1,0,0:0:0:0:
64,192,10523,1,0,0:0:0:0:
192,192,10523,1,0,0:0:0:0:
320,192,10665,1,0,0:0:0:0:
192,192,10737,1,0,0:0:0:0:
448,192,10808,1,0,0:0:0:0:
320,192,10880,1,0,0:0:0:0:
192,192,10951,1,0,0:0:0:0:
64,192,11094,1,0,0:0:0:0:
448,192,11094,1,0,0:0:0:0:
192,192,11237,1,0,0:0:0:0:
448,192,11380,1,0,0:0:0:0:
192,192,11451,1,0,0:0:0:0:
320,192,11523,1,0,0:0:0:0:
64,192,11665,1,0,0:0:0:0:
192,192,11665,1,0,0:0:0:0:
192,192,11808,1,0,0:0:0:0:
320,192,11880,1,0,0:0:0:0:
448,192,11951,1,0,0:0:0:0:
64,192,12023,1,0,0:0:0:0:
192,192,12094,1,0,0:0:0:0:
320,192,12165,1,0,0:0:0:0:
64,192,12237,1,0,0:0:0:0:
448,192,12237,1,0,0:0:0:0:
320,192,12380,1,0,0:0:0:0:
192,192,12523,1,0,0:0:0:0:
320,192,12594,1,0,0:0:0:0:
64,192,12665,1,0,0:0:0:0:
320,192,12808,1,0,0:0:0:0:
448,192,12808,1,0,0:0:0:0:
192,192,12951,1,0,0:0:0:0:
320,192,13023,1,0,0:0:0:0:
448,192,13094,1,0,0:0:0:0:
192,192,13165,1,0,0:0:0:0:
320,192,13237,1,0,0:0:0:0:
64,192,13380,1,0,0:0:0:0:
192,192,13380,1,0,0:0:0:0:
448,192,13523,1,0,0:0:0:0:
320,192,13665,1,0,0:0:0:0:
64,192,13737,1,0,0:0:0:0:
192,192,13808,1,0,0:0:0:0:
320,192,13844,1,0,0:0:0:0:
448,192,13880,1,0,0:0:0:0:
64,192,13951,1,0,0:0:0:0:
192,192,13951,1,0,0:0:0:0:
320,192,14094,1,0,0:0:0:0:
192,192,14165,1,0,0:0:0:0:
448,192,14237,1,0,0:0:0:0:
320,192,14308,1,0,0:0:0:0:
192,192,14380,1,0,0:0:0:0:
64,192,14523,1,0,0:0:0:0:
448,192,14523,1,0,0:0:0:0:
192,192,14594,1,0,0:0:0:0:
320,192,14665,1,0,0:0:0:0:
448,192,14808,1,0,0:0:0:0:
192,192,14880,1,0,0:0:0:0:
320,192,14951,1,0,0:0:0:0:
64,192,15094,1,0,0:0:0:0:
192,192,15094,1,0,0:0:0:0:
448,192,15237,1,0,0:0:0:0:
192,192,15308,1,0,0:0:0:0:
320,192,15380,1,0,0:0:0:0:
192,192,15451,1,0,0:0:0:0:
448,192,15523,1,0,0:0:0:0:
64,192,15665,1,0,0:0:0:0:
192,192,15665,1,0,0:0:0:0:
320,192,15808,1,0,0:0:0:0:
448,192,15951,1,0,0:0:0:0:
192,192,16023,1,0,0:0:0:0:
320,192,16094,1,0,0:0:0:0:
64,192,16237,1,0,0:0:0:0:
192,192,16237,1,0,0:0:0:0:
320,192,16380,1,0,0:0:0:0:
192,192,16451,1,0,0:0:0:0:
448,192,16523,1,0,0:0:0:0:
320,192,16594,1,0,0:0:0:0:
192,192,16665,1,0,0:0:0:0:
64,192,16808,1,0,0:0:0:0:
448,192,16808,1,0,0:0:0:0:
192,192,16951,1,0,0:0:0:0:
448,192,17094,1,0,0:0:0:0:
64,192,17165,1,0,0:0:0:0:
192,192,17237,1,0,0:0:0:0:
320,192,17380,1,0,0:0:0:0:
448,192,17380,1,0,0:0:0:0:
192,192,17523,1,0,0:0:0:0:
448,192,17594,1,0,0:0:0:0:
64,192,17665,1,0,0:0:0:0:
320,192,17665,1,0,0:0:0:0:
64,192,17880,1,0,0:0:0:0:
320,192,17880,1,0,0:0:0:0:
64,192,18094,1,0,0:0:0:0:
320,192,18094,1,0,0:0:0:0:
192,192,18237,1,0,0:0:0:0:
448,192,18237,128,0,18523:0:0:0:0:
64,192,18380,1,0,0:0:0:0:
192,192,18523,1,0,0:0:0:0:
320,192,18665,1,0,0:0:0:0:
64,192,18808,1,0,0:0:0:0:
448,192,18808,1,0,0:0:0:0:
192,192,18880,1,0,0:0:0:0:
320,192,18951,1,0,0:0:0:0:
64,192,19094,1,0,0:0:0:0:
192,192,19094,1,0,0:0:0:0:
320,192,19165,1,0,0:0:0:0:
64,192,19237,1,0,0:0:0:0:
448,192,19380,1,0,0:0:0:0:
192,192,19451,1,0,0:0:0:0:
320,192,19523,1,0,0:0:0:0:
192,192,19665,1,0,0:0:0:0:
448,192,19665,1,0,0:0:0:0:
64,192,19808,1,0,0:0:0:0:
320,192,19880,1,0,0:0:0:0:
448,192,19951,1,0,0:0:0:0:
192,192,20023,1,0,0:0:0:0:
320,192,20094,1,0,0:0:0:0:
64,192,20237,1,0,0:0:0:0:
448,192,20237,1,0,0:0:0:0:
320,192,20380,1,0,0:0:0:0:
192,192,20523,1,0,0:0:0:0:
320,192,20594,1,0,0:0:0:0:
448,192,20665,1,0,0:0:0:0:
64,192,20808,1,0,0:0:0:0:
320,192,20808,1,0,0:0:0:0:
192,192,20951,1,0,0:0:0:0:
448,192,21094,1,0,0:0:0:0:
192,192,21165,1,0,0:0:0:0:
64,192,21237,1,0,0:0:0:0:
192,192,21308,1,0,0:0:0:0:
320,192,21380,1,0,0:0:0:0:
448,192,21380,1,0,0:0:0:0:
192,192,21523,1,0,0:0:0:0:
320,192,21665,1,0,0:0:0:0:
448,192,21737,1,0,0:0:0:0:
192,192,21808,1,0,0:0:0:0:
64,192,21951,1,0,0:0:0:0:
448,192,21951,1,0,0:0:0:0:
192,192,22094,1,0,0:0:0:0:
320,192,22165,1,0,0:0:0:0:
192,192,22237,1,0,0:0:0:0:
64,192,22308,1,0,0:0:0:0:
320,192,22380,1,0,0:0:0:0:
64,192,22523,1,0,0:0:0:0:
448,192,22523,1,0,0:0:0:0:
192,192,22594,1,0,0:0:0:0:
320,192,22665,1,0,0:0:0:0:
64,192,22808,1,0,0:0:0:0:
192,192,22880,1,0,0:0:0:0:
320,192,22951,1,0,0:0:0:0:
448,192,22987,1,0,0:0:0:0:
64,192,23023,1,0,0:0:0:0:
192,192,23094,1,0,0:0:0:0:
320,192,23094,1,0,0:0:0:0:
448,192,23237,1,0,0:0:0:0:
64,192,23380,1,0,0:0:0:0:
192,192,23380,1,0,0:0:0:0:
320,192,23451,1,0,0:0:0:0:
448,192,23523,1,0,0:0:0:0:
64,192,23665,1,0,0:0:0:0:
192,192,23665,1,0,0:0:0:0:
320,192,23737,1,0,0:0:0:0:
64,192,23808,1,0,0:0:0:0:
448,192,23951,1,0,0:0:0:0:
192,192,24023,1,0,0:0:0:0:
320,192,24094,1,0,0:0:0:0:
64,192,24237,1,0,0:0:0:0:
448,192,24237,1,0,0:0:0:0:
320,192,24380,1,0,0:0:0:0:
64,192,24451,1,0,0:0:0:0:
192,192,24523,1,0,0:0:0:0:
320,192,24594,1,0,0:0:0:0:
192,192,24665,1,0,0:0:0:0:
320,192,24808,1,0,0:0:0:0:
448,192,24808,1,0,0:0:0:0:
64,192,24880,1,0,0:0:0:0:
192,192,24951,1,0,0:0:0:0:
320,192,25094,1,0,0:0:0:0:
448,192,25165,1,0,0:0:0:0:
192,192,25237,1,0,0:0:0:0:
64,192,25380,1,0,0:0:0:0:
448,192,25380,1,0,0:0:0:0:
320,192,25523,1,0,0:0:0:0:
64,192,25594,1,0,0:0:0:0:
192,192,25665,1,0,0:0:0:0:
320,192,25737,1,0,0:0:0:0:
64,192,25808,1,0,0:0:0:0:
320,192,25951,1,0,0:0:0:0:
448,192,25951,1,0,0:0:0:0:
192,192,26023,1,0,0:0:0:0:
448,192,26094,1,0,0:0:0:0:
64,192,26237,1,0,0:0:0:0:
320,192,26308,1,0,0:0:0:0:
192,192,26380,1,0,0:0:0:0:
320,192,26523,1,0,0:0:0:0:
448,192,26523,1,0,0:0:0:0:
192,192,26665,1,0,0:0:0:0:
320,192,26737,1,0,0:0:0:0:
448,192,26808,1,0,0:0:0:0:
192,192,26880,1,0,0:0:0:0:
64,192,26951,1,0,0:0:0:0:
192,192,27023,1,0,0:0:0:0:
320,192,27094,1,0,0:0:0:0:
448,192,27094,1,0,0:0:0:0:
64,192,27165,1,0,0:0:0:0:
448,192,27237,1,0,0:0:0:0:
64,192,27380,1,0,0:0:0:0:
192,192,27380,1,0,0:0:0:0:
320,192,27451,1,0,0:0:0:0:
448,192,27523,1,0,0:0:0:0:
64,192,27665,1,0,0:0:0:0:
192,192,27665,1,0,0:0:0:0:
320,192,27808,1,0,0:0:0:0:
64,192,27951,1,0,0:0:0:0:
448,192,27951,1,0,0:0:0:0:
192,192,28023,1,0,0:0:0:0:
320,192,28094,1,0,0:0:0:0:
64,192,28237,1,0,0:0:0:0:
192,192,28237,1,0,0:0:0:0:
320,192,28380,1,0,0:0:0:0:
192,192,28523,1,0,0:0:0:0:
448,192,28594,1,0,0:0:0:0:
320,192,28665,1,0,0:0:0:0:
192,192,28808,1,0,0:0:0:0:
448,192,28808,1,0,0:0:0:0:
320,192,28951,1,0,0:0:0:0:
192,192,29023,1,0,0:0:0:0:
64,192,29094,1,0,0:0:0:0:
192,192,29165,1,0,0:0:0:0:
448,192,29237,1,0,0:0:0:0:
64,192,29380,1,0,0:0:0:0:
192,192,29380,1,0,0:0:0:0:
448,192,29451,1,0,0:0:0:0:
320,192,29523,1,0,0:0:0:0:
448,192,29665,1,0,0:0:0:0:
192,192,29737,1,0,0:0:0:0:
320,192,29808,1,0,0:0:0:0:
64,192,29951,1,0,0:0:0:0:
448,192,29951,1,0,0:0:0:0:
192,192,30094,1,0,0:0:0:0:
320,192,30165,1,0,0:0:0:0:
448,192,30237,1,0,0:0:0:0:
192,192,30308,1,0,0:0:0:0:
320,192,30380,1,0,0:0:0:0:
64,192,30451,1,0,0:0:0:0:
320,192,30523,1,0,0:0:0:0:
448,192,30523,1,0,0:0:0:0:
64,192,30665,1,0,0:0:0:0:
192,192,30808,1,0,0:0:0:0:
448,192,30880,1,0,0:0:0:0:
320,192,30951,1,0,0:0:0:0:
192,192,31023,1,0,0:0:0:0:
64,192,31094,1,0,0:0:0:0:
448,192,31094,1,0,0:0:0:0:
192,192,31237,1,0,0:0:0:0:
320,192,31308,1,0,0:0:0:0:
448,192,31380,1,0,0:0:0:0:
192,192,31451,1,0,0:0:0:0:
320,192,31523,1,0,0:0:0:0:
64,192,31665,1,0,0:0:0:0:
192,192,31665,1,0,0:0:0:0:
448,192,31737,1,0,0:0:0:0:
320,192,31808,1,0,0:0:0:0:
192,192,31951,1,0,0:0:0:0:
320,192,32023,1,0,0:0:0:0:
64,192,32094,1,0,0:0:0:0:
192,192,32130,1,0,0:0:0:0:
320,192,32165,1,0,0:0:0:0:
64,192,32237,1,0,0:0:0:0:
448,192,32237,1,0,0:0:0:0:
192,192,32380,1,0,0:0:0:0:
320,192,32451,1,0,0:0:0:0:
64,192,32523,1,0,0:0:0:0:
192,192,32523,1,0,0:0:0:0:
448,192,32594,1,0,0:0:0:0:
320,192,32665,1,0,0:0:0:0:
192,192,32808,1,0,0:0:0:0:
448,192,32808,1,0,0:0:0:0:
320,192,32880,1,0,0:0:0:0:
192,192,32951,1,0,0:0:0:0:
448,192,33094,1,0,0:0:0:0:
64,192,33165,1,0,0:0:0:0:
192,192,33237,1,0,0:0:0:0:
320,192,33380,1,0,0:0:0:0:
448,192,33380,1,0,0:0:0:0:
192,192,33451,1,0,0:0:0:0:
448,192,33523,1,0,0:0:0:0:
320,192,33594,1,0,0:0:0:0:
192,192,33665,1,0,0:0:0:0:
64,192,33737,1,0,0:0:0:0:
192,192,33808,1,0,0:0:0:0:
320,192,33951,1,0,0:0:0:0:
448,192,33951,1,0,0:0:0:0:
192,192,34023,1,0,0:0:0:0:
448,192,34094,1,0,0:0:0:0:
192,192,34237,1,0,0:0:0:0:
320,192,34308,1,0,0:0:0:0:
64,192,34380,1,0,0:0:0:0:
192,192,34523,1,0,0:0:0:0:
448,192,34523,1,0,0:0:0:0:
320,192,34665,1,0,0:0:0:0:
192,192,34737,1,0,0:0:0:0:
320,192,34808,1,0,0:0:0:0:
64,192,34880,1,0,0:0:0:0:
192,192,34951,1,0,0:0:0:0:
320,192,35094,1,0,0:0:0:0:
448,192,35094,1,0,0:0:0:0:
192,192,35165,1,0,0:0:0:0:
448,192,35237,1,0,0:0:0:0:
64,192,35380,1,0,0:0:0:0:
192,192,35451,1,0,0:0:0:0:
320,192,35523,1,0,0:0:0:0:
64,192,35665,1,0,0:0:0:0:
448,192,35665,1,0,0:0:0:0:
192,192,35808,1,0,0:0:0:0:
320,192,35880,1,0,0:0:0:0:
448,192,35951,1,0,0:0:0:0:
64,192,36023,1,0,0:0:0:0:
320,192,36094,1,0,0:0:0:0:
448,192,36165,1,0,0:0:0:0:
192,192,36237,1,0,0:0:0:0:
320,192,36308,1,0,0:0:0:0:
448,192,36380,1,0,0:0:0:0:
192,192,36451,1,0,0:0:0:0:
448,192,36523,1,0,0:0:0:0:
64,192,36665,1,0,0:0:0:0:
192,192,36665,1,0,0:0:0:0:
192,192,36808,1,0,0:0:0:0:
320,192,36808,1,0,0:0:0:0:
320,192,36951,1,0,0:0:0:0:
448,192,36951,1,0,0:0:0:0:
64,192,37094,1,0,0:0:0:0:
448,192,37094,1,0,0:0:0:0:
192,192,37165,1,0,0:0:0:0:
320,192,37237,1,0,0:0:0:0:
64,192,37380,1,0,0:0:0:0:
192,192,37380,1,0,0:0:0:0:
448,192,37451,1,0,0:0:0:0:
320,192,37523,1,0,0:0:0:0:
192,192,37665,1,0,0:0:0:0:
320,192,37737,1,0,0:0:0:0:
64,192,37808,1,0,0:0:0:0:
192,192,37880,1,0,0:0:0:0:
320,192,37951,1,0,0:0:0:0:
448,192,37951,1,0,0:0:0:0:
192,192,38094,1,0,0:0:0:0:
448,192,38165,1,0,0:0:0:0:
320,192,38237,1,0,0:0:0:0:
192,192,38308,1,0,0:0:0:0:
64,192,38380,1,0,0:0:0:0:
192,192,38523,1,0,0:0:0:0:
448,192,38523,1,0,0:0:0:0:
320,192,38665,1,0,0:0:0:0:
64,192,38808,1,0,0:0:0:0:
192,192,38880,1,0,0:0:0:0:
448,192,38951,1,0,0:0:0:0:
192,192,39023,1,0,0:0:0:0:
320,192,39094,1,0,0:0:0:0:
448,192,39094,1,0,0:0:0:0:
192,192,39237,1,0,0:0:0:0:
64,192,39308,1,0,0:0:0:0:
320,192,39380,1,0,0:0:0:0:
192,192,39451,1,0,0:0:0:0:
448,192,39523,1,0,0:0:0:0:
192,192,39665,1,0,0:0:0:0:
320,192,39665,1,0,0:0:0:0:
64,192,39808,1,0,0:0:0:0:
448,192,39951,1,0,0:0:0:0:
192,192,40023,1,0,0:0:0:0:
320,192,40094,1,0,0:0:0:0:
64,192,40165,1,0,0:0:0:0:
192,192,40237,1,0,0:0:0:0:
448,192,40237,1,0,0:0:0:0:
320,192,40380,1,0,0:0:0:0:
64,192,40451,1,0,0:0:0:0:
448,192,40523,1,0,0:0:0:0:
320,192,40594,1,0,0:0:0:0:
192,192,40665,1,0,0:0:0:0:
320,192,40808,1,0,0:0:0:0:
448,192,40808,1,0,0:0:0:0:
64,192,40951,1,0,0:0:0:0:
192,192,41094,1,0,0:0:0:0:
320,192,41165,1,0,0:0:0:0:
448,192,41237,1,0,0:0:0:0:
320,192,41273,1,0,0:0:0:0:
192,192,41308,1,0,0:0:0:0:
64,192,41380,128,0,41523:0:0:0:0:
448,192,41523,128,0,41665:0:0:0:0:
192,192,41665,1,0,0:0:0:0:
320,192,41665,1,0,0:0:0:0:
64,192,41737,1,0,0:0:0:0:
448,192,41808,1,0,0:0:0:0:
64,192,41951,1,0,0:0:0:0:
320,192,41951,1,0,0:0:0:0:
192,192,42094,1,0,0:0:0:0:
448,192,42165,1,0,0:0:0:0:
320,192,42237,1,0,0:0:0:0:
448,192,42308,1,0,0:0:0:0:
64,192,42380,1,0,0:0:0:0:
320,192,42451,1,0,0:0:0:0:
192,192,42523,1,0,0:0:0:0:
448,192,42523,1,0,0:0:0:0:
64,192,42665,1,0,0:0:0:0:
320,192,42737,1,0,0:0:0:0:
192,192,42808,1,0,0:0:0:0:
64,192,42880,1,0,0:0:0:0:
320,192,42951,1,0,0:0:0:0:
64,192,43094,1,0,0:0:0:0:
448,192,43094,1,0,0:0:0:0:
192,192,43237,1,0,0:0:0:0:
320,192,43380,1,0,0:0:0:0:
448,192,43451,1,0,0:0:0:0:
192,192,43523,1,0,0:0:0:0:
320,192,43594,1,0,0:0:0:0:
64,192,43665,1,0,0:0:0:0:
192,192,43665,1,0,0:0:0:0:
448,192,43808,1,0,0:0:0:0:
192,192,43880,1,0,0:0:0:0:
320,192,43951,1,0,0:0:0:0:
192,192,44023,1,0,0:0:0:0:
64,192,44094,1,0,0:0:0:0:
320,192,44237,1,0,0:0:0:0:
448,192,44237,1,0,0:0:0:0:
64,192,44380,1,0,0:0:0:0:
192,192,44451,1,0,0:0:0:0:
320,192,44523,1,0,0:0:0:0:
192,192,44594,1,0,0:0:0:0:
448,192,44665,1,0,0:0:0:0:
320,192,44737,1,0,0:0:0:0:
64,192,44808,1,0,0:0:0:0:
192,192,44808,1,0,0:0:0:0:
448,192,44951,1,0,0:0:0:0:
320,192,45023,1,0,0:0:0:0:
192,192,45094,1,0,0:0:0:0:
320,192,45165,1,0,0:0:0:0:
192,192,45237,1,0,0:0:0:0:
64,192,45308,1,0,0:0:0:0:
192,192,45380,1,0,0:0:0:0:
448,192,45380,1,0,0:0:0:0:
320,192,45523,1,0,0:0:0:0:
448,192,45594,1,0,0:0:0:0:
320,192,45665,1,0,0:0:0:0:
192,192,45737,1,0,0:0:0:0:
64,192,45808,128,0,45951:0:0:0:0:
320,192,45880,1,0,0:0:0:0:
448,192,45951,1,0,0:0:0:0:
64,192,46094,1,0,0:0:0:0:
192,192,46130,1,0,0:0:0:0:
320,192,46165,1,0,0:0:0:0:
448,192,46201,1,0,0:0:0:0:
64,192,46237,1,0,0:0:0:0:
192,192,46308,1,0,0:0:0:0:
320,192,46380,1,0,0:0:0:0:
64,192,46523,1,0,0:0:0:0:
448,192,46523,1,0,0:0:0:0:
320,192,46665,1,0,0:0:0:0:
192,192,46808,1,0,0:0:0:0:
448,192,46880,1,0,0:0:0:0:
64,192,46951,1,0,0:0:0:0:
320,192,47023,1,0,0:0:0:0:
64,192,47094,1,0,0:0:0:0:
192,192,47094,1,0,0:0:0:0:
320,192,47237,1,0,0:0:0:0:
192,192,47308,1,0,0:0:0:0:
448,192,47380,1,0,0:0:0:0:
320,192,47451,1,0,0:0:0:0:
192,192,47523,1,0,0:0:0:0:
64,192,47665,1,0,0:0:0:0:
320,192,47665,1,0,0:0:0:0:
448,192,47737,1,0,0:0:0:0:
192,192,47808,1,0,0:0:0:0:
320,192,47951,1,0,0:0:0:0:
448,192,48023,1,0,0:0:0:0:
64,192,48094,1,0,0:0:0:0:
192,192,48165,1,0,0:0:0:0:
320,192,48237,1,0,0:0:0:0:
448,192,48237,1,0,0:0:0:0:
192,192,48380,1,0,0:0:0:0:
320,192,48451,1,0,0:0:0:0:
64,192,48523,1,0,0:0:0:0:
448,192,48594,1,0,0:0:0:0:
320,192,48665,1,0,0:0:0:0:
64,192,48808,1,0,0:0:0:0:
192,192,48808,1,0,0:0:0:0:
448,192,48880,1,0,0:0:0:0:
192,192,48951,1,0,0:0:0:0:
320,192,49094,1,0,0:0:0:0:
64,192,49165,1,0,0:0:0:0:
320,192,49237,1,0,0:0:0:0:
192,192,49308,1,0,0:0:0:0:
64,192,49380,1,0,0:0:0:0:
448,192,49380,1,0,0:0:0:0:
192,192,49523,1,0,0:0:0:0:
448,192,49594,1,0,0:0:0:0:
192,192,49665,1,0,0:0:0:0:
320,192,49737,1,0,0:0:0:0:
448,192,49808,1,0,0:0:0:0:
64,192,49951,1,0,0:0:0:0:
192,192,49951,1,0,0:0:0:0:
448,192,50023,1,0,0:0:0:0:
320,192,50094,1,0,0:0:0:0:
192,192,50237,1,0,0:0:0:0:
320,192,50308,1,0,0:0:0:0:
64,192,50380,1,0,0:0:0:0:
320,192,50451,1,0,0:0:0:0:
64,192,50523,1,0,0:0:0:0:
448,192,50523,1,0,0:0:0:0:
192,192,50665,1,0,0:0:0:0:
448,192,50737,1,0,0:0:0:0:
64,192,50808,1,0,0:0:0:0:
320,192,50808,1,0,0:0:0:0:
448,192,50880,1,0,0:0:0:0:
192,192,50951,1,0,0:0:0:0:
320,192,51094,1,0,0:0:0:0:
448,192,51094,1,0,0:0:0:0:
64,192,51165,1,0,0:0:0:0:
192,192,51237,1,0,0:0:0:0:
448,192,51380,1,0,0:0:0:0:
192,192,51451,1,0,0:0:0:0:
320,192,51523,1,0,0:0:0:0:
64,192,51594,1,0,0:0:0:0:
320,192,51665,1,0,0:0:0:0:
448,192,51665,1,0,0:0:0:0:
64,192,51808,1,0,0:0:0:0:
192,192,51880,1,0,0:0:0:0:
320,192,51951,1,0,0:0:0:0:
192,192,52023,1,0,0:0:0:0:
64,192,52094,1,0,0:0:0:0:
320,192,52237,1,0,0:0:0:0:
448,192,52237,1,0,0:0:0:0:
192,192,52308,1,0,0:0:0:0:
448,192,52380,1,0,0:0:0:0:
192,192,52523,1,0,0:0:0:0:
320,192,52594,1,0,0:0:0:0:
64,192,52665,1,0,0:0:0:0:
192,192,52737,1,0,0:0:0:0:
320,192,52808,1,0,0:0:0:0:
448,192,52808,1,0,0:0:0:0:
192,192,52951,1,0,0:0:0:0:
448,192,53023,1,0,0:0:0:0:
64,192,53094,1,0,0:0:0:0:
320,192,53165,1,0,0:0:0:0:
192,192,53237,1,0,0:0:0:0:
320,192,53380,1,0,0:0:0:0:
448,192,53380,1,0,0:0:0:0:
192,192,53451,1,0,0:0:0:0:
64,192,53523,1,0,0:0:0:0:
448,192,53665,1,0,0:0:0:0:
192,192,53737,1,0,0:0:0:0:
320,192,53808,1,0,0:0:0:0:
64,192,53880,1,0,0:0:0:0:
192,192,53951,1,0,0:0:0:0:
448,192,53951,1,0,0:0:0:0:
320,192,54094,1,0,0:0:0:0:
192,192,54165,1,0,0:0:0:0:
64,192,54237,1,0,0:0:0:0:
448,192,54237,1,0,0:0:0:0:
192,192,54308,1,0,0:0:0:0:
320,192,54380,1,0,0:0:0:0:
64,192,54523,1,0,0:0:0:0:
448,192,54523,1,0,0:0:0:0:
192,192,54665,1,0,0:0:0:0:
320,192,54808,1,0,0:0:0:0:
448,192,54808,1,0,0:0:0:0:
64,192,54951,1,0,0:0:0:0:
192,192,54951,1,0,0:0:0:0:
192,192,55094,1,0,0:0:0:0:
320,192,55094,1,0,0:0:0:0:
320,192,55237,1,0,0:0:0:0:
448,192,55237,1,0,0:0:0:0:
64,192,55380,1,0,0:0:0:0:
448,192,55380,1,0,0:0:0:0:
192,192,55451,1,0,0:0:0:0:
320,192,55523,1,0,0:0:0:0:
64,192,55665,1,0,0:0:0:0:
192,192,55665,1,0,0:0:0:0:
448,192,55737,1,0,0:0:0:0:
320,192,55808,1,0,0:0:0:0:
192,192,55951,1,0,0:0:0:0:
64,192,56023,1,0,0:0:0:0:
320,192,56094,1,0,0:0:0:0:
192,192,56165,1,0,0:0:0:0:
64,192,56237,1,0,0:0:0:0:
448,192,56237,1,0,0:0:0:0:
320,192,56308,1,0,0:0:0:0:
192,192,56380,1,0,0:0:0:0:
320,192,56451,1,0,0:0:0:0:
64,192,56523,1,0,0:0:0:0:
320,192,56594,1,0,0:0:0:0:
192,192,56665,1,0,0:0:0:0:
448,192,56737,1,0,0:0:0:0:
192,192,56808,1,0,0:0:0:0:
320,192,56808,1,0,0:0:0:0:
64,192,56951,1,0,0:0:0:0:
192,192,57094,1,0,0:0:0:0:
320,192,57165,1,0,0:0:0:0:
448,192,57237,1,0,0:0:0:0:
320,192,57308,1,0,0:0:0:0:
64,192,57380,1,0,0:0:0:0:
192,192,57380,1,0,0:0:0:0:
448,192,57451,1,0,0:0:0:0:
192,192,57523,1,0,0:0:0:0:
320,192,57594,1,0,0:0:0:0:
64,192,57665,1,0,0:0:0:0:
320,192,57737,1,0,0:0:0:0:
192,192,57808,1,0,0:0:0:0:
320,192,57880,1,0,0:0:0:0:
64,192,57951,1,0,0:0:0:0:
448,192,57951,1,0,0:0:0:0:
192,192,58094,1,0,0:0:0:0:
320,192,58237,1,0,0:0:0:0:
192,192,58308,1,0,0:0:0:0:
448,192,58380,1,0,0:0:0:0:
320,192,58451,1,0,0:0:0:0:
64,192,58523,1,0,0:0:0:0:
192,192,58523,1,0,0:0:0:0:
320,192,58594,1,0,0:0:0:0:
448,192,58665,1,0,0:0:0:0:
192,192,58737,1,0,0:0:0:0:
448,192,58808,1,0,0:0:0:0:
64,192,58880,1,0,0:0:0:0:
320,192,58951,1,0,0:0:0:0:
64,192,59023,1,0,0:0:0:0:
192,192,59094,1,0,0:0:0:0:
448,192,59094,1,0,0:0:0:0:
320,192,59237,1,0,0:0:0:0:
192,192,59380,1,0,0:0:0:0:
320,192,59451,1,0,0:0:0:0:
64,192,59523,1,0,0:0:0:0:
192,192,59594,1,0,0:0:0:0:
320,192,59665,1,0,0:0:0:0:
448,192,59665,1,0,0:0:0:0:
64,192,59808,1,0,0:0:0:0:
320,192,59951,1,0,0:0:0:0:
448,192,59951,1,0,0:0:0:0:
192,192,60023,1,0,0:0:0:0:
64,192,60094,1,0,0:0:0:0:
192,192,60237,1,0,0:0:0:0:
320,192,60237,1,0,0:0:0:0:
448,192,60380,1,0,0:0:0:0:
192,192,60523,1,0,0:0:0:0:
448,192,60594,1,0,0:0:0:0:
320,192,60665,1,0,0:0:0:0:
192,192,60737,1,0,0:0:0:0:
64,192,60808,1,0,0:0:0:0:
448,192,60808,1,0,0:0:0:0:
192,192,60880,1,0,0:0:0:0:
320,192,60951,1,0,0:0:0:0:
64,192,61023,1,0,0:0:0:0:
320,192,61094,1,0,0:0:0:0:
192,192,61165,1,0,0:0:0:0:
448,192,61237,1,0,0:0:0:0:
192,192,61380,1,0,0:0:0:0:
320,192,61380,1,0,0:0:0:0:
64,192,61523,1,0,0:0:0:0:
448,192,61665,1,0,0:0:0:0:
192,192,61737,1,0,0:0:0:0:
320,192,61808,1,0,0:0:0:0:
64,192,61880,1,0,0:0:0:0:
192,192,61951,1,0,0:0:0:0:
320,192,61951,1,0,0:0:0:0:
448,192,62023,1,0,0:0:0:0:
192,192,62094,1,0,0:0:0:0:
320,192,62165,1,0,0:0:0:0:
64,192,62237,1,0,0:0:0:0:
448,192,62308,1,0,0:0:0:0:
64,192,62380,1,0,0:0:0:0:
320,192,62523,1,0,0:0:0:0:
448,192,62523,1,0,0:0:0:0:
192,192,62665,1,0,0:0:0:0:
320,192,62808,1,0,0:0:0:0:
64,192,62880,1,0,0:0:0:0:
448,192,62951,1,0,0:0:0:0:
320,192,63023,1,0,0:0:0:0:
64,192,63094,1,0,0:0:0:0:
192,192,63094,1,0,0:0:0:0:
320,192,63165,1,0,0:0:0:0:
448,192,63237,1,0,0:0:0:0:
64,192,63308,1,0,0:0:0:0:
192,192,63380,1,0,0:0:0:0:
320,192,63451,1,0,0:0:0:0:
448,192,63523,1,0,0:0:0:0:
192,192,63665,1,0,0:0:0:0:
320,192,63665,1,0,0:0:0:0:
64,192,63808,1,0,0:0:0:0:
192,192,63951,1,0,0:0:0:0:
320,192,64023,1,0,0:0:0:0:
192,192,64094,1,0,0:0:0:0:
448,192,64165,1,0,0:0:0:0:
192,192,64237,1,0,0:0:0:0:
320,192,64237,1,0,0:0:0:0:
64,192,64308,1,0,0:0:0:0:
192,192,64380,1,0,0:0:0:0:
320,192,64451,1,0,0:0:0:0:
64,192,64523,1,0,0:0:0:0:
448,192,64523,1,0,0:0:0:0:
320,192,64594,1,0,0:0:0:0:
192,192,64665,1,0,0:0:0:0:
320,192,64808,1,0,0:0:0:0:
448,192,64808,1,0,0:0:0:0:
64,192,64951,1,0,0:0:0:0:
320,192,65094,1,0,0:0:0:0:
448,192,65165,1,0,0:0:0:0:
192,192,65237,1,0,0:0:0:0:
320,192,65308,1,0,0:0:0:0:
64,192,65380,1,0,0:0:0:0:
192,192,65380,1,0,0:0:0:0:
448,192,65451,1,0,0:0:0:0:
320,192,65523,1,0,0:0:0:0:
64,192,65594,1,0,0:0:0:0:
192,192,65665,1,0,0:0:0:0:
320,192,65737,1,0,0:0:0:0:
192,192,65808,1,0,0:0:0:0:
64,192,65951,1,0,0:0:0:0:
448,192,65951,1,0,0:0:0:0:
320,192,66094,1,0,0:0:0:0:
192,192,66237,1,0,0:0:0:0:
320,192,66308,1,0,0:0:0:0:
64,192,66380,1,0,0:0:0:0:
192,192,66451,1,0,0:0:0:0:
64,192,66523,1,0,0:0:0:0:
320,192,66523,1,0,0:0:0:0:
448,192,66594,1,0,0:0:0:0:
192,192,66665,1,0,0:0:0:0:
448,192,66737,1,0,0:0:0:0:
320,192,66808,1,0,0:0:0:0:
192,192,66880,1,0,0:0:0:0:
64,192,66951,1,0,0:0:0:0:
320,192,67094,1,0,0:0:0:0:
448,192,67094,1,0,0:0:0:0:
192,192,67165,1,0,0:0:0:0:
64,192,67237,1,0,0:0:0:0:
192,192,67308,1,0,0:0:0:0:
320,192,67380,1,0,0:0:0:0:
448,192,67451,1,0,0:0:0:0:
192,192,67523,1,0,0:0:0:0:
64,192,67665,1,0,0:0:0:0:
448,192,67665,1,0,0:0:0:0:
320,192,67737,1,0,0:0:0:0:
192,192,67808,1,0,0:0:0:0:
320,192,67880,1,0,0:0:0:0:
192,192,67951,1,0,0:0:0:0:
64,192,68023,1,0,0:0:0:0:
448,192,68094,1,0,0:0:0:0:
64,192,68237,1,0,0:0:0:0:
192,192,68237,1,0,0:0:0:0:
320,192,68308,1,0,0:0:0:0:
448,192,68380,1,0,0:0:0:0:
192,192,68523,1,0,0:0:0:0:
448,192,68594,1,0,0:0:0:0:
192,192,68665,1,0,0:0:0:0:
320,192,68737,1,0,0:0:0:0:
64,192,68808,1,0,0:0:0:0:
448,192,68808,1,0,0:0:0:0:
192,192,68951,1,0,0:0:0:0:
320,192,69023,1,0,0:0:0:0:
64,192,69094,1,0,0:0:0:0:
448,192,69094,1,0,0:0:0:0:
320,192,69165,1,0,0:0:0:0:
64,192,69237,1,0,0:0:0:0:
192,192,69308,1,0,0:0:0:0:
320,192,69380,1,0,0:0:0:0:
448,192,69380,1,0,0:0:0:0:
192,192,69451,1,0,0:0:0:0:
448,192,69523,1,0,0:0:0:0:
64,192,69665,1,0,0:0:0:0:
320,192,69737,1,0,0:0:0:0:
192,192,69808,1,0,0:0:0:0:
320,192,69880,1,0,0:0:0:0:
64,192,69951,1,0,0:0:0:0:
448,192,69951,1,0,0:0:0:0:
192,192,70094,1,0,0:0:0:0:
320,192,70165,1,0,0:0:0:0:
448,192,70237,1,0,0:0:0:0:
192,192,70308,1,0,0:0:0:0:
64,192,70380,1,0,0:0:0:0:
192,192,70451,1,0,0:0:0:0:
320,192,70523,1,0,0:0:0:0:
448,192,70523,1,0,0:0:0:0:
64,192,70594,1,0,0:0:0:0:
448,192,70665,1,0,0:0:0:0:
320,192,70808,1,0,0:0:0:0:
192,192,70880,1,0,0:0:0:0:
64,192,70951,1,0,0:0:0:0:
320,192,71023,1,0,0:0:0:0:
192,192,71094,1,0,0:0:0:0:
448,192,71094,1,0,0:0:0:0:
320,192,71165,1,0,0:0:0:0:
64,192,71237,1,0,0:0:0:0:
192,192,71308,1,0,0:0:0:0:
320,192,71380,1,0,0:0:0:0:
448,192,71451,1,0,0:0:0:0:
192,192,71523,1,0,0:0:0:0:
320,192,71594,1,0,0:0:0:0:
64,192,71665,1,0,0:0:0:0:
192,192,71665,1,0,0:0:0:0:
448,192,71737,1,0,0:0:0:0:
64,192,71808,1,0,0:0:0:0:
320,192,71880,1,0,0:0:0:0:
192,192,71951,1,0,0:0:0:0:
448,192,72023,1,0,0:0:0:0:
64,192,72094,1,0,0:0:0:0:
320,192,72165,1,0,0:0:0:0:
192,192,72237,1,0,0:0:0:0:
448,192,72308,1,0,0:0:0:0:
64,192,72380,1,0,0:0:0:0:
192,192,72451,1,0,0:0:0:0:
320,192,72523,1,0,0:0:0:0:
448,192,72594,1,0,0:0:0:0:
64,192,72665,1,0,0:0:0:0:
192,192,72737,1,0,0:0:0:0:
320,192,72808,1,0,0:0:0:0:
448,192,72880,1,0,0:0:0:0:
64,192,72951,1,0,0:0:0:0:
320,192,73023,1,0,0:0:0:0:
192,192,73094,1,0,0:0:0:0:
448,192,73165,1,0,0:0:0:0:
64,192,73237,1,0,0:0:0:0:
320,192,73308,1,0,0:0:0:0:
192,192,73380,1,0,0:0:0:0:
448,192,73451,1,0,0:0:0:0:
64,192,73523,1,0,0:0:0:0:
192,192,73558,1,0,0:0:0:0:
320,192,73594,1,0,0:0:0:0:
64,192,73665,1,0,0:0:0:0:
448,192,73665,1,0,0:0:0:0:
64,192,74808,1,0,0:0:0:0:
448,192,74808,1,0,0:0:0:0:
320,192,75951,1,0,0:0:0:0:
448,192,75951,1,0,0:0:0:0:
64,192,76237,1,0,0:0:0:0:
192,192,76237,1,0,0:0:0:0:
320,192,76523,1,0,0:0:0:0:
64,192,76808,1,0,0:0:0:0:
192,192,76880,1,0,0:0:0:0:
320,192,76951,1,0,0:0:0:0:
448,192,77023,1,0,0:0:0:0:
64,192,77094,1,0,0:0:0:0:
192,192,77094,1,0,0:0:0:0:
64,192,77951,1,0,0:0:0:0:
448,192,77951,1,0,0:0:0:0:
192,192,78094,1,0,0:0:0:0:
320,192,78094,1,0,0:0:0:0:
64,192,78237,1,0,0:0:0:0:
448,192,78237,1,0,0:0:0:0:
320,192,78808,1,0,0:0:0:0:
192,192,78880,1,0,0:0:0:0:
448,192,78951,1,0,0:0:0:0:
192,192,79023,1,0,0:0:0:0:
320,192,79094,1,0,0:0:0:0:
64,192,79165,1,0,0:0:0:0:
320,192,79237,1,0,0:0:0:0:
192,192,79308,1,0,0:0:0:0:
64,192,79380,1,0,0:0:0:0:
448,192,79380,1,0,0:0:0:0:
64,192,80523,1,0,0:0:0:0:
320,192,80523,1,0,0:0:0:0:
192,192,80808,1,0,0:0:0:0:
448,192,80808,1,0,0:0:0:0:
320,192,81094,1,0,0:0:0:0:
320,192,81380,1,0,0:0:0:0:
192,192,81451,1,0,0:0:0:0:
320,192,81523,1,0,0:0:0:0:
192,192,81594,1,0,0:0:0:0:
64,192,81665,1,0,0:0:0:0:
448,192,81665,1,0,0:0:0:0:
64,192,82523,1,0,0:0:0:0:
448,192,82523,1,0,0:0:0:0:
64,192,82665,1,0,0:0:0:0:
448,192,82665,1,0,0:0:0:0:
64,192,82808,1,0,0:0:0:0:
448,192,82808,1,0,0:0:0:0:
64,192,83380,1,0,0:0:0:0:
192,192,83451,1,0,0:0:0:0:
320,192,83523,1,0,0:0:0:0:
448,192,83594,1,0,0:0:0:0:
320,192,83665,1,0,0:0:0:0:
192,192,83737,1,0,0:0:0:0:
64,192,83808,1,0,0:0:0:0:
192,192,83880,1,0,0:0:0:0:
320,192,83951,1,0,0:0:0:0:
448,192,83951,1,0,0:0:0:0:
64,192,85094,1,0,0:0:0:0:
448,192,85094,1,0,0:0:0:0:
64,192,85380,1,0,0:0:0:0:
448,192,85380,1,0,0:0:0:0:
320,192,85523,128,0,85737:0:0:0:0:
64,192,85808,128,0,86023:0:0:0:0:
192,192,85951,1,0,0:0:0:0:
320,192,86023,1,0,0:0:0:0:
448,192,86094,128,0,86165:0:0:0:0:
320,192,86165,1,0,0:0:0:0:
192,192,86237,128,0,86451:0:0:0:0:
320,192,86523,128,0,86594:0:0:0:0:
64,192,86737,128,0,86880:0:0:0:0:
192,192,87023,128,0,87094:0:0:0:0:
320,192,87094,1,0,0:0:0:0:
448,192,87165,128,0,87237:0:0:0:0:
192,192,87237,1,0,0:0:0:0:
64,192,87380,1,0,0:0:0:0:
320,192,87594,128,0,87808:0:0:0:0:
192,192,87880,128,0,88094:0:0:0:0:
448,192,87951,1,0,0:0:0:0:
320,192,88023,1,0,0:0:0:0:
64,192,88094,1,0,0:0:0:0:
448,192,88165,128,0,88308:0:0:0:0:
192,192,88237,1,0,0:0:0:0:
320,192,88308,128,0,88451:0:0:0:0:
64,192,88380,1,0,0:0:0:0:
192,192,88451,1,0,0:0:0:0:
64,192,88523,128,0,88665:0:0:0:0:
448,192,88737,128,0,88880:0:0:0:0:
320,192,89023,128,0,89094:0:0:0:0:
192,192,89308,128,0,89380:0:0:0:0:
192,192,89451,128,0,89523:0:0:0:0:
64,192,89665,1,0,0:0:0:0:
448,192,89665,1,0,0:0:0:0:
320,192,89880,128,0,90094:0:0:0:0:
64,192,89951,1,0,0:0:0:0:
448,192,89951,1,0,0:0:0:0:
192,192,90237,1,0,0:0:0:0:
320,192,90523,1,0,0:0:0:0:
192,192,90594,1,0,0:0:0:0:
448,192,90665,128,0,90951:0:0:0:0:
320,192,90737,1,0,0:0:0:0:
64,192,90808,1,0,0:0:0:0:
192,192,90808,1,0,0:0:0:0:
320,192,91023,128,0,91237:0:0:0:0:
64,192,91665,1,0,0:0:0:0:
192,192,91665,128,0,91808:0:0:0:0:
320,192,91808,1,0,0:0:0:0:
448,192,91808,1,0,0:0:0:0:
64,192,91951,1,0,0:0:0:0:
192,192,91951,1,0,0:0:0:0:
448,192,92023,128,0,92165:0:0:0:0:
320,192,92237,128,0,92380:0:0:0:0:
192,192,92523,1,0,0:0:0:0:
448,192,92594,128,0,92665:0:0:0:0:
192,192,92665,1,0,0:0:0:0:
320,192,92737,1,0,0:0:0:0:
64,192,92808,1,0,0:0:0:0:
320,192,92880,1,0,0:0:0:0:
192,192,92951,1,0,0:0:0:0:
448,192,93023,1,0,0:0:0:0:
64,192,93094,128,0,94094:0:0:0:0:
192,192,93094,1,0,0:0:0:0:
320,192,93808,128,0,93880:0:0:0:0:
320,192,93951,128,0,94094:0:0:0:0:
320,192,94237,1,0,0:0:0:0:
448,192,94237,1,0,0:0:0:0:
64,192,94523,1,0,0:0:0:0:
192,192,94523,128,0,94665:0:0:0:0:
320,192,94808,128,0,94951:0:0:0:0:
448,192,95094,1,0,0:0:0:0:
320,192,95165,128,0,95308:0:0:0:0:
192,192,95237,1,0,0:0:0:0:
64,192,95308,128,0,95523:0:0:0:0:
192,192,95380,1,0,0:0:0:0:
448,192,95523,128,0,95737:0:0:0:0:
320,192,95808,128,0,96023:0:0:0:0:
64,192,96237,128,0,96523:0:0:0:0:
448,192,96237,1,0,0:0:0:0:
320,192,96380,1,0,0:0:0:0:
192,192,96523,1,0,0:0:0:0:
448,192,96737,128,0,97023:0:0:0:0:
192,192,97023,128,0,97094:0:0:0:0:
320,192,97094,1,0,0:0:0:0:
192,192,97165,128,0,97237:0:0:0:0:
448,192,97237,1,0,0:0:0:0:
320,192,97308,1,0,0:0:0:0:
192,192,97380,1,0,0:0:0:0:
64,192,97451,1,0,0:0:0:0:
192,192,97523,1,0,0:0:0:0:
448,192,97594,128,0,97808:0:0:0:0:
320,192,97665,1,0,0:0:0:0:
64,192,97880,128,0,98094:0:0:0:0:
320,192,98165,128,0,98380:0:0:0:0:
192,192,98523,128,0,98808:0:0:0:0:
320,192,98808,1,0,0:0:0:0:
448,192,98808,1,0,0:0:0:0:
448,192,99023,128,0,99237:0:0:0:0:
64,192,99094,1,0,0:0:0:0:
192,192,99094,1,0,0:0:0:0:
64,192,99308,128,0,99380:0:0:0:0:
320,192,99380,1,0,0:0:0:0:
64,192,99451,128,0,99523:0:0:0:0:
320,192,99665,1,0,0:0:0:0:
192,192,99737,1,0,0:0:0:0:
64,192,99808,1,0,0:0:0:0:
192,192,99880,128,0,100094:0:0:0:0:
320,192,99951,1,0,0:0:0:0:
448,192,100094,128,0,100237:0:0:0:0:
320,192,100237,128,0,100380:0:0:0:0:
192,192,100451,128,0,100594:0:0:0:0:
448,192,100594,128,0,100808:0:0:0:0:
64,192,100808,1,0,0:0:0:0:
192,192,100808,1,0,0:0:0:0:
320,192,100951,1,0,0:0:0:0:
448,192,100951,1,0,0:0:0:0:
64,192,101094,1,0,0:0:0:0:
192,192,101094,1,0,0:0:0:0:
320,192,101165,128,0,101451:0:0:0:0:
64,192,101523,128,0,101594:0:0:0:0:
448,192,101665,128,0,101808:0:0:0:0:
320,192,101737,1,0,0:0:0:0:
192,192,101808,1,0,0:0:0:0:
320,192,101880,1,0,0:0:0:0:
448,192,101951,1,0,0:0:0:0:
192,192,102023,128,0,102165:0:0:0:0:
320,192,102094,1,0,0:0:0:0:
448,192,102165,1,0,0:0:0:0:
64,192,102237,1,0,0:0:0:0:
192,192,102237,1,0,0:0:0:0:
320,192,102380,128,0,102523:0:0:0:0:
64,192,102523,128,0,102665:0:0:0:0:
448,192,102737,128,0,103094:0:0:0:0:
320,192,103380,1,0,0:0:0:0:
448,192,103380,1,0,0:0:0:0:
64,192,103451,128,0,103665:0:0:0:0:
320,192,103665,1,0,0:0:0:0:
448,192,103665,1,0,0:0:0:0:
192,192,103808,128,0,103880:0:0:0:0:
448,192,103951,128,0,104023:0:0:0:0:
64,192,104237,1,0,0:0:0:0:
320,192,104308,128,0,104523:0:0:0:0:
192,192,104380,1,0,0:0:0:0:
64,192,104451,1,0,0:0:0:0:
192,192,104523,1,0,0:0:0:0:
448,192,104665,128,0,104808:0:0:0:0:
192,192,105023,128,0,105165:0:0:0:0:
64,192,105380,1,0,0:0:0:0:
320,192,105380,128,0,105523:0:0:0:0:
192,192,105523,1,0,0:0:0:0:
448,192,105523,1,0,0:0:0:0:
320,192,105665,1,0,0:0:0:0:
448,192,105665,1,0,0:0:0:0:
64,192,105880,128,0,106094:0:0:0:0:
192,192,106165,128,0,106237:0:0:0:0:
448,192,106237,1,0,0:0:0:0:
192,192,106308,128,0,106380:0:0:0:0:
320,192,106380,1,0,0:0:0:0:
448,192,106451,1,0,0:0:0:0:
320,192,106523,1,0,0:0:0:0:
192,192,106594,1,0,0:0:0:0:
64,192,106665,1,0,0:0:0:0:
448,192,106737,128,0,106880:0:0:0:0:
64,192,106808,1,0,0:0:0:0:
192,192,106808,1,0,0:0:0:0:
192,192,107023,128,0,107165:0:0:0:0:
320,192,107308,128,0,107451:0:0:0:0:
64,192,107665,128,0,107951:0:0:0:0:
192,192,107951,1,0,0:0:0:0:
320,192,107951,1,0,0:0:0:0:
448,192,108165,128,0,108308:0:0:0:0:
64,192,108237,1,0,0:0:0:0:
192,192,108237,1,0,0:0:0:0:
192,192,108451,128,0,108523:0:0:0:0:
320,192,108523,1,0,0:0:0:0:
192,192,108594,128,0,108665:0:0:0:0:
448,192,108808,1,0,0:0:0:0:
192,192,108880,1,0,0:0:0:0:
64,192,108951,1,0,0:0:0:0:
320,192,109023,128,0,109308:0:0:0:0:
192,192,109094,1,0,0:0:0:0:
64,192,109308,128,0,109594:0:0:0:0:
448,192,109594,128,0,109880:0:0:0:0:
320,192,109951,1,0,0:0:0:0:
448,192,109951,1,0,0:0:0:0:
192,192,110023,128,0,110380:0:0:0:0:
320,192,110094,1,0,0:0:0:0:
448,192,110094,1,0,0:0:0:0:
320,192,110237,1,0,0:0:0:0:
448,192,110237,1,0,0:0:0:0:
448,192,110808,1,0,0:0:0:0:
320,192,110880,1,0,0:0:0:0:
192,192,110951,1,0,0:0:0:0:
64,192,111023,1,0,0:0:0:0:
320,192,111094,1,0,0:0:0:0:
448,192,111165,1,0,0:0:0:0:
192,192,111237,1,0,0:0:0:0:
320,192,111308,1,0,0:0:0:0:
64,192,111380,1,0,0:0:0:0:
448,192,111380,128,0,113665:0:0:0:0:
64,192,113665,128,0,114237:0:0:0:0:
192,192,114237,128,0,114808:0:0:0:0:
320,192,114808,128,0,115380:0:0:0:0:
192,192,115380,128,0,115951:0:0:0:0:
448,192,115951,128,0,118237:0:0:0:0:
320,192,118237,128,0,119951:0:0:0:0:
64,192,119951,128,0,120237:0:0:0:0:
192,192,120237,128,0,120523:0:0:0:0:
320,192,120523,128,0,121665:0:0:0:0:
192,192,121665,128,0,122237:0:0:0:0:
448,192,122237,128,0,122808:0:0:0:0:
320,192,122808,128,0,123951:0:0:0:0:
192,192,123951,128,0,125094:0:0:0:0:
320,192,125094,128,0,126237:0:0:0:0:
448,192,125094,1,0,0:0:0:0:
64,192,126237,1,0,0:0:0:0:
448,192,126523,1,0,0:0:0:0:
320,192,126665,1,0,0:0:0:0:
64,192,126808,1,0,0:0:0:0:
448,192,126880,1,0,0:0:0:0:
192,192,126951,1,0,0:0:0:0:
320,192,127023,1,0,0:0:0:0:
64,192,127094,1,0,0:0:0:0:
192,192,127165,1,0,0:0:0:0:
320,192,127237,1,0,0:0:0:0:
448,192,127308,1,0,0:0:0:0:
320,192,127380,1,0,0:0:0:0:
192,192,127451,1,0,0:0:0:0:
64,192,127523,1,0,0:0:0:0:
448,192,127594,1,0,0:0:0:0:
192,192,127665,1,0,0:0:0:0:
448,192,127737,1,0,0:0:0:0:
64,192,127808,1,0,0:0:0:0:
320,192,127880,1,0,0:0:0:0:
64,192,127951,1,0,0:0:0:0:
448,192,128023,1,0,0:0:0:0:
192,192,128094,1,0,0:0:0:0:
320,192,128165,1,0,0:0:0:0:
448,192,128237,1,0,0:0:0:0:
320,192,128308,1,0,0:0:0:0:
192,192,128380,1,0,0:0:0:0:
64,192,128451,1,0,0:0:0:0:
192,192,128523,1,0,0:0:0:0:
320,192,128594,1,0,0:0:0:0:
64,192,128665,1,0,0:0:0:0:
448,192,128737,1,0,0:0:0:0:
64,192,128808,1,0,0:0:0:0:
320,192,128880,1,0,0:0:0:0:
192,192,128951,1,0,0:0:0:0:
320,192,129023,1,0,0:0:0:0:
64,192,129094,1,0,0:0:0:0:
448,192,129165,1,0,0:0:0:0:
320,192,129237,1,0,0:0:0:0:
192,192,129308,1,0,0:0:0:0:
64,192,129380,1,0,0:0:0:0:
192,192,129451,1,0,0:0:0:0:
320,192,129523,1,0,0:0:0:0:
192,192,129594,1,0,0:0:0:0:
64,192,129665,1,0,0:0:0:0:
448,192,129665,1,0,0:0:0:0:
320,192,130523,1,0,0:0:0:0:
448,192,130523,1,0,0:0:0:0:
64,192,130665,1,0,0:0:0:0:
192,192,130665,1,0,0:0:0:0:
192,192,130808,1,0,0:0:0:0:
320,192,130808,1,0,0:0:0:0:
320,192,131380,1,0,0:0:0:0:
448,192,131380,1,0,0:0:0:0:
64,192,131951,1,0,0:0:0:0:
448,192,131951,1,0,0:0:0:0:
448,192,133665,1,0,0:0:0:0:
64,192,133808,1,0,0:0:0:0:
448,192,133808,1,0,0:0:0:0:
192,192,133880,1,0,0:0:0:0:
320,192,133951,1,0,0:0:0:0:
448,192,133987,1,0,0:0:0:0:
64,192,134023,1,0,0:0:0:0:
192,192,134058,1,0,0:0:0:0:
320,192,134094,1,0,0:0:0:0:
448,192,134130,1,0,0:0:0:0:
64,192,134165,1,0,0:0:0:0:
192,192,134201,1,0,0:0:0:0:
320,192,134237,1,0,0:0:0:0:
448,192,134237,1,0,0:0:0:0:
64,192,134308,1,0,0:0:0:0:
448,192,134380,1,0,0:0:0:0:
192,192,134451,1,0,0:0:0:0:
320,192,134523,1,0,0:0:0:0:
448,192,134523,1,0,0:0:0:0:
64,192,134594,1,0,0:0:0:0:
448,192,134665,1,0,0:0:0:0:
192,192,134737,1,0,0:0:0:0:
64,192,134808,1,0,0:0:0:0:
320,192,134808,1,0,0:0:0:0:
192,192,134880,1,0,0:0:0:0:
448,192,134951,1,0,0:0:0:0:
64,192,135023,1,0,0:0:0:0:
192,192,135094,1,0,0:0:0:0:
320,192,135094,1,0,0:0:0:0:
448,192,135165,1,0,0:0:0:0:
64,192,135237,1,0,0:0:0:0:
320,192,135308,1,0,0:0:0:0:
64,192,135380,1,0,0:0:0:0:
192,192,135380,1,0,0:0:0:0:
448,192,135451,1,0,0:0:0:0:
192,192,135523,1,0,0:0:0:0:
320,192,135594,1,0,0:0:0:0:
64,192,135665,1,0,0:0:0:0:
448,192,135665,1,0,0:0:0:0:
192,192,135737,1,0,0:0:0:0:
320,192,135808,1,0,0:0:0:0:
192,192,135880,1,0,0:0:0:0:
64,192,135951,1,0,0:0:0:0:
448,192,135951,1,0,0:0:0:0:
320,192,136023,1,0,0:0:0:0:
192,192,136094,1,0,0:0:0:0:
64,192,136165,1,0,0:0:0:0:
320,192,136237,1,0,0:0:0:0:
448,192,136237,1,0,0:0:0:0:
192,192,136308,1,0,0:0:0:0:
448,192,136380,1,0,0:0:0:0:
320,192,136451,1,0,0:0:0:0:
64,192,136523,1,0,0:0:0:0:
192,192,136523,1,0,0:0:0:0:
320,192,136594,1,0,0:0:0:0:
64,192,136665,1,0,0:0:0:0:
192,192,136737,1,0,0:0:0:0:
320,192,136808,1,0,0:0:0:0:
448,192,136808,1,0,0:0:0:0:
192,192,136880,1,0,0:0:0:0:
448,192,136951,1,0,0:0:0:0:
64,192,137023,1,0,0:0:0:0:
320,192,137094,1,0,0:0:0:0:
448,192,137094,1,0,0:0:0:0:
192,192,137165,1,0,0:0:0:0:
448,192,137237,1,0,0:0:0:0:
64,192,137308,1,0,0:0:0:0:
192,192,137380,1,0,0:0:0:0:
320,192,137380,1,0,0:0:0:0:
448,192,137451,1,0,0:0:0:0:
64,192,137523,1,0,0:0:0:0:
320,192,137594,1,0,0:0:0:0:
64,192,137665,1,0,0:0:0:0:
192,192,137665,1,0,0:0:0:0:
448,192,137737,1,0,0:0:0:0:
320,192,137808,1,0,0:0:0:0:
192,192,137880,1,0,0:0:0:0:
64,192,137951,1,0,0:0:0:0:
448,192,137951,1,0,0:0:0:0:
320,192,138023,1,0,0:0:0:0:
192,192,138094,1,0,0:0:0:0:
448,192,138165,1,0,0:0:0:0:
64,192,138237,1,0,0:0:0:0:
192,192,138237,1,0,0:0:0:0:
320,192,138308,1,0,0:0:0:0:
448,192,138380,1,0,0:0:0:0:
192,192,138451,1,0,0:0:0:0:
64,192,138523,1,0,0:0:0:0:
448,192,138523,1,0,0:0:0:0:
320,192,138594,1,0,0:0:0:0:
192,192,138665,1,0,0:0:0:0:
320,192,138737,1,0,0:0:0:0:
64,192,138808,1,0,0:0:0:0:
192,192,138808,1,0,0:0:0:0:
448,192,138880,1,0,0:0:0:0:
64,192,138951,1,0,0:0:0:0:
320,192,139023,1,0,0:0:0:0:
64,192,139094,1,0,0:0:0:0:
448,192,139094,1,0,0:0:0:0:
192,192,139165,1,0,0:0:0:0:
320,192,139237,1,0,0:0:0:0:
448,192,139308,1,0,0:0:0:0:
64,192,139380,1,0,0:0:0:0:
192,192,139380,1,0,0:0:0:0:
320,192,139451,1,0,0:0:0:0:
192,192,139523,1,0,0:0:0:0:
448,192,139594,1,0,0:0:0:0:
192,192,139665,1,0,0:0:0:0:
320,192,139665,1,0,0:0:0:0:
64,192,139737,1,0,0:0:0:0:
448,192,139808,1,0,0:0:0:0:
192,192,139880,1,0,0:0:0:0:
320,192,139951,1,0,0:0:0:0:
448,192,139951,1,0,0:0:0:0:
64,192,140023,1,0,0:0:0:0:
448,192,140094,1,0,0:0:0:0:
192,192,140165,1,0,0:0:0:0:
320,192,140237,1,0,0:0:0:0:
448,192,140237,1,0,0:0:0:0:
64,192,140308,1,0,0:0:0:0:
192,192,140380,1,0,0:0:0:0:
320,192,140451,1,0,0:0:0:0:
64,192,140523,1,0,0:0:0:0:
448,192,140523,1,0,0:0:0:0:
320,192,140594,1,0,0:0:0:0:
192,192,140665,1,0,0:0:0:0:
64,192,140737,1,0,0:0:0:0:
192,192,140808,1,0,0:0:0:0:
448,192,140808,1,0,0:0:0:0:
320,192,140880,1,0,0:0:0:0:
448,192,140951,1,0,0:0:0:0:
64,192,141023,1,0,0:0:0:0:
192,192,141094,1,0,0:0:0:0:
320,192,141094,1,0,0:0:0:0:
448,192,141165,1,0,0:0:0:0:
192,192,141237,1,0,0:0:0:0:
320,192,141308,1,0,0:0:0:0:
64,192,141380,1,0,0:0:0:0:
448,192,141380,1,0,0:0:0:0:
192,192,141451,1,0,0:0:0:0:
320,192,141523,1,0,0:0:0:0:
192,192,141594,1,0,0:0:0:0:
64,192,141665,1,0,0:0:0:0:
448,192,141665,1,0,0:0:0:0:
320,192,141737,1,0,0:0:0:0:
192,192,141808,1,0,0:0:0:0:
320,192,141880,1,0,0:0:0:0:
64,192,141951,1,0,0:0:0:0:
192,192,141951,1,0,0:0:0:0:
448,192,142023,1,0,0:0:0:0:
64,192,142094,1,0,0:0:0:0:
320,192,142165,1,0,0:0:0:0:
64,192,142237,1,0,0:0:0:0:
192,192,142237,1,0,0:0:0:0:
448,192,142308,1,0,0:0:0:0:
192,192,142380,1,0,0:0:0:0:
320,192,142451,1,0,0:0:0:0:
64,192,142523,1,0,0:0:0:0:
448,192,142523,1,0,0:0:0:0:
192,192,142594,1,0,0:0:0:0:
320,192,142665,1,0,0:0:0:0:
448,192,142737,1,0,0:0:0:0:
192,192,142808,1,0,0:0:0:0:
320,192,142808,1,0,0:0:0:0:
64,192,142880,1,0,0:0:0:0:
448,192,142951,1,0,0:0:0:0:
192,192,143023,1,0,0:0:0:0:
320,192,143094,1,0,0:0:0:0:
448,192,143094,1,0,0:0:0:0:
64,192,143165,1,0,0:0:0:0:
192,192,143237,1,0,0:0:0:0:
320,192,143308,1,0,0:0:0:0:
64,192,143380,1,0,0:0:0:0:
448,192,143380,1,0,0:0:0:0:
192,192,143451,1,0,0:0:0:0:
320,192,143523,1,0,0:0:0:0:
192,192,143594,1,0,0:0:0:0:
64,192,143665,1,0,0:0:0:0:
448,192,143665,1,0,0:0:0:0:
320,192,143737,1,0,0:0:0:0:
192,192,143808,1,0,0:0:0:0:
64,192,143880,1,0,0:0:0:0:
320,192,143951,1,0,0:0:0:0:
448,192,143951,1,0,0:0:0:0:
192,192,144023,1,0,0:0:0:0:
320,192,144094,1,0,0:0:0:0:
64,192,144165,1,0,0:0:0:0:
192,192,144237,1,0,0:0:0:0:
320,192,144237,1,0,0:0:0:0:
448,192,144308,1,0,0:0:0:0:
64,192,144380,1,0,0:0:0:0:
320,192,144451,1,0,0:0:0:0:
64,192,144523,1,0,0:0:0:0:
192,192,144523,1,0,0:0:0:0:
448,192,144594,1,0,0:0:0:0:
192,192,144665,1,0,0:0:0:0:
320,192,144737,1,0,0:0:0:0:
64,192,144808,1,0,0:0:0:0:
448,192,144808,1,0,0:0:0:0:
192,192,144880,1,0,0:0:0:0:
320,192,144951,1,0,0:0:0:0:
448,192,145023,1,0,0:0:0:0:
64,192,145094,1,0,0:0:0:0:
192,192,145094,1,0,0:0:0:0:
320,192,145165,1,0,0:0:0:0:
192,192,145237,1,0,0:0:0:0:
448,192,145308,1,0,0:0:0:0:
192,192,145380,1,0,0:0:0:0:
320,192,145380,1,0,0:0:0:0:
64,192,145451,1,0,0:0:0:0:
448,192,145523,1,0,0:0:0:0:
192,192,145594,1,0,0:0:0:0:
64,192,145665,1,0,0:0:0:0:
320,192,145665,1,0,0:0:0:0:
448,192,145737,1,0,0:0:0:0:
192,192,145808,1,0,0:0:0:0:
320,192,145880,1,0,0:0:0:0:
64,192,145951,1,0,0:0:0:0:
448,192,145951,1,0,0:0:0:0:
320,192,146023,1,0,0:0:0:0:
192,192,146094,1,0,0:0:0:0:
64,192,146165,1,0,0:0:0:0:
320,192,146237,1,0,0:0:0:0:
448,192,146237,1,0,0:0:0:0:
192,192,146308,1,0,0:0:0:0:
320,192,146380,1,0,0:0:0:0:
64,192,146451,1,0,0:0:0:0:
192,192,146523,1,0,0:0:0:0:
448,192,146523,1,0,0:0:0:0:
320,192,146594,1,0,0:0:0:0:
448,192,146665,1,0,0:0:0:0:
192,192,146737,1,0,0:0:0:0:
64,192,146808,1,0,0:0:0:0:
320,192,146808,1,0,0:0:0:0:
192,192,146880,1,0,0:0:0:0:
448,192,146951,1,0,0:0:0:0:
320,192,147023,1,0,0:0:0:0:
192,192,147094,1,0,0:0:0:0:
448,192,147094,1,0,0:0:0:0:
64,192,147165,1,0,0:0:0:0:
320,192,147237,1,0,0:0:0:0:
192,192,147308,1,0,0:0:0:0:
320,192,147380,1,0,0:0:0:0:
448,192,147380,1,0,0:0:0:0:
64,192,147451,1,0,0:0:0:0:
192,192,147523,1,0,0:0:0:0:
320,192,147594,1,0,0:0:0:0:
64,192,147665,1,0,0:0:0:0:
448,192,147665,1,0,0:0:0:0:
192,192,147737,1,0,0:0:0:0:
320,192,147808,1,0,0:0:0:0:
448,192,147880,1,0,0:0:0:0:
192,192,147951,1,0,0:0:0:0:
320,192,147951,1,0,0:0:0:0:
64,192,148023,1,0,0:0:0:0:
448,192,148094,1,0,0:0:0:0:
192,192,148165,1,0,0:0:0:0:
320,192,148237,1,0,0:0:0:0:
448,192,148237,1,0,0:0:0:0:
192,192,148308,1,0,0:0:0:0:
448,192,148380,1,0,0:0:0:0:
64,192,148451,1,0,0:0:0:0:
192,192,148523,1,0,0:0:0:0:
320,192,148523,1,0,0:0:0:0:
448,192,148594,1,0,0:0:0:0:
192,192,148665,1,0,0:0:0:0:
320,192,148737,1,0,0:0:0:0:
64,192,148808,1,0,0:0:0:0:
448,192,148808,1,0,0:0:0:0:
192,192,148880,1,0,0:0:0:0:
320,192,148951,1,0,0:0:0:0:
192,192,149023,1,0,0:0:0:0:
320,192,149094,1,0,0:0:0:0:
448,192,149094,1,0,0:0:0:0:
64,192,149165,1,0,0:0:0:0:
448,192,149237,1,0,0:0:0:0:
320,192,149308,1,0,0:0:0:0:
64,192,149380,1,0,0:0:0:0:
192,192,149380,1,0,0:0:0:0:
448,192,149451,1,0,0:0:0:0:
192,192,149523,1,0,0:0:0:0:
320,192,149594,1,0,0:0:0:0:
64,192,149665,1,0,0:0:0:0:
448,192,149665,1,0,0:0:0:0:
192,192,149737,1,0,0:0:0:0:
320,192,149808,1,0,0:0:0:0:
448,192,149880,1,0,0:0:0:0:
64,192,149951,1,0,0:0:0:0:
192,192,149951,1,0,0:0:0:0:
320,192,150023,1,0,0:0:0:0:
192,192,150094,1,0,0:0:0:0:
448,192,150165,1,0,0:0:0:0:
192,192,150237,1,0,0:0:0:0:
320,192,150237,1,0,0:0:0:0:
64,192,150308,1,0,0:0:0:0:
448,192,150380,1,0,0:0:0:0:
192,192,150451,1,0,0:0:0:0:
320,192,150523,1,0,0:0:0:0:
448,192,150523,1,0,0:0:0:0:
64,192,150594,1,0,0:0:0:0:
192,192,150665,1,0,0:0:0:0:
320,192,150737,1,0,0:0:0:0:
64,192,150808,1,0,0:0:0:0:
448,192,150808,1,0,0:0:0:0:
192,192,150880,1,0,0:0:0:0:
320,192,150951,1,0,0:0:0:0:
192,192,151023,1,0,0:0:0:0:
320,192,151094,1,0,0:0:0:0:
448,192,151094,1,0,0:0:0:0:
192,192,151165,1,0,0:0:0:0:
64,192,151237,1,0,0:0:0:0:
448,192,151308,1,0,0:0:0:0:
64,192,151380,1,0,0:0:0:0:
192,192,151380,1,0,0:0:0:0:
320,192,151451,1,0,0:0:0:0:
192,192,151523,1,0,0:0:0:0:
448,192,151594,1,0,0:0:0:0:
192,192,151665,1,0,0:0:0:0:
320,192,151665,1,0,0:0:0:0:
64,192,151737,1,0,0:0:0:0:
192,192,151808,1,0,0:0:0:0:
320,192,151880,1,0,0:0:0:0:
64,192,151951,1,0,0:0:0:0:
448,192,151951,1,0,0:0:0:0:
192,192,152023,1,0,0:0:0:0:
320,192,152094,1,0,0:0:0:0:
448,192,152165,1,0,0:0:0:0:
64,192,152237,1,0,0:0:0:0:
192,192,152237,1,0,0:0:0:0:
320,192,152308,1,0,0:0:0:0:
192,192,152380,1,0,0:0:0:0:
448,192,152451,1,0,0:0:0:0:
192,192,152523,1,0,0:0:0:0:
320,192,152523,1,0,0:0:0:0:
64,192,152594,1,0,0:0:0:0:
448,192,152665,1,0,0:0:0:0:
192,192,152737,1,0,0:0:0:0:
320,192,152808,1,0,0:0:0:0:
448,192,152808,1,0,0:0:0:0:
64,192,152880,1,0,0:0:0:0:
192,192,152951,1,0,0:0:0:0:
320,192,153023,1,0,0:0:0:0:
64,192,153094,1,0,0:0:0:0:
448,192,153094,1,0,0:0:0:0:
320,192,153165,1,0,0:0:0:0:
192,192,153237,1,0,0:0:0:0:
64,192,153308,1,0,0:0:0:0:
192,192,153380,1,0,0:0:0:0:
448,192,153380,1,0,0:0:0:0:
320,192,153451,1,0,0:0:0:0:
448,192,153523,1,0,0:0:0:0:
64,192,153594,1,0,0:0:0:0:
192,192,153665,1,0,0:0:0:0:
320,192,153665,1,0,0:0:0:0:
448,192,153737,1,0,0:0:0:0:
320,192,153808,1,0,0:0:0:0:
192,192,153880,1,0,0:0:0:0:
64,192,153951,1,0,0:0:0:0:
448,192,153951,1,0,0:0:0:0:
320,192,154023,1,0,0:0:0:0:
192,192,154094,1,0,0:0:0:0:
320,192,154165,1,0,0:0:0:0:
64,192,154237,1,0,0:0:0:0:
448,192,154237,1,0,0:0:0:0:
192,192,154308,1,0,0:0:0:0:
320,192,154380,1,0,0:0:0:0:
448,192,154451,1,0,0:0:0:0:
64,192,154523,1,0,0:0:0:0:
192,192,154523,1,0,0:0:0:0:
320,192,154594,1,0,0:0:0:0:
192,192,154665,1,0,0:0:0:0:
448,192,154737,1,0,0:0:0:0:
192,192,154808,1,0,0:0:0:0:
320,192,154808,1,0,0:0:0:0:
64,192,154880,1,0,0:0:0:0:
448,192,154951,1,0,0:0:0:0:
192,192,155023,1,0,0:0:0:0:
320,192,155094,1,0,0:0:0:0:
448,192,155094,1,0,0:0:0:0:
64,192,155165,1,0,0:0:0:0:
192,192,155237,1,0,0:0:0:0:
320,192,155308,1,0,0:0:0:0:
64,192,155380,1,0,0:0:0:0:
448,192,155380,1,0,0:0:0:0:
192,192,155451,1,0,0:0:0:0:
320,192,155523,1,0,0:0:0:0:
64,192,155594,1,0,0:0:0:0:
192,192,155665,1,0,0:0:0:0:
448,192,155665,1,0,0:0:0:0:
320,192,155737,1,0,0:0:0:0:
448,192,155808,1,0,0:0:0:0:
192,192,155880,1,0,0:0:0:0:
64,192,155951,1,0,0:0:0:0:
320,192,155951,1,0,0:0:0:0:
448,192,156023,1,0,0:0:0:0:
320,192,156094,1,0,0:0:0:0:
192,192,156165,1,0,0:0:0:0:
64,192,156237,1,0,0:0:0:0:
448,192,156237,1,0,0:0:0:0:
320,192,156308,1,0,0:0:0:0:
192,192,156380,1,0,0:0:0:0:
448,192,156451,1,0,0:0:0:0:
64,192,156523,1,0,0:0:0:0:
320,192,156523,1,0,0:0:0:0:
192,192,156594,1,0,0:0:0:0:
320,192,156665,1,0,0:0:0:0:
448,192,156737,1,0,0:0:0:0:
64,192,156808,1,0,0:0:0:0:
192,192,156808,1,0,0:0:0:0:
320,192,156880,1,0,0:0:0:0:
192,192,156951,1,0,0:0:0:0:
64,192,157023,1,0,0:0:0:0:
320,192,157094,1,0,0:0:0:0:
448,192,157094,1,0,0:0:0:0:
192,192,157165,1,0,0:0:0:0:
64,192,157237,1,0,0:0:0:0:
320,192,157308,1,0,0:0:0:0:
64,192,157380,1,0,0:0:0:0:
192,192,157380,1,0,0:0:0:0:
448,192,157451,1,0,0:0:0:0:
192,192,157523,1,0,0:0:0:0:
320,192,157594,1,0,0:0:0:0:
64,192,157665,1,0,0:0:0:0:
448,192,157665,1,0,0:0:0:0:
192,192,157737,1,0,0:0:0:0:
320,192,157808,1,0,0:0:0:0:
192,192,157880,1,0,0:0:0:0:
64,192,157951,1,0,0:0:0:0:
448,192,157951,1,0,0:0:0:0:
320,192,158023,1,0,0:0:0:0:
192,192,158094,1,0,0:0:0:0:
448,192,158165,1,0,0:0:0:0:
64,192,158237,1,0,0:0:0:0:
320,192,158237,1,0,0:0:0:0:
192,192,158308,1,0,0:0:0:0:
320,192,158380,1,0,0:0:0:0:
448,192,158451,1,0,0:0:0:0:
64,192,158523,1,0,0:0:0:0:
192,192,158523,1,0,0:0:0:0:
320,192,158594,1,0,0:0:0:0:
192,192,158665,1,0,0:0:0:0:
64,192,158737,1,0,0:0:0:0:
192,192,158808,1,0,0:0:0:0:
448,192,158808,1,0,0:0:0:0:
320,192,158880,1,0,0:0:0:0:
64,192,158951,1,0,0:0:0:0:
192,192,159023,1,0,0:0:0:0:
320,192,159094,1,0,0:0:0:0:
448,192,159094,1,0,0:0:0:0:
64,192,159165,1,0,0:0:0:0:
448,192,159237,1,0,0:0:0:0:
320,192,159308,1,0,0:0:0:0:
64,192,159380,1,0,0:0:0:0:
192,192,159380,1,0,0:0:0:0:
320,192,159451,1,0,0:0:0:0:
448,192,159523,1,0,0:0:0:0:
192,192,159594,1,0,0:0:0:0:
320,192,159665,1,0,0:0:0:0:
448,192,159665,1,0,0:0:0:0:
192,192,159737,1,0,0:0:0:0:
448,192,159808,1,0,0:0:0:0:
64,192,159880,1,0,0:0:0:0:
192,192,159951,1,0,0:0:0:0:
320,192,159951,1,0,0:0:0:0:
448,192,160023,1,0,0:0:0:0:
192,192,160094,1,0,0:0:0:0:
320,192,160165,1,0,0:0:0:0:
64,192,160237,1,0,0:0:0:0:
192,192,160237,1,0,0:0:0:0:
448,192,160308,1,0,0:0:0:0:
320,192,160380,1,0,0:0:0:0:
192,192,160451,1,0,0:0:0:0:
64,192,160523,1,0,0:0:0:0:
448,192,160523,1,0,0:0:0:0:
192,192,160594,1,0,0:0:0:0:
320,192,160665,1,0,0:0:0:0:
448,192,160737,1,0,0:0:0:0:
64,192,160808,1,0,0:0:0:0:
192,192,160808,1,0,0:0:0:0:
320,192,160880,1,0,0:0:0:0:
192,192,160951,1,0,0:0:0:0:
64,192,161023,1,0,0:0:0:0:
192,192,161094,1,0,0:0:0:0:
448,192,161094,1,0,0:0:0:0:
320,192,161165,1,0,0:0:0:0:
448,192,161237,1,0,0:0:0:0:
192,192,161308,1,0,0:0:0:0:
64,192,161380,1,0,0:0:0:0:
320,192,161380,1,0,0:0:0:0:
192,192,161451,1,0,0:0:0:0:
320,192,161523,1,0,0:0:0:0:
448,192,161594,1,0,0:0:0:0:
64,192,161665,1,0,0:0:0:0:
192,192,161665,1,0,0:0:0:0:
320,192,161737,1,0,0:0:0:0:
192,192,161808,1,0,0:0:0:0:
64,192,161880,1,0,0:0:0:0:
320,192,161951,1,0,0:0:0:0:
448,192,161951,1,0,0:0:0:0:
192,192,162023,1,0,0:0:0:0:
64,192,162094,1,0,0:0:0:0:
448,192,162165,1,0,0:0:0:0:
192,192,162237,1,0,0:0:0:0:
320,192,162237,1,0,0:0:0:0:
64,192,162308,1,0,0:0:0:0:
320,192,162380,1,0,0:0:0:0:
192,192,162451,1,0,0:0:0:0:
64,192,162523,1,0,0:0:0:0:
448,192,162523,1,0,0:0:0:0:
192,192,162594,1,0,0:0:0:0:
320,192,162665,1,0,0:0:0:0:
448,192,162737,1,0,0:0:0:0:
192,192,162808,1,0,0:0:0:0:
320,192,162808,1,0,0:0:0:0:
64,192,162880,1,0,0:0:0:0:
448,192,162951,1,0,0:0:0:0:
192,192,163023,1,0,0:0:0:0:
320,192,163094,1,0,0:0:0:0:
448,192,163094,1,0,0:0:0:0:
64,192,163165,1,0,0:0:0:0:
192,192,163237,1,0,0:0:0:0:
320,192,163308,1,0,0:0:0:0:
64,192,163380,1,0,0:0:0:0:
448,192,163380,1,0,0:0:0:0:
192,192,163451,1,0,0:0:0:0:
320,192,163523,1,0,0:0:0:0:
448,192,163594,1,0,0:0:0:0:
64,192,163665,1,0,0:0:0:0:
192,192,163665,1,0,0:0:0:0:
320,192,163737,1,0,0:0:0:0:
192,192,163808,1,0,0:0:0:0:
448,192,163880,1,0,0:0:0:0:
64,192,163951,1,0,0:0:0:0:
320,192,163951,1,0,0:0:0:0:
192,192,164023,1,0,0:0:0:0:
448,192,164094,1,0,0:0:0:0:
320,192,164165,1,0,0:0:0:0:
64,192,164237,1,0,0:0:0:0:
192,192,164237,1,0,0:0:0:0:
448,192,164308,1,0,0:0:0:0:
192,192,164380,1,0,0:0:0:0:
320,192,164451,1,0,0:0:0:0:
64,192,164523,1,0,0:0:0:0:
448,192,164523,1,0,0:0:0:0:
192,192,164594,1,0,0:0:0:0:
320,192,164665,1,0,0:0:0:0:
448,192,164737,1,0,0:0:0:0:
64,192,164808,1,0,0:0:0:0:
192,192,164808,1,0,0:0:0:0:
320,192,164880,1,0,0:0:0:0:
192,192,164951,1,0,0:0:0:0:
448,192,165023,1,0,0:0:0:0:
192,192,165094,1,0,0:0:0:0:
320,192,165094,1,0,0:0:0:0:
64,192,165165,1,0,0:0:0:0:
448,192,165237,1,0,0:0:0:0:
192,192,165308,1,0,0:0:0:0:
320,192,165380,1,0,0:0:0:0:
448,192,165380,1,0,0:0:0:0:
64,192,165451,1,0,0:0:0:0:
192,192,165523,1,0,0:0:0:0:
320,192,165594,1,0,0:0:0:0:
64,192,165665,1,0,0:0:0:0:
448,192,165665,1,0,0:0:0:0:
320,192,165737,1,0,0:0:0:0:
192,192,165808,1,0,0:0:0:0:
64,192,165880,1,0,0:0:0:0:
192,192,165951,1,0,0:0:0:0:
448,192,165951,1,0,0:0:0:0:
320,192,166023,1,0,0:0:0:0:
64,192,166094,1,0,0:0:0:0:
192,192,166165,1,0,0:0:0:0:
320,192,166237,1,0,0:0:0:0:
448,192,166237,1,0,0:0:0:0:
192,192,166308,1,0,0:0:0:0:
64,192,166380,1,0,0:0:0:0:
448,192,166451,1,0,0:0:0:0:
192,192,166523,1,0,0:0:0:0:
320,192,166523,1,0,0:0:0:0:
64,192,166594,1,0,0:0:0:0:
320,192,166665,1,0,0:0:0:0:
192,192,166737,1,0,0:0:0:0:
64,192,166808,1,0,0:0:0:0:
448,192,166808,1,0,0:0:0:0:
192,192,166880,1,0,0:0:0:0:
320,192,166951,1,0,0:0:0:0:
448,192,167023,1,0,0:0:0:0:
64,192,167094,1,0,0:0:0:0:
192,192,167094,1,0,0:0:0:0:
320,192,167165,1,0,0:0:0:0:
448,192,167237,1,0,0:0:0:0:
192,192,167308,1,0,0:0:0:0:
320,192,167380,1,0,0:0:0:0:
448,192,167380,1,0,0:0:0:0:
192,192,167451,1,0,0:0:0:0:
64,192,167523,1,0,0:0:0:0:
448,192,167594,1,0,0:0:0:0:
64,192,167665,1,0,0:0:0:0:
192,192,167665,1,0,0:0:0:0:
320,192,167737,1,0,0:0:0:0:
192,192,167808,1,0,0:0:0:0:
448,192,167880,1,0,0:0:0:0:
192,192,167951,1,0,0:0:0:0:
320,192,167951,1,0,0:0:0:0:
64,192,168023,1,0,0:0:0:0:
320,192,168094,1,0,0:0:0:0:
192,192,168165,1,0,0:0:0:0:
64,192,168237,1,0,0:0:0:0:
320,192,168237,1,0,0:0:0:0:
192,192,168308,1,0,0:0:0:0:
320,192,168380,1,0,0:0:0:0:
448,192,168451,1,0,0:0:0:0:
64,192,168523,1,0,0:0:0:0:
192,192,168523,1,0,0:0:0:0:
320,192,168594,1,0,0:0:0:0:
448,192,168665,1,0,0:0:0:0:
192,192,168737,1,0,0:0:0:0:
64,192,168808,1,0,0:0:0:0:
448,192,168808,1,0,0:0:0:0:
320,192,168880,1,0,0:0:0:0:
192,192,168951,1,0,0:0:0:0:
64,192,169023,1,0,0:0:0:0:
192,192,169094,1,0,0:0:0:0:
448,192,169094,1,0,0:0:0:0:
320,192,169165,1,0,0:0:0:0:
64,192,169237,1,0,0:0:0:0:
448,192,169308,1,0,0:0:0:0:
192,192,169380,1,0,0:0:0:0:
320,192,169380,1,0,0:0:0:0:
64,192,169451,1,0,0:0:0:0:
448,192,169523,1,0,0:0:0:0:
64,192,169594,1,0,0:0:0:0:
192,192,169665,1,0,0:0:0:0:
320,192,169665,1,0,0:0:0:0:
448,192,169737,1,0,0:0:0:0:
192,192,169808,1,0,0:0:0:0:
320,192,169880,1,0,0:0:0:0:
64,192,169951,1,0,0:0:0:0:
448,192,169951,1,0,0:0:0:0:
192,192,170023,1,0,0:0:0:0:
448,192,170094,1,0,0:0:0:0:
320,192,170165,1,0,0:0:0:0:
64,192,170237,1,0,0:0:0:0:
192,192,170237,1,0,0:0:0:0:
448,192,170308,1,0,0:0:0:0:
192,192,170380,1,0,0:0:0:0:
320,192,170451,1,0,0:0:0:0:
64,192,170523,1,0,0:0:0:0:
448,192,170523,1,0,0:0:0:0:
192,192,170594,1,0,0:0:0:0:
320,192,170665,1,0,0:0:0:0:
192,192,170737,1,0,0:0:0:0:
320,192,170808,1,0,0:0:0:0:
448,192,170808,1,0,0:0:0:0:
192,192,170880,1,0,0:0:0:0:
64,192,170951,1,0,0:0:0:0:
448,192,171023,1,0,0:0:0:0:
192,192,171094,1,0,0:0:0:0:
320,192,171094,1,0,0:0:0:0:
64,192,171165,1,0,0:0:0:0:
448,192,171237,1,0,0:0:0:0:
192,192,171308,1,0,0:0:0:0:
320,192,171380,1,0,0:0:0:0:
448,192,171380,1,0,0:0:0:0:
64,192,171451,1,0,0:0:0:0:
192,192,171523,1,0,0:0:0:0:
320,192,171594,1,0,0:0:0:0:
64,192,171665,1,0,0:0:0:0:
448,192,171665,1,0,0:0:0:0:
192,192,171737,1,0,0:0:0:0:
320,192,171808,1,0,0:0:0:0:
192,192,171880,1,0,0:0:0:0:
320,192,171951,1,0,0:0:0:0:
448,192,171951,1,0,0:0:0:0:
192,192,172023,1,0,0:0:0:0:
64,192,172094,1,0,0:0:0:0:
448,192,172165,1,0,0:0:0:0:
192,192,172237,1,0,0:0:0:0:
320,192,172237,1,0,0:0:0:0:
64,192,172308,1,0,0:0:0:0:
320,192,172380,1,0,0:0:0:0:
192,192,172451,1,0,0:0:0:0:
64,192,172523,1,0,0:0:0:0:
448,192,172523,1,0,0:0:0:0:
320,192,172594,1,0,0:0:0:0:
192,192,172665,1,0,0:0:0:0:
320,192,172737,1,0,0:0:0:0:
64,192,172808,1,0,0:0:0:0:
192,192,172808,1,0,0:0:0:0:
320,192,172880,1,0,0:0:0:0:
448,192,172951,1,0,0:0:0:0:
64,192,173023,1,0,0:0:0:0:
192,192,173094,1,0,0:0:0:0:
320,192,173094,1,0,0:0:0:0:
448,192,173165,1,0,0:0:0:0:
192,192,173237,1,0,0:0:0:0:
320,192,173308,1,0,0:0:0:0:
64,192,173380,1,0,0:0:0:0:
448,192,173380,1,0,0:0:0:0:
192,192,173451,1,0,0:0:0:0:
320,192,173523,1,0,0:0:0:0:
192,192,173594,1,0,0:0:0:0:
320,192,173665,1,0,0:0:0:0:
448,192,173665,1,0,0:0:0:0:
64,192,173737,1,0,0:0:0:0:
448,192,173808,1,0,0:0:0:0:
320,192,173880,1,0,0:0:0:0:
64,192,173951,1,0,0:0:0:0:
192,192,173951,1,0,0:0:0:0:
448,192,174023,1,0,0:0:0:0:
192,192,174094,1,0,0:0:0:0:
320,192,174165,1,0,0:0:0:0:
64,192,174237,1,0,0:0:0:0:
448,192,174237,1,0,0:0:0:0:
192,192,174308,1,0,0:0:0:0:
320,192,174380,1,0,0:0:0:0:
192,192,174451,1,0,0:0:0:0:
320,192,174523,1,0,0:0:0:0:
448,192,174523,1,0,0:0:0:0:
192,192,174594,1,0,0:0:0:0:
64,192,174665,1,0,0:0:0:0:
448,192,174737,1,0,0:0:0:0:
192,192,174808,1,0,0:0:0:0:
320,192,174808,1,0,0:0:0:0:
64,192,174880,1,0,0:0:0:0:
448,192,174951,1,0,0:0:0:0:
192,192,175023,1,0,0:0:0:0:
320,192,175094,1,0,0:0:0:0:
448,192,175094,1,0,0:0:0:0:
64,192,175165,1,0,0:0:0:0:
192,192,175237,1,0,0:0:0:0:
320,192,175308,1,0,0:0:0:0:
64,192,175380,1,0,0:0:0:0:
192,192,175380,1,0,0:0:0:0:
448,192,175451,1,0,0:0:0:0:
192,192,175523,1,0,0:0:0:0:
320,192,175594,1,0,0:0:0:0:
64,192,175665,1,0,0:0:0:0:
448,192,175665,1,0,0:0:0:0:
192,192,175737,1,0,0:0:0:0:
320,192,175808,1,0,0:0:0:0:
448,192,175880,1,0,0:0:0:0:
192,192,175951,1,0,0:0:0:0:
320,192,175951,1,0,0:0:0:0:
64,192,176023,1,0,0:0:0:0:
448,192,176094,1,0,0:0:0:0:
192,192,176165,1,0,0:0:0:0:
64,192,176237,1,0,0:0:0:0:
320,192,176237,1,0,0:0:0:0:
192,192,176308,1,0,0:0:0:0:
448,192,176380,1,0,0:0:0:0:
64,192,176451,1,0,0:0:0:0:
192,192,176523,1,0,0:0:0:0:
320,192,176523,1,0,0:0:0:0:
448,192,176594,1,0,0:0:0:0:
64,192,176665,1,0,0:0:0:0:
320,192,176737,1,0,0:0:0:0:
64,192,176808,1,0,0:0:0:0:
192,192,176808,1,0,0:0:0:0:
448,192,176880,1,0,0:0:0:0:
320,192,176951,1,0,0:0:0:0:
448,192,177023,1,0,0:0:0:0:
64,192,177094,1,0,0:0:0:0:
192,192,177094,1,0,0:0:0:0:
320,192,177165,1,0,0:0:0:0:
448,192,177237,1,0,0:0:0:0:
64,192,177308,1,0,0:0:0:0:
192,192,177380,1,0,0:0:0:0:
320,192,177380,1,0,0:0:0:0:
448,192,177451,1,0,0:0:0:0:
192,192,177523,1,0,0:0:0:0:
320,192,177594,1,0,0:0:0:0:
64,192,177665,1,0,0:0:0:0:
448,192,177665,1,0,0:0:0:0:
320,192,177737,1,0,0:0:0:0:
192,192,177808,1,0,0:0:0:0:
64,192,177880,1,0,0:0:0:0:
320,192,177951,1,0,0:0:0:0:
448,192,177951,1,0,0:0:0:0:
192,192,178023,1,0,0:0:0:0:
320,192,178094,1,0,0:0:0:0:
64,192,178165,1,0,0:0:0:0:
192,192,178237,1,0,0:0:0:0:
448,192,178237,1,0,0:0:0:0:
320,192,178308,1,0,0:0:0:0:
64,192,178380,1,0,0:0:0:0:
320,192,178451,1,0,0:0:0:0:
64,192,178523,1,0,0:0:0:0:
192,192,178523,1,0,0:0:0:0:
448,192,178594,1,0,0:0:0:0:
192,192,178665,1,0,0:0:0:0:
320,192,178737,1,0,0:0:0:0:
64,192,178808,1,0,0:0:0:0:
448,192,178808,1,0,0:0:0:0:
192,192,178880,1,0,0:0:0:0:
320,192,178951,1,0,0:0:0:0:
192,192,179023,1,0,0:0:0:0:
320,192,179094,1,0,0:0:0:0:
448,192,179094,1,0,0:0:0:0:
64,192,179165,1,0,0:0:0:0:
448,192,179237,1,0,0:0:0:0:
320,192,179308,1,0,0:0:0:0:
64,192,179380,1,0,0:0:0:0:
192,192,179380,1,0,0:0:0:0:
320,192,179451,1,0,0:0:0:0:
448,192,179523,1,0,0:0:0:0:
192,192,179594,1,0,0:0:0:0:
64,192,179665,1,0,0:0:0:0:
448,192,179665,1,0,0:0:0:0:
192,192,179737,1,0,0:0:0:0:
320,192,179808,1,0,0:0:0:0:
448,192,179880,1,0,0:0:0:0:
192,192,179951,1,0,0:0:0:0:
320,192,179951,1,0,0:0:0:0:
64,192,180023,1,0,0:0:0:0:
448,192,180094,1,0,0:0:0:0:
192,192,180165,1,0,0:0:0:0:
320,192,180237,1,0,0:0:0:0:
448,192,180237,1,0,0:0:0:0:
64,192,180308,1,0,0:0:0:0:
192,192,180380,1,0,0:0:0:0:
320,192,180451,1,0,0:0:0:0:
64,192,180523,1,0,0:0:0:0:
448,192,180523,1,0,0:0:0:0:
320,192,180594,1,0,0:0:0:0:
192,192,180665,1,0,0:0:0:0:
448,192,180737,1,0,0:0:0:0:
192,192,180808,1,0,0:0:0:0:
320,192,180808,1,0,0:0:0:0:
448,192,180880,1,0,0:0:0:0:
64,192,180951,1,0,0:0:0:0:
192,192,181023,1,0,0:0:0:0:
320,192,181094,1,0,0:0:0:0:
448,192,181094,1,0,0:0:0:0:
192,192,181165,1,0,0:0:0:0:
64,192,181237,1,0,0:0:0:0:
320,192,181308,1,0,0:0:0:0:
64,192,181380,1,0,0:0:0:0:
192,192,181380,1,0,0:0:0:0:
320,192,181451,1,0,0:0:0:0:
448,192,181523,1,0,0:0:0:0:
192,192,181594,1,0,0:0:0:0:
64,192,181665,1,0,0:0:0:0:
320,192,181665,1,0,0:0:0:0:
192,192,181737,1,0,0:0:0:0:
448,192,181808,1,0,0:0:0:0:
320,192,181880,1,0,0:0:0:0:
64,192,181951,1,0,0:0:0:0:
192,192,181951,1,0,0:0:0:0:
448,192,182023,1,0,0:0:0:0:
192,192,182094,1,0,0:0:0:0:
320,192,182165,1,0,0:0:0:0:
64,192,182237,1,0,0:0:0:0:
448,192,182237,1,0,0:0:0:0:
320,192,182308,1,0,0:0:0:0:
192,192,182380,1,0,0:0:0:0:
64,192,182451,1,0,0:0:0:0:
192,192,182523,1,0,0:0:0:0:
320,192,182523,1,0,0:0:0:0:
448,192,182594,1,0,0:0:0:0:
192,192,182665,1,0,0:0:0:0:
320,192,182737,1,0,0:0:0:0:
64,192,182808,1,0,0:0:0:0:
448,192,182808,1,0,0:0:0:0:
320,192,182880,1,0,0:0:0:0:
192,192,182951,1,0,0:0:0:0:
448,192,183023,1,0,0:0:0:0:
192,192,183094,1,0,0:0:0:0:
320,192,183094,1,0,0:0:0:0:
64,192,183165,1,0,0:0:0:0:
320,192,183237,1,0,0:0:0:0:
192,192,183308,1,0,0:0:0:0:
320,192,183380,1,0,0:0:0:0:
448,192,183380,1,0,0:0:0:0:
64,192,183451,1,0,0:0:0:0:
192,192,183523,1,0,0:0:0:0:
320,192,183594,1,0,0:0:0:0:
64,192,183665,1,0,0:0:0:0:
192,192,183665,1,0,0:0:0:0:
448,192,183737,1,0,0:0:0:0:
192,192,183808,1,0,0:0:0:0:
320,192,183880,1,0,0:0:0:0:
64,192,183951,1,0,0:0:0:0:
448,192,183951,1,0,0:0:0:0:
192,192,184023,1,0,0:0:0:0:
320,192,184094,1,0,0:0:0:0:
448,192,184165,1,0,0:0:0:0:
192,192,184237,1,0,0:0:0:0:
320,192,184237,1,0,0:0:0:0:
64,192,184308,1,0,0:0:0:0:
448,192,184380,1,0,0:0:0:0:
192,192,184451,1,0,0:0:0:0:
320,192,184523,1,0,0:0:0:0:
448,192,184523,1,0,0:0:0:0:
64,192,184594,1,0,0:0:0:0:
320,192,184665,1,0,0:0:0:0:
192,192,184737,1,0,0:0:0:0:
64,192,184808,1,0,0:0:0:0:
448,192,184808,1,0,0:0:0:0:
192,192,184880,1,0,0:0:0:0:
320,192,184951,1,0,0:0:0:0:
448,192,185023,1,0,0:0:0:0:
64,192,185094,1,0,0:0:0:0:
192,192,185094,1,0,0:0:0:0:
320,192,185165,1,0,0:0:0:0:
192,192,185237,1,0,0:0:0:0:
448,192,185308,1,0,0:0:0:0:
192,192,185380,1,0,0:0:0:0:
320,192,185380,1,0,0:0:0:0:
64,192,185451,1,0,0:0:0:0:
320,192,185523,1,0,0:0:0:0:
192,192,185594,1,0,0:0:0:0:
320,192,185665,1,0,0:0:0:0:
448,192,185665,1,0,0:0:0:0:
64,192,185737,1,0,0:0:0:0:
448,192,185808,1,0,0:0:0:0:
192,192,185880,1,0,0:0:0:0:
64,192,185951,1,0,0:0:0:0:
320,192,185951,1,0,0:0:0:0:
192,192,186023,1,0,0:0:0:0:
448,192,186094,1,0,0:0:0:0:
320,192,186165,1,0,0:0:0:0:
64,192,186237,1,0,0:0:0:0:
192,192,186237,1,0,0:0:0:0:
448,192,186308,1,0,0:0:0:0:
64,192,186380,1,0,0:0:0:0:
192,192,186451,1,0,0:0:0:0:
320,192,186523,1,0,0:0:0:0:
448,192,186523,1,0,0:0:0:0:
192,192,186594,1,0,0:0:0:0:
448,192,186665,1,0,0:0:0:0:
320,192,186737,1,0,0:0:0:0:
64,192,186808,1,0,0:0:0:0:
192,192,186808,1,0,0:0:0:0:
320,192,186880,1,0,0:0:0:0:
192,192,186951,1,0,0:0:0:0:
448,192,187023,1,0,0:0:0:0:
192,192,187094,1,0,0:0:0:0:
320,192,187094,1,0,0:0:0:0:
64,192,187165,1,0,0:0:0:0:
448,192,187237,1,0,0:0:0:0:
192,192,187308,1,0,0:0:0:0:
320,192,187380,1,0,0:0:0:0:
448,192,187380,1,0,0:0:0:0:
64,192,187451,1,0,0:0:0:0:
192,192,187523,1,0,0:0:0:0:
320,192,187594,1,0,0:0:0:0:
64,192,187665,1,0,0:0:0:0:
448,192,187665,1,0,0:0:0:0:
192,192,187737,1,0,0:0:0:0:
320,192,187808,1,0,0:0:0:0:
192,192,187880,1,0,0:0:0:0:
64,192,187951,1,0,0:0:0:0:
448,192,187951,1,0,0:0:0:0:
320,192,188023,1,0,0:0:0:0:
192,192,188094,1,0,0:0:0:0:
64,192,188165,1,0,0:0:0:0:
192,192,188237,1,0,0:0:0:0:
448,192,188237,1,0,0:0:0:0:
320,192,188308,1,0,0:0:0:0:
192,192,188380,1,0,0:0:0:0:
448,192,188451,1,0,0:0:0:0:
192,192,188523,1,0,0:0:0:0:
320,192,188523,1,0,0:0:0:0:
64,192,188594,1,0,0:0:0:0:
320,192,188665,1,0,0:0:0:0:
192,192,188737,1,0,0:0:0:0:
64,192,188808,1,0,0:0:0:0:
448,192,188808,1,0,0:0:0:0:
320,192,188880,1,0,0:0:0:0:
64,192,188951,1,0,0:0:0:0:
192,192,189023,1,0,0:0:0:0:
320,192,189094,1,0,0:0:0:0:
448,192,189094,1,0,0:0:0:0:
64,192,189165,1,0,0:0:0:0:
192,192,189237,1,0,0:0:0:0:
320,192,189308,1,0,0:0:0:0:
64,192,189380,1,0,0:0:0:0:
448,192,189380,1,0,0:0:0:0:
192,192,189451,1,0,0:0:0:0:
320,192,189523,1,0,0:0:0:0:
192,192,189594,1,0,0:0:0:0:
320,192,189665,1,0,0:0:0:0:
448,192,189665,1,0,0:0:0:0:
192,192,189737,1,0,0:0:0:0:
64,192,189808,1,0,0:0:0:0:
448,192,189880,1,0,0:0:0:0:
192,192,189951,1,0,0:0:0:0:
320,192,189951,1,0,0:0:0:0:
64,192,190023,1,0,0:0:0:0:
320,192,190094,1,0,0:0:0:0:
192,192,190165,1,0,0:0:0:0:
320,192,190237,1,0,0:0:0:0:
448,192,190237,1,0,0:0:0:0:
64,192,190308,1,0,0:0:0:0:
192,192,190380,1,0,0:0:0:0:
320,192,190451,1,0,0:0:0:0:
448,192,190523,1,0,0:0:0:0:
64,192,190523,1,0,0:0:0:0:
192,192,190594,1,0,0:0:0:0:
320,192,190665,1,0,0:0:0:0:
448,192,190737,1,0,0:0:0:0:
192,192,190808,1,0,0:0:0:0:
320,192,190808,1,0,0:0:0:0:
64,192,190879,1,0,0:0:0:0:
192,192,190950,1,0,0:0:0:0:
320,192,191022,1,0,0:0:0:0:
64,192,191093,1,0,0:0:0:0:
448,192,191093,1,0,0:0:0:0:
320,192,191165,1,0,0:0:0:0:
448,192,191236,1,0,0:0:0:0:
192,192,191308,1,0,0:0:0:0:
64,192,191379,1,0,0:0:0:0:
320,192,191379,1,0,0:0:0:0:
192,192,191450,1,0,0:0:0:0:
64,192,191522,1,0,0:0:0:0:
448,192,191593,1,0,0:0:0:0:
192,192,191665,1,0,0:0:0:0:
320,192,191665,1,0,0:0:0:0:
64,192,191736,1,0,0:0:0:0:
320,192,191808,1,0,0:0:0:0:
192,192,191879,1,0,0:0:0:0:
64,192,191950,1,0,0:0:0:0:
448,192,191950,1,0,0:0:0:0:
320,192,192022,1,0,0:0:0:0:
448,192,192093,1,0,0:0:0:0:
192,192,192165,1,0,0:0:0:0:
64,192,192236,1,0,0:0:0:0:
320,192,192236,1,0,0:0:0:0:
192,192,192308,1,0,0:0:0:0:
64,192,192379,1,0,0:0:0:0:
192,192,192450,1,0,0:0:0:0:
320,192,192522,1,0,0:0:0:0:
448,192,192522,1,0,0:0:0:0:
64,192,192593,1,0,0:0:0:0:
192,192,192665,1,0,0:0:0:0:
320,192,192736,1,0,0:0:0:0:
64,192,192808,1,0,0:0:0:0:
448,192,192808,1,0,0:0:0:0:
192,192,192879,1,0,0:0:0:0:
320,192,192950,1,0,0:0:0:0:
448,192,193022,1,0,0:0:0:0:
192,192,193093,1,0,0:0:0:0:
320,192,193093,1,0,0:0:0:0:
64,192,193165,1,0,0:0:0:0:
448,192,193236,1,0,0:0:0:0:
192,192,193308,1,0,0:0:0:0:
320,192,193379,1,0,0:0:0:0:
448,192,193379,1,0,0:0:0:0:
192,192,193450,1,0,0:0:0:0:
64,192,193522,1,0,0:0:0:0:
192,192,193593,1,0,0:0:0:0:
64,192,193665,1,0,0:0:0:0:
448,192,193665,1,0,0:0:0:0:
320,192,193736,1,0,0:0:0:0:
192,192,193808,1,0,0:0:0:0:
320,192,193879,1,0,0:0:0:0:
64,192,193950,1,0,0:0:0:0:
448,192,193950,1,0,0:0:0:0:
192,192,194022,1,0,0:0:0:0:
320,192,194093,1,0,0:0:0:0:
192,192,194165,1,0,0:0:0:0:
320,192,194236,1,0,0:0:0:0:
448,192,194236,1,0,0:0:0:0:
64,192,194308,1,0,0:0:0:0:
448,192,194379,1,0,0:0:0:0:
192,192,194450,1,0,0:0:0:0:
64,192,194522,1,0,0:0:0:0:
320,192,194522,1,0,0:0:0:0:
192,192,194593,1,0,0:0:0:0:
320,192,194665,1,0,0:0:0:0:
448,192,194736,1,0,0:0:0:0:
192,192,194808,1,0,0:0:0:0:
320,192,194808,1,0,0:0:0:0:
64,192,194879,1,0,0:0:0:0:
448,192,194950,1,0,0:0:0:0:
192,192,195022,1,0,0:0:0:0:
320,192,195093,1,0,0:0:0:0:
448,192,195093,1,0,0:0:0:0:
192,192,195165,1,0,0:0:0:0:
320,192,195236,1,0,0:0:0:0:
448,192,195308,1,0,0:0:0:0:
192,192,195379,1,0,0:0:0:0:
320,192,195379,1,0,0:0:0:0:
448,192,195450,1,0,0:0:0:0:
64,192,195522,1,0,0:0:0:0:
448,192,195593,1,0,0:0:0:0:
192,192,195665,1,0,0:0:0:0:
320,192,195665,1,0,0:0:0:0:
64,192,195736,1,0,0:0:0:0:
192,192,195808,1,0,0:0:0:0:
64,192,195879,1,0,0:0:0:0:
192,192,195950,1,0,0:0:0:0:
448,192,195950,1,0,0:0:0:0:
320,192,196022,1,0,0:0:0:0:
192,192,196093,1,0,0:0:0:0:
320,192,196165,1,0,0:0:0:0:
64,192,196236,1,0,0:0:0:0:
448,192,196236,1,0,0:0:0:0:
192,192,196308,1,0,0:0:0:0:
320,192,196379,1,0,0:0:0:0:
448,192,196450,1,0,0:0:0:0:
192,192,196522,1,0,0:0:0:0:
320,192,196522,1,0,0:0:0:0:
64,192,196593,1,0,0:0:0:0:
448,192,196665,1,0,0:0:0:0:
192,192,196736,1,0,0:0:0:0:
320,192,196808,1,0,0:0:0:0:
448,192,196808,1,0,0:0:0:0:
64,192,196879,1,0,0:0:0:0:
192,192,196950,1,0,0:0:0:0:
320,192,197022,1,0,0:0:0:0:
64,192,197093,1,0,0:0:0:0:
448,192,197093,1,0,0:0:0:0:
320,192,197165,1,0,0:0:0:0:
448,192,197236,1,0,0:0:0:0:
192,192,197308,1,0,0:0:0:0:
64,192,197379,1,0,0:0:0:0:
320,192,197379,1,0,0:0:0:0:
192,192,197450,1,0,0:0:0:0:
320,192,197522,1,0,0:0:0:0:
448,192,197593,1,0,0:0:0:0:
64,192,197665,1,0,0:0:0:0:
192,192,197665,1,0,0:0:0:0:
320,192,197736,1,0,0:0:0:0:
64,192,197808,1,0,0:0:0:0:
192,192,197879,1,0,0:0:0:0:
64,192,197950,1,0,0:0:0:0:
448,192,197950,1,0,0:0:0:0:
192,192,198022,1,0,0:0:0:0:
320,192,198093,1,0,0:0:0:0:
448,192,198165,1,0,0:0:0:0:
192,192,198236,1,0,0:0:0:0:
320,192,198236,1,0,0:0:0:0:
64,192,198308,1,0,0:0:0:0:
320,192,198379,1,0,0:0:0:0:
448,192,198379,1,0,0:0:0:0:
192,192,198450,1,0,0:0:0:0:
320,192,198522,1,0,0:0:0:0:
448,192,198522,1,0,0:0:0:0:
192,192,198593,1,0,0:0:0:0:
64,192,198665,1,0,0:0:0:0:
448,192,198665,1,0,0:0:0:0:
320,192,198736,1,0,0:0:0:0:
64,192,198808,1,0,0:0:0:0:
192,192,198808,1,0,0:0:0:0:
320,192,198879,1,0,0:0:0:0:
64,192,198950,1,0,0:0:0:0:
192,192,198950,1,0,0:0:0:0:
448,192,199022,1,0,0:0:0:0:
192,192,199093,1,0,0:0:0:0:
320,192,199093,1,0,0:0:0:0:
64,192,199165,1,0,0:0:0:0:
320,192,199236,1,0,0:0:0:0:
448,192,199236,1,0,0:0:0:0:
192,192,199308,1,0,0:0:0:0:
320,192,199379,1,0,0:0:0:0:
448,192,199379,1,0,0:0:0:0:
64,192,199450,1,0,0:0:0:0:
320,192,199522,1,0,0:0:0:0:
448,192,199522,1,0,0:0:0:0:
192,192,199593,1,0,0:0:0:0:
320,192,199665,1,0,0:0:0:0:
448,192,199665,1,0,0:0:0:0:
64,192,199736,1,0,0:0:0:0:
192,192,199808,1,0,0:0:0:0:
320,192,199808,1,0,0:0:0:0:
448,192,199879,1,0,0:0:0:0:
64,192,199950,1,0,0:0:0:0:
192,192,199950,1,0,0:0:0:0:
320,192,200022,1,0,0:0:0:0:
64,192,200093,1,0,0:0:0:0:
192,192,200093,1,0,0:0:0:0:
448,192,200165,1,0,0:0:0:0:
64,192,200236,1,0,0:0:0:0:
192,192,200236,1,0,0:0:0:0:
320,192,200308,1,0,0:0:0:0:
64,192,200379,1,0,0:0:0:0:
192,192,200379,1,0,0:0:0:0:
448,192,200450,1,0,0:0:0:0:
192,192,200522,1,0,0:0:0:0:
320,192,200522,1,0,0:0:0:0:
64,192,200593,1,0,0:0:0:0:
320,192,200665,1,0,0:0:0:0:
448,192,200665,1,0,0:0:0:0:
192,192,200736,1,0,0:0:0:0:
320,192,200808,1,0,0:0:0:0:
448,192,200808,1,0,0:0:0:0:
192,192,200879,1,0,0:0:0:0:
320,192,200950,1,0,0:0:0:0:
448,192,200950,1,0,0:0:0:0:
64,192,201022,1,0,0:0:0:0:
320,192,201093,1,0,0:0:0:0:
448,192,201093,1,0,0:0:0:0:
192,192,201165,1,0,0:0:0:0:
64,192,201236,1,0,0:0:0:0:
448,192,201236,1,0,0:0:0:0:
320,192,201308,1,0,0:0:0:0:
64,192,201379,1,0,0:0:0:0:
192,192,201379,1,0,0:0:0:0:
448,192,201450,1,0,0:0:0:0:
64,192,201522,1,0,0:0:0:0:
192,192,201522,1,0,0:0:0:0:
320,192,201593,1,0,0:0:0:0:
64,192,201665,1,0,0:0:0:0:
192,192,201665,1,0,0:0:0:0:
448,192,201736,1,0,0:0:0:0:
64,192,201808,1,0,0:0:0:0:
192,192,201808,1,0,0:0:0:0:
320,192,201879,1,0,0:0:0:0:
64,192,201950,1,0,0:0:0:0:
448,192,201950,1,0,0:0:0:0:
192,192,202022,1,0,0:0:0:0:
320,192,202093,1,0,0:0:0:0:
448,192,202093,1,0,0:0:0:0:
192,192,202165,1,0,0:0:0:0:
320,192,202236,1,0,0:0:0:0:
448,192,202236,1,0,0:0:0:0:
64,192,202308,1,0,0:0:0:0:
320,192,202379,1,0,0:0:0:0:
448,192,202379,1,0,0:0:0:0:
192,192,202450,1,0,0:0:0:0:
64,192,202522,1,0,0:0:0:0:
448,192,202522,1,0,0:0:0:0:
320,192,202593,1,0,0:0:0:0:
64,192,202665,1,0,0:0:0:0:
192,192,202665,1,0,0:0:0:0:
320,192,202736,1,0,0:0:0:0:
64,192,202808,1,0,0:0:0:0:
448,192,202808,1,0,0:0:0:0:
192,192,202879,1,0,0:0:0:0:
64,192,202950,1,0,0:0:0:0:
320,192,203022,1,0,0:0:0:0:
448,192,203022,1,0,0:0:0:0:
192,192,203093,1,0,0:0:0:0:
64,192,203165,1,0,0:0:0:0:
320,192,203236,1,0,0:0:0:0:
448,192,203236,1,0,0:0:0:0:
192,192,203308,1,0,0:0:0:0:
320,192,203379,1,0,0:0:0:0:
448,192,203379,1,0,0:0:0:0:
64,192,203450,1,0,0:0:0:0:
192,192,203522,1,0,0:0:0:0:
320,192,203593,1,0,0:0:0:0:
448,192,203593,1,0,0:0:0:0:
64,192,203665,1,0,0:0:0:0:
320,192,203736,1,0,0:0:0:0:
64,192,203808,1,0,0:0:0:0:
192,192,203808,1,0,0:0:0:0:
448,192,203879,1,0,0:0:0:0:
64,192,203950,1,0,0:0:0:0:
192,192,203950,1,0,0:0:0:0:
320,192,204022,1,0,0:0:0:0:
448,192,204093,1,0,0:0:0:0:
64,192,204165,1,0,0:0:0:0:
192,192,204165,1,0,0:0:0:0:
320,192,204236,1,0,0:0:0:0:
448,192,204308,1,0,0:0:0:0:
192,192,204379,1,0,0:0:0:0:
320,192,204379,1,0,0:0:0:0:
64,192,204450,1,0,0:0:0:0:
320,192,204522,1,0,0:0:0:0:
448,192,204522,1,0,0:0:0:0:
64,192,204593,1,0,0:0:0:0:
192,192,204665,1,0,0:0:0:0:
320,192,204736,1,0,0:0:0:0:
448,192,204736,1,0,0:0:0:0:
64,192,204808,1,0,0:0:0:0:
320,192,204879,1,0,0:0:0:0:
64,192,204950,1,0,0:0:0:0:
192,192,204950,1,0,0:0:0:0:
448,192,205022,1,0,0:0:0:0:
64,192,205093,1,0,0:0:0:0:
192,192,205093,1,0,0:0:0:0:
320,192,205165,1,0,0:0:0:0:
448,192,205236,1,0,0:0:0:0:
64,192,205308,1,0,0:0:0:0:
192,192,205308,1,0,0:0:0:0:
320,192,205379,1,0,0:0:0:0:
448,192,205450,1,0,0:0:0:0:
192,192,205522,1,0,0:0:0:0:
320,192,205522,1,0,0:0:0:0:
64,192,205593,1,0,0:0:0:0:
320,192,205665,1,0,0:0:0:0:
448,192,205665,1,0,0:0:0:0:
192,192,205736,1,0,0:0:0:0:
320,192,205808,1,0,0:0:0:0:
64,192,205879,1,0,0:0:0:0:
192,192,205879,1,0,0:0:0:0:
320,192,205950,1,0,0:0:0:0:
192,192,206022,1,0,0:0:0:0:
320,192,206093,1,0,0:0:0:0:
448,192,206093,1,0,0:0:0:0:
64,192,206165,1,0,0:0:0:0:
320,192,206236,1,0,0:0:0:0:
448,192,206236,1,0,0:0:0:0:
64,192,206308,1,0,0:0:0:0:
192,192,206379,1,0,0:0:0:0:
320,192,206450,1,0,0:0:0:0:
448,192,206450,1,0,0:0:0:0:
64,192,206522,1,0,0:0:0:0:
448,192,206593,1,0,0:0:0:0:
64,192,206665,1,0,0:0:0:0:
192,192,206665,1,0,0:0:0:0:
320,192,206736,1,0,0:0:0:0:
64,192,206808,1,0,0:0:0:0:
192,192,206808,1,0,0:0:0:0:
448,192,206879,1,0,0:0:0:0:
320,192,206950,1,0,0:0:0:0:
64,192,207022,1,0,0:0:0:0:
192,192,207022,1,0,0:0:0:0:
320,192,207093,1,0,0:0:0:0:
448,192,207165,1,0,0:0:0:0:
64,192,207236,1,0,0:0:0:0:
192,192,207236,1,0,0:0:0:0:
448,192,207379,1,0,0:0:0:0:
192,192,207450,1,0,0:0:0:0:
448,192,207522,1,0,0:0:0:0:
64,192,207593,1,0,0:0:0:0:
192,192,207665,1,0,0:0:0:0:
320,192,207665,1,0,0:0:0:0:
64,192,207808,1,0,0:0:0:0:
192,192,207950,1,0,0:0:0:0:
320,192,208022,1,0,0:0:0:0:
448,192,208093,1,0,0:0:0:0:
320,192,208165,1,0,0:0:0:0:
64,192,208236,1,0,0:0:0:0:
192,192,208236,1,0,0:0:0:0:
192,192,208379,1,0,0:0:0:0:
320,192,208450,1,0,0:0:0:0:
448,192,208522,1,0,0:0:0:0:
320,192,208593,1,0,0:0:0:0:
192,192,208665,1,0,0:0:0:0:
64,192,208808,1,0,0:0:0:0:
448,192,208808,1,0,0:0:0:0:
320,192,208950,1,0,0:0:0:0:
192,192,209093,1,0,0:0:0:0:
448,192,209165,1,0,0:0:0:0:
320,192,209236,1,0,0:0:0:0:
192,192,209308,1,0,0:0:0:0:
320,192,209379,1,0,0:0:0:0:
448,192,209379,1,0,0:0:0:0:
64,192,209522,1,0,0:0:0:0:
192,192,209593,1,0,0:0:0:0:
448,192,209665,1,0,0:0:0:0:
320,192,209736,1,0,0:0:0:0:
192,192,209808,1,0,0:0:0:0:
64,192,209950,1,0,0:0:0:0:
448,192,209950,1,0,0:0:0:0:
320,192,210093,1,0,0:0:0:0:
192,192,210236,1,0,0:0:0:0:
448,192,210308,1,0,0:0:0:0:
320,192,210379,1,0,0:0:0:0:
192,192,210450,1,0,0:0:0:0:
64,192,210522,1,0,0:0:0:0:
448,192,210522,1,0,0:0:0:0:
192,192,210665,1,0,0:0:0:0:
320,192,210736,1,0,0:0:0:0:
192,192,210808,1,0,0:0:0:0:
448,192,210879,1,0,0:0:0:0:
320,192,210950,1,0,0:0:0:0:
64,192,211093,1,0,0:0:0:0:
192,192,211093,1,0,0:0:0:0:
320,192,211236,1,0,0:0:0:0:
64,192,211379,1,0,0:0:0:0:
448,192,211450,1,0,0:0:0:0:
192,192,211522,1,0,0:0:0:0:
320,192,211593,1,0,0:0:0:0:
64,192,211665,1,0,0:0:0:0:
192,192,211665,1,0,0:0:0:0:
448,192,211808,1,0,0:0:0:0:
192,192,211950,1,0,0:0:0:0:
320,192,211950,1,0,0:0:0:0:
64,192,212022,1,0,0:0:0:0:
448,192,212093,1,0,0:0:0:0:
64,192,212236,1,0,0:0:0:0:
320,192,212236,1,0,0:0:0:0:
192,192,212379,1,0,0:0:0:0:
448,192,212522,1,0,0:0:0:0:
64,192,212593,1,0,0:0:0:0:
192,192,212665,1,0,0:0:0:0:
320,192,212736,1,0,0:0:0:0:
64,192,212808,1,0,0:0:0:0:
192,192,212808,1,0,0:0:0:0:
320,192,212950,1,0,0:0:0:0:
192,192,213022,1,0,0:0:0:0:
448,192,213093,1,0,0:0:0:0:
192,192,213165,1,0,0:0:0:0:
320,192,213236,1,0,0:0:0:0:
64,192,213379,1,0,0:0:0:0:
448,192,213379,1,0,0:0:0:0:
192,192,213522,1,0,0:0:0:0:
320,192,213665,1,0,0:0:0:0:
448,192,213736,1,0,0:0:0:0:
64,192,213808,1,0,0:0:0:0:
320,192,213879,1,0,0:0:0:0:
64,192,213950,1,0,0:0:0:0:
192,192,213950,1,0,0:0:0:0:
448,192,214093,1,0,0:0:0:0:
192,192,214165,1,0,0:0:0:0:
448,192,214236,1,0,0:0:0:0:
320,192,214308,1,0,0:0:0:0:
192,192,214379,1,0,0:0:0:0:
64,192,214522,1,0,0:0:0:0:
448,192,214522,1,0,0:0:0:0:
192,192,214665,1,0,0:0:0:0:
320,192,214808,1,0,0:0:0:0:
192,192,214879,1,0,0:0:0:0:
448,192,214950,1,0,0:0:0:0:
320,192,215022,1,0,0:0:0:0:
64,192,215093,1,0,0:0:0:0:
192,192,215093,1,0,0:0:0:0:
320,192,215236,1,0,0:0:0:0:
448,192,215308,1,0,0:0:0:0:
320,192,215379,1,0,0:0:0:0:
192,192,215450,1,0,0:0:0:0:
64,192,215522,1,0,0:0:0:0:
192,192,215665,1,0,0:0:0:0:
448,192,215665,1,0,0:0:0:0:
320,192,215808,1,0,0:0:0:0:
64,192,215950,1,0,0:0:0:0:
192,192,215950,1,0,0:0:0:0:
320,192,216093,1,0,0:0:0:0:
448,192,216165,1,0,0:0:0:0:
64,192,216236,1,0,0:0:0:0:
192,192,216236,1,0,0:0:0:0:
320,192,216272,1,0,0:0:0:0:
448,192,216308,1,0,0:0:0:0:
64,192,216343,1,0,0:0:0:0:
192,192,216379,1,0,0:0:0:0:
320,192,216415,1,0,0:0:0:0:
448,192,216450,1,0,0:0:0:0:
64,192,216486,1,0,0:0:0:0:
192,192,216522,1,0,0:0:0:0:
320,192,216522,1,0,0:0:0:0:
448,192,216593,1,0,0:0:0:0:
64,192,216665,1,0,0:0:0:0:
192,192,216808,1,0,0:0:0:0:
320,192,216808,1,0,0:0:0:0:
448,192,216950,1,0,0:0:0:0:
64,192,217093,1,0,0:0:0:0:
192,192,217093,1,0,0:0:0:0:
448,192,217165,1,0,0:0:0:0:
320,192,217236,1,0,0:0:0:0:
192,192,217308,1,0,0:0:0:0:
320,192,217379,1,0,0:0:0:0:
448,192,217379,1,0,0:0:0:0:
64,192,217522,1,0,0:0:0:0:
320,192,217593,1,0,0:0:0:0:
64,192,217665,1,0,0:0:0:0:
448,192,217665,1,0,0:0:0:0:
192,192,217736,1,0,0:0:0:0:
320,192,217808,1,0,0:0:0:0:
448,192,217808,1,0,0:0:0:0:
320,192,217950,1,0,0:0:0:0:
448,192,217950,1,0,0:0:0:0:
64,192,218093,1,0,0:0:0:0:
448,192,218093,1,0,0:0:0:0:
64,192,218236,1,0,0:0:0:0:
192,192,218236,1,0,0:0:0:0:
320,192,218308,1,0,0:0:0:0:
448,192,218379,1,0,0:0:0:0:
192,192,218450,1,0,0:0:0:0:
320,192,218522,1,0,0:0:0:0:
448,192,218522,1,0,0:0:0:0:
64,192,218665,1,0,0:0:0:0:
192,192,218665,1,0,0:0:0:0:
448,192,218736,1,0,0:0:0:0:
64,192,218808,1,0,0:0:0:0:
192,192,218808,1,0,0:0:0:0:
320,192,218879,1,0,0:0:0:0:
64,192,218950,1,0,0:0:0:0:
448,192,218950,1,0,0:0:0:0:
192,192,219022,1,0,0:0:0:0:
320,192,219093,1,0,0:0:0:0:
448,192,219093,1,0,0:0:0:0:
192,192,219236,1,0,0:0:0:0:
64,192,219379,1,0,0:0:0:0:
192,192,219379,1,0,0:0:0:0:
448,192,219450,1,0,0:0:0:0:
320,192,219522,1,0,0:0:0:0:
192,192,219593,1,0,0:0:0:0:
64,192,219665,1,0,0:0:0:0:
448,192,219665,1,0,0:0:0:0:
320,192,219808,1,0,0:0:0:0:
192,192,219879,1,0,0:0:0:0:
320,192,219950,1,0,0:0:0:0:
448,192,219950,1,0,0:0:0:0:
64,192,220022,1,0,0:0:0:0:
192,192,220093,1,0,0:0:0:0:
320,192,220236,1,0,0:0:0:0:
448,192,220236,1,0,0:0:0:0:
64,192,220379,1,0,0:0:0:0:
192,192,220522,1,0,0:0:0:0:
448,192,220522,1,0,0:0:0:0:
320,192,220665,1,0,0:0:0:0:
192,192,220700,1,0,0:0:0:0:
64,192,220736,1,0,0:0:0:0:
320,192,220808,1,0,0:0:0:0:
448,192,220808,1,0,0:0:0:0:
192,192,220950,1,0,0:0:0:0:
320,192,221022,1,0,0:0:0:0:
64,192,221093,1,0,0:0:0:0:
448,192,221093,1,0,0:0:0:0:
192,192,221165,1,0,0:0:0:0:
320,192,221236,1,0,0:0:0:0:
64,192,221379,1,0,0:0:0:0:
192,192,221379,1,0,0:0:0:0:
320,192,221522,1,0,0:0:0:0:
448,192,221522,1,0,0:0:0:0:
64,192,221665,1,0,0:0:0:0:
192,192,221665,1,0,0:0:0:0:
320,192,221736,1,0,0:0:0:0:
448,192,221808,1,0,0:0:0:0:
64,192,221879,1,0,0:0:0:0:
192,192,221950,1,0,0:0:0:0:
320,192,221950,1,0,0:0:0:0:
64,192,222093,1,0,0:0:0:0:
192,192,222165,1,0,0:0:0:0:
320,192,222236,1,0,0:0:0:0:
448,192,222236,1,0,0:0:0:0:
192,192,222308,1,0,0:0:0:0:
320,192,222379,1,0,0:0:0:0:
448,192,222379,1,0,0:0:0:0:
64,192,222522,1,0,0:0:0:0:
192,192,222522,1,0,0:0:0:0:
192,192,222665,1,0,0:0:0:0:
448,192,222665,1,0,0:0:0:0:
320,192,222808,1,0,0:0:0:0:
448,192,222808,1,0,0:0:0:0:
192,192,222879,1,0,0:0:0:0:
64,192,222950,1,0,0:0:0:0:
192,192,223022,1,0,0:0:0:0:
320,192,223093,1,0,0:0:0:0:
448,192,223093,1,0,0:0:0:0:
64,192,223236,1,0,0:0:0:0:
192,192,223236,1,0,0:0:0:0:
448,192,223308,1,0,0:0:0:0:
64,192,223379,1,0,0:0:0:0:
192,192,223379,1,0,0:0:0:0:
320,192,223450,1,0,0:0:0:0:
448,192,223522,1,0,0:0:0:0:
64,192,223665,1,0,0:0:0:0:
192,192,223665,1,0,0:0:0:0:
192,192,223808,1,0,0:0:0:0:
448,192,223808,1,0,0:0:0:0:
320,192,223950,1,0,0:0:0:0:
448,192,223950,1,0,0:0:0:0:
64,192,224022,1,0,0:0:0:0:
192,192,224093,1,0,0:0:0:0:
320,192,224165,1,0,0:0:0:0:
64,192,224236,1,0,0:0:0:0:
448,192,224236,1,0,0:0:0:0:
320,192,224379,1,0,0:0:0:0:
192,192,224450,1,0,0:0:0:0:
64,192,224522,1,0,0:0:0:0:
448,192,224522,1,0,0:0:0:0:
192,192,224665,1,0,0:0:0:0:
64,192,224736,1,0,0:0:0:0:
448,192,224736,1,0,0:0:0:0:
320,192,224808,1,0,0:0:0:0:
64,192,224950,1,0,0:0:0:0:
192,192,224950,1,0,0:0:0:0:
320,192,225093,1,0,0:0:0:0:
448,192,225093,1,0,0:0:0:0:
192,192,225236,1,0,0:0:0:0:
320,192,225379,1,0,0:0:0:0:
448,192,225379,1,0,0:0:0:0:
64,192,225522,1,0,0:0:0:0:
192,192,225665,1,0,0:0:0:0:
320,192,225665,1,0,0:0:0:0:
448,192,225736,1,0,0:0:0:0:
192,192,225808,1,0,0:0:0:0:
320,192,225879,1,0,0:0:0:0:
64,192,225950,1,0,0:0:0:0:
192,192,225950,1,0,0:0:0:0:
320,192,226093,1,0,0:0:0:0:
448,192,226093,1,0,0:0:0:0:
64,192,226236,1,0,0:0:0:0:
192,192,226236,1,0,0:0:0:0:
320,192,226308,1,0,0:0:0:0:
448,192,226379,1,0,0:0:0:0:
192,192,226450,1,0,0:0:0:0:
320,192,226522,1,0,0:0:0:0:
448,192,226522,1,0,0:0:0:0:
192,192,226665,1,0,0:0:0:0:
320,192,226736,1,0,0:0:0:0:
64,192,226808,1,0,0:0:0:0:
448,192,226808,1,0,0:0:0:0:
192,192,226879,1,0,0:0:0:0:
320,192,226950,1,0,0:0:0:0:
192,192,227022,1,0,0:0:0:0:
64,192,227093,1,0,0:0:0:0:
448,192,227093,1,0,0:0:0:0:
192,192,227236,1,0,0:0:0:0:
320,192,227236,1,0,0:0:0:0:
64,192,227379,1,0,0:0:0:0:
192,192,227379,1,0,0:0:0:0:
448,192,227450,1,0,0:0:0:0:
320,192,227522,1,0,0:0:0:0:
192,192,227593,1,0,0:0:0:0:
64,192,227665,1,0,0:0:0:0:
448,192,227665,1,0,0:0:0:0:
64,192,227808,1,0,0:0:0:0:
448,192,227808,1,0,0:0:0:0:
320,192,227950,1,0,0:0:0:0:
448,192,227950,1,0,0:0:0:0:
192,192,228022,1,0,0:0:0:0:
64,192,228093,1,0,0:0:0:0:
192,192,228165,1,0,0:0:0:0:
320,192,228236,1,0,0:0:0:0:
448,192,228236,1,0,0:0:0:0:
192,192,228379,1,0,0:0:0:0:
64,192,228522,1,0,0:0:0:0:
448,192,228522,1,0,0:0:0:0:
192,192,228593,1,0,0:0:0:0:
320,192,228665,1,0,0:0:0:0:
448,192,228736,1,0,0:0:0:0:
64,192,228808,1,0,0:0:0:0:
192,192,228808,1,0,0:0:0:0:
320,192,228950,1,0,0:0:0:0:
448,192,229022,1,0,0:0:0:0:
64,192,229093,1,0,0:0:0:0:
192,192,229093,1,0,0:0:0:0:
448,192,229165,1,0,0:0:0:0:
320,192,229236,1,0,0:0:0:0:
192,192,229308,1,0,0:0:0:0:
320,192,229379,1,0,0:0:0:0:
448,192,229379,1,0,0:0:0:0:
64,192,229522,1,0,0:0:0:0:
192,192,229522,1,0,0:0:0:0:
64,192,229665,1,0,0:0:0:0:
448,192,229665,1,0,0:0:0:0:
320,192,229736,1,0,0:0:0:0:
192,192,229808,1,0,0:0:0:0:
64,192,229879,1,0,0:0:0:0:
192,192,229950,1,0,0:0:0:0:
320,192,229950,1,0,0:0:0:0:
320,192,230093,1,0,0:0:0:0:
448,192,230093,1,0,0:0:0:0:
64,192,230236,1,0,0:0:0:0:
192,192,230236,1,0,0:0:0:0:
448,192,230308,1,0,0:0:0:0:
320,192,230379,1,0,0:0:0:0:
192,192,230450,1,0,0:0:0:0:
64,192,230522,1,0,0:0:0:0:
448,192,230522,1,0,0:0:0:0:
320,192,230665,1,0,0:0:0:0:
448,192,230665,1,0,0:0:0:0:
64,192,230808,1,0,0:0:0:0:
192,192,230808,1,0,0:0:0:0:
320,192,230879,1,0,0:0:0:0:
192,192,230950,1,0,0:0:0:0:
448,192,231022,1,0,0:0:0:0:
192,192,231093,1,0,0:0:0:0:
320,192,231093,1,0,0:0:0:0:
64,192,231236,1,0,0:0:0:0:
192,192,231308,1,0,0:0:0:0:
320,192,231379,1,0,0:0:0:0:
448,192,231379,1,0,0:0:0:0:
192,192,231450,1,0,0:0:0:0:
64,192,231522,1,0,0:0:0:0:
448,192,231593,1,0,0:0:0:0:
192,192,231665,1,0,0:0:0:0:
320,192,231665,1,0,0:0:0:0:
64,192,231808,1,0,0:0:0:0:
192,192,231808,1,0,0:0:0:0:
320,192,231950,1,0,0:0:0:0:
448,192,231950,1,0,0:0:0:0:
192,192,232022,1,0,0:0:0:0:
448,192,232093,1,0,0:0:0:0:
64,192,232165,1,0,0:0:0:0:
192,192,232236,1,0,0:0:0:0:
320,192,232236,1,0,0:0:0:0:
448,192,232379,1,0,0:0:0:0:
192,192,232450,1,0,0:0:0:0:
320,192,232522,1,0,0:0:0:0:
448,192,232522,1,0,0:0:0:0:
64,192,232593,1,0,0:0:0:0:
192,192,232665,1,0,0:0:0:0:
320,192,232736,1,0,0:0:0:0:
64,192,232808,1,0,0:0:0:0:
448,192,232808,1,0,0:0:0:0:
192,192,232950,1,0,0:0:0:0:
320,192,232950,1,0,0:0:0:0:
64,192,233093,1,0,0:0:0:0:
448,192,233093,1,0,0:0:0:0:
192,192,233165,1,0,0:0:0:0:
320,192,233236,1,0,0:0:0:0:
192,192,233308,1,0,0:0:0:0:
320,192,233379,1,0,0:0:0:0:
448,192,233379,1,0,0:0:0:0:
192,192,233522,1,0,0:0:0:0:
64,192,233593,1,0,0:0:0:0:
192,192,233665,1,0,0:0:0:0:
320,192,233665,1,0,0:0:0:0:
448,192,233736,1,0,0:0:0:0:
64,192,233808,1,0,0:0:0:0:
448,192,233879,1,0,0:0:0:0:
64,192,233950,1,0,0:0:0:0:
192,192,233950,1,0,0:0:0:0:
320,192,234022,1,0,0:0:0:0:
448,192,234093,1,0,0:0:0:0:
64,192,234165,1,0,0:0:0:0:
192,192,234236,1,0,0:0:0:0:
320,192,234236,1,0,0:0:0:0:
448,192,234379,1,0,0:0:0:0:
320,192,234450,1,0,0:0:0:0:
64,192,234522,1,0,0:0:0:0:
192,192,234522,1,0,0:0:0:0:
448,192,234665,1,0,0:0:0:0:
192,192,234736,1,0,0:0:0:0:
320,192,234808,1,0,0:0:0:0:
448,192,234808,1,0,0:0:0:0:
64,192,234879,1,0,0:0:0:0:
192,192,234950,1,0,0:0:0:0:
320,192,235093,1,0,0:0:0:0:
448,192,235093,1,0,0:0:0:0:
192,192,235165,1,0,0:0:0:0:
64,192,235236,1,0,0:0:0:0:
192,192,235379,1,0,0:0:0:0:
448,192,235379,1,0,0:0:0:0:
320,192,235450,1,0,0:0:0:0:
64,192,235522,1,0,0:0:0:0:
192,192,235593,1,0,0:0:0:0:
320,192,235665,1,0,0:0:0:0:
448,192,235665,1,0,0:0:0:0:
192,192,235808,1,0,0:0:0:0:
320,192,235879,1,0,0:0:0:0:
64,192,235950,1,0,0:0:0:0:
448,192,235950,1,0,0:0:0:0:
192,192,236022,1,0,0:0:0:0:
320,192,236093,1,0,0:0:0:0:
64,192,236236,1,0,0:0:0:0:
448,192,236236,1,0,0:0:0:0:
320,192,236308,1,0,0:0:0:0:
192,192,236379,1,0,0:0:0:0:
64,192,236522,1,0,0:0:0:0:
192,192,236522,1,0,0:0:0:0:
448,192,236593,1,0,0:0:0:0:
320,192,236665,1,0,0:0:0:0:
64,192,236808,1,0,0:0:0:0:
192,192,236808,1,0,0:0:0:0:
320,192,236950,1,0,0:0:0:0:
192,192,237022,1,0,0:0:0:0:
64,192,237093,1,0,0:0:0:0:
448,192,237093,1,0,0:0:0:0:
320,192,237165,1,0,0:0:0:0:
192,192,237236,1,0,0:0:0:0:
320,192,237379,1,0,0:0:0:0:
448,192,237379,1,0,0:0:0:0:
64,192,237450,1,0,0:0:0:0:
192,192,237522,1,0,0:0:0:0:
320,192,237665,1,0,0:0:0:0:
448,192,237665,1,0,0:0:0:0:
192,192,237736,1,0,0:0:0:0:
64,192,237808,1,0,0:0:0:0:
192,192,237950,1,0,0:0:0:0:
448,192,237950,1,0,0:0:0:0:
320,192,238093,1,0,0:0:0:0:
64,192,238165,1,0,0:0:0:0:
192,192,238236,1,0,0:0:0:0:
320,192,238236,1,0,0:0:0:0:
448,192,238308,1,0,0:0:0:0:
64,192,238379,1,0,0:0:0:0:
192,192,238522,1,0,0:0:0:0:
320,192,238522,1,0,0:0:0:0:
448,192,238593,1,0,0:0:0:0:
192,192,238665,1,0,0:0:0:0:
320,192,238808,1,0,0:0:0:0:
448,192,238808,1,0,0:0:0:0:
192,192,238879,1,0,0:0:0:0:
64,192,238950,1,0,0:0:0:0:
192,192,239093,1,0,0:0:0:0:
448,192,239093,1,0,0:0:0:0:
320,192,239236,1,0,0:0:0:0:
192,192,239308,1,0,0:0:0:0:
64,192,239379,1,0,0:0:0:0:
448,192,239379,1,0,0:0:0:0:
320,192,239450,1,0,0:0:0:0:
192,192,239522,1,0,0:0:0:0:
64,192,239665,1,0,0:0:0:0:
448,192,239665,1,0,0:0:0:0:
192,192,239736,1,0,0:0:0:0:
320,192,239808,1,0,0:0:0:0:
320,192,239950,1,0,0:0:0:0:
448,192,239950,1,0,0:0:0:0:
64,192,240022,1,0,0:0:0:0:
192,192,240093,1,0,0:0:0:0:
320,192,240236,1,0,0:0:0:0:
448,192,240236,1,0,0:0:0:0:
192,192,240379,1,0,0:0:0:0:
320,192,240450,1,0,0:0:0:0:
64,192,240522,1,0,0:0:0:0:
448,192,240522,1,0,0:0:0:0:
192,192,240593,1,0,0:0:0:0:
320,192,240665,1,0,0:0:0:0:
64,192,240808,1,0,0:0:0:0:
192,192,240808,1,0,0:0:0:0:
448,192,240879,1,0,0:0:0:0:
192,192,240950,1,0,0:0:0:0:
320,192,241093,1,0,0:0:0:0:
448,192,241093,1,0,0:0:0:0:
192,192,241165,1,0,0:0:0:0:
64,192,241236,1,0,0:0:0:0:
192,192,241379,1,0,0:0:0:0:
320,192,241379,1,0,0:0:0:0:
448,192,241522,1,0,0:0:0:0:
192,192,241593,1,0,0:0:0:0:
320,192,241665,1,0,0:0:0:0:
448,192,241665,1,0,0:0:0:0:
64,192,241736,1,0,0:0:0:0:
192,192,241808,1,0,0:0:0:0:
64,192,241950,1,0,0:0:0:0:
448,192,241950,1,0,0:0:0:0:
192,192,242022,1,0,0:0:0:0:
320,192,242093,1,0,0:0:0:0:
64,192,242236,1,0,0:0:0:0:
192,192,242236,1,0,0:0:0:0:
448,192,242308,1,0,0:0:0:0:
192,192,242379,1,0,0:0:0:0:
320,192,242522,1,0,0:0:0:0:
448,192,242522,1,0,0:0:0:0:
192,192,242665,1,0,0:0:0:0:
320,192,242736,1,0,0:0:0:0:
64,192,242808,1,0,0:0:0:0:
448,192,242808,1,0,0:0:0:0:
192,192,242879,1,0,0:0:0:0:
320,192,242950,1,0,0:0:0:0:
448,192,242950,1,0,0:0:0:0:
192,192,243022,1,0,0:0:0:0:
320,192,243093,1,0,0:0:0:0:
448,192,243093,1,0,0:0:0:0:
64,192,243165,1,0,0:0:0:0:
192,192,243165,1,0,0:0:0:0:
320,192,243236,1,0,0:0:0:0:
448,192,243236,1,0,0:0:0:0:
64,192,243308,1,0,0:0:0:0:
192,192,243308,1,0,0:0:0:0:
320,192,243379,1,0,0:0:0:0:
448,192,243379,1,0,0:0:0:0:
64,192,243450,1,0,0:0:0:0:
192,192,243450,1,0,0:0:0:0:
320,192,243522,1,0,0:0:0:0:
448,192,243522,1,0,0:0:0:0:
64,192,243593,1,0,0:0:0:0:
192,192,243593,1,0,0:0:0:0:
320,192,243665,1,0,0:0:0:0:
448,192,243665,1,0,0:0:0:0:
64,192,243736,1,0,0:0:0:0:
192,192,243736,1,0,0:0:0:0:
320,192,243808,1,0,0:0:0:0:
448,192,243808,1,0,0:0:0:0:
64,192,243879,1,0,0:0:0:0:
192,192,243879,1,0,0:0:0:0:
320,192,243950,1,0,0:0:0:0:
448,192,243950,1,0,0:0:0:0:
192,192,244022,1,0,0:0:0:0:
64,192,244093,1,0,0:0:0:0:
448,192,244165,1,0,0:0:0:0:
64,192,244236,1,0,0:0:0:0:
192,192,244236,1,0,0:0:0:0:
320,192,244308,1,0,0:0:0:0:
192,192,244379,1,0,0:0:0:0:
448,192,244450,1,0,0:0:0:0:
64,192,244522,1,0,0:0:0:0:
192,192,244522,1,0,0:0:0:0:
320,192,244593,1,0,0:0:0:0:
448,192,244665,1,0,0:0:0:0:
64,192,244736,1,0,0:0:0:0:
192,192,244808,1,0,0:0:0:0:
320,192,244808,1,0,0:0:0:0:
448,192,244879,1,0,0:0:0:0:
192,192,244950,1,0,0:0:0:0:
320,192,245022,1,0,0:0:0:0:
64,192,245093,1,0,0:0:0:0:
448,192,245093,1,0,0:0:0:0:
192,192,245165,1,0,0:0:0:0:
320,192,245236,1,0,0:0:0:0:
192,192,245308,1,0,0:0:0:0:
320,192,245379,1,0,0:0:0:0:
448,192,245379,1,0,0:0:0:0:
64,192,245450,1,0,0:0:0:0:
192,192,245522,1,0,0:0:0:0:
320,192,245593,1,0,0:0:0:0:
64,192,245665,1,0,0:0:0:0:
448,192,245665,1,0,0:0:0:0:
320,192,245736,1,0,0:0:0:0:
192,192,245808,1,0,0:0:0:0:
320,192,245879,1,0,0:0:0:0:
64,192,245950,1,0,0:0:0:0:
448,192,245950,1,0,0:0:0:0:
192,192,246022,1,0,0:0:0:0:
64,192,246093,1,0,0:0:0:0:
320,192,246165,1,0,0:0:0:0:
64,192,246236,1,0,0:0:0:0:
192,192,246236,1,0,0:0:0:0:
448,192,246308,1,0,0:0:0:0:
320,192,246379,1,0,0:0:0:0:
192,192,246450,1,0,0:0:0:0:
64,192,246522,1,0,0:0:0:0:
448,192,246522,1,0,0:0:0:0:
192,192,246593,1,0,0:0:0:0:
320,192,246665,1,0,0:0:0:0:
192,192,246736,1,0,0:0:0:0:
320,192,246808,1,0,0:0:0:0:
448,192,246808,1,0,0:0:0:0:
64,192,246879,1,0,0:0:0:0:
192,192,246950,1,0,0:0:0:0:
320,192,247022,1,0,0:0:0:0:
64,192,247093,1,0,0:0:0:0:
448,192,247093,1,0,0:0:0:0:
192,192,247165,1,0,0:0:0:0:
320,192,247236,1,0,0:0:0:0:
192,192,247308,1,0,0:0:0:0:
320,192,247379,1,0,0:0:0:0:
448,192,247379,1,0,0:0:0:0:
64,192,247450,1,0,0:0:0:0:
448,192,247522,1,0,0:0:0:0:
192,192,247593,1,0,0:0:0:0:
64,192,247665,1,0,0:0:0:0:
320,192,247665,1,0,0:0:0:0:
448,192,247736,1,0,0:0:0:0:
192,192,247808,1,0,0:0:0:0:
64,192,247879,1,0,0:0:0:0:
320,192,247950,1,0,0:0:0:0:
448,192,247950,1,0,0:0:0:0:
192,192,248022,1,0,0:0:0:0:
320,192,248093,1,0,0:0:0:0:
448,192,248093,1,0,0:0:0:0:
64,192,248165,1,0,0:0:0:0:
192,192,248165,1,0,0:0:0:0:
320,192,248236,1,0,0:0:0:0:
448,192,248236,1,0,0:0:0:0:
192,192,248308,1,0,0:0:0:0:
320,192,248379,1,0,0:0:0:0:
448,192,248379,1,0,0:0:0:0:
192,192,248450,1,0,0:0:0:0:
64,192,248522,1,0,0:0:0:0:
448,192,248522,1,0,0:0:0:0:
320,192,248593,1,0,0:0:0:0:
192,192,248665,1,0,0:0:0:0:
64,192,248736,1,0,0:0:0:0:
320,192,248808,1,0,0:0:0:0:
448,192,248808,1,0,0:0:0:0:
192,192,248879,1,0,0:0:0:0:
64,192,248950,1,0,0:0:0:0:
192,192,249022,1,0,0:0:0:0:
320,192,249093,1,0,0:0:0:0:
448,192,249093,1,0,0:0:0:0:
64,192,249165,1,0,0:0:0:0:
192,192,249236,1,0,0:0:0:0:
320,192,249308,1,0,0:0:0:0:
64,192,249379,1,0,0:0:0:0:
448,192,249379,1,0,0:0:0:0:
192,192,249450,1,0,0:0:0:0:
320,192,249522,1,0,0:0:0:0:
448,192,249593,1,0,0:0:0:0:
192,192,249665,1,0,0:0:0:0:
320,192,249665,1,0,0:0:0:0:
64,192,249736,1,0,0:0:0:0:
448,192,249808,1,0,0:0:0:0:
192,192,249879,1,0,0:0:0:0:
320,192,249950,1,0,0:0:0:0:
448,192,249950,1,0,0:0:0:0:
64,192,250022,1,0,0:0:0:0:
320,192,250093,1,0,0:0:0:0:
192,192,250165,1,0,0:0:0:0:
64,192,250236,1,0,0:0:0:0:
320,192,250236,1,0,0:0:0:0:
448,192,250308,1,0,0:0:0:0:
320,192,250379,1,0,0:0:0:0:
192,192,250450,1,0,0:0:0:0:
64,192,250522,1,0,0:0:0:0:
448,192,250522,1,0,0:0:0:0:
320,192,250593,1,0,0:0:0:0:
192,192,250665,1,0,0:0:0:0:
64,192,250736,1,0,0:0:0:0:
320,192,250808,1,0,0:0:0:0:
448,192,250808,1,0,0:0:0:0:
64,192,250879,1,0,0:0:0:0:
192,192,250950,1,0,0:0:0:0:
320,192,251022,1,0,0:0:0:0:
64,192,251093,1,0,0:0:0:0:
448,192,251093,1,0,0:0:0:0:
192,192,251165,1,0,0:0:0:0:
320,192,251236,1,0,0:0:0:0:
448,192,251308,1,0,0:0:0:0:
64,192,251379,1,0,0:0:0:0:
192,192,251379,1,0,0:0:0:0:
320,192,251450,1,0,0:0:0:0:
192,192,251522,1,0,0:0:0:0:
320,192,251593,1,0,0:0:0:0:
64,192,251665,1,0,0:0:0:0:
448,192,251665,1,0,0:0:0:0:
192,192,251736,1,0,0:0:0:0:
320,192,251808,1,0,0:0:0:0:
64,192,251879,1,0,0:0:0:0:
320,192,251950,1,0,0:0:0:0:
448,192,251950,1,0,0:0:0:0:
192,192,252022,1,0,0:0:0:0:
320,192,252093,1,0,0:0:0:0:
448,192,252093,1,0,0:0:0:0:
64,192,252165,1,0,0:0:0:0:
192,192,252165,1,0,0:0:0:0:
320,192,252236,1,0,0:0:0:0:
448,192,252236,1,0,0:0:0:0:
192,192,252308,1,0,0:0:0:0:
64,192,252379,1,0,0:0:0:0:
448,192,252379,1,0,0:0:0:0:
320,192,252450,1,0,0:0:0:0:
64,192,252522,1,0,0:0:0:0:
192,192,252522,1,0,0:0:0:0:
320,192,252593,1,0,0:0:0:0:
64,192,252665,1,0,0:0:0:0:
192,192,252665,1,0,0:0:0:0:
320,192,252736,1,0,0:0:0:0:
448,192,252736,1,0,0:0:0:0:
64,192,252808,1,0,0:0:0:0:
192,192,252808,1,0,0:0:0:0:
320,192,252879,1,0,0:0:0:0:
64,192,252950,1,0,0:0:0:0:
192,192,252950,1,0,0:0:0:0:
320,192,253022,1,0,0:0:0:0:
64,192,253093,1,0,0:0:0:0:
448,192,253093,1,0,0:0:0:0:
192,192,253165,1,0,0:0:0:0:
320,192,253236,1,0,0:0:0:0:
448,192,253308,1,0,0:0:0:0:
64,192,253379,1,0,0:0:0:0:
192,192,253379,1,0,0:0:0:0:
320,192,253450,1,0,0:0:0:0:
192,192,253522,1,0,0:0:0:0:
448,192,253593,1,0,0:0:0:0:
192,192,253665,1,0,0:0:0:0:
320,192,253665,1,0,0:0:0:0:
64,192,253736,1,0,0:0:0:0:
448,192,253808,1,0,0:0:0:0:
192,192,253879,1,0,0:0:0:0:
320,192,253950,1,0,0:0:0:0:
448,192,253950,1,0,0:0:0:0:
64,192,254022,1,0,0:0:0:0:
192,192,254093,1,0,0:0:0:0:
320,192,254165,1,0,0:0:0:0:
64,192,254236,1,0,0:0:0:0:
448,192,254236,1,0,0:0:0:0:
192,192,254308,1,0,0:0:0:0:
320,192,254379,1,0,0:0:0:0:
192,192,254450,1,0,0:0:0:0:
64,192,254522,1,0,0:0:0:0:
320,192,254522,1,0,0:0:0:0:
448,192,254593,1,0,0:0:0:0:
320,192,254665,1,0,0:0:0:0:
192,192,254736,1,0,0:0:0:0:
64,192,254808,1,0,0:0:0:0:
448,192,254808,1,0,0:0:0:0:
320,192,254879,1,0,0:0:0:0:
192,192,254950,1,0,0:0:0:0:
64,192,255022,1,0,0:0:0:0:
320,192,255093,1,0,0:0:0:0:
448,192,255093,1,0,0:0:0:0:
192,192,255165,1,0,0:0:0:0:
320,192,255236,1,0,0:0:0:0:
448,192,255308,1,0,0:0:0:0:
64,192,255379,1,0,0:0:0:0:
192,192,255379,1,0,0:0:0:0:
320,192,255450,1,0,0:0:0:0:
192,192,255522,1,0,0:0:0:0:
448,192,255593,1,0,0:0:0:0:
64,192,255665,1,0,0:0:0:0:
320,192,255665,1,0,0:0:0:0:
192,192,255736,1,0,0:0:0:0:
448,192,255808,1,0,0:0:0:0:
320,192,255879,1,0,0:0:0:0:
64,192,255950,1,0,0:0:0:0:
192,192,255950,1,0,0:0:0:0:
448,192,256022,1,0,0:0:0:0:
192,192,256093,1,0,0:0:0:0:
320,192,256165,1,0,0:0:0:0:
64,192,256236,1,0,0:0:0:0:
448,192,256236,1,0,0:0:0:0:
192,192,256308,1,0,0:0:0:0:
320,192,256379,1,0,0:0:0:0:
448,192,256450,1,0,0:0:0:0:
64,192,256522,1,0,0:0:0:0:
192,192,256522,1,0,0:0:0:0:
320,192,256593,1,0,0:0:0:0:
192,192,256665,1,0,0:0:0:0:
448,192,256736,1,0,0:0:0:0:
192,192,256808,1,0,0:0:0:0:
320,192,256808,1,0,0:0:0:0:
64,192,256879,1,0,0:0:0:0:
192,192,256950,1,0,0:0:0:0:
64,192,257022,1,0,0:0:0:0:
320,192,257093,1,0,0:0:0:0:
448,192,257093,1,0,0:0:0:0:
192,192,257165,1,0,0:0:0:0:
320,192,257236,1,0,0:0:0:0:
448,192,257236,1,0,0:0:0:0:
64,192,257308,1,0,0:0:0:0:
192,192,257308,1,0,0:0:0:0:
320,192,257379,1,0,0:0:0:0:
448,192,257379,1,0,0:0:0:0:
192,192,257450,1,0,0:0:0:0:
320,192,257522,1,0,0:0:0:0:
448,192,257522,1,0,0:0:0:0:
192,192,257593,1,0,0:0:0:0:
64,192,257665,1,0,0:0:0:0:
448,192,257665,1,0,0:0:0:0:
320,192,257736,1,0,0:0:0:0:
192,192,257808,1,0,0:0:0:0:
64,192,257879,1,0,0:0:0:0:
320,192,257950,1,0,0:0:0:0:
448,192,257950,1,0,0:0:0:0:
192,192,258022,1,0,0:0:0:0:
320,192,258093,1,0,0:0:0:0:
64,192,258165,1,0,0:0:0:0:
192,192,258236,1,0,0:0:0:0:
320,192,258236,1,0,0:0:0:0:
448,192,258308,1,0,0:0:0:0:
64,192,258379,1,0,0:0:0:0:
192,192,258450,1,0,0:0:0:0:
320,192,258522,1,0,0:0:0:0:
448,192,258522,1,0,0:0:0:0:
192,192,258593,1,0,0:0:0:0:
320,192,258665,1,0,0:0:0:0:
64,192,258736,1,0,0:0:0:0:
192,192,258808,1,0,0:0:0:0:
448,192,258808,1,0,0:0:0:0:
320,192,258879,1,0,0:0:0:0:
192,192,258950,1,0,0:0:0:0:
64,192,259022,1,0,0:0:0:0:
320,192,259093,1,0,0:0:0:0:
448,192,259093,1,0,0:0:0:0:
192,192,259165,1,0,0:0:0:0:
64,192,259236,1,0,0:0:0:0:
448,192,259308,1,0,0:0:0:0:
64,192,259379,1,0,0:0:0:0:
192,192,259379,1,0,0:0:0:0:
320,192,259450,1,0,0:0:0:0:
448,192,259522,1,0,0:0:0:0:
192,192,259593,1,0,0:0:0:0:
320,192,259665,1,0,0:0:0:0:
448,192,259665,1,0,0:0:0:0:
192,192,259736,1,0,0:0:0:0:
64,192,259808,1,0,0:0:0:0:
448,192,259879,1,0,0:0:0:0:
192,192,259950,1,0,0:0:0:0:
320,192,259950,1,0,0:0:0:0:
64,192,260022,1,0,0:0:0:0:
448,192,260093,1,0,0:0:0:0:
192,192,260165,1,0,0:0:0:0:
320,192,260236,1,0,0:0:0:0:
448,192,260236,1,0,0:0:0:0:
64,192,260308,1,0,0:0:0:0:
192,192,260379,1,0,0:0:0:0:
320,192,260450,1,0,0:0:0:0:
64,192,260522,1,0,0:0:0:0:
448,192,260522,1,0,0:0:0:0:
192,192,260593,1,0,0:0:0:0:
320,192,260665,1,0,0:0:0:0:
448,192,260736,1,0,0:0:0:0:
64,192,260808,1,0,0:0:0:0:
192,192,260808,1,0,0:0:0:0:
320,192,260879,1,0,0:0:0:0:
192,192,260950,1,0,0:0:0:0:
64,192,261022,1,0,0:0:0:0:
320,192,261093,1,0,0:0:0:0:
448,192,261093,1,0,0:0:0:0:
192,192,261165,1,0,0:0:0:0:
320,192,261236,1,0,0:0:0:0:
448,192,261236,1,0,0:0:0:0:
64,192,261308,1,0,0:0:0:0:
192,192,261308,1,0,0:0:0:0:
320,192,261379,1,0,0:0:0:0:
448,192,261379,1,0,0:0:0:0:
192,192,261450,1,0,0:0:0:0:
64,192,261522,1,0,0:0:0:0:
448,192,261522,1,0,0:0:0:0:
320,192,261593,1,0,0:0:0:0:
64,192,261665,1,0,0:0:0:0:
192,192,261665,1,0,0:0:0:0:
320,192,261736,1,0,0:0:0:0:
448,192,261736,1,0,0:0:0:0:
64,192,261808,1,0,0:0:0:0:
192,192,261808,1,0,0:0:0:0:
320,192,261879,1,0,0:0:0:0:
448,192,261879,1,0,0:0:0:0:
64,192,261950,1,0,0:0:0:0:
192,192,261950,1,0,0:0:0:0:
320,192,262022,1,0,0:0:0:0:
448,192,262022,1,0,0:0:0:0:
64,192,262093,1,0,0:0:0:0:
192,192,262093,1,0,0:0:0:0:
320,192,262165,1,0,0:0:0:0:
64,192,262236,1,0,0:0:0:0:
448,192,262236,1,0,0:0:0:0:
192,192,262308,1,0,0:0:0:0:
320,192,262379,1,0,0:0:0:0:
448,192,262450,1,0,0:0:0:0:
64,192,262522,1,0,0:0:0:0:
192,192,262522,1,0,0:0:0:0:
320,192,262593,1,0,0:0:0:0:
192,192,262665,1,0,0:0:0:0:
448,192,262736,1,0,0:0:0:0:
64,192,262808,1,0,0:0:0:0:
320,192,262808,1,0,0:0:0:0:
192,192,262879,1,0,0:0:0:0:
448,192,262950,1,0,0:0:0:0:
320,192,263022,1,0,0:0:0:0:
64,192,263093,1,0,0:0:0:0:
192,192,263093,1,0,0:0:0:0:
448,192,263165,1,0,0:0:0:0:
192,192,263236,1,0,0:0:0:0:
320,192,263308,1,0,0:0:0:0:
64,192,263379,1,0,0:0:0:0:
448,192,263379,1,0,0:0:0:0:
192,192,263450,1,0,0:0:0:0:
320,192,263522,1,0,0:0:0:0:
448,192,263593,1,0,0:0:0:0:
64,192,263665,1,0,0:0:0:0:
192,192,263665,1,0,0:0:0:0:
320,192,263736,1,0,0:0:0:0:
192,192,263808,1,0,0:0:0:0:
448,192,263879,1,0,0:0:0:0:
192,192,263950,1,0,0:0:0:0:
320,192,263950,1,0,0:0:0:0:
64,192,264022,1,0,0:0:0:0:
448,192,264093,1,0,0:0:0:0:
192,192,264165,1,0,0:0:0:0:
320,192,264236,1,0,0:0:0:0:
448,192,264236,1,0,0:0:0:0:
64,192,264308,1,0,0:0:0:0:
448,192,264379,1,0,0:0:0:0:
192,192,264450,1,0,0:0:0:0:
320,192,264522,1,0,0:0:0:0:
448,192,264522,1,0,0:0:0:0:
192,192,264593,1,0,0:0:0:0:
64,192,264665,1,0,0:0:0:0:
448,192,264736,1,0,0:0:0:0:
64,192,264808,1,0,0:0:0:0:
192,192,264808,1,0,0:0:0:0:
320,192,264879,1,0,0:0:0:0:
192,192,264950,1,0,0:0:0:0:
448,192,265022,1,0,0:0:0:0:
64,192,265093,1,0,0:0:0:0:
192,192,265093,1,0,0:0:0:0:
320,192,265165,1,0,0:0:0:0:
448,192,265236,1,0,0:0:0:0:
64,192,265308,1,0,0:0:0:0:
192,192,265379,1,0,0:0:0:0:
320,192,265379,1,0,0:0:0:0:
448,192,265450,1,0,0:0:0:0:
192,192,265522,1,0,0:0:0:0:
320,192,265593,1,0,0:0:0:0:
64,192,265665,1,0,0:0:0:0:
448,192,265665,1,0,0:0:0:0:
192,192,265736,1,0,0:0:0:0:
320,192,265808,1,0,0:0:0:0:
192,192,265879,1,0,0:0:0:0:
64,192,265950,1,0,0:0:0:0:
448,192,265950,1,0,0:0:0:0:
320,192,266022,1,0,0:0:0:0:
192,192,266093,1,0,0:0:0:0:
64,192,266165,1,0,0:0:0:0:
320,192,266236,1,0,0:0:0:0:
448,192,266236,1,0,0:0:0:0:
192,192,266308,1,0,0:0:0:0:
320,192,266379,1,0,0:0:0:0:
448,192,266379,1,0,0:0:0:0:
64,192,266450,1,0,0:0:0:0:
192,192,266450,1,0,0:0:0:0:
320,192,266522,1,0,0:0:0:0:
448,192,266522,1,0,0:0:0:0:
192,192,266593,1,0,0:0:0:0:
320,192,266665,1,0,0:0:0:0:
448,192,266665,1,0,0:0:0:0:
192,192,266736,1,0,0:0:0:0:
64,192,266808,1,0,0:0:0:0:
448,192,266808,1,0,0:0:0:0:
320,192,266879,1,0,0:0:0:0:
192,192,266950,1,0,0:0:0:0:
64,192,267022,1,0,0:0:0:0:
320,192,267093,1,0,0:0:0:0:
448,192,267093,1,0,0:0:0:0:
64,192,267165,1,0,0:0:0:0:
192,192,267236,1,0,0:0:0:0:
320,192,267308,1,0,0:0:0:0:
64,192,267379,1,0,0:0:0:0:
448,192,267379,1,0,0:0:0:0:
192,192,267450,1,0,0:0:0:0:
448,192,267522,1,0,0:0:0:0:
320,192,267593,1,0,0:0:0:0:
64,192,267665,1,0,0:0:0:0:
448,192,267665,1,0,0:0:0:0:
192,192,267736,1,0,0:0:0:0:
320,192,267808,1,0,0:0:0:0:
448,192,267879,1,0,0:0:0:0:
64,192,267950,1,0,0:0:0:0:
192,192,267950,1,0,0:0:0:0:
448,192,268022,1,0,0:0:0:0:
64,192,268093,1,0,0:0:0:0:
192,192,268165,1,0,0:0:0:0:
320,192,268236,1,0,0:0:0:0:
448,192,268236,1,0,0:0:0:0:
192,192,268308,1,0,0:0:0:0:
64,192,268379,1,0,0:0:0:0:
448,192,268450,1,0,0:0:0:0:
64,192,268522,1,0,0:0:0:0:
192,192,268522,1,0,0:0:0:0:
320,192,268593,1,0,0:0:0:0:
448,192,268665,1,0,0:0:0:0:
64,192,268736,1,0,0:0:0:0:
192,192,268808,1,0,0:0:0:0:
320,192,268808,1,0,0:0:0:0:
448,192,268879,1,0,0:0:0:0:
192,192,268950,1,0,0:0:0:0:
320,192,269022,1,0,0:0:0:0:
64,192,269093,1,0,0:0:0:0:
448,192,269093,1,0,0:0:0:0:
192,192,269165,1,0,0:0:0:0:
320,192,269236,1,0,0:0:0:0:
192,192,269308,1,0,0:0:0:0:
64,192,269379,1,0,0:0:0:0:
448,192,269379,1,0,0:0:0:0:
320,192,269450,1,0,0:0:0:0:
192,192,269522,1,0,0:0:0:0:
64,192,269593,1,0,0:0:0:0:
320,192,269665,1,0,0:0:0:0:
448,192,269665,1,0,0:0:0:0:
192,192,269736,1,0,0:0:0:0:
448,192,269808,1,0,0:0:0:0:
64,192,269879,1,0,0:0:0:0:
192,192,269950,1,0,0:0:0:0:
320,192,269950,1,0,0:0:0:0:
448,192,270022,1,0,0:0:0:0:
64,192,270093,1,0,0:0:0:0:
320,192,270165,1,0,0:0:0:0:
64,192,270236,1,0,0:0:0:0:
192,192,270236,1,0,0:0:0:0:
320,192,270308,1,0,0:0:0:0:
64,192,270379,1,0,0:0:0:0:
192,192,270379,1,0,0:0:0:0:
320,192,270450,1,0,0:0:0:0:
448,192,270450,1,0,0:0:0:0:
64,192,270522,1,0,0:0:0:0:
192,192,270522,1,0,0:0:0:0:
320,192,270593,1,0,0:0:0:0:
64,192,270665,1,0,0:0:0:0:
192,192,270665,1,0,0:0:0:0:
320,192,270736,1,0,0:0:0:0:
448,192,270736,1,0,0:0:0:0:
64,192,270808,1,0,0:0:0:0:
192,192,270808,1,0,0:0:0:0:
320,192,270879,1,0,0:0:0:0:
64,192,270950,1,0,0:0:0:0:
192,192,270950,1,0,0:0:0:0:
320,192,271022,1,0,0:0:0:0:
448,192,271022,1,0,0:0:0:0:
64,192,271093,1,0,0:0:0:0:
192,192,271093,1,0,0:0:0:0:
320,192,271165,1,0,0:0:0:0:
64,192,271236,1,0,0:0:0:0:
192,192,271236,1,0,0:0:0:0:
320,192,271308,1,0,0:0:0:0:
448,192,271308,1,0,0:0:0:0:
64,192,271379,1,0,0:0:0:0:
192,192,271379,1,0,0:0:0:0:
320,192,271450,1,0,0:0:0:0:
448,192,271522,1,0,0:0:0:0:
64,192,271593,1,0,0:0:0:0:
192,192,271665,1,0,0:0:0:0:
320,192,271665,1,0,0:0:0:0:
448,192,271736,1,0,0:0:0:0:
64,192,271808,1,0,0:0:0:0:
320,192,271879,1,0,0:0:0:0:
64,192,271950,1,0,0:0:0:0:
448,192,271950,1,0,0:0:0:0:
192,192,272022,1,0,0:0:0:0:
320,192,272093,1,0,0:0:0:0:
192,192,272165,1,0,0:0:0:0:
320,192,272236,1,0,0:0:0:0:
448,192,272236,1,0,0:0:0:0:
192,192,272308,1,0,0:0:0:0:
64,192,272379,1,0,0:0:0:0:
448,192,272450,1,0,0:0:0:0:
64,192,272522,1,0,0:0:0:0:
192,192,272522,1,0,0:0:0:0:
320,192,272593,1,0,0:0:0:0:
192,192,272665,1,0,0:0:0:0:
448,192,272736,1,0,0:0:0:0:
192,192,272808,1,0,0:0:0:0:
320,192,272808,1,0,0:0:0:0:
64,192,272879,1,0,0:0:0:0:
448,192,272950,1,0,0:0:0:0:
192,192,273022,1,0,0:0:0:0:
320,192,273093,1,0,0:0:0:0:
448,192,273093,1,0,0:0:0:0:
64,192,273165,1,0,0:0:0:0:
192,192,273236,1,0,0:0:0:0:
320,192,273308,1,0,0:0:0:0:
64,192,273379,1,0,0:0:0:0:
448,192,273379,1,0,0:0:0:0:
192,192,273450,1,0,0:0:0:0:
320,192,273522,1,0,0:0:0:0:
448,192,273593,1,0,0:0:0:0:
64,192,273665,1,0,0:0:0:0:
320,192,273665,1,0,0:0:0:0:
192,192,273736,1,0,0:0:0:0:
64,192,273808,1,0,0:0:0:0:
448,192,273879,1,0,0:0:0:0:
192,192,273950,1,0,0:0:0:0:
320,192,273950,1,0,0:0:0:0:
448,192,274022,1,0,0:0:0:0:
192,192,274093,1,0,0:0:0:0:
320,192,274165,1,0,0:0:0:0:
64,192,274236,1,0,0:0:0:0:
448,192,274236,1,0,0:0:0:0:
192,192,274308,1,0,0:0:0:0:
320,192,274379,1,0,0:0:0:0:
448,192,274450,1,0,0:0:0:0:
64,192,274522,1,0,0:0:0:0:
192,192,274522,1,0,0:0:0:0:
320,192,274593,1,0,0:0:0:0:
192,192,274665,1,0,0:0:0:0:
448,192,274736,1,0,0:0:0:0:
192,192,274808,1,0,0:0:0:0:
320,192,274808,1,0,0:0:0:0:
64,192,274879,1,0,0:0:0:0:
448,192,274950,1,0,0:0:0:0:
320,192,275022,1,0,0:0:0:0:
64,192,275093,1,0,0:0:0:0:
192,192,275093,1,0,0:0:0:0:
448,192,275165,1,0,0:0:0:0:
192,192,275236,1,0,0:0:0:0:
64,192,275308,1,0,0:0:0:0:
320,192,275379,1,0,0:0:0:0:
448,192,275379,1,0,0:0:0:0:
192,192,275450,1,0,0:0:0:0:
320,192,275522,1,0,0:0:0:0:
448,192,275522,1,0,0:0:0:0:
64,192,275593,1,0,0:0:0:0:
192,192,275593,1,0,0:0:0:0:
320,192,275665,1,0,0:0:0:0:
448,192,275665,1,0,0:0:0:0:
192,192,275736,1,0,0:0:0:0:
320,192,275808,1,0,0:0:0:0:
448,192,275808,1,0,0:0:0:0:
192,192,275879,1,0,0:0:0:0:
320,192,275950,1,0,0:0:0:0:
448,192,275950,1,0,0:0:0:0:
192,192,276022,1,0,0:0:0:0:
64,192,276093,1,0,0:0:0:0:
448,192,276165,1,0,0:0:0:0:
64,192,276236,1,0,0:0:0:0:
320,192,276236,1,0,0:0:0:0:
192,192,276308,1,0,0:0:0:0:
448,192,276379,1,0,0:0:0:0:
320,192,276450,1,0,0:0:0:0:
64,192,276522,1,0,0:0:0:0:
192,192,276522,1,0,0:0:0:0:
320,192,276593,1,0,0:0:0:0:
64,192,276665,1,0,0:0:0:0:
320,192,276736,1,0,0:0:0:0:
64,192,276808,1,0,0:0:0:0:
448,192,276808,1,0,0:0:0:0:
192,192,276879,1,0,0:0:0:0:
320,192,276950,1,0,0:0:0:0:
192,192,277022,1,0,0:0:0:0:
64,192,277093,1,0,0:0:0:0:
448,192,277093,1,0,0:0:0:0:
320,192,277165,1,0,0:0:0:0:
192,192,277236,1,0,0:0:0:0:
64,192,277308,1,0,0:0:0:0:
320,192,277379,1,0,0:0:0:0:
448,192,277379,1,0,0:0:0:0:
192,192,277450,1,0,0:0:0:0:
320,192,277522,1,0,0:0:0:0:
448,192,277522,1,0,0:0:0:0:
192,192,277593,1,0,0:0:0:0:
320,192,277665,1,0,0:0:0:0:
448,192,277665,1,0,0:0:0:0:
64,192,277736,1,0,0:0:0:0:
192,192,277808,1,0,0:0:0:0:
320,192,277879,1,0,0:0:0:0:
64,192,277950,1,0,0:0:0:0:
192,192,277950,1,0,0:0:0:0:
448,192,278022,1,0,0:0:0:0:
64,192,278093,1,0,0:0:0:0:
192,192,278093,1,0,0:0:0:0:
448,192,278165,1,0,0:0:0:0:
64,192,278236,1,0,0:0:0:0:
192,192,278236,1,0,0:0:0:0:
320,192,278308,1,0,0:0:0:0:
192,192,278379,1,0,0:0:0:0:
64,192,278450,1,0,0:0:0:0:
320,192,278522,1,0,0:0:0:0:
448,192,278522,1,0,0:0:0:0:
192,192,278593,1,0,0:0:0:0:
320,192,278665,1,0,0:0:0:0:
448,192,278665,1,0,0:0:0:0:
192,192,278736,1,0,0:0:0:0:
320,192,278808,1,0,0:0:0:0:
448,192,278808,1,0,0:0:0:0:
64,192,278879,1,0,0:0:0:0:
192,192,278950,1,0,0:0:0:0:
320,192,279022,1,0,0:0:0:0:
64,192,279093,1,0,0:0:0:0:
192,192,279093,1,0,0:0:0:0:
448,192,279165,1,0,0:0:0:0:
64,192,279236,1,0,0:0:0:0:
192,192,279236,1,0,0:0:0:0:
320,192,279308,1,0,0:0:0:0:
64,192,279379,1,0,0:0:0:0:
192,192,279379,1,0,0:0:0:0:
448,192,279450,1,0,0:0:0:0:
64,192,279522,1,0,0:0:0:0:
192,192,279522,1,0,0:0:0:0:
320,192,279593,1,0,0:0:0:0:
448,192,279593,1,0,0:0:0:0:
64,192,279665,1,0,0:0:0:0:
192,192,279665,1,0,0:0:0:0:
320,192,279736,1,0,0:0:0:0:
64,192,279808,1,0,0:0:0:0:
448,192,279808,1,0,0:0:0:0:
192,192,279879,1,0,0:0:0:0:
320,192,279950,1,0,0:0:0:0:
448,192,279950,1,0,0:0:0:0:
64,192,280022,1,0,0:0:0:0:
320,192,280093,1,0,0:0:0:0:
448,192,280093,1,0,0:0:0:0:
64,192,280165,1,0,0:0:0:0:
192,192,280165,1,0,0:0:0:0:
320,192,280236,1,0,0:0:0:0:
448,192,280236,1,0,0:0:0:0:
192,192,280308,1,0,0:0:0:0:
64,192,280379,1,0,0:0:0:0:
448,192,280379,1,0,0:0:0:0:
320,192,280450,1,0,0:0:0:0:
64,192,280522,1,0,0:0:0:0:
448,192,280522,1,0,0:0:0:0:
192,192,280593,1,0,0:0:0:0:
320,192,280665,1,0,0:0:0:0:
192,192,280736,1,0,0:0:0:0:
64,192,280808,1,0,0:0:0:0:
448,192,280808,1,0,0:0:0:0:
320,192,280879,1,0,0:0:0:0:
192,192,280950,1,0,0:0:0:0:
64,192,281022,1,0,0:0:0:0:
320,192,281093,1,0,0:0:0:0:
448,192,281093,1,0,0:0:0:0:
192,192,281165,1,0,0:0:0:0:
320,192,281236,1,0,0:0:0:0:
64,192,281308,1,0,0:0:0:0:
192,192,281379,1,0,0:0:0:0:
320,192,281379,1,0,0:0:0:0:
448,192,281450,1,0,0:0:0:0:
64,192,281522,1,0,0:0:0:0:
192,192,281593,1,0,0:0:0:0:
320,192,281665,1,0,0:0:0:0:
448,192,281665,1,0,0:0:0:0:
192,192,281736,1,0,0:0:0:0:
64,192,281808,1,0,0:0:0:0:
448,192,281879,1,0,0:0:0:0:
64,192,281950,1,0,0:0:0:0:
192,192,281950,1,0,0:0:0:0:
320,192,282022,1,0,0:0:0:0:
192,192,282093,1,0,0:0:0:0:
448,192,282165,1,0,0:0:0:0:
64,192,282236,1,0,0:0:0:0:
320,192,282236,1,0,0:0:0:0:
192,192,282308,1,0,0:0:0:0:
320,192,282379,1,0,0:0:0:0:
448,192,282450,1,0,0:0:0:0:
64,192,282522,1,0,0:0:0:0:
192,192,282522,1,0,0:0:0:0:
320,192,282593,1,0,0:0:0:0:
448,192,282665,1,0,0:0:0:0:
64,192,282736,1,0,0:0:0:0:
192,192,282808,1,0,0:0:0:0:
320,192,282808,1,0,0:0:0:0:
448,192,282879,1,0,0:0:0:0:
192,192,282950,1,0,0:0:0:0:
320,192,283022,1,0,0:0:0:0:
64,192,283093,1,0,0:0:0:0:
448,192,283093,1,0,0:0:0:0:
192,192,283165,1,0,0:0:0:0:
320,192,283236,1,0,0:0:0:0:
192,192,283308,1,0,0:0:0:0:
320,192,283379,1,0,0:0:0:0:
448,192,283379,1,0,0:0:0:0:
64,192,283450,1,0,0:0:0:0:
448,192,283522,1,0,0:0:0:0:
320,192,283593,1,0,0:0:0:0:
64,192,283665,1,0,0:0:0:0:
192,192,283665,1,0,0:0:0:0:
448,192,283736,1,0,0:0:0:0:
192,192,283808,1,0,0:0:0:0:
320,192,283879,1,0,0:0:0:0:
64,192,283950,1,0,0:0:0:0:
448,192,283950,1,0,0:0:0:0:
192,192,284022,1,0,0:0:0:0:
320,192,284093,1,0,0:0:0:0:
448,192,284165,1,0,0:0:0:0:
192,192,284236,1,0,0:0:0:0:
320,192,284236,1,0,0:0:0:0:
64,192,284308,1,0,0:0:0:0:
448,192,284379,1,0,0:0:0:0:
192,192,284450,1,0,0:0:0:0:
320,192,284522,1,0,0:0:0:0:
448,192,284522,1,0,0:0:0:0:
64,192,284593,1,0,0:0:0:0:
320,192,284665,1,0,0:0:0:0:
448,192,284665,1,0,0:0:0:0:
64,192,284736,1,0,0:0:0:0:
192,192,284736,1,0,0:0:0:0:
320,192,284808,1,0,0:0:0:0:
448,192,284808,1,0,0:0:0:0:
192,192,284879,1,0,0:0:0:0:
320,192,284950,1,0,0:0:0:0:
192,192,285022,1,0,0:0:0:0:
64,192,285093,1,0,0:0:0:0:
320,192,285093,1,0,0:0:0:0:
448,192,285093,1,0,0:0:0:0:
192,192,285165,1,0,0:0:0:0:
448,192,285236,1,0,0:0:0:0:
320,192,285308,1,0,0:0:0:0:
64,192,285379,1,0,0:0:0:0:
192,192,285379,1,0,0:0:0:0:
448,192,285450,1,0,0:0:0:0:
192,192,285522,1,0,0:0:0:0:
320,192,285593,1,0,0:0:0:0:
64,192,285665,1,0,0:0:0:0:
448,192,285665,1,0,0:0:0:0:
192,192,285736,1,0,0:0:0:0:
320,192,285808,1,0,0:0:0:0:
448,192,285879,1,0,0:0:0:0:
192,192,285950,1,0,0:0:0:0:
320,192,285950,1,0,0:0:0:0:
64,192,286022,1,0,0:0:0:0:
448,192,286093,1,0,0:0:0:0:
192,192,286165,1,0,0:0:0:0:
320,192,286236,1,0,0:0:0:0:
448,192,286236,1,0,0:0:0:0:
64,192,286308,1,0,0:0:0:0:
448,192,286379,1,0,0:0:0:0:
192,192,286450,1,0,0:0:0:0:
320,192,286522,1,0,0:0:0:0:
448,192,286522,1,0,0:0:0:0:
64,192,286593,1,0,0:0:0:0:
192,192,286665,1,0,0:0:0:0:
320,192,286736,1,0,0:0:0:0:
64,192,286808,1,0,0:0:0:0:
448,192,286808,1,0,0:0:0:0:
192,192,286879,1,0,0:0:0:0:
320,192,286950,1,0,0:0:0:0:
448,192,287022,1,0,0:0:0:0:
64,192,287093,1,0,0:0:0:0:
192,192,287093,1,0,0:0:0:0:
320,192,287165,1,0,0:0:0:0:
192,192,287236,1,0,0:0:0:0:
64,192,287308,1,0,0:0:0:0:
192,192,287379,1,0,0:0:0:0:
448,192,287379,1,0,0:0:0:0:
320,192,287450,1,0,0:0:0:0:
448,192,287522,1,0,0:0:0:0:
64,192,287593,1,0,0:0:0:0:
192,192,287665,1,0,0:0:0:0:
320,192,287665,1,0,0:0:0:0:
448,192,287736,1,0,0:0:0:0:
192,192,287808,1,0,0:0:0:0:
320,192,287879,1,0,0:0:0:0:
64,192,287950,1,0,0:0:0:0:
192,192,287950,1,0,0:0:0:0:
448,192,288022,1,0,0:0:0:0:
320,192,288093,1,0,0:0:0:0:
192,192,288165,1,0,0:0:0:0:
64,192,288236,1,0,0:0:0:0:
448,192,288236,1,0,0:0:0:0:
192,192,288308,1,0,0:0:0:0:
320,192,288379,1,0,0:0:0:0:
448,192,288450,1,0,0:0:0:0:
192,192,288522,1,0,0:0:0:0:
320,192,288522,1,0,0:0:0:0:
64,192,288593,1,0,0:0:0:0:
320,192,288665,1,0,0:0:0:0:
448,192,288665,1,0,0:0:0:0:
64,192,288736,1,0,0:0:0:0:
192,192,288736,1,0,0:0:0:0:
320,192,288808,1,0,0:0:0:0:
448,192,288808,1,0,0:0:0:0:
192,192,288879,1,0,0:0:0:0:
320,192,288950,1,0,0:0:0:0:
448,192,288950,1,0,0:0:0:0:
64,192,289022,1,0,0:0:0:0:
192,192,289022,1,0,0:0:0:0:
320,192,289093,1,0,0:0:0:0:
448,192,289093,1,0,0:0:0:0:
192,192,289165,1,0,0:0:0:0:
320,192,289236,1,0,0:0:0:0:
448,192,289236,1,0,0:0:0:0:
64,192,289308,1,0,0:0:0:0:
192,192,289308,1,0,0:0:0:0:
320,192,289379,1,0,0:0:0:0:
448,192,289379,1,0,0:0:0:0:
192,192,289450,1,0,0:0:0:0:
320,192,289522,1,0,0:0:0:0:
64,192,289593,1,0,0:0:0:0:
192,192,289665,1,0,0:0:0:0:
320,192,289665,1,0,0:0:0:0:
448,192,289665,1,0,0:0:0:0:
64,192,289736,1,0,0:0:0:0:
448,192,289808,1,0,0:0:0:0:
320,192,289879,1,0,0:0:0:0:
64,192,289950,1,0,0:0:0:0:
192,192,289950,1,0,0:0:0:0:
448,192,290022,1,0,0:0:0:0:
64,192,290093,1,0,0:0:0:0:
320,192,290165,1,0,0:0:0:0:
64,192,290236,1,0,0:0:0:0:
192,192,290236,1,0,0:0:0:0:
448,192,290308,1,0,0:0:0:0:
320,192,290379,1,0,0:0:0:0:
192,192,290450,1,0,0:0:0:0:
64,192,290522,1,0,0:0:0:0:
448,192,290522,1,0,0:0:0:0:
192,192,290593,1,0,0:0:0:0:
320,192,290665,1,0,0:0:0:0:
448,192,290736,1,0,0:0:0:0:
64,192,290808,1,0,0:0:0:0:
192,192,290808,1,0,0:0:0:0:
448,192,290879,1,0,0:0:0:0:
192,192,290950,1,0,0:0:0:0:
320,192,291022,1,0,0:0:0:0:
64,192,291093,1,0,0:0:0:0:
448,192,291093,1,0,0:0:0:0:
192,192,291165,1,0,0:0:0:0:
320,192,291236,1,0,0:0:0:0:
192,192,291308,1,0,0:0:0:0:
320,192,291379,1,0,0:0:0:0:
448,192,291379,1,0,0:0:0:0:
64,192,291450,1,0,0:0:0:0:
448,192,291522,1,0,0:0:0:0:
320,192,291593,1,0,0:0:0:0:
64,192,291665,1,0,0:0:0:0:
192,192,291665,1,0,0:0:0:0:
448,192,291736,1,0,0:0:0:0:
192,192,291808,1,0,0:0:0:0:
320,192,291879,1,0,0:0:0:0:
64,192,291950,1,0,0:0:0:0:
192,192,291950,1,0,0:0:0:0:
448,192,292022,1,0,0:0:0:0:
64,192,292093,1,0,0:0:0:0:
192,192,292165,1,0,0:0:0:0:
64,192,292236,1,0,0:0:0:0:
448,192,292236,1,0,0:0:0:0:
320,192,292308,1,0,0:0:0:0:
192,192,292379,1,0,0:0:0:0:
320,192,292450,1,0,0:0:0:0:
64,192,292522,1,0,0:0:0:0:
448,192,292522,1,0,0:0:0:0:
192,192,292593,1,0,0:0:0:0:
320,192,292665,1,0,0:0:0:0:
448,192,292736,1,0,0:0:0:0:
192,192,292808,1,0,0:0:0:0:
320,192,292808,1,0,0:0:0:0:
64,192,292879,1,0,0:0:0:0:
448,192,292950,1,0,0:0:0:0:
192,192,293022,1,0,0:0:0:0:
320,192,293093,1,0,0:0:0:0:
448,192,293093,1,0,0:0:0:0:
64,192,293165,1,0,0:0:0:0:
192,192,293236,1,0,0:0:0:0:
320,192,293308,1,0,0:0:0:0:
64,192,293379,1,0,0:0:0:0:
192,192,293379,1,0,0:0:0:0:
448,192,293450,1,0,0:0:0:0:
192,192,293522,1,0,0:0:0:0:
320,192,293593,1,0,0:0:0:0:
64,192,293665,1,0,0:0:0:0:
448,192,293665,1,0,0:0:0:0:
192,192,293736,1,0,0:0:0:0:
320,192,293808,1,0,0:0:0:0:
448,192,293808,1,0,0:0:0:0:
64,192,293879,1,0,0:0:0:0:
192,192,293879,1,0,0:0:0:0:
320,192,293950,1,0,0:0:0:0:
448,192,293950,1,0,0:0:0:0:
64,192,294022,1,0,0:0:0:0:
320,192,294093,1,0,0:0:0:0:
192,192,294165,1,0,0:0:0:0:
64,192,294236,1,0,0:0:0:0:
320,192,294236,1,0,0:0:0:0:
448,192,294236,1,0,0:0:0:0:
192,192,294308,1,0,0:0:0:0:
64,192,294379,1,0,0:0:0:0:
320,192,294450,1,0,0:0:0:0:
64,192,294522,1,0,0:0:0:0:
192,192,294522,1,0,0:0:0:0:
448,192,294593,1,0,0:0:0:0:
192,192,294665,1,0,0:0:0:0:
320,192,294736,1,0,0:0:0:0:
64,192,294808,1,0,0:0:0:0:
448,192,294808,1,0,0:0:0:0:
192,192,294879,1,0,0:0:0:0:
320,192,294950,1,0,0:0:0:0:
192,192,295022,1,0,0:0:0:0:
64,192,295093,1,0,0:0:0:0:
448,192,295093,1,0,0:0:0:0:
320,192,295165,1,0,0:0:0:0:
192,192,295236,1,0,0:0:0:0:
64,192,295308,1,0,0:0:0:0:
320,192,295379,1,0,0:0:0:0:
448,192,295379,1,0,0:0:0:0:
192,192,295450,1,0,0:0:0:0:
320,192,295522,1,0,0:0:0:0:
448,192,295593,1,0,0:0:0:0:
64,192,295665,1,0,0:0:0:0:
192,192,295665,1,0,0:0:0:0:
320,192,295736,1,0,0:0:0:0:
192,192,295808,1,0,0:0:0:0:
448,192,295879,1,0,0:0:0:0:
192,192,295950,1,0,0:0:0:0:
320,192,295950,1,0,0:0:0:0:
64,192,296022,1,0,0:0:0:0:
448,192,296093,1,0,0:0:0:0:
192,192,296165,1,0,0:0:0:0:
320,192,296236,1,0,0:0:0:0:
448,192,296236,1,0,0:0:0:0:
64,192,296308,1,0,0:0:0:0:
192,192,296379,1,0,0:0:0:0:
320,192,296450,1,0,0:0:0:0:
64,192,296522,1,0,0:0:0:0:
192,192,296522,1,0,0:0:0:0:
448,192,296593,1,0,0:0:0:0:
192,192,296665,1,0,0:0:0:0:
320,192,296736,1,0,0:0:0:0:
64,192,296808,1,0,0:0:0:0:
448,192,296808,1,0,0:0:0:0:
192,192,296879,1,0,0:0:0:0:
320,192,296950,1,0,0:0:0:0:
448,192,297022,1,0,0:0:0:0:
64,192,297093,1,0,0:0:0:0:
192,192,297093,1,0,0:0:0:0:
320,192,297165,1,0,0:0:0:0:
192,192,297236,1,0,0:0:0:0:
448,192,297308,1,0,0:0:0:0:
64,192,297379,1,0,0:0:0:0:
320,192,297379,1,0,0:0:0:0:
192,192,297450,1,0,0:0:0:0:
448,192,297522,1,0,0:0:0:0:
64,192,297593,1,0,0:0:0:0:
192,192,297665,1,0,0:0:0:0:
448,192,297665,1,0,0:0:0:0:
320,192,297736,1,0,0:0:0:0:
64,192,297808,1,0,0:0:0:0:
192,192,297808,1,0,0:0:0:0:
320,192,297879,1,0,0:0:0:0:
448,192,297879,1,0,0:0:0:0:
64,192,297950,1,0,0:0:0:0:
192,192,297950,1,0,0:0:0:0:
448,192,298022,1,0,0:0:0:0:
64,192,298093,1,0,0:0:0:0:
192,192,298093,1,0,0:0:0:0:
320,192,298165,1,0,0:0:0:0:
64,192,298236,1,0,0:0:0:0:
448,192,298236,1,0,0:0:0:0:
192,192,298308,1,0,0:0:0:0:
320,192,298379,1,0,0:0:0:0:
448,192,298379,1,0,0:0:0:0:
64,192,298450,1,0,0:0:0:0:
192,192,298450,1,0,0:0:0:0:
320,192,298522,1,0,0:0:0:0:
448,192,298522,1,0,0:0:0:0:
64,192,298593,1,0,0:0:0:0:
192,192,298665,1,0,0:0:0:0:
320,192,298736,1,0,0:0:0:0:
64,192,298808,1,0,0:0:0:0:
192,192,298808,1,0,0:0:0:0:
448,192,298808,1,0,0:0:0:0:
320,192,298879,1,0,0:0:0:0:
192,192,298950,1,0,0:0:0:0:
64,192,299022,1,0,0:0:0:0:
192,192,299093,1,0,0:0:0:0:
448,192,299093,1,0,0:0:0:0:
320,192,299165,1,0,0:0:0:0:
448,192,299236,1,0,0:0:0:0:
64,192,299308,1,0,0:0:0:0:
192,192,299379,1,0,0:0:0:0:
320,192,299379,1,0,0:0:0:0:
448,192,299450,1,0,0:0:0:0:
192,192,299522,1,0,0:0:0:0:
320,192,299593,1,0,0:0:0:0:
64,192,299665,1,0,0:0:0:0:
192,192,299665,1,0,0:0:0:0:
448,192,299736,1,0,0:0:0:0:
192,192,299808,1,0,0:0:0:0:
320,192,299879,1,0,0:0:0:0:
64,192,299950,1,0,0:0:0:0:
448,192,299950,1,0,0:0:0:0:
192,192,300022,1,0,0:0:0:0:
320,192,300093,1,0,0:0:0:0:
192,192,300165,1,0,0:0:0:0:
320,192,300236,1,0,0:0:0:0:
448,192,300236,1,0,0:0:0:0:
64,192,300308,1,0,0:0:0:0:
448,192,300379,1,0,0:0:0:0:
320,192,300450,1,0,0:0:0:0:
64,192,300522,1,0,0:0:0:0:
192,192,300522,1,0,0:0:0:0:
448,192,300593,1,0,0:0:0:0:
192,192,300665,1,0,0:0:0:0:
320,192,300736,1,0,0:0:0:0:
64,192,300808,1,0,0:0:0:0:
448,192,300808,1,0,0:0:0:0:
192,192,300879,1,0,0:0:0:0:
320,192,300950,1,0,0:0:0:0:
192,192,301022,1,0,0:0:0:0:
64,192,301093,1,0,0:0:0:0:
448,192,301093,1,0,0:0:0:0:
192,192,301165,1,0,0:0:0:0:
320,192,301236,1,0,0:0:0:0:
64,192,301308,1,0,0:0:0:0:
320,192,301379,1,0,0:0:0:0:
448,192,301379,1,0,0:0:0:0:
192,192,301450,1,0,0:0:0:0:
64,192,301522,1,0,0:0:0:0:
448,192,301593,1,0,0:0:0:0:
192,192,301665,1,0,0:0:0:0:
320,192,301665,1,0,0:0:0:0:
64,192,301736,1,0,0:0:0:0:
320,192,301808,1,0,0:0:0:0:
192,192,301879,1,0,0:0:0:0:
64,192,301950,1,0,0:0:0:0:
448,192,301950,1,0,0:0:0:0:
192,192,302022,1,0,0:0:0:0:
320,192,302093,1,0,0:0:0:0:
448,192,302165,1,0,0:0:0:0:
64,192,302236,1,0,0:0:0:0:
192,192,302236,1,0,0:0:0:0:
320,192,302308,1,0,0:0:0:0:
448,192,302379,1,0,0:0:0:0:
64,192,302450,1,0,0:0:0:0:
320,192,302522,1,0,0:0:0:0:
448,192,302522,1,0,0:0:0:0:
192,192,302593,1,0,0:0:0:0:
64,192,302665,1,0,0:0:0:0:
448,192,302736,1,0,0:0:0:0:
64,192,302808,1,0,0:0:0:0:
192,192,302808,1,0,0:0:0:0:
320,192,302879,1,0,0:0:0:0:
64,192,302950,1,0,0:0:0:0:
192,192,302950,1,0,0:0:0:0:
320,192,303022,1,0,0:0:0:0:
448,192,303022,1,0,0:0:0:0:
64,192,303093,1,0,0:0:0:0:
192,192,303093,1,0,0:0:0:0:
320,192,303165,1,0,0:0:0:0:
448,192,303236,1,0,0:0:0:0:
192,192,303308,1,0,0:0:0:0:
64,192,303379,1,0,0:0:0:0:
320,192,303379,1,0,0:0:0:0:
448,192,303379,1,0,0:0:0:0:
192,192,303450,1,0,0:0:0:0:
64,192,303522,1,0,0:0:0:0:
320,192,303593,1,0,0:0:0:0:
64,192,303665,1,0,0:0:0:0:
448,192,303665,1,0,0:0:0:0:
192,192,303736,1,0,0:0:0:0:
320,192,303808,1,0,0:0:0:0:
192,192,303879,1,0,0:0:0:0:
320,192,303950,1,0,0:0:0:0:
448,192,303950,1,0,0:0:0:0:
64,192,304022,1,0,0:0:0:0:
192,192,304093,1,0,0:0:0:0:
448,192,304165,1,0,0:0:0:0:
192,192,304236,1,0,0:0:0:0:
320,192,304236,1,0,0:0:0:0:
64,192,304308,1,0,0:0:0:0:
448,192,304379,1,0,0:0:0:0:
192,192,304450,1,0,0:0:0:0:
320,192,304522,1,0,0:0:0:0:
448,192,304522,1,0,0:0:0:0:
64,192,304593,1,0,0:0:0:0:
192,192,304665,1,0,0:0:0:0:
320,192,304736,1,0,0:0:0:0:
64,192,304808,1,0,0:0:0:0:
192,192,304808,1,0,0:0:0:0:
448,192,304879,1,0,0:0:0:0:
192,192,304950,1,0,0:0:0:0:
320,192,305022,1,0,0:0:0:0:
64,192,305093,1,0,0:0:0:0:
448,192,305093,1,0,0:0:0:0:
192,192,305165,1,0,0:0:0:0:
320,192,305236,1,0,0:0:0:0:
448,192,305308,1,0,0:0:0:0:
64,192,305379,1,0,0:0:0:0:
192,192,305379,1,0,0:0:0:0:
320,192,305450,1,0,0:0:0:0:
192,192,305522,1,0,0:0:0:0:
448,192,305593,1,0,0:0:0:0:
192,192,305665,1,0,0:0:0:0:
320,192,305665,1,0,0:0:0:0:
64,192,305736,1,0,0:0:0:0:
448,192,305808,1,0,0:0:0:0:
192,192,305879,1,0,0:0:0:0:
320,192,305950,1,0,0:0:0:0:
448,192,305950,1,0,0:0:0:0:
64,192,306022,1,0,0:0:0:0:
320,192,306093,1,0,0:0:0:0:
192,192,306165,1,0,0:0:0:0:
64,192,306236,1,0,0:0:0:0:
448,192,306236,1,0,0:0:0:0:
192,192,306308,1,0,0:0:0:0:
320,192,306379,1,0,0:0:0:0:
448,192,306450,1,0,0:0:0:0:
64,192,306522,1,0,0:0:0:0:
192,192,306522,1,0,0:0:0:0:
320,192,306593,1,0,0:0:0:0:
64,192,306665,1,0,0:0:0:0:
448,192,306736,1,0,0:0:0:0:
192,192,306808,1,0,0:0:0:0:
320,192,306808,1,0,0:0:0:0:
64,192,306879,1,0,0:0:0:0:
320,192,306950,1,0,0:0:0:0:
448,192,306950,1,0,0:0:0:0:
64,192,307022,1,0,0:0:0:0:
192,192,307022,1,0,0:0:0:0:
320,192,307093,1,0,0:0:0:0:
448,192,307093,1,0,0:0:0:0:
192,192,307165,1,0,0:0:0:0:
320,192,307236,1,0,0:0:0:0:
448,192,307236,1,0,0:0:0:0:
64,192,307308,1,0,0:0:0:0:
192,192,307308,1,0,0:0:0:0:
320,192,307379,1,0,0:0:0:0:
448,192,307379,1,0,0:0:0:0:
192,192,307450,1,0,0:0:0:0:
320,192,307522,1,0,0:0:0:0:
448,192,307522,1,0,0:0:0:0:
64,192,307593,1,0,0:0:0:0:
192,192,307593,1,0,0:0:0:0:
320,192,307665,1,0,0:0:0:0:
448,192,307665,1,0,0:0:0:0:
192,192,307736,1,0,0:0:0:0:
320,192,307808,1,0,0:0:0:0:
448,192,307808,1,0,0:0:0:0:
192,192,307879,1,0,0:0:0:0:
64,192,307950,1,0,0:0:0:0:
320,192,307950,1,0,0:0:0:0:
448,192,307950,1,0,0:0:0:0:
192,192,308022,1,0,0:0:0:0:
320,192,308093,1,0,0:0:0:0:
448,192,308093,1,0,0:0:0:0:
64,192,308165,1,0,0:0:0:0:
192,192,308236,1,0,0:0:0:0:
320,192,308236,1,0,0:0:0:0:
448,192,308308,1,0,0:0:0:0:
64,192,308379,1,0,0:0:0:0:
192,192,308379,1,0,0:0:0:0:
320,192,308450,1,0,0:0:0:0:
64,192,308522,1,0,0:0:0:0:
448,192,308522,1,0,0:0:0:0:
192,192,308593,1,0,0:0:0:0:
320,192,308665,1,0,0:0:0:0:
448,192,308665,1,0,0:0:0:0:
192,192,308736,1,0,0:0:0:0:
320,192,308808,1,0,0:0:0:0:
448,192,308808,1,0,0:0:0:0:
64,192,308879,1,0,0:0:0:0:
320,192,308950,1,0,0:0:0:0:
448,192,308950,1,0,0:0:0:0:
192,192,309022,1,0,0:0:0:0:
64,192,309093,1,0,0:0:0:0:
448,192,309093,1,0,0:0:0:0:
192,192,309165,1,0,0:0:0:0:
320,192,309236,1,0,0:0:0:0:
448,192,309236,1,0,0:0:0:0:
192,192,309308,1,0,0:0:0:0:
320,192,309379,1,0,0:0:0:0:
448,192,309379,1,0,0:0:0:0:
192,192,309450,1,0,0:0:0:0:
64,192,309522,1,0,0:0:0:0:
448,192,309522,1,0,0:0:0:0:
320,192,309593,1,0,0:0:0:0:
64,192,309665,1,0,0:0:0:0:
192,192,309665,1,0,0:0:0:0:
320,192,309736,1,0,0:0:0:0:
64,192,309808,1,0,0:0:0:0:
192,192,309808,1,0,0:0:0:0:
448,192,309879,1,0,0:0:0:0:
64,192,309950,1,0,0:0:0:0:
192,192,309950,1,0,0:0:0:0:
320,192,310022,1,0,0:0:0:0:
64,192,310093,1,0,0:0:0:0:
192,192,310093,1,0,0:0:0:0:
320,192,310165,1,0,0:0:0:0:
64,192,310236,1,0,0:0:0:0:
448,192,310236,1,0,0:0:0:0:
320,192,310308,1,0,0:0:0:0:
64,192,310379,1,0,0:0:0:0:
192,192,310379,1,0,0:0:0:0:
320,192,310450,1,0,0:0:0:0:
64,192,310522,1,0,0:0:0:0:
448,192,310522,1,0,0:0:0:0:
192,192,310593,1,0,0:0:0:0:
320,192,310665,1,0,0:0:0:0:
448,192,310665,1,0,0:0:0:0:
64,192,310736,1,0,0:0:0:0:
320,192,310808,1,0,0:0:0:0:
448,192,310808,1,0,0:0:0:0:
64,192,310879,1,0,0:0:0:0:
192,192,310950,1,0,0:0:0:0:
320,192,310950,1,0,0:0:0:0:
448,192,311022,1,0,0:0:0:0:
192,192,311093,1,0,0:0:0:0:
320,192,311093,1,0,0:0:0:0:
64,192,311165,1,0,0:0:0:0:
320,192,311236,1,0,0:0:0:0:
448,192,311236,1,0,0:0:0:0:
192,192,311308,1,0,0:0:0:0:
320,192,311379,1,0,0:0:0:0:
448,192,311379,1,0,0:0:0:0:
192,192,311450,1,0,0:0:0:0:
64,192,311522,1,0,0:0:0:0:
448,192,311522,1,0,0:0:0:0:
320,192,311593,1,0,0:0:0:0:
64,192,311665,1,0,0:0:0:0:
192,192,311665,1,0,0:0:0:0:
448,192,311736,1,0,0:0:0:0:
64,192,311808,1,0,0:0:0:0:
192,192,311808,1,0,0:0:0:0:
320,192,311879,1,0,0:0:0:0:
64,192,311950,1,0,0:0:0:0:
448,192,311950,1,0,0:0:0:0:
192,192,312022,1,0,0:0:0:0:
320,192,312093,1,0,0:0:0:0:
448,192,312093,1,0,0:0:0:0:
64,192,312165,1,0,0:0:0:0:
192,192,312165,1,0,0:0:0:0:
320,192,312236,1,0,0:0:0:0:
448,192,312236,1,0,0:0:0:0:
64,192,312308,1,0,0:0:0:0:
320,192,312379,1,0,0:0:0:0:
448,192,312379,1,0,0:0:0:0:
64,192,312450,1,0,0:0:0:0:
192,192,312522,1,0,0:0:0:0:
320,192,312522,1,0,0:0:0:0:
448,192,312522,1,0,0:0:0:0:
64,192,312593,1,0,0:0:0:0:
448,192,312665,1,0,0:0:0:0:
64,192,312736,1,0,0:0:0:0:
192,192,312736,1,0,0:0:0:0:
320,192,312808,1,0,0:0:0:0:
448,192,312879,1,0,0:0:0:0:
64,192,312950,1,0,0:0:0:0:
192,192,312950,1,0,0:0:0:0:
320,192,313022,1,0,0:0:0:0:
64,192,313093,1,0,0:0:0:0:
448,192,313093,1,0,0:0:0:0:
192,192,313165,1,0,0:0:0:0:
320,192,313236,1,0,0:0:0:0:
64,192,313308,1,0,0:0:0:0:
192,192,313308,1,0,0:0:0:0:
448,192,313379,1,0,0:0:0:0:
192,192,313450,1,0,0:0:0:0:
320,192,313522,1,0,0:0:0:0:
448,192,313522,1,0,0:0:0:0:
192,192,313593,1,0,0:0:0:0:
320,192,313665,1,0,0:0:0:0:
448,192,313665,1,0,0:0:0:0:
64,192,313736,1,0,0:0:0:0:
192,192,313808,1,0,0:0:0:0:
320,192,313879,1,0,0:0:0:0:
448,192,313879,1,0,0:0:0:0:
192,192,313950,1,0,0:0:0:0:
64,192,314022,1,0,0:0:0:0:
320,192,314093,1,0,0:0:0:0:
448,192,314093,1,0,0:0:0:0:
64,192,314165,1,0,0:0:0:0:
192,192,314236,1,0,0:0:0:0:
320,192,314236,1,0,0:0:0:0:
448,192,314308,1,0,0:0:0:0:
64,192,314379,1,0,0:0:0:0:
192,192,314450,1,0,0:0:0:0:
320,192,314450,1,0,0:0:0:0:
448,192,314522,1,0,0:0:0:0:
64,192,314593,1,0,0:0:0:0:
320,192,314665,1,0,0:0:0:0:
448,192,314665,1,0,0:0:0:0:
192,192,314736,1,0,0:0:0:0:
64,192,314808,1,0,0:0:0:0:
448,192,314808,1,0,0:0:0:0:
320,192,314879,1,0,0:0:0:0:
448,192,314950,1,0,0:0:0:0:
64,192,315022,1,0,0:0:0:0:
192,192,315022,1,0,0:0:0:0:
320,192,315093,1,0,0:0:0:0:
448,192,315165,1,0,0:0:0:0:
64,192,315236,1,0,0:0:0:0:
192,192,315236,1,0,0:0:0:0:
320,192,315308,1,0,0:0:0:0:
64,192,315379,1,0,0:0:0:0:
192,192,315379,1,0,0:0:0:0:
448,192,315450,1,0,0:0:0:0:
320,192,315522,1,0,0:0:0:0:
64,192,315593,1,0,0:0:0:0:
192,192,315593,1,0,0:0:0:0:
448,192,315665,1,0,0:0:0:0:
320,192,315736,1,0,0:0:0:0:
64,192,315808,1,0,0:0:0:0:
448,192,315808,1,0,0:0:0:0:
192,192,315879,1,0,0:0:0:0:
320,192,315950,1,0,0:0:0:0:
448,192,315950,1,0,0:0:0:0:
64,192,316022,1,0,0:0:0:0:
192,192,316093,1,0,0:0:0:0:
320,192,316165,1,0,0:0:0:0:
448,192,316165,1,0,0:0:0:0:
64,192,316236,1,0,0:0:0:0:
192,192,316308,1,0,0:0:0:0:
320,192,316379,1,0,0:0:0:0:
448,192,316379,1,0,0:0:0:0:
64,192,316450,1,0,0:0:0:0:
320,192,316522,1,0,0:0:0:0:
448,192,316522,1,0,0:0:0:0:
192,192,316593,1,0,0:0:0:0:
64,192,316665,1,0,0:0:0:0:
192,192,316736,1,0,0:0:0:0:
448,192,316736,1,0,0:0:0:0:
320,192,316808,1,0,0:0:0:0:
64,192,316879,1,0,0:0:0:0:
192,192,316950,1,0,0:0:0:0:
320,192,316950,1,0,0:0:0:0:
448,192,317022,1,0,0:0:0:0:
64,192,317093,1,0,0:0:0:0:
192,192,317093,1,0,0:0:0:0:
320,192,317093,1,0,0:0:0:0:
192,192,317308,1,0,0:0:0:0:
320,192,317308,1,0,0:0:0:0:
448,192,317308,1,0,0:0:0:0:
64,192,317522,1,0,0:0:0:0:
192,192,317522,1,0,0:0:0:0:
448,192,317522,1,0,0:0:0:0:
64,192,317665,1,0,0:0:0:0:
320,192,317665,1,0,0:0:0:0:
448,192,317665,1,0,0:0:0:0:
64,192,317879,1,0,0:0:0:0:
192,192,317879,1,0,0:0:0:0:
320,192,317879,1,0,0:0:0:0:
192,192,318093,1,0,0:0:0:0:
320,192,318093,1,0,0:0:0:0:
448,192,318093,1,0,0:0:0:0:
64,192,318236,1,0,0:0:0:0:
192,192,318236,1,0,0:0:0:0:
320,192,318236,1,0,0:0:0:0:
64,192,318450,1,0,0:0:0:0:
192,192,318450,1,0,0:0:0:0:
448,192,318450,1,0,0:0:0:0:
64,192,318665,1,0,0:0:0:0:
320,192,318665,1,0,0:0:0:0:
448,192,318665,1,0,0:0:0:0:
64,192,318807,1,0,0:0:0:0:
192,192,318807,1,0,0:0:0:0:
448,192,318807,1,0,0:0:0:0:
64,192,319022,1,0,0:0:0:0:
320,192,319022,1,0,0:0:0:0:
448,192,319022,1,0,0:0:0:0:
64,192,319236,1,0,0:0:0:0:
192,192,319236,1,0,0:0:0:0:
320,192,319236,1,0,0:0:0:0:
192,192,319379,1,0,0:0:0:0:
320,192,319379,1,0,0:0:0:0:
448,192,319379,1,0,0:0:0:0:
64,192,319593,1,0,0:0:0:0:
320,192,319593,1,0,0:0:0:0:
448,192,319593,1,0,0:0:0:0:
64,192,319807,1,0,0:0:0:0:
192,192,319807,1,0,0:0:0:0:
320,192,319807,1,0,0:0:0:0:
448,192,319807,1,0,0:0:0:0:
64,192,319950,1,0,0:0:0:0:
192,192,319950,1,0,0:0:0:0:
320,192,319950,1,0,0:0:0:0:
448,192,319950,1,0,0:0:0:0:
64,192,320165,1,0,0:0:0:0:
192,192,320165,1,0,0:0:0:0:
320,192,320165,1,0,0:0:0:0:
448,192,320165,1,0,0:0:0:0:
64,192,320379,1,0,0:0:0:0:
192,192,320379,1,0,0:0:0:0:
320,192,320379,1,0,0:0:0:0:
448,192,320379,1,0,0:0:0:0:
64,192,320522,1,0,0:0:0:0:
192,192,320522,1,0,0:0:0:0:
320,192,320522,1,0,0:0:0:0:
448,192,320522,1,0,0:0:0:0:
64,192,320736,1,0,0:0:0:0:
192,192,320736,1,0,0:0:0:0:
320,192,320736,1,0,0:0:0:0:
448,192,320736,1,0,0:0:0:0:
64,192,320950,1,0,0:0:0:0:
192,192,320950,1,0,0:0:0:0:
320,192,320950,1,0,0:0:0:0:
448,192,320950,1,0,0:0:0:0:
64,192,321093,1,0,0:0:0:0:
192,192,321093,1,0,0:0:0:0:
320,192,321093,1,0,0:0:0:0:
448,192,321093,1,0,0:0:0:0:
64,192,321307,1,0,0:0:0:0:
192,192,321307,1,0,0:0:0:0:
320,192,321307,1,0,0:0:0:0:
448,192,321307,1,0,0:0:0:0:
64,192,321522,1,0,0:0:0:0:
192,192,321522,1,0,0:0:0:0:
320,192,321522,1,0,0:0:0:0:
448,192,321522,1,0,0:0:0:0:
64,192,321665,128,0,321807:0:0:0:0:
192,192,321665,128,0,321807:0:0:0:0:
320,192,321665,128,0,321807:0:0:0:0:
448,192,321665,128,0,321807:0:0:0:0:
