osu file format v14

[General]
AudioFilename: 12._DJ_Sharpnel_-_WE_LUV_LAMA 1.100x.mp3
AudioLeadIn: 0
PreviewTime: 255964
Countdown: 0
SampleSet: None
StackLeniency: 0.7
Mode: 3
LetterboxInBreaks: 0
SpecialStyle: 0
WidescreenStoryboard: 0

[Editor]
DistanceSpacing: 0.8
BeatDivisor: 4
GridSize: 32
TimelineZoom: 2.6

[Metadata]
Title:WE LUV LAMA
TitleUnicode:WE LUV LAMA
Artist:DJ Sharpnel
ArtistUnicode:DJ Sharpnel
Creator:IcyWorld
Version:NB4 Hard 16 1.1x
Source:
Tags:stepmania ランニング★★★オールナイトッ!! Running All Night!! Sharpnelsound Jea Ryuta Nakagami 仲上竜太 Lemmy SRPC-0022 Brad Ira Fiedel The Terminator Delay Lama AudioNerdz Electronic Instrumental J-Core Soundtrack c73 comiket73 comic market 73 コミックマーケット73 コミケ73 Nuclear Blast JS Awesome Bomb Filez 4
BeatmapID:3106434
BeatmapSetID:1517419

[Difficulty]
HPDrainRate:8
CircleSize:4
OverallDifficulty:8
ApproachRate:5
SliderMultiplier:1.4
SliderTickRate:1

[Events]
//Background and Video events
0,0,"BG.png",0,0
//Break Periods
//Storyboard Layer 0 (Background)
//Storyboard Layer 1 (Fail)
//Storyboard Layer 2 (Pass)
//Storyboard Layer 3 (Foreground)
//Storyboard Layer 4 (Overlay)
//Storyboard Sound Samples

[TimingPoints]
494,259.74026,4,1,0,15,1,0
494,-100,4,1,0,15,0,0
173222,259.761288181818,4,1,0,15,1,0
173222,-100,4,1,0,15,0,0
173481,259.74026,4,1,0,15,1,0
173481,-100,4,1,0,15,0,0
288546,259.761288181818,4,1,0,15,1,0
288546,-100,4,1,0,15,0,0
288805,259.74026,4,1,0,15,1,0
288805,-100,4,1,0,15,0,0

[HitObjects]
64,192,104,5,0,0:0:0:0:
192,192,234,1,0,0:0:0:0:
320,192,364,1,0,0:0:0:0:
448,192,494,1,0,0:0:0:0:
64,192,494,1,0,0:0:0:0:
320,192,558,1,0,0:0:0:0:
192,192,623,1,0,0:0:0:0:
448,192,753,1,0,0:0:0:0:
320,192,753,1,0,0:0:0:0:
64,192,818,1,0,0:0:0:0:
192,192,883,1,0,0:0:0:0:
320,192,1013,1,0,0:0:0:0:
192,192,1078,1,0,0:0:0:0:
64,192,1143,1,0,0:0:0:0:
448,192,1273,1,0,0:0:0:0:
320,192,1273,1,0,0:0:0:0:
192,192,1403,1,0,0:0:0:0:
320,192,1468,1,0,0:0:0:0:
64,192,1532,1,0,0:0:0:0:
192,192,1597,1,0,0:0:0:0:
320,192,1662,1,0,0:0:0:0:
448,192,1792,1,0,0:0:0:0:
64,192,1792,1,0,0:0:0:0:
192,192,1857,1,0,0:0:0:0:
320,192,1922,1,0,0:0:0:0:
192,192,2052,1,0,0:0:0:0:
448,192,2117,1,0,0:0:0:0:
320,192,2182,1,0,0:0:0:0:
192,192,2312,1,0,0:0:0:0:
64,192,2312,1,0,0:0:0:0:
320,192,2442,1,0,0:0:0:0:
192,192,2506,1,0,0:0:0:0:
448,192,2571,1,0,0:0:0:0:
192,192,2636,1,0,0:0:0:0:
320,192,2701,1,0,0:0:0:0:
64,192,2766,1,0,0:0:0:0:
448,192,2831,1,0,0:0:0:0:
320,192,2831,1,0,0:0:0:0:
192,192,2961,1,0,0:0:0:0:
448,192,3091,1,0,0:0:0:0:
320,192,3156,1,0,0:0:0:0:
192,192,3221,1,0,0:0:0:0:
448,192,3351,1,0,0:0:0:0:
320,192,3351,1,0,0:0:0:0:
192,192,3481,1,0,0:0:0:0:
448,192,3545,1,0,0:0:0:0:
64,192,3610,1,0,0:0:0:0:
448,192,3675,1,0,0:0:0:0:
192,192,3740,1,0,0:0:0:0:
448,192,3870,1,0,0:0:0:0:
320,192,3870,1,0,0:0:0:0:
192,192,4000,1,0,0:0:0:0:
64,192,4130,1,0,0:0:0:0:
448,192,4195,1,0,0:0:0:0:
320,192,4260,1,0,0:0:0:0:
192,192,4292,1,0,0:0:0:0:
64,192,4325,1,0,0:0:0:0:
448,192,4390,1,0,0:0:0:0:
320,192,4390,1,0,0:0:0:0:
192,192,4519,1,0,0:0:0:0:
320,192,4584,1,0,0:0:0:0:
448,192,4649,1,0,0:0:0:0:
64,192,4649,1,0,0:0:0:0:
320,192,4714,1,0,0:0:0:0:
192,192,4779,1,0,0:0:0:0:
448,192,4909,1,0,0:0:0:0:
320,192,4909,1,0,0:0:0:0:
64,192,5039,1,0,0:0:0:0:
448,192,5169,1,0,0:0:0:0:
192,192,5234,1,0,0:0:0:0:
320,192,5299,1,0,0:0:0:0:
448,192,5429,1,0,0:0:0:0:
64,192,5429,1,0,0:0:0:0:
192,192,5558,1,0,0:0:0:0:
320,192,5623,1,0,0:0:0:0:
448,192,5688,1,0,0:0:0:0:
320,192,5753,1,0,0:0:0:0:
192,192,5818,1,0,0:0:0:0:
448,192,5948,1,0,0:0:0:0:
64,192,5948,1,0,0:0:0:0:
320,192,6078,1,0,0:0:0:0:
64,192,6208,1,0,0:0:0:0:
192,192,6273,1,0,0:0:0:0:
320,192,6338,1,0,0:0:0:0:
448,192,6468,1,0,0:0:0:0:
64,192,6468,1,0,0:0:0:0:
320,192,6597,1,0,0:0:0:0:
192,192,6662,1,0,0:0:0:0:
448,192,6727,1,0,0:0:0:0:
320,192,6792,1,0,0:0:0:0:
192,192,6857,1,0,0:0:0:0:
448,192,6987,1,0,0:0:0:0:
64,192,6987,1,0,0:0:0:0:
192,192,7117,1,0,0:0:0:0:
320,192,7247,1,0,0:0:0:0:
448,192,7312,1,0,0:0:0:0:
192,192,7377,1,0,0:0:0:0:
448,192,7506,1,0,0:0:0:0:
64,192,7506,1,0,0:0:0:0:
320,192,7636,1,0,0:0:0:0:
192,192,7701,1,0,0:0:0:0:
320,192,7766,1,0,0:0:0:0:
192,192,7831,1,0,0:0:0:0:
448,192,7896,1,0,0:0:0:0:
320,192,7961,1,0,0:0:0:0:
192,192,8026,1,0,0:0:0:0:
64,192,8156,1,0,0:0:0:0:
448,192,8286,1,0,0:0:0:0:
320,192,8286,1,0,0:0:0:0:
192,192,8351,1,0,0:0:0:0:
64,192,8416,1,0,0:0:0:0:
320,192,8481,1,0,0:0:0:0:
448,192,8545,1,0,0:0:0:0:
64,192,8545,1,0,0:0:0:0:
192,192,8610,1,0,0:0:0:0:
320,192,8675,1,0,0:0:0:0:
448,192,8740,1,0,0:0:0:0:
192,192,8805,1,0,0:0:0:0:
64,192,8805,1,0,0:0:0:0:
320,192,8870,1,0,0:0:0:0:
448,192,8935,1,0,0:0:0:0:
192,192,9065,1,0,0:0:0:0:
64,192,9065,1,0,0:0:0:0:
320,192,9130,1,0,0:0:0:0:
192,192,9195,1,0,0:0:0:0:
448,192,9325,1,0,0:0:0:0:
192,192,9390,1,0,0:0:0:0:
448,192,9455,1,0,0:0:0:0:
192,192,9584,1,0,0:0:0:0:
64,192,9584,1,0,0:0:0:0:
320,192,9714,1,0,0:0:0:0:
192,192,9779,1,0,0:0:0:0:
448,192,9844,1,0,0:0:0:0:
320,192,9909,1,0,0:0:0:0:
192,192,9974,1,0,0:0:0:0:
448,192,10104,1,0,0:0:0:0:
64,192,10104,1,0,0:0:0:0:
192,192,10234,1,0,0:0:0:0:
448,192,10364,1,0,0:0:0:0:
192,192,10429,1,0,0:0:0:0:
320,192,10494,1,0,0:0:0:0:
192,192,10623,1,0,0:0:0:0:
64,192,10623,1,0,0:0:0:0:
192,192,10753,1,0,0:0:0:0:
320,192,10818,1,0,0:0:0:0:
448,192,10883,1,0,0:0:0:0:
64,192,10948,1,0,0:0:0:0:
192,192,11013,1,0,0:0:0:0:
320,192,11078,1,0,0:0:0:0:
448,192,11143,1,0,0:0:0:0:
64,192,11143,1,0,0:0:0:0:
320,192,11273,1,0,0:0:0:0:
192,192,11403,1,0,0:0:0:0:
320,192,11468,1,0,0:0:0:0:
64,192,11532,1,0,0:0:0:0:
448,192,11662,1,0,0:0:0:0:
320,192,11662,1,0,0:0:0:0:
192,192,11792,1,0,0:0:0:0:
320,192,11857,1,0,0:0:0:0:
448,192,11922,1,0,0:0:0:0:
192,192,11987,1,0,0:0:0:0:
320,192,12052,1,0,0:0:0:0:
192,192,12182,1,0,0:0:0:0:
64,192,12182,1,0,0:0:0:0:
448,192,12312,1,0,0:0:0:0:
320,192,12442,1,0,0:0:0:0:
64,192,12506,1,0,0:0:0:0:
192,192,12571,1,0,0:0:0:0:
320,192,12604,1,0,0:0:0:0:
448,192,12636,1,0,0:0:0:0:
192,192,12701,1,0,0:0:0:0:
64,192,12701,1,0,0:0:0:0:
320,192,12831,1,0,0:0:0:0:
192,192,12896,1,0,0:0:0:0:
448,192,12961,1,0,0:0:0:0:
320,192,13026,1,0,0:0:0:0:
192,192,13091,1,0,0:0:0:0:
448,192,13221,1,0,0:0:0:0:
64,192,13221,1,0,0:0:0:0:
192,192,13286,1,0,0:0:0:0:
320,192,13351,1,0,0:0:0:0:
448,192,13481,1,0,0:0:0:0:
192,192,13545,1,0,0:0:0:0:
320,192,13610,1,0,0:0:0:0:
192,192,13740,1,0,0:0:0:0:
64,192,13740,1,0,0:0:0:0:
448,192,13870,1,0,0:0:0:0:
192,192,13935,1,0,0:0:0:0:
320,192,14000,1,0,0:0:0:0:
192,192,14065,1,0,0:0:0:0:
448,192,14130,1,0,0:0:0:0:
192,192,14260,1,0,0:0:0:0:
64,192,14260,1,0,0:0:0:0:
320,192,14390,1,0,0:0:0:0:
448,192,14519,1,0,0:0:0:0:
192,192,14584,1,0,0:0:0:0:
320,192,14649,1,0,0:0:0:0:
192,192,14779,1,0,0:0:0:0:
64,192,14779,1,0,0:0:0:0:
320,192,14909,1,0,0:0:0:0:
192,192,14974,1,0,0:0:0:0:
448,192,15039,1,0,0:0:0:0:
320,192,15104,1,0,0:0:0:0:
192,192,15169,1,0,0:0:0:0:
448,192,15299,1,0,0:0:0:0:
64,192,15299,1,0,0:0:0:0:
192,192,15429,1,0,0:0:0:0:
448,192,15558,1,0,0:0:0:0:
64,192,15623,1,0,0:0:0:0:
192,192,15688,1,0,0:0:0:0:
448,192,15818,1,0,0:0:0:0:
320,192,15818,1,0,0:0:0:0:
192,192,15948,1,0,0:0:0:0:
448,192,16013,1,0,0:0:0:0:
320,192,16078,1,0,0:0:0:0:
64,192,16078,1,0,0:0:0:0:
320,192,16273,1,0,0:0:0:0:
64,192,16273,1,0,0:0:0:0:
320,192,16468,1,0,0:0:0:0:
64,192,16468,1,0,0:0:0:0:
448,192,16597,128,0,16857:0:0:0:0:
192,192,16597,1,0,0:0:0:0:
64,192,16727,1,0,0:0:0:0:
192,192,16857,1,0,0:0:0:0:
320,192,16987,1,0,0:0:0:0:
448,192,17117,1,0,0:0:0:0:
64,192,17117,1,0,0:0:0:0:
192,192,17182,1,0,0:0:0:0:
320,192,17247,1,0,0:0:0:0:
192,192,17377,1,0,0:0:0:0:
64,192,17377,1,0,0:0:0:0:
320,192,17442,1,0,0:0:0:0:
64,192,17506,1,0,0:0:0:0:
448,192,17636,1,0,0:0:0:0:
192,192,17701,1,0,0:0:0:0:
320,192,17766,1,0,0:0:0:0:
448,192,17896,1,0,0:0:0:0:
192,192,17896,1,0,0:0:0:0:
64,192,18026,1,0,0:0:0:0:
320,192,18091,1,0,0:0:0:0:
448,192,18156,1,0,0:0:0:0:
192,192,18221,1,0,0:0:0:0:
320,192,18286,1,0,0:0:0:0:
448,192,18416,1,0,0:0:0:0:
64,192,18416,1,0,0:0:0:0:
320,192,18545,1,0,0:0:0:0:
192,192,18675,1,0,0:0:0:0:
320,192,18740,1,0,0:0:0:0:
448,192,18805,1,0,0:0:0:0:
320,192,18935,1,0,0:0:0:0:
64,192,18935,1,0,0:0:0:0:
192,192,19065,1,0,0:0:0:0:
448,192,19195,1,0,0:0:0:0:
192,192,19260,1,0,0:0:0:0:
64,192,19325,1,0,0:0:0:0:
192,192,19390,1,0,0:0:0:0:
448,192,19455,1,0,0:0:0:0:
320,192,19455,1,0,0:0:0:0:
192,192,19584,1,0,0:0:0:0:
320,192,19714,1,0,0:0:0:0:
448,192,19779,1,0,0:0:0:0:
192,192,19844,1,0,0:0:0:0:
448,192,19974,1,0,0:0:0:0:
64,192,19974,1,0,0:0:0:0:
192,192,20104,1,0,0:0:0:0:
320,192,20169,1,0,0:0:0:0:
192,192,20234,1,0,0:0:0:0:
64,192,20299,1,0,0:0:0:0:
320,192,20364,1,0,0:0:0:0:
448,192,20494,1,0,0:0:0:0:
64,192,20494,1,0,0:0:0:0:
192,192,20558,1,0,0:0:0:0:
320,192,20623,1,0,0:0:0:0:
64,192,20753,1,0,0:0:0:0:
192,192,20818,1,0,0:0:0:0:
320,192,20883,1,0,0:0:0:0:
448,192,20916,1,0,0:0:0:0:
64,192,20948,1,0,0:0:0:0:
320,192,21013,1,0,0:0:0:0:
192,192,21013,1,0,0:0:0:0:
448,192,21143,1,0,0:0:0:0:
192,192,21273,1,0,0:0:0:0:
64,192,21273,1,0,0:0:0:0:
320,192,21338,1,0,0:0:0:0:
448,192,21403,1,0,0:0:0:0:
192,192,21532,1,0,0:0:0:0:
64,192,21532,1,0,0:0:0:0:
320,192,21597,1,0,0:0:0:0:
64,192,21662,1,0,0:0:0:0:
448,192,21792,1,0,0:0:0:0:
192,192,21857,1,0,0:0:0:0:
320,192,21922,1,0,0:0:0:0:
448,192,22052,1,0,0:0:0:0:
64,192,22052,1,0,0:0:0:0:
320,192,22182,1,0,0:0:0:0:
64,192,22247,1,0,0:0:0:0:
192,192,22312,1,0,0:0:0:0:
320,192,22377,1,0,0:0:0:0:
192,192,22442,1,0,0:0:0:0:
448,192,22571,1,0,0:0:0:0:
320,192,22571,1,0,0:0:0:0:
64,192,22636,1,0,0:0:0:0:
192,192,22701,1,0,0:0:0:0:
320,192,22831,1,0,0:0:0:0:
448,192,22896,1,0,0:0:0:0:
192,192,22961,1,0,0:0:0:0:
448,192,23091,1,0,0:0:0:0:
64,192,23091,1,0,0:0:0:0:
320,192,23221,1,0,0:0:0:0:
64,192,23286,1,0,0:0:0:0:
192,192,23351,1,0,0:0:0:0:
320,192,23416,1,0,0:0:0:0:
64,192,23481,1,0,0:0:0:0:
448,192,23610,1,0,0:0:0:0:
320,192,23610,1,0,0:0:0:0:
192,192,23675,1,0,0:0:0:0:
448,192,23740,1,0,0:0:0:0:
64,192,23870,1,0,0:0:0:0:
320,192,23935,1,0,0:0:0:0:
192,192,24000,1,0,0:0:0:0:
448,192,24130,1,0,0:0:0:0:
320,192,24130,1,0,0:0:0:0:
192,192,24260,1,0,0:0:0:0:
320,192,24325,1,0,0:0:0:0:
448,192,24390,1,0,0:0:0:0:
192,192,24455,1,0,0:0:0:0:
64,192,24519,1,0,0:0:0:0:
192,192,24584,1,0,0:0:0:0:
448,192,24649,1,0,0:0:0:0:
320,192,24649,1,0,0:0:0:0:
64,192,24714,1,0,0:0:0:0:
448,192,24779,1,0,0:0:0:0:
192,192,24909,1,0,0:0:0:0:
64,192,24909,1,0,0:0:0:0:
320,192,24974,1,0,0:0:0:0:
448,192,25039,1,0,0:0:0:0:
192,192,25169,1,0,0:0:0:0:
64,192,25169,1,0,0:0:0:0:
320,192,25299,1,0,0:0:0:0:
448,192,25429,1,0,0:0:0:0:
64,192,25429,1,0,0:0:0:0:
192,192,25494,1,0,0:0:0:0:
320,192,25558,1,0,0:0:0:0:
192,192,25688,1,0,0:0:0:0:
64,192,25688,1,0,0:0:0:0:
320,192,25818,1,0,0:0:0:0:
192,192,25948,1,0,0:0:0:0:
448,192,26013,1,0,0:0:0:0:
320,192,26078,1,0,0:0:0:0:
448,192,26208,1,0,0:0:0:0:
192,192,26208,1,0,0:0:0:0:
320,192,26338,1,0,0:0:0:0:
192,192,26403,1,0,0:0:0:0:
64,192,26468,1,0,0:0:0:0:
192,192,26532,1,0,0:0:0:0:
448,192,26597,1,0,0:0:0:0:
192,192,26727,1,0,0:0:0:0:
64,192,26727,1,0,0:0:0:0:
448,192,26792,1,0,0:0:0:0:
320,192,26857,1,0,0:0:0:0:
448,192,26987,1,0,0:0:0:0:
192,192,27052,1,0,0:0:0:0:
320,192,27117,1,0,0:0:0:0:
448,192,27247,1,0,0:0:0:0:
64,192,27247,1,0,0:0:0:0:
192,192,27377,1,0,0:0:0:0:
320,192,27442,1,0,0:0:0:0:
448,192,27506,1,0,0:0:0:0:
192,192,27571,1,0,0:0:0:0:
320,192,27636,1,0,0:0:0:0:
64,192,27701,1,0,0:0:0:0:
448,192,27766,1,0,0:0:0:0:
320,192,27766,1,0,0:0:0:0:
64,192,27896,1,0,0:0:0:0:
192,192,28026,1,0,0:0:0:0:
448,192,28091,1,0,0:0:0:0:
320,192,28156,1,0,0:0:0:0:
192,192,28221,1,0,0:0:0:0:
448,192,28286,1,0,0:0:0:0:
64,192,28286,1,0,0:0:0:0:
192,192,28416,1,0,0:0:0:0:
320,192,28481,1,0,0:0:0:0:
448,192,28545,1,0,0:0:0:0:
192,192,28610,1,0,0:0:0:0:
320,192,28675,1,0,0:0:0:0:
192,192,28805,1,0,0:0:0:0:
64,192,28805,1,0,0:0:0:0:
448,192,28870,1,0,0:0:0:0:
320,192,28935,1,0,0:0:0:0:
192,192,29065,1,0,0:0:0:0:
320,192,29130,1,0,0:0:0:0:
64,192,29195,1,0,0:0:0:0:
192,192,29227,1,0,0:0:0:0:
320,192,29260,1,0,0:0:0:0:
448,192,29325,1,0,0:0:0:0:
64,192,29325,1,0,0:0:0:0:
192,192,29455,1,0,0:0:0:0:
320,192,29519,1,0,0:0:0:0:
192,192,29584,1,0,0:0:0:0:
64,192,29584,1,0,0:0:0:0:
448,192,29649,1,0,0:0:0:0:
320,192,29714,1,0,0:0:0:0:
448,192,29844,1,0,0:0:0:0:
192,192,29844,1,0,0:0:0:0:
320,192,29909,1,0,0:0:0:0:
192,192,29974,1,0,0:0:0:0:
448,192,30104,1,0,0:0:0:0:
64,192,30169,1,0,0:0:0:0:
192,192,30234,1,0,0:0:0:0:
448,192,30364,1,0,0:0:0:0:
320,192,30364,1,0,0:0:0:0:
192,192,30429,1,0,0:0:0:0:
448,192,30494,1,0,0:0:0:0:
320,192,30558,1,0,0:0:0:0:
192,192,30623,1,0,0:0:0:0:
64,192,30688,1,0,0:0:0:0:
192,192,30753,1,0,0:0:0:0:
448,192,30883,1,0,0:0:0:0:
320,192,30883,1,0,0:0:0:0:
192,192,30948,1,0,0:0:0:0:
448,192,31013,1,0,0:0:0:0:
192,192,31143,1,0,0:0:0:0:
320,192,31208,1,0,0:0:0:0:
64,192,31273,1,0,0:0:0:0:
448,192,31403,1,0,0:0:0:0:
192,192,31403,1,0,0:0:0:0:
320,192,31532,1,0,0:0:0:0:
192,192,31597,1,0,0:0:0:0:
320,192,31662,1,0,0:0:0:0:
64,192,31727,1,0,0:0:0:0:
192,192,31792,1,0,0:0:0:0:
448,192,31922,1,0,0:0:0:0:
320,192,31922,1,0,0:0:0:0:
192,192,31987,1,0,0:0:0:0:
448,192,32052,1,0,0:0:0:0:
64,192,32182,1,0,0:0:0:0:
192,192,32247,1,0,0:0:0:0:
320,192,32312,1,0,0:0:0:0:
448,192,32442,1,0,0:0:0:0:
64,192,32442,1,0,0:0:0:0:
192,192,32571,1,0,0:0:0:0:
320,192,32636,1,0,0:0:0:0:
448,192,32701,1,0,0:0:0:0:
64,192,32766,1,0,0:0:0:0:
320,192,32831,1,0,0:0:0:0:
448,192,32896,1,0,0:0:0:0:
192,192,32961,1,0,0:0:0:0:
320,192,33026,1,0,0:0:0:0:
448,192,33091,1,0,0:0:0:0:
192,192,33156,1,0,0:0:0:0:
448,192,33221,1,0,0:0:0:0:
192,192,33351,1,0,0:0:0:0:
64,192,33351,1,0,0:0:0:0:
320,192,33481,1,0,0:0:0:0:
192,192,33481,1,0,0:0:0:0:
448,192,33610,1,0,0:0:0:0:
320,192,33610,1,0,0:0:0:0:
448,192,33740,1,0,0:0:0:0:
64,192,33740,1,0,0:0:0:0:
192,192,33805,1,0,0:0:0:0:
320,192,33870,1,0,0:0:0:0:
192,192,34000,1,0,0:0:0:0:
64,192,34000,1,0,0:0:0:0:
448,192,34065,1,0,0:0:0:0:
320,192,34130,1,0,0:0:0:0:
192,192,34260,1,0,0:0:0:0:
320,192,34325,1,0,0:0:0:0:
64,192,34390,1,0,0:0:0:0:
192,192,34455,1,0,0:0:0:0:
448,192,34519,1,0,0:0:0:0:
320,192,34519,1,0,0:0:0:0:
192,192,34649,1,0,0:0:0:0:
448,192,34714,1,0,0:0:0:0:
320,192,34779,1,0,0:0:0:0:
192,192,34844,1,0,0:0:0:0:
64,192,34909,1,0,0:0:0:0:
448,192,35039,1,0,0:0:0:0:
192,192,35039,1,0,0:0:0:0:
320,192,35169,1,0,0:0:0:0:
64,192,35299,1,0,0:0:0:0:
192,192,35364,1,0,0:0:0:0:
448,192,35429,1,0,0:0:0:0:
192,192,35494,1,0,0:0:0:0:
448,192,35558,1,0,0:0:0:0:
320,192,35558,1,0,0:0:0:0:
192,192,35688,1,0,0:0:0:0:
64,192,35753,1,0,0:0:0:0:
320,192,35818,1,0,0:0:0:0:
192,192,35883,1,0,0:0:0:0:
448,192,35948,1,0,0:0:0:0:
320,192,36078,1,0,0:0:0:0:
192,192,36078,1,0,0:0:0:0:
64,192,36208,1,0,0:0:0:0:
448,192,36338,1,0,0:0:0:0:
192,192,36403,1,0,0:0:0:0:
320,192,36468,1,0,0:0:0:0:
64,192,36532,1,0,0:0:0:0:
448,192,36597,1,0,0:0:0:0:
192,192,36597,1,0,0:0:0:0:
320,192,36727,1,0,0:0:0:0:
64,192,36792,1,0,0:0:0:0:
448,192,36857,1,0,0:0:0:0:
320,192,36922,1,0,0:0:0:0:
192,192,36987,1,0,0:0:0:0:
448,192,37117,1,0,0:0:0:0:
320,192,37117,1,0,0:0:0:0:
64,192,37247,1,0,0:0:0:0:
192,192,37377,1,0,0:0:0:0:
320,192,37442,1,0,0:0:0:0:
448,192,37506,1,0,0:0:0:0:
320,192,37539,1,0,0:0:0:0:
192,192,37571,1,0,0:0:0:0:
64,192,37636,128,0,37766:0:0:0:0:
448,192,37766,128,0,37896:0:0:0:0:
320,192,37896,1,0,0:0:0:0:
192,192,37896,1,0,0:0:0:0:
64,192,37961,1,0,0:0:0:0:
448,192,38026,1,0,0:0:0:0:
320,192,38156,1,0,0:0:0:0:
64,192,38156,1,0,0:0:0:0:
192,192,38286,1,0,0:0:0:0:
448,192,38351,1,0,0:0:0:0:
320,192,38416,1,0,0:0:0:0:
448,192,38481,1,0,0:0:0:0:
64,192,38545,1,0,0:0:0:0:
320,192,38610,1,0,0:0:0:0:
448,192,38675,1,0,0:0:0:0:
192,192,38675,1,0,0:0:0:0:
64,192,38805,1,0,0:0:0:0:
320,192,38870,1,0,0:0:0:0:
192,192,38935,1,0,0:0:0:0:
64,192,39000,1,0,0:0:0:0:
320,192,39065,1,0,0:0:0:0:
448,192,39195,1,0,0:0:0:0:
64,192,39195,1,0,0:0:0:0:
192,192,39325,1,0,0:0:0:0:
320,192,39455,1,0,0:0:0:0:
448,192,39519,1,0,0:0:0:0:
192,192,39584,1,0,0:0:0:0:
320,192,39649,1,0,0:0:0:0:
192,192,39714,1,0,0:0:0:0:
64,192,39714,1,0,0:0:0:0:
448,192,39844,1,0,0:0:0:0:
192,192,39909,1,0,0:0:0:0:
320,192,39974,1,0,0:0:0:0:
192,192,40039,1,0,0:0:0:0:
64,192,40104,1,0,0:0:0:0:
448,192,40234,1,0,0:0:0:0:
320,192,40234,1,0,0:0:0:0:
64,192,40364,1,0,0:0:0:0:
192,192,40429,1,0,0:0:0:0:
320,192,40494,1,0,0:0:0:0:
192,192,40558,1,0,0:0:0:0:
448,192,40623,1,0,0:0:0:0:
320,192,40688,1,0,0:0:0:0:
192,192,40753,1,0,0:0:0:0:
64,192,40753,1,0,0:0:0:0:
448,192,40883,1,0,0:0:0:0:
320,192,40948,1,0,0:0:0:0:
192,192,41013,1,0,0:0:0:0:
320,192,41078,1,0,0:0:0:0:
192,192,41143,1,0,0:0:0:0:
64,192,41208,1,0,0:0:0:0:
448,192,41273,1,0,0:0:0:0:
192,192,41273,1,0,0:0:0:0:
320,192,41403,1,0,0:0:0:0:
448,192,41468,1,0,0:0:0:0:
320,192,41532,1,0,0:0:0:0:
192,192,41597,1,0,0:0:0:0:
64,192,41662,128,0,41792:0:0:0:0:
320,192,41727,1,0,0:0:0:0:
448,192,41792,1,0,0:0:0:0:
64,192,41922,1,0,0:0:0:0:
192,192,41955,1,0,0:0:0:0:
320,192,41987,1,0,0:0:0:0:
448,192,42019,1,0,0:0:0:0:
64,192,42052,1,0,0:0:0:0:
192,192,42117,1,0,0:0:0:0:
320,192,42182,1,0,0:0:0:0:
448,192,42312,1,0,0:0:0:0:
64,192,42312,1,0,0:0:0:0:
320,192,42442,1,0,0:0:0:0:
192,192,42571,1,0,0:0:0:0:
448,192,42636,1,0,0:0:0:0:
64,192,42701,1,0,0:0:0:0:
320,192,42766,1,0,0:0:0:0:
192,192,42831,1,0,0:0:0:0:
64,192,42831,1,0,0:0:0:0:
320,192,42961,1,0,0:0:0:0:
192,192,43026,1,0,0:0:0:0:
448,192,43091,1,0,0:0:0:0:
320,192,43156,1,0,0:0:0:0:
192,192,43221,1,0,0:0:0:0:
320,192,43351,1,0,0:0:0:0:
64,192,43351,1,0,0:0:0:0:
448,192,43416,1,0,0:0:0:0:
192,192,43481,1,0,0:0:0:0:
320,192,43610,1,0,0:0:0:0:
448,192,43675,1,0,0:0:0:0:
64,192,43740,1,0,0:0:0:0:
192,192,43805,1,0,0:0:0:0:
448,192,43870,1,0,0:0:0:0:
320,192,43870,1,0,0:0:0:0:
192,192,44000,1,0,0:0:0:0:
320,192,44065,1,0,0:0:0:0:
64,192,44130,1,0,0:0:0:0:
448,192,44195,1,0,0:0:0:0:
320,192,44260,1,0,0:0:0:0:
192,192,44390,1,0,0:0:0:0:
64,192,44390,1,0,0:0:0:0:
448,192,44455,1,0,0:0:0:0:
192,192,44519,1,0,0:0:0:0:
320,192,44649,1,0,0:0:0:0:
64,192,44714,1,0,0:0:0:0:
320,192,44779,1,0,0:0:0:0:
192,192,44844,1,0,0:0:0:0:
448,192,44909,1,0,0:0:0:0:
64,192,44909,1,0,0:0:0:0:
192,192,45039,1,0,0:0:0:0:
448,192,45104,1,0,0:0:0:0:
192,192,45169,1,0,0:0:0:0:
320,192,45234,1,0,0:0:0:0:
448,192,45299,1,0,0:0:0:0:
192,192,45429,1,0,0:0:0:0:
64,192,45429,1,0,0:0:0:0:
448,192,45494,1,0,0:0:0:0:
320,192,45558,1,0,0:0:0:0:
192,192,45688,1,0,0:0:0:0:
320,192,45753,1,0,0:0:0:0:
64,192,45818,1,0,0:0:0:0:
320,192,45883,1,0,0:0:0:0:
448,192,45948,1,0,0:0:0:0:
64,192,45948,1,0,0:0:0:0:
192,192,46078,1,0,0:0:0:0:
448,192,46143,1,0,0:0:0:0:
320,192,46208,1,0,0:0:0:0:
64,192,46208,1,0,0:0:0:0:
448,192,46273,1,0,0:0:0:0:
192,192,46338,1,0,0:0:0:0:
448,192,46468,1,0,0:0:0:0:
320,192,46468,1,0,0:0:0:0:
64,192,46532,1,0,0:0:0:0:
192,192,46597,1,0,0:0:0:0:
448,192,46727,1,0,0:0:0:0:
192,192,46792,1,0,0:0:0:0:
320,192,46857,1,0,0:0:0:0:
64,192,46922,1,0,0:0:0:0:
448,192,46987,1,0,0:0:0:0:
320,192,46987,1,0,0:0:0:0:
64,192,47117,1,0,0:0:0:0:
192,192,47182,1,0,0:0:0:0:
320,192,47247,1,0,0:0:0:0:
192,192,47312,1,0,0:0:0:0:
64,192,47377,1,0,0:0:0:0:
448,192,47506,1,0,0:0:0:0:
320,192,47506,1,0,0:0:0:0:
192,192,47571,1,0,0:0:0:0:
448,192,47636,1,0,0:0:0:0:
192,192,47766,1,0,0:0:0:0:
320,192,47831,1,0,0:0:0:0:
64,192,47896,1,0,0:0:0:0:
192,192,47961,1,0,0:0:0:0:
448,192,48026,1,0,0:0:0:0:
320,192,48026,1,0,0:0:0:0:
192,192,48156,1,0,0:0:0:0:
448,192,48221,1,0,0:0:0:0:
64,192,48286,1,0,0:0:0:0:
320,192,48351,1,0,0:0:0:0:
192,192,48416,1,0,0:0:0:0:
448,192,48545,1,0,0:0:0:0:
320,192,48545,1,0,0:0:0:0:
192,192,48610,1,0,0:0:0:0:
64,192,48675,1,0,0:0:0:0:
448,192,48805,1,0,0:0:0:0:
192,192,48870,1,0,0:0:0:0:
320,192,48935,1,0,0:0:0:0:
64,192,49000,1,0,0:0:0:0:
448,192,49065,1,0,0:0:0:0:
192,192,49065,1,0,0:0:0:0:
320,192,49195,1,0,0:0:0:0:
192,192,49260,1,0,0:0:0:0:
448,192,49325,1,0,0:0:0:0:
64,192,49325,1,0,0:0:0:0:
192,192,49390,1,0,0:0:0:0:
320,192,49455,1,0,0:0:0:0:
448,192,49584,1,0,0:0:0:0:
64,192,49584,1,0,0:0:0:0:
192,192,49714,1,0,0:0:0:0:
448,192,49844,1,0,0:0:0:0:
320,192,49844,1,0,0:0:0:0:
192,192,49974,1,0,0:0:0:0:
64,192,49974,1,0,0:0:0:0:
320,192,50104,1,0,0:0:0:0:
192,192,50104,1,0,0:0:0:0:
448,192,50234,1,0,0:0:0:0:
320,192,50234,1,0,0:0:0:0:
448,192,50364,1,0,0:0:0:0:
64,192,50364,1,0,0:0:0:0:
192,192,50429,1,0,0:0:0:0:
320,192,50494,1,0,0:0:0:0:
192,192,50623,1,0,0:0:0:0:
64,192,50623,1,0,0:0:0:0:
448,192,50688,1,0,0:0:0:0:
320,192,50753,1,0,0:0:0:0:
192,192,50883,1,0,0:0:0:0:
64,192,50948,1,0,0:0:0:0:
320,192,51013,1,0,0:0:0:0:
192,192,51078,1,0,0:0:0:0:
448,192,51143,1,0,0:0:0:0:
64,192,51143,1,0,0:0:0:0:
320,192,51208,1,0,0:0:0:0:
192,192,51273,1,0,0:0:0:0:
320,192,51338,1,0,0:0:0:0:
64,192,51403,1,0,0:0:0:0:
320,192,51468,1,0,0:0:0:0:
192,192,51532,1,0,0:0:0:0:
448,192,51597,1,0,0:0:0:0:
320,192,51662,1,0,0:0:0:0:
192,192,51662,1,0,0:0:0:0:
64,192,51792,1,0,0:0:0:0:
192,192,51922,1,0,0:0:0:0:
320,192,51987,1,0,0:0:0:0:
448,192,52052,1,0,0:0:0:0:
320,192,52117,1,0,0:0:0:0:
192,192,52182,1,0,0:0:0:0:
64,192,52182,1,0,0:0:0:0:
448,192,52247,1,0,0:0:0:0:
192,192,52312,1,0,0:0:0:0:
320,192,52377,1,0,0:0:0:0:
64,192,52442,1,0,0:0:0:0:
320,192,52506,1,0,0:0:0:0:
192,192,52571,1,0,0:0:0:0:
320,192,52636,1,0,0:0:0:0:
448,192,52701,1,0,0:0:0:0:
64,192,52701,1,0,0:0:0:0:
192,192,52831,1,0,0:0:0:0:
320,192,52961,1,0,0:0:0:0:
192,192,53026,1,0,0:0:0:0:
448,192,53091,1,0,0:0:0:0:
320,192,53156,1,0,0:0:0:0:
192,192,53221,1,0,0:0:0:0:
64,192,53221,1,0,0:0:0:0:
320,192,53286,1,0,0:0:0:0:
448,192,53351,1,0,0:0:0:0:
192,192,53416,1,0,0:0:0:0:
448,192,53481,1,0,0:0:0:0:
64,192,53545,1,0,0:0:0:0:
320,192,53610,1,0,0:0:0:0:
64,192,53675,1,0,0:0:0:0:
448,192,53740,1,0,0:0:0:0:
192,192,53740,1,0,0:0:0:0:
320,192,53870,1,0,0:0:0:0:
192,192,54000,1,0,0:0:0:0:
320,192,54065,1,0,0:0:0:0:
64,192,54130,1,0,0:0:0:0:
192,192,54195,1,0,0:0:0:0:
448,192,54260,1,0,0:0:0:0:
320,192,54260,1,0,0:0:0:0:
64,192,54390,1,0,0:0:0:0:
448,192,54519,1,0,0:0:0:0:
320,192,54519,1,0,0:0:0:0:
192,192,54584,1,0,0:0:0:0:
64,192,54649,1,0,0:0:0:0:
320,192,54779,1,0,0:0:0:0:
192,192,54779,1,0,0:0:0:0:
448,192,54909,1,0,0:0:0:0:
192,192,55039,1,0,0:0:0:0:
448,192,55104,1,0,0:0:0:0:
320,192,55169,1,0,0:0:0:0:
192,192,55234,1,0,0:0:0:0:
448,192,55299,1,0,0:0:0:0:
64,192,55299,1,0,0:0:0:0:
192,192,55364,1,0,0:0:0:0:
320,192,55429,1,0,0:0:0:0:
64,192,55494,1,0,0:0:0:0:
320,192,55558,1,0,0:0:0:0:
192,192,55623,1,0,0:0:0:0:
448,192,55688,1,0,0:0:0:0:
320,192,55818,1,0,0:0:0:0:
192,192,55818,1,0,0:0:0:0:
64,192,55948,1,0,0:0:0:0:
448,192,56078,1,0,0:0:0:0:
192,192,56143,1,0,0:0:0:0:
320,192,56208,1,0,0:0:0:0:
64,192,56273,1,0,0:0:0:0:
320,192,56338,1,0,0:0:0:0:
192,192,56338,1,0,0:0:0:0:
448,192,56403,1,0,0:0:0:0:
192,192,56468,1,0,0:0:0:0:
320,192,56532,1,0,0:0:0:0:
64,192,56597,1,0,0:0:0:0:
448,192,56662,1,0,0:0:0:0:
64,192,56727,1,0,0:0:0:0:
448,192,56857,1,0,0:0:0:0:
320,192,56857,1,0,0:0:0:0:
192,192,56987,1,0,0:0:0:0:
320,192,57117,1,0,0:0:0:0:
64,192,57182,1,0,0:0:0:0:
448,192,57247,1,0,0:0:0:0:
320,192,57312,1,0,0:0:0:0:
192,192,57377,1,0,0:0:0:0:
64,192,57377,1,0,0:0:0:0:
320,192,57442,1,0,0:0:0:0:
448,192,57506,1,0,0:0:0:0:
64,192,57571,1,0,0:0:0:0:
192,192,57636,1,0,0:0:0:0:
320,192,57701,1,0,0:0:0:0:
448,192,57766,1,0,0:0:0:0:
320,192,57896,1,0,0:0:0:0:
192,192,57896,1,0,0:0:0:0:
64,192,58026,1,0,0:0:0:0:
192,192,58156,1,0,0:0:0:0:
320,192,58221,1,0,0:0:0:0:
192,192,58286,1,0,0:0:0:0:
448,192,58351,1,0,0:0:0:0:
320,192,58416,1,0,0:0:0:0:
192,192,58416,1,0,0:0:0:0:
64,192,58481,1,0,0:0:0:0:
192,192,58545,1,0,0:0:0:0:
320,192,58610,1,0,0:0:0:0:
448,192,58675,1,0,0:0:0:0:
64,192,58675,1,0,0:0:0:0:
320,192,58740,1,0,0:0:0:0:
192,192,58805,1,0,0:0:0:0:
448,192,58935,1,0,0:0:0:0:
320,192,58935,1,0,0:0:0:0:
64,192,59065,1,0,0:0:0:0:
320,192,59195,1,0,0:0:0:0:
448,192,59260,1,0,0:0:0:0:
192,192,59325,1,0,0:0:0:0:
320,192,59390,1,0,0:0:0:0:
192,192,59455,1,0,0:0:0:0:
64,192,59455,1,0,0:0:0:0:
448,192,59519,1,0,0:0:0:0:
320,192,59584,1,0,0:0:0:0:
64,192,59649,1,0,0:0:0:0:
192,192,59714,1,0,0:0:0:0:
320,192,59779,1,0,0:0:0:0:
192,192,59844,1,0,0:0:0:0:
448,192,59974,1,0,0:0:0:0:
64,192,59974,1,0,0:0:0:0:
320,192,60104,1,0,0:0:0:0:
192,192,60234,1,0,0:0:0:0:
320,192,60299,1,0,0:0:0:0:
64,192,60364,1,0,0:0:0:0:
192,192,60429,1,0,0:0:0:0:
320,192,60494,1,0,0:0:0:0:
64,192,60494,1,0,0:0:0:0:
448,192,60558,1,0,0:0:0:0:
192,192,60623,1,0,0:0:0:0:
448,192,60688,1,0,0:0:0:0:
320,192,60753,1,0,0:0:0:0:
192,192,60818,1,0,0:0:0:0:
64,192,60883,1,0,0:0:0:0:
448,192,61013,1,0,0:0:0:0:
320,192,61013,1,0,0:0:0:0:
192,192,61078,1,0,0:0:0:0:
64,192,61143,1,0,0:0:0:0:
192,192,61208,1,0,0:0:0:0:
320,192,61273,1,0,0:0:0:0:
448,192,61338,1,0,0:0:0:0:
192,192,61403,1,0,0:0:0:0:
448,192,61532,1,0,0:0:0:0:
64,192,61532,1,0,0:0:0:0:
320,192,61597,1,0,0:0:0:0:
192,192,61662,1,0,0:0:0:0:
320,192,61727,1,0,0:0:0:0:
192,192,61792,1,0,0:0:0:0:
64,192,61857,1,0,0:0:0:0:
448,192,61922,1,0,0:0:0:0:
192,192,62052,1,0,0:0:0:0:
64,192,62052,1,0,0:0:0:0:
320,192,62117,1,0,0:0:0:0:
448,192,62182,1,0,0:0:0:0:
192,192,62312,1,0,0:0:0:0:
448,192,62377,1,0,0:0:0:0:
192,192,62442,1,0,0:0:0:0:
320,192,62506,1,0,0:0:0:0:
448,192,62571,1,0,0:0:0:0:
64,192,62571,1,0,0:0:0:0:
192,192,62701,1,0,0:0:0:0:
320,192,62766,1,0,0:0:0:0:
448,192,62831,1,0,0:0:0:0:
64,192,62831,1,0,0:0:0:0:
320,192,62896,1,0,0:0:0:0:
64,192,62961,1,0,0:0:0:0:
192,192,63026,1,0,0:0:0:0:
448,192,63091,1,0,0:0:0:0:
320,192,63091,1,0,0:0:0:0:
192,192,63156,1,0,0:0:0:0:
448,192,63221,1,0,0:0:0:0:
64,192,63351,1,0,0:0:0:0:
320,192,63416,1,0,0:0:0:0:
192,192,63481,1,0,0:0:0:0:
320,192,63545,1,0,0:0:0:0:
448,192,63610,1,0,0:0:0:0:
64,192,63610,1,0,0:0:0:0:
192,192,63740,1,0,0:0:0:0:
320,192,63805,1,0,0:0:0:0:
448,192,63870,1,0,0:0:0:0:
192,192,63935,1,0,0:0:0:0:
64,192,64000,1,0,0:0:0:0:
192,192,64065,1,0,0:0:0:0:
448,192,64130,1,0,0:0:0:0:
320,192,64130,1,0,0:0:0:0:
64,192,64195,1,0,0:0:0:0:
448,192,64260,1,0,0:0:0:0:
320,192,64390,1,0,0:0:0:0:
192,192,64455,1,0,0:0:0:0:
64,192,64519,1,0,0:0:0:0:
320,192,64584,1,0,0:0:0:0:
448,192,64649,1,0,0:0:0:0:
192,192,64649,1,0,0:0:0:0:
320,192,64714,1,0,0:0:0:0:
64,192,64779,1,0,0:0:0:0:
192,192,64844,1,0,0:0:0:0:
320,192,64909,1,0,0:0:0:0:
448,192,64974,1,0,0:0:0:0:
192,192,65039,1,0,0:0:0:0:
320,192,65104,1,0,0:0:0:0:
192,192,65169,1,0,0:0:0:0:
64,192,65169,1,0,0:0:0:0:
448,192,65234,1,0,0:0:0:0:
64,192,65299,1,0,0:0:0:0:
320,192,65364,1,0,0:0:0:0:
192,192,65429,1,0,0:0:0:0:
448,192,65494,1,0,0:0:0:0:
64,192,65558,1,0,0:0:0:0:
320,192,65623,1,0,0:0:0:0:
192,192,65688,1,0,0:0:0:0:
448,192,65753,1,0,0:0:0:0:
64,192,65818,1,0,0:0:0:0:
192,192,65883,1,0,0:0:0:0:
320,192,65948,1,0,0:0:0:0:
448,192,66013,1,0,0:0:0:0:
64,192,66078,1,0,0:0:0:0:
192,192,66143,1,0,0:0:0:0:
320,192,66208,1,0,0:0:0:0:
448,192,66273,1,0,0:0:0:0:
64,192,66338,1,0,0:0:0:0:
320,192,66403,1,0,0:0:0:0:
192,192,66468,1,0,0:0:0:0:
448,192,66532,1,0,0:0:0:0:
64,192,66597,1,0,0:0:0:0:
320,192,66662,1,0,0:0:0:0:
192,192,66727,1,0,0:0:0:0:
448,192,66792,1,0,0:0:0:0:
64,192,66857,1,0,0:0:0:0:
192,192,66890,1,0,0:0:0:0:
320,192,66922,1,0,0:0:0:0:
448,192,66987,1,0,0:0:0:0:
64,192,66987,1,0,0:0:0:0:
448,192,68026,1,0,0:0:0:0:
64,192,68026,1,0,0:0:0:0:
448,192,69065,1,0,0:0:0:0:
320,192,69065,1,0,0:0:0:0:
192,192,69325,1,0,0:0:0:0:
64,192,69325,1,0,0:0:0:0:
320,192,69584,1,0,0:0:0:0:
64,192,69844,1,0,0:0:0:0:
192,192,69909,1,0,0:0:0:0:
320,192,69974,1,0,0:0:0:0:
448,192,70039,1,0,0:0:0:0:
192,192,70104,1,0,0:0:0:0:
64,192,70104,1,0,0:0:0:0:
448,192,70883,1,0,0:0:0:0:
64,192,70883,1,0,0:0:0:0:
320,192,71013,1,0,0:0:0:0:
192,192,71013,1,0,0:0:0:0:
448,192,71143,1,0,0:0:0:0:
64,192,71143,1,0,0:0:0:0:
320,192,71662,1,0,0:0:0:0:
192,192,71727,1,0,0:0:0:0:
448,192,71792,1,0,0:0:0:0:
192,192,71857,1,0,0:0:0:0:
320,192,71922,1,0,0:0:0:0:
64,192,71987,1,0,0:0:0:0:
320,192,72052,1,0,0:0:0:0:
192,192,72117,1,0,0:0:0:0:
448,192,72182,1,0,0:0:0:0:
64,192,72182,1,0,0:0:0:0:
320,192,73221,1,0,0:0:0:0:
64,192,73221,1,0,0:0:0:0:
448,192,73481,1,0,0:0:0:0:
192,192,73481,1,0,0:0:0:0:
320,192,73740,1,0,0:0:0:0:
320,192,74000,1,0,0:0:0:0:
192,192,74065,1,0,0:0:0:0:
320,192,74130,1,0,0:0:0:0:
192,192,74195,1,0,0:0:0:0:
448,192,74260,1,0,0:0:0:0:
64,192,74260,1,0,0:0:0:0:
448,192,75039,1,0,0:0:0:0:
64,192,75039,1,0,0:0:0:0:
448,192,75169,1,0,0:0:0:0:
64,192,75169,1,0,0:0:0:0:
448,192,75299,1,0,0:0:0:0:
64,192,75299,1,0,0:0:0:0:
64,192,75818,1,0,0:0:0:0:
192,192,75883,1,0,0:0:0:0:
320,192,75948,1,0,0:0:0:0:
448,192,76013,1,0,0:0:0:0:
320,192,76078,1,0,0:0:0:0:
192,192,76143,1,0,0:0:0:0:
64,192,76208,1,0,0:0:0:0:
192,192,76273,1,0,0:0:0:0:
448,192,76338,1,0,0:0:0:0:
320,192,76338,1,0,0:0:0:0:
448,192,77377,1,0,0:0:0:0:
64,192,77377,1,0,0:0:0:0:
448,192,77636,1,0,0:0:0:0:
64,192,77636,1,0,0:0:0:0:
320,192,77766,128,0,77961:0:0:0:0:
64,192,78026,128,0,78221:0:0:0:0:
192,192,78156,1,0,0:0:0:0:
320,192,78221,1,0,0:0:0:0:
448,192,78286,128,0,78351:0:0:0:0:
320,192,78351,1,0,0:0:0:0:
192,192,78416,128,0,78610:0:0:0:0:
320,192,78675,128,0,78740:0:0:0:0:
64,192,78870,128,0,79000:0:0:0:0:
192,192,79130,128,0,79195:0:0:0:0:
320,192,79195,1,0,0:0:0:0:
448,192,79260,128,0,79325:0:0:0:0:
192,192,79325,1,0,0:0:0:0:
64,192,79455,1,0,0:0:0:0:
320,192,79649,128,0,79844:0:0:0:0:
192,192,79909,128,0,80104:0:0:0:0:
448,192,79974,1,0,0:0:0:0:
320,192,80039,1,0,0:0:0:0:
64,192,80104,1,0,0:0:0:0:
448,192,80169,128,0,80299:0:0:0:0:
192,192,80234,1,0,0:0:0:0:
320,192,80299,128,0,80429:0:0:0:0:
64,192,80364,1,0,0:0:0:0:
192,192,80429,1,0,0:0:0:0:
64,192,80494,128,0,80623:0:0:0:0:
448,192,80688,128,0,80818:0:0:0:0:
320,192,80948,128,0,81013:0:0:0:0:
192,192,81208,128,0,81273:0:0:0:0:
192,192,81338,128,0,81403:0:0:0:0:
448,192,81532,1,0,0:0:0:0:
64,192,81532,1,0,0:0:0:0:
320,192,81727,128,0,81922:0:0:0:0:
448,192,81792,1,0,0:0:0:0:
64,192,81792,1,0,0:0:0:0:
192,192,82052,1,0,0:0:0:0:
320,192,82312,1,0,0:0:0:0:
192,192,82377,1,0,0:0:0:0:
448,192,82442,128,0,82701:0:0:0:0:
320,192,82506,1,0,0:0:0:0:
192,192,82571,1,0,0:0:0:0:
64,192,82571,1,0,0:0:0:0:
320,192,82766,128,0,82961:0:0:0:0:
192,192,83351,128,0,83481:0:0:0:0:
64,192,83351,1,0,0:0:0:0:
448,192,83481,1,0,0:0:0:0:
320,192,83481,1,0,0:0:0:0:
192,192,83610,1,0,0:0:0:0:
64,192,83610,1,0,0:0:0:0:
448,192,83675,128,0,83805:0:0:0:0:
320,192,83870,128,0,84000:0:0:0:0:
192,192,84130,1,0,0:0:0:0:
448,192,84195,128,0,84260:0:0:0:0:
192,192,84260,1,0,0:0:0:0:
320,192,84325,1,0,0:0:0:0:
64,192,84390,1,0,0:0:0:0:
320,192,84455,1,0,0:0:0:0:
192,192,84519,1,0,0:0:0:0:
448,192,84584,1,0,0:0:0:0:
192,192,84649,1,0,0:0:0:0:
64,192,84649,128,0,85558:0:0:0:0:
320,192,85299,128,0,85364:0:0:0:0:
320,192,85429,128,0,85558:0:0:0:0:
448,192,85688,1,0,0:0:0:0:
320,192,85688,1,0,0:0:0:0:
192,192,85948,128,0,86078:0:0:0:0:
64,192,85948,1,0,0:0:0:0:
320,192,86208,128,0,86338:0:0:0:0:
448,192,86468,1,0,0:0:0:0:
320,192,86532,128,0,86662:0:0:0:0:
192,192,86597,1,0,0:0:0:0:
64,192,86662,128,0,86857:0:0:0:0:
192,192,86727,1,0,0:0:0:0:
448,192,86857,128,0,87052:0:0:0:0:
320,192,87117,128,0,87312:0:0:0:0:
448,192,87506,1,0,0:0:0:0:
64,192,87506,128,0,87766:0:0:0:0:
320,192,87636,1,0,0:0:0:0:
192,192,87766,1,0,0:0:0:0:
448,192,87961,128,0,88221:0:0:0:0:
192,192,88221,128,0,88286:0:0:0:0:
320,192,88286,1,0,0:0:0:0:
192,192,88351,128,0,88416:0:0:0:0:
448,192,88416,1,0,0:0:0:0:
320,192,88481,1,0,0:0:0:0:
192,192,88545,1,0,0:0:0:0:
64,192,88610,1,0,0:0:0:0:
192,192,88675,1,0,0:0:0:0:
448,192,88740,128,0,88935:0:0:0:0:
320,192,88805,1,0,0:0:0:0:
64,192,89000,128,0,89195:0:0:0:0:
320,192,89260,128,0,89455:0:0:0:0:
192,192,89584,128,0,89844:0:0:0:0:
448,192,89844,1,0,0:0:0:0:
320,192,89844,1,0,0:0:0:0:
448,192,90039,128,0,90234:0:0:0:0:
192,192,90104,1,0,0:0:0:0:
64,192,90104,1,0,0:0:0:0:
64,192,90299,128,0,90364:0:0:0:0:
320,192,90364,1,0,0:0:0:0:
64,192,90429,128,0,90494:0:0:0:0:
320,192,90623,1,0,0:0:0:0:
192,192,90688,1,0,0:0:0:0:
64,192,90753,1,0,0:0:0:0:
192,192,90818,128,0,91013:0:0:0:0:
320,192,90883,1,0,0:0:0:0:
448,192,91013,128,0,91143:0:0:0:0:
320,192,91143,128,0,91273:0:0:0:0:
192,192,91338,128,0,91468:0:0:0:0:
448,192,91468,128,0,91662:0:0:0:0:
192,192,91662,1,0,0:0:0:0:
64,192,91662,1,0,0:0:0:0:
448,192,91792,1,0,0:0:0:0:
320,192,91792,1,0,0:0:0:0:
192,192,91922,1,0,0:0:0:0:
64,192,91922,1,0,0:0:0:0:
320,192,91987,128,0,92247:0:0:0:0:
64,192,92312,128,0,92377:0:0:0:0:
448,192,92442,128,0,92571:0:0:0:0:
320,192,92506,1,0,0:0:0:0:
192,192,92571,1,0,0:0:0:0:
320,192,92636,1,0,0:0:0:0:
448,192,92701,1,0,0:0:0:0:
192,192,92766,128,0,92896:0:0:0:0:
320,192,92831,1,0,0:0:0:0:
448,192,92896,1,0,0:0:0:0:
192,192,92961,1,0,0:0:0:0:
64,192,92961,1,0,0:0:0:0:
320,192,93091,128,0,93221:0:0:0:0:
64,192,93221,128,0,93351:0:0:0:0:
448,192,93416,128,0,93740:0:0:0:0:
448,192,94000,1,0,0:0:0:0:
320,192,94000,1,0,0:0:0:0:
64,192,94065,128,0,94260:0:0:0:0:
448,192,94260,1,0,0:0:0:0:
320,192,94260,1,0,0:0:0:0:
192,192,94390,128,0,94455:0:0:0:0:
448,192,94519,128,0,94584:0:0:0:0:
64,192,94779,1,0,0:0:0:0:
320,192,94844,128,0,95039:0:0:0:0:
192,192,94909,1,0,0:0:0:0:
64,192,94974,1,0,0:0:0:0:
192,192,95039,1,0,0:0:0:0:
448,192,95169,128,0,95299:0:0:0:0:
192,192,95494,128,0,95623:0:0:0:0:
320,192,95818,128,0,95948:0:0:0:0:
64,192,95818,1,0,0:0:0:0:
448,192,95948,1,0,0:0:0:0:
192,192,95948,1,0,0:0:0:0:
448,192,96078,1,0,0:0:0:0:
320,192,96078,1,0,0:0:0:0:
64,192,96273,128,0,96468:0:0:0:0:
192,192,96532,128,0,96597:0:0:0:0:
448,192,96597,1,0,0:0:0:0:
192,192,96662,128,0,96727:0:0:0:0:
320,192,96727,1,0,0:0:0:0:
448,192,96792,1,0,0:0:0:0:
320,192,96857,1,0,0:0:0:0:
192,192,96922,1,0,0:0:0:0:
64,192,96987,1,0,0:0:0:0:
448,192,97052,128,0,97182:0:0:0:0:
192,192,97117,1,0,0:0:0:0:
64,192,97117,1,0,0:0:0:0:
192,192,97312,128,0,97442:0:0:0:0:
320,192,97571,128,0,97701:0:0:0:0:
64,192,97896,128,0,98156:0:0:0:0:
320,192,98156,1,0,0:0:0:0:
192,192,98156,1,0,0:0:0:0:
448,192,98351,128,0,98481:0:0:0:0:
192,192,98416,1,0,0:0:0:0:
64,192,98416,1,0,0:0:0:0:
192,192,98610,128,0,98675:0:0:0:0:
320,192,98675,1,0,0:0:0:0:
192,192,98740,128,0,98805:0:0:0:0:
448,192,98935,1,0,0:0:0:0:
192,192,99000,1,0,0:0:0:0:
64,192,99065,1,0,0:0:0:0:
320,192,99130,128,0,99390:0:0:0:0:
192,192,99195,1,0,0:0:0:0:
64,192,99390,128,0,99649:0:0:0:0:
448,192,99649,128,0,99909:0:0:0:0:
448,192,99974,1,0,0:0:0:0:
320,192,99974,1,0,0:0:0:0:
192,192,100039,128,0,100364:0:0:0:0:
448,192,100104,1,0,0:0:0:0:
320,192,100104,1,0,0:0:0:0:
448,192,100234,1,0,0:0:0:0:
320,192,100234,1,0,0:0:0:0:
448,192,100753,1,0,0:0:0:0:
320,192,100818,1,0,0:0:0:0:
192,192,100883,1,0,0:0:0:0:
64,192,100948,1,0,0:0:0:0:
320,192,101013,1,0,0:0:0:0:
448,192,101078,1,0,0:0:0:0:
192,192,101143,1,0,0:0:0:0:
320,192,101208,1,0,0:0:0:0:
448,192,101273,128,0,103351:0:0:0:0:
64,192,101273,1,0,0:0:0:0:
64,192,103351,128,0,103870:0:0:0:0:
192,192,103870,128,0,104390:0:0:0:0:
320,192,104390,128,0,104909:0:0:0:0:
192,192,104909,128,0,105429:0:0:0:0:
448,192,105429,128,0,107506:0:0:0:0:
320,192,107506,128,0,109065:0:0:0:0:
64,192,109065,128,0,109325:0:0:0:0:
192,192,109325,128,0,109584:0:0:0:0:
320,192,109584,128,0,110623:0:0:0:0:
192,192,110623,128,0,111143:0:0:0:0:
448,192,111143,128,0,111662:0:0:0:0:
320,192,111662,128,0,112701:0:0:0:0:
192,192,112701,128,0,113740:0:0:0:0:
448,192,113740,1,0,0:0:0:0:
320,192,113740,128,0,114779:0:0:0:0:
64,192,114779,1,0,0:0:0:0:
448,192,115039,1,0,0:0:0:0:
320,192,115169,1,0,0:0:0:0:
64,192,115299,1,0,0:0:0:0:
448,192,115364,1,0,0:0:0:0:
192,192,115429,1,0,0:0:0:0:
320,192,115494,1,0,0:0:0:0:
64,192,115558,1,0,0:0:0:0:
192,192,115623,1,0,0:0:0:0:
320,192,115688,1,0,0:0:0:0:
448,192,115753,1,0,0:0:0:0:
320,192,115818,1,0,0:0:0:0:
192,192,115883,1,0,0:0:0:0:
64,192,115948,1,0,0:0:0:0:
448,192,116013,1,0,0:0:0:0:
192,192,116078,1,0,0:0:0:0:
448,192,116143,1,0,0:0:0:0:
64,192,116208,1,0,0:0:0:0:
320,192,116273,1,0,0:0:0:0:
64,192,116338,1,0,0:0:0:0:
448,192,116403,1,0,0:0:0:0:
192,192,116468,1,0,0:0:0:0:
320,192,116532,1,0,0:0:0:0:
448,192,116597,1,0,0:0:0:0:
320,192,116662,1,0,0:0:0:0:
192,192,116727,1,0,0:0:0:0:
64,192,116792,1,0,0:0:0:0:
192,192,116857,1,0,0:0:0:0:
320,192,116922,1,0,0:0:0:0:
64,192,116987,1,0,0:0:0:0:
448,192,117052,1,0,0:0:0:0:
64,192,117117,1,0,0:0:0:0:
320,192,117182,1,0,0:0:0:0:
192,192,117247,1,0,0:0:0:0:
320,192,117312,1,0,0:0:0:0:
64,192,117377,1,0,0:0:0:0:
448,192,117442,1,0,0:0:0:0:
320,192,117506,1,0,0:0:0:0:
192,192,117571,1,0,0:0:0:0:
64,192,117636,1,0,0:0:0:0:
192,192,117701,1,0,0:0:0:0:
320,192,117766,1,0,0:0:0:0:
192,192,117831,1,0,0:0:0:0:
448,192,117896,1,0,0:0:0:0:
64,192,117896,1,0,0:0:0:0:
448,192,118675,1,0,0:0:0:0:
320,192,118675,1,0,0:0:0:0:
192,192,118805,1,0,0:0:0:0:
64,192,118805,1,0,0:0:0:0:
320,192,118935,1,0,0:0:0:0:
192,192,118935,1,0,0:0:0:0:
448,192,119455,1,0,0:0:0:0:
320,192,119455,1,0,0:0:0:0:
448,192,119974,1,0,0:0:0:0:
64,192,119974,1,0,0:0:0:0:
448,192,121532,1,0,0:0:0:0:
448,192,121662,1,0,0:0:0:0:
64,192,121662,1,0,0:0:0:0:
192,192,121727,1,0,0:0:0:0:
320,192,121792,1,0,0:0:0:0:
448,192,121825,1,0,0:0:0:0:
64,192,121857,1,0,0:0:0:0:
192,192,121890,1,0,0:0:0:0:
320,192,121922,1,0,0:0:0:0:
448,192,121955,1,0,0:0:0:0:
64,192,121987,1,0,0:0:0:0:
192,192,122019,1,0,0:0:0:0:
448,192,122052,1,0,0:0:0:0:
320,192,122052,1,0,0:0:0:0:
64,192,122117,1,0,0:0:0:0:
448,192,122182,1,0,0:0:0:0:
192,192,122247,1,0,0:0:0:0:
448,192,122312,1,0,0:0:0:0:
320,192,122312,1,0,0:0:0:0:
64,192,122377,1,0,0:0:0:0:
448,192,122442,1,0,0:0:0:0:
192,192,122506,1,0,0:0:0:0:
320,192,122571,1,0,0:0:0:0:
64,192,122571,1,0,0:0:0:0:
192,192,122636,1,0,0:0:0:0:
448,192,122701,1,0,0:0:0:0:
64,192,122766,1,0,0:0:0:0:
320,192,122831,1,0,0:0:0:0:
192,192,122831,1,0,0:0:0:0:
448,192,122896,1,0,0:0:0:0:
64,192,122961,1,0,0:0:0:0:
320,192,123026,1,0,0:0:0:0:
192,192,123091,1,0,0:0:0:0:
64,192,123091,1,0,0:0:0:0:
448,192,123156,1,0,0:0:0:0:
192,192,123221,1,0,0:0:0:0:
320,192,123286,1,0,0:0:0:0:
448,192,123351,1,0,0:0:0:0:
64,192,123351,1,0,0:0:0:0:
192,192,123416,1,0,0:0:0:0:
320,192,123481,1,0,0:0:0:0:
192,192,123545,1,0,0:0:0:0:
448,192,123610,1,0,0:0:0:0:
64,192,123610,1,0,0:0:0:0:
320,192,123675,1,0,0:0:0:0:
192,192,123740,1,0,0:0:0:0:
64,192,123805,1,0,0:0:0:0:
448,192,123870,1,0,0:0:0:0:
320,192,123870,1,0,0:0:0:0:
192,192,123935,1,0,0:0:0:0:
448,192,124000,1,0,0:0:0:0:
320,192,124065,1,0,0:0:0:0:
192,192,124130,1,0,0:0:0:0:
64,192,124130,1,0,0:0:0:0:
320,192,124195,1,0,0:0:0:0:
64,192,124260,1,0,0:0:0:0:
192,192,124325,1,0,0:0:0:0:
448,192,124390,1,0,0:0:0:0:
320,192,124390,1,0,0:0:0:0:
192,192,124455,1,0,0:0:0:0:
448,192,124519,1,0,0:0:0:0:
64,192,124584,1,0,0:0:0:0:
448,192,124649,1,0,0:0:0:0:
320,192,124649,1,0,0:0:0:0:
192,192,124714,1,0,0:0:0:0:
448,192,124779,1,0,0:0:0:0:
64,192,124844,1,0,0:0:0:0:
320,192,124909,1,0,0:0:0:0:
192,192,124909,1,0,0:0:0:0:
448,192,124974,1,0,0:0:0:0:
64,192,125039,1,0,0:0:0:0:
320,192,125104,1,0,0:0:0:0:
192,192,125169,1,0,0:0:0:0:
64,192,125169,1,0,0:0:0:0:
448,192,125234,1,0,0:0:0:0:
320,192,125299,1,0,0:0:0:0:
192,192,125364,1,0,0:0:0:0:
448,192,125429,1,0,0:0:0:0:
64,192,125429,1,0,0:0:0:0:
320,192,125494,1,0,0:0:0:0:
192,192,125558,1,0,0:0:0:0:
448,192,125623,1,0,0:0:0:0:
192,192,125688,1,0,0:0:0:0:
64,192,125688,1,0,0:0:0:0:
320,192,125753,1,0,0:0:0:0:
448,192,125818,1,0,0:0:0:0:
192,192,125883,1,0,0:0:0:0:
448,192,125948,1,0,0:0:0:0:
64,192,125948,1,0,0:0:0:0:
320,192,126013,1,0,0:0:0:0:
192,192,126078,1,0,0:0:0:0:
320,192,126143,1,0,0:0:0:0:
192,192,126208,1,0,0:0:0:0:
64,192,126208,1,0,0:0:0:0:
448,192,126273,1,0,0:0:0:0:
64,192,126338,1,0,0:0:0:0:
320,192,126403,1,0,0:0:0:0:
448,192,126468,1,0,0:0:0:0:
64,192,126468,1,0,0:0:0:0:
192,192,126532,1,0,0:0:0:0:
320,192,126597,1,0,0:0:0:0:
448,192,126662,1,0,0:0:0:0:
192,192,126727,1,0,0:0:0:0:
64,192,126727,1,0,0:0:0:0:
320,192,126792,1,0,0:0:0:0:
192,192,126857,1,0,0:0:0:0:
448,192,126922,1,0,0:0:0:0:
320,192,126987,1,0,0:0:0:0:
192,192,126987,1,0,0:0:0:0:
64,192,127052,1,0,0:0:0:0:
448,192,127117,1,0,0:0:0:0:
192,192,127182,1,0,0:0:0:0:
448,192,127247,1,0,0:0:0:0:
320,192,127247,1,0,0:0:0:0:
64,192,127312,1,0,0:0:0:0:
448,192,127377,1,0,0:0:0:0:
192,192,127442,1,0,0:0:0:0:
448,192,127506,1,0,0:0:0:0:
320,192,127506,1,0,0:0:0:0:
64,192,127571,1,0,0:0:0:0:
192,192,127636,1,0,0:0:0:0:
320,192,127701,1,0,0:0:0:0:
448,192,127766,1,0,0:0:0:0:
64,192,127766,1,0,0:0:0:0:
320,192,127831,1,0,0:0:0:0:
192,192,127896,1,0,0:0:0:0:
64,192,127961,1,0,0:0:0:0:
448,192,128026,1,0,0:0:0:0:
192,192,128026,1,0,0:0:0:0:
320,192,128091,1,0,0:0:0:0:
448,192,128156,1,0,0:0:0:0:
64,192,128221,1,0,0:0:0:0:
320,192,128286,1,0,0:0:0:0:
192,192,128286,1,0,0:0:0:0:
448,192,128351,1,0,0:0:0:0:
192,192,128416,1,0,0:0:0:0:
320,192,128481,1,0,0:0:0:0:
448,192,128545,1,0,0:0:0:0:
64,192,128545,1,0,0:0:0:0:
192,192,128610,1,0,0:0:0:0:
320,192,128675,1,0,0:0:0:0:
192,192,128740,1,0,0:0:0:0:
448,192,128805,1,0,0:0:0:0:
64,192,128805,1,0,0:0:0:0:
320,192,128870,1,0,0:0:0:0:
192,192,128935,1,0,0:0:0:0:
320,192,129000,1,0,0:0:0:0:
192,192,129065,1,0,0:0:0:0:
64,192,129065,1,0,0:0:0:0:
448,192,129130,1,0,0:0:0:0:
64,192,129195,1,0,0:0:0:0:
320,192,129260,1,0,0:0:0:0:
192,192,129325,1,0,0:0:0:0:
64,192,129325,1,0,0:0:0:0:
448,192,129390,1,0,0:0:0:0:
192,192,129455,1,0,0:0:0:0:
320,192,129519,1,0,0:0:0:0:
448,192,129584,1,0,0:0:0:0:
64,192,129584,1,0,0:0:0:0:
192,192,129649,1,0,0:0:0:0:
320,192,129714,1,0,0:0:0:0:
448,192,129779,1,0,0:0:0:0:
320,192,129844,1,0,0:0:0:0:
192,192,129844,1,0,0:0:0:0:
64,192,129909,1,0,0:0:0:0:
448,192,129974,1,0,0:0:0:0:
192,192,130039,1,0,0:0:0:0:
448,192,130104,1,0,0:0:0:0:
320,192,130104,1,0,0:0:0:0:
64,192,130169,1,0,0:0:0:0:
192,192,130234,1,0,0:0:0:0:
320,192,130299,1,0,0:0:0:0:
448,192,130364,1,0,0:0:0:0:
64,192,130364,1,0,0:0:0:0:
192,192,130429,1,0,0:0:0:0:
320,192,130494,1,0,0:0:0:0:
192,192,130558,1,0,0:0:0:0:
448,192,130623,1,0,0:0:0:0:
64,192,130623,1,0,0:0:0:0:
320,192,130688,1,0,0:0:0:0:
192,192,130753,1,0,0:0:0:0:
64,192,130818,1,0,0:0:0:0:
448,192,130883,1,0,0:0:0:0:
320,192,130883,1,0,0:0:0:0:
192,192,130948,1,0,0:0:0:0:
320,192,131013,1,0,0:0:0:0:
64,192,131078,1,0,0:0:0:0:
320,192,131143,1,0,0:0:0:0:
192,192,131143,1,0,0:0:0:0:
448,192,131208,1,0,0:0:0:0:
64,192,131273,1,0,0:0:0:0:
320,192,131338,1,0,0:0:0:0:
192,192,131403,1,0,0:0:0:0:
64,192,131403,1,0,0:0:0:0:
448,192,131468,1,0,0:0:0:0:
192,192,131532,1,0,0:0:0:0:
320,192,131597,1,0,0:0:0:0:
448,192,131662,1,0,0:0:0:0:
64,192,131662,1,0,0:0:0:0:
192,192,131727,1,0,0:0:0:0:
320,192,131792,1,0,0:0:0:0:
448,192,131857,1,0,0:0:0:0:
192,192,131922,1,0,0:0:0:0:
64,192,131922,1,0,0:0:0:0:
320,192,131987,1,0,0:0:0:0:
192,192,132052,1,0,0:0:0:0:
448,192,132117,1,0,0:0:0:0:
320,192,132182,1,0,0:0:0:0:
192,192,132182,1,0,0:0:0:0:
64,192,132247,1,0,0:0:0:0:
448,192,132312,1,0,0:0:0:0:
192,192,132377,1,0,0:0:0:0:
320,192,132442,1,0,0:0:0:0:
64,192,132442,1,0,0:0:0:0:
448,192,132506,1,0,0:0:0:0:
192,192,132571,1,0,0:0:0:0:
320,192,132636,1,0,0:0:0:0:
448,192,132701,1,0,0:0:0:0:
64,192,132701,1,0,0:0:0:0:
320,192,132766,1,0,0:0:0:0:
192,192,132831,1,0,0:0:0:0:
64,192,132896,1,0,0:0:0:0:
448,192,132961,1,0,0:0:0:0:
320,192,132961,1,0,0:0:0:0:
192,192,133026,1,0,0:0:0:0:
320,192,133091,1,0,0:0:0:0:
64,192,133156,1,0,0:0:0:0:
448,192,133221,1,0,0:0:0:0:
192,192,133221,1,0,0:0:0:0:
320,192,133286,1,0,0:0:0:0:
448,192,133351,1,0,0:0:0:0:
192,192,133416,1,0,0:0:0:0:
320,192,133481,1,0,0:0:0:0:
64,192,133481,1,0,0:0:0:0:
192,192,133545,1,0,0:0:0:0:
448,192,133610,1,0,0:0:0:0:
320,192,133675,1,0,0:0:0:0:
448,192,133740,1,0,0:0:0:0:
192,192,133740,1,0,0:0:0:0:
64,192,133805,1,0,0:0:0:0:
320,192,133870,1,0,0:0:0:0:
192,192,133935,1,0,0:0:0:0:
448,192,134000,1,0,0:0:0:0:
320,192,134000,1,0,0:0:0:0:
64,192,134065,1,0,0:0:0:0:
192,192,134130,1,0,0:0:0:0:
320,192,134195,1,0,0:0:0:0:
448,192,134260,1,0,0:0:0:0:
64,192,134260,1,0,0:0:0:0:
192,192,134325,1,0,0:0:0:0:
320,192,134390,1,0,0:0:0:0:
448,192,134455,1,0,0:0:0:0:
320,192,134519,1,0,0:0:0:0:
192,192,134519,1,0,0:0:0:0:
64,192,134584,1,0,0:0:0:0:
448,192,134649,1,0,0:0:0:0:
192,192,134714,1,0,0:0:0:0:
448,192,134779,1,0,0:0:0:0:
320,192,134779,1,0,0:0:0:0:
192,192,134844,1,0,0:0:0:0:
448,192,134909,1,0,0:0:0:0:
64,192,134974,1,0,0:0:0:0:
320,192,135039,1,0,0:0:0:0:
192,192,135039,1,0,0:0:0:0:
448,192,135104,1,0,0:0:0:0:
192,192,135169,1,0,0:0:0:0:
320,192,135234,1,0,0:0:0:0:
448,192,135299,1,0,0:0:0:0:
64,192,135299,1,0,0:0:0:0:
192,192,135364,1,0,0:0:0:0:
320,192,135429,1,0,0:0:0:0:
192,192,135494,1,0,0:0:0:0:
448,192,135558,1,0,0:0:0:0:
320,192,135558,1,0,0:0:0:0:
64,192,135623,1,0,0:0:0:0:
448,192,135688,1,0,0:0:0:0:
320,192,135753,1,0,0:0:0:0:
192,192,135818,1,0,0:0:0:0:
64,192,135818,1,0,0:0:0:0:
448,192,135883,1,0,0:0:0:0:
192,192,135948,1,0,0:0:0:0:
320,192,136013,1,0,0:0:0:0:
448,192,136078,1,0,0:0:0:0:
64,192,136078,1,0,0:0:0:0:
192,192,136143,1,0,0:0:0:0:
320,192,136208,1,0,0:0:0:0:
448,192,136273,1,0,0:0:0:0:
192,192,136338,1,0,0:0:0:0:
64,192,136338,1,0,0:0:0:0:
320,192,136403,1,0,0:0:0:0:
192,192,136468,1,0,0:0:0:0:
448,192,136532,1,0,0:0:0:0:
320,192,136597,1,0,0:0:0:0:
192,192,136597,1,0,0:0:0:0:
64,192,136662,1,0,0:0:0:0:
448,192,136727,1,0,0:0:0:0:
192,192,136792,1,0,0:0:0:0:
448,192,136857,1,0,0:0:0:0:
320,192,136857,1,0,0:0:0:0:
64,192,136922,1,0,0:0:0:0:
192,192,136987,1,0,0:0:0:0:
320,192,137052,1,0,0:0:0:0:
448,192,137117,1,0,0:0:0:0:
64,192,137117,1,0,0:0:0:0:
192,192,137182,1,0,0:0:0:0:
320,192,137247,1,0,0:0:0:0:
192,192,137312,1,0,0:0:0:0:
448,192,137377,1,0,0:0:0:0:
320,192,137377,1,0,0:0:0:0:
192,192,137442,1,0,0:0:0:0:
64,192,137506,1,0,0:0:0:0:
448,192,137571,1,0,0:0:0:0:
192,192,137636,1,0,0:0:0:0:
64,192,137636,1,0,0:0:0:0:
320,192,137701,1,0,0:0:0:0:
192,192,137766,1,0,0:0:0:0:
448,192,137831,1,0,0:0:0:0:
320,192,137896,1,0,0:0:0:0:
192,192,137896,1,0,0:0:0:0:
64,192,137961,1,0,0:0:0:0:
192,192,138026,1,0,0:0:0:0:
320,192,138091,1,0,0:0:0:0:
448,192,138156,1,0,0:0:0:0:
64,192,138156,1,0,0:0:0:0:
192,192,138221,1,0,0:0:0:0:
320,192,138286,1,0,0:0:0:0:
448,192,138351,1,0,0:0:0:0:
192,192,138416,1,0,0:0:0:0:
64,192,138416,1,0,0:0:0:0:
320,192,138481,1,0,0:0:0:0:
192,192,138545,1,0,0:0:0:0:
448,192,138610,1,0,0:0:0:0:
320,192,138675,1,0,0:0:0:0:
192,192,138675,1,0,0:0:0:0:
64,192,138740,1,0,0:0:0:0:
448,192,138805,1,0,0:0:0:0:
192,192,138870,1,0,0:0:0:0:
448,192,138935,1,0,0:0:0:0:
320,192,138935,1,0,0:0:0:0:
64,192,139000,1,0,0:0:0:0:
192,192,139065,1,0,0:0:0:0:
320,192,139130,1,0,0:0:0:0:
448,192,139195,1,0,0:0:0:0:
64,192,139195,1,0,0:0:0:0:
320,192,139260,1,0,0:0:0:0:
192,192,139325,1,0,0:0:0:0:
64,192,139390,1,0,0:0:0:0:
448,192,139455,1,0,0:0:0:0:
192,192,139455,1,0,0:0:0:0:
320,192,139519,1,0,0:0:0:0:
448,192,139584,1,0,0:0:0:0:
64,192,139649,1,0,0:0:0:0:
320,192,139714,1,0,0:0:0:0:
192,192,139714,1,0,0:0:0:0:
448,192,139779,1,0,0:0:0:0:
320,192,139844,1,0,0:0:0:0:
192,192,139909,1,0,0:0:0:0:
448,192,139974,1,0,0:0:0:0:
64,192,139974,1,0,0:0:0:0:
320,192,140039,1,0,0:0:0:0:
192,192,140104,1,0,0:0:0:0:
320,192,140169,1,0,0:0:0:0:
448,192,140234,1,0,0:0:0:0:
64,192,140234,1,0,0:0:0:0:
192,192,140299,1,0,0:0:0:0:
320,192,140364,1,0,0:0:0:0:
448,192,140429,1,0,0:0:0:0:
192,192,140494,1,0,0:0:0:0:
64,192,140494,1,0,0:0:0:0:
320,192,140558,1,0,0:0:0:0:
192,192,140623,1,0,0:0:0:0:
448,192,140688,1,0,0:0:0:0:
320,192,140753,1,0,0:0:0:0:
192,192,140753,1,0,0:0:0:0:
64,192,140818,1,0,0:0:0:0:
448,192,140883,1,0,0:0:0:0:
192,192,140948,1,0,0:0:0:0:
448,192,141013,1,0,0:0:0:0:
320,192,141013,1,0,0:0:0:0:
64,192,141078,1,0,0:0:0:0:
192,192,141143,1,0,0:0:0:0:
320,192,141208,1,0,0:0:0:0:
448,192,141273,1,0,0:0:0:0:
64,192,141273,1,0,0:0:0:0:
192,192,141338,1,0,0:0:0:0:
320,192,141403,1,0,0:0:0:0:
64,192,141468,1,0,0:0:0:0:
448,192,141532,1,0,0:0:0:0:
192,192,141532,1,0,0:0:0:0:
320,192,141597,1,0,0:0:0:0:
448,192,141662,1,0,0:0:0:0:
192,192,141727,1,0,0:0:0:0:
320,192,141792,1,0,0:0:0:0:
64,192,141792,1,0,0:0:0:0:
448,192,141857,1,0,0:0:0:0:
320,192,141922,1,0,0:0:0:0:
192,192,141987,1,0,0:0:0:0:
448,192,142052,1,0,0:0:0:0:
64,192,142052,1,0,0:0:0:0:
320,192,142117,1,0,0:0:0:0:
192,192,142182,1,0,0:0:0:0:
448,192,142247,1,0,0:0:0:0:
320,192,142312,1,0,0:0:0:0:
64,192,142312,1,0,0:0:0:0:
192,192,142377,1,0,0:0:0:0:
320,192,142442,1,0,0:0:0:0:
448,192,142506,1,0,0:0:0:0:
192,192,142571,1,0,0:0:0:0:
64,192,142571,1,0,0:0:0:0:
320,192,142636,1,0,0:0:0:0:
192,192,142701,1,0,0:0:0:0:
64,192,142766,1,0,0:0:0:0:
448,192,142831,1,0,0:0:0:0:
320,192,142831,1,0,0:0:0:0:
192,192,142896,1,0,0:0:0:0:
64,192,142961,1,0,0:0:0:0:
320,192,143026,1,0,0:0:0:0:
192,192,143091,1,0,0:0:0:0:
64,192,143091,1,0,0:0:0:0:
448,192,143156,1,0,0:0:0:0:
192,192,143221,1,0,0:0:0:0:
320,192,143286,1,0,0:0:0:0:
448,192,143351,1,0,0:0:0:0:
64,192,143351,1,0,0:0:0:0:
192,192,143416,1,0,0:0:0:0:
320,192,143481,1,0,0:0:0:0:
192,192,143545,1,0,0:0:0:0:
448,192,143610,1,0,0:0:0:0:
64,192,143610,1,0,0:0:0:0:
320,192,143675,1,0,0:0:0:0:
192,192,143740,1,0,0:0:0:0:
448,192,143805,1,0,0:0:0:0:
320,192,143870,1,0,0:0:0:0:
64,192,143870,1,0,0:0:0:0:
192,192,143935,1,0,0:0:0:0:
320,192,144000,1,0,0:0:0:0:
448,192,144065,1,0,0:0:0:0:
192,192,144130,1,0,0:0:0:0:
64,192,144130,1,0,0:0:0:0:
320,192,144195,1,0,0:0:0:0:
192,192,144260,1,0,0:0:0:0:
64,192,144325,1,0,0:0:0:0:
448,192,144390,1,0,0:0:0:0:
192,192,144390,1,0,0:0:0:0:
320,192,144455,1,0,0:0:0:0:
64,192,144519,1,0,0:0:0:0:
192,192,144584,1,0,0:0:0:0:
448,192,144649,1,0,0:0:0:0:
320,192,144649,1,0,0:0:0:0:
64,192,144714,1,0,0:0:0:0:
448,192,144779,1,0,0:0:0:0:
320,192,144844,1,0,0:0:0:0:
192,192,144909,1,0,0:0:0:0:
64,192,144909,1,0,0:0:0:0:
320,192,144974,1,0,0:0:0:0:
448,192,145039,1,0,0:0:0:0:
192,192,145104,1,0,0:0:0:0:
448,192,145169,1,0,0:0:0:0:
320,192,145169,1,0,0:0:0:0:
192,192,145234,1,0,0:0:0:0:
448,192,145299,1,0,0:0:0:0:
64,192,145364,1,0,0:0:0:0:
320,192,145429,1,0,0:0:0:0:
192,192,145429,1,0,0:0:0:0:
448,192,145494,1,0,0:0:0:0:
192,192,145558,1,0,0:0:0:0:
320,192,145623,1,0,0:0:0:0:
192,192,145688,1,0,0:0:0:0:
64,192,145688,1,0,0:0:0:0:
448,192,145753,1,0,0:0:0:0:
320,192,145818,1,0,0:0:0:0:
192,192,145883,1,0,0:0:0:0:
448,192,145948,1,0,0:0:0:0:
64,192,145948,1,0,0:0:0:0:
192,192,146013,1,0,0:0:0:0:
320,192,146078,1,0,0:0:0:0:
448,192,146143,1,0,0:0:0:0:
192,192,146208,1,0,0:0:0:0:
64,192,146208,1,0,0:0:0:0:
320,192,146273,1,0,0:0:0:0:
192,192,146338,1,0,0:0:0:0:
64,192,146403,1,0,0:0:0:0:
448,192,146468,1,0,0:0:0:0:
192,192,146468,1,0,0:0:0:0:
320,192,146532,1,0,0:0:0:0:
448,192,146597,1,0,0:0:0:0:
192,192,146662,1,0,0:0:0:0:
320,192,146727,1,0,0:0:0:0:
64,192,146727,1,0,0:0:0:0:
192,192,146792,1,0,0:0:0:0:
320,192,146857,1,0,0:0:0:0:
448,192,146922,1,0,0:0:0:0:
192,192,146987,1,0,0:0:0:0:
64,192,146987,1,0,0:0:0:0:
320,192,147052,1,0,0:0:0:0:
192,192,147117,1,0,0:0:0:0:
64,192,147182,1,0,0:0:0:0:
448,192,147247,1,0,0:0:0:0:
320,192,147247,1,0,0:0:0:0:
192,192,147312,1,0,0:0:0:0:
64,192,147377,1,0,0:0:0:0:
448,192,147442,1,0,0:0:0:0:
320,192,147506,1,0,0:0:0:0:
192,192,147506,1,0,0:0:0:0:
64,192,147571,1,0,0:0:0:0:
320,192,147636,1,0,0:0:0:0:
192,192,147701,1,0,0:0:0:0:
448,192,147766,1,0,0:0:0:0:
64,192,147766,1,0,0:0:0:0:
192,192,147831,1,0,0:0:0:0:
320,192,147896,1,0,0:0:0:0:
448,192,147961,1,0,0:0:0:0:
320,192,148026,1,0,0:0:0:0:
192,192,148026,1,0,0:0:0:0:
64,192,148091,1,0,0:0:0:0:
448,192,148156,1,0,0:0:0:0:
192,192,148221,1,0,0:0:0:0:
448,192,148286,1,0,0:0:0:0:
320,192,148286,1,0,0:0:0:0:
64,192,148351,1,0,0:0:0:0:
192,192,148416,1,0,0:0:0:0:
320,192,148481,1,0,0:0:0:0:
448,192,148545,1,0,0:0:0:0:
64,192,148545,1,0,0:0:0:0:
192,192,148610,1,0,0:0:0:0:
320,192,148675,1,0,0:0:0:0:
448,192,148740,1,0,0:0:0:0:
192,192,148805,1,0,0:0:0:0:
64,192,148805,1,0,0:0:0:0:
320,192,148870,1,0,0:0:0:0:
192,192,148935,1,0,0:0:0:0:
448,192,149000,1,0,0:0:0:0:
320,192,149065,1,0,0:0:0:0:
64,192,149065,1,0,0:0:0:0:
192,192,149130,1,0,0:0:0:0:
448,192,149195,1,0,0:0:0:0:
320,192,149260,1,0,0:0:0:0:
192,192,149325,1,0,0:0:0:0:
64,192,149325,1,0,0:0:0:0:
448,192,149390,1,0,0:0:0:0:
192,192,149455,1,0,0:0:0:0:
320,192,149519,1,0,0:0:0:0:
448,192,149584,1,0,0:0:0:0:
64,192,149584,1,0,0:0:0:0:
192,192,149649,1,0,0:0:0:0:
320,192,149714,1,0,0:0:0:0:
448,192,149779,1,0,0:0:0:0:
192,192,149844,1,0,0:0:0:0:
64,192,149844,1,0,0:0:0:0:
320,192,149909,1,0,0:0:0:0:
192,192,149974,1,0,0:0:0:0:
448,192,150039,1,0,0:0:0:0:
320,192,150104,1,0,0:0:0:0:
192,192,150104,1,0,0:0:0:0:
64,192,150169,1,0,0:0:0:0:
448,192,150234,1,0,0:0:0:0:
192,192,150299,1,0,0:0:0:0:
448,192,150364,1,0,0:0:0:0:
320,192,150364,1,0,0:0:0:0:
64,192,150429,1,0,0:0:0:0:
192,192,150494,1,0,0:0:0:0:
320,192,150558,1,0,0:0:0:0:
448,192,150623,1,0,0:0:0:0:
64,192,150623,1,0,0:0:0:0:
320,192,150688,1,0,0:0:0:0:
192,192,150753,1,0,0:0:0:0:
64,192,150818,1,0,0:0:0:0:
448,192,150883,1,0,0:0:0:0:
192,192,150883,1,0,0:0:0:0:
320,192,150948,1,0,0:0:0:0:
64,192,151013,1,0,0:0:0:0:
192,192,151078,1,0,0:0:0:0:
448,192,151143,1,0,0:0:0:0:
320,192,151143,1,0,0:0:0:0:
192,192,151208,1,0,0:0:0:0:
64,192,151273,1,0,0:0:0:0:
448,192,151338,1,0,0:0:0:0:
320,192,151403,1,0,0:0:0:0:
192,192,151403,1,0,0:0:0:0:
64,192,151468,1,0,0:0:0:0:
320,192,151532,1,0,0:0:0:0:
192,192,151597,1,0,0:0:0:0:
448,192,151662,1,0,0:0:0:0:
64,192,151662,1,0,0:0:0:0:
192,192,151727,1,0,0:0:0:0:
320,192,151792,1,0,0:0:0:0:
448,192,151857,1,0,0:0:0:0:
192,192,151922,1,0,0:0:0:0:
64,192,151922,1,0,0:0:0:0:
320,192,151987,1,0,0:0:0:0:
448,192,152052,1,0,0:0:0:0:
192,192,152117,1,0,0:0:0:0:
448,192,152182,1,0,0:0:0:0:
320,192,152182,1,0,0:0:0:0:
192,192,152247,1,0,0:0:0:0:
64,192,152312,1,0,0:0:0:0:
448,192,152377,1,0,0:0:0:0:
192,192,152442,1,0,0:0:0:0:
64,192,152442,1,0,0:0:0:0:
320,192,152506,1,0,0:0:0:0:
192,192,152571,1,0,0:0:0:0:
448,192,152636,1,0,0:0:0:0:
320,192,152701,1,0,0:0:0:0:
192,192,152701,1,0,0:0:0:0:
64,192,152766,1,0,0:0:0:0:
320,192,152831,1,0,0:0:0:0:
192,192,152896,1,0,0:0:0:0:
320,192,152961,1,0,0:0:0:0:
64,192,152961,1,0,0:0:0:0:
192,192,153026,1,0,0:0:0:0:
320,192,153091,1,0,0:0:0:0:
448,192,153156,1,0,0:0:0:0:
192,192,153221,1,0,0:0:0:0:
64,192,153221,1,0,0:0:0:0:
320,192,153286,1,0,0:0:0:0:
448,192,153351,1,0,0:0:0:0:
192,192,153416,1,0,0:0:0:0:
448,192,153481,1,0,0:0:0:0:
64,192,153481,1,0,0:0:0:0:
320,192,153545,1,0,0:0:0:0:
192,192,153610,1,0,0:0:0:0:
64,192,153675,1,0,0:0:0:0:
448,192,153740,1,0,0:0:0:0:
192,192,153740,1,0,0:0:0:0:
320,192,153805,1,0,0:0:0:0:
64,192,153870,1,0,0:0:0:0:
448,192,153935,1,0,0:0:0:0:
320,192,154000,1,0,0:0:0:0:
192,192,154000,1,0,0:0:0:0:
64,192,154065,1,0,0:0:0:0:
448,192,154130,1,0,0:0:0:0:
64,192,154195,1,0,0:0:0:0:
320,192,154260,1,0,0:0:0:0:
192,192,154260,1,0,0:0:0:0:
448,192,154325,1,0,0:0:0:0:
192,192,154390,1,0,0:0:0:0:
320,192,154455,1,0,0:0:0:0:
448,192,154519,1,0,0:0:0:0:
64,192,154519,1,0,0:0:0:0:
192,192,154584,1,0,0:0:0:0:
448,192,154649,1,0,0:0:0:0:
320,192,154714,1,0,0:0:0:0:
192,192,154779,1,0,0:0:0:0:
64,192,154779,1,0,0:0:0:0:
448,192,154844,1,0,0:0:0:0:
192,192,154909,1,0,0:0:0:0:
320,192,154974,1,0,0:0:0:0:
448,192,155039,1,0,0:0:0:0:
64,192,155039,1,0,0:0:0:0:
192,192,155104,1,0,0:0:0:0:
320,192,155169,1,0,0:0:0:0:
192,192,155234,1,0,0:0:0:0:
448,192,155299,1,0,0:0:0:0:
320,192,155299,1,0,0:0:0:0:
192,192,155364,1,0,0:0:0:0:
64,192,155429,1,0,0:0:0:0:
448,192,155494,1,0,0:0:0:0:
320,192,155558,1,0,0:0:0:0:
192,192,155558,1,0,0:0:0:0:
64,192,155623,1,0,0:0:0:0:
448,192,155688,1,0,0:0:0:0:
192,192,155753,1,0,0:0:0:0:
448,192,155818,1,0,0:0:0:0:
320,192,155818,1,0,0:0:0:0:
64,192,155883,1,0,0:0:0:0:
192,192,155948,1,0,0:0:0:0:
320,192,156013,1,0,0:0:0:0:
448,192,156078,1,0,0:0:0:0:
64,192,156078,1,0,0:0:0:0:
192,192,156143,1,0,0:0:0:0:
320,192,156208,1,0,0:0:0:0:
192,192,156273,1,0,0:0:0:0:
448,192,156338,1,0,0:0:0:0:
320,192,156338,1,0,0:0:0:0:
192,192,156403,1,0,0:0:0:0:
64,192,156468,1,0,0:0:0:0:
448,192,156532,1,0,0:0:0:0:
320,192,156597,1,0,0:0:0:0:
192,192,156597,1,0,0:0:0:0:
64,192,156662,1,0,0:0:0:0:
320,192,156727,1,0,0:0:0:0:
192,192,156792,1,0,0:0:0:0:
448,192,156857,1,0,0:0:0:0:
64,192,156857,1,0,0:0:0:0:
320,192,156922,1,0,0:0:0:0:
192,192,156987,1,0,0:0:0:0:
320,192,157052,1,0,0:0:0:0:
192,192,157117,1,0,0:0:0:0:
64,192,157117,1,0,0:0:0:0:
320,192,157182,1,0,0:0:0:0:
448,192,157247,1,0,0:0:0:0:
64,192,157312,1,0,0:0:0:0:
320,192,157377,1,0,0:0:0:0:
192,192,157377,1,0,0:0:0:0:
448,192,157442,1,0,0:0:0:0:
192,192,157506,1,0,0:0:0:0:
320,192,157571,1,0,0:0:0:0:
448,192,157636,1,0,0:0:0:0:
64,192,157636,1,0,0:0:0:0:
192,192,157701,1,0,0:0:0:0:
320,192,157766,1,0,0:0:0:0:
192,192,157831,1,0,0:0:0:0:
448,192,157896,1,0,0:0:0:0:
320,192,157896,1,0,0:0:0:0:
64,192,157961,1,0,0:0:0:0:
448,192,158026,1,0,0:0:0:0:
320,192,158091,1,0,0:0:0:0:
192,192,158156,1,0,0:0:0:0:
64,192,158156,1,0,0:0:0:0:
448,192,158221,1,0,0:0:0:0:
192,192,158286,1,0,0:0:0:0:
320,192,158351,1,0,0:0:0:0:
448,192,158416,1,0,0:0:0:0:
64,192,158416,1,0,0:0:0:0:
192,192,158481,1,0,0:0:0:0:
320,192,158545,1,0,0:0:0:0:
192,192,158610,1,0,0:0:0:0:
448,192,158675,1,0,0:0:0:0:
320,192,158675,1,0,0:0:0:0:
192,192,158740,1,0,0:0:0:0:
64,192,158805,1,0,0:0:0:0:
448,192,158870,1,0,0:0:0:0:
320,192,158935,1,0,0:0:0:0:
192,192,158935,1,0,0:0:0:0:
64,192,159000,1,0,0:0:0:0:
448,192,159065,1,0,0:0:0:0:
192,192,159130,1,0,0:0:0:0:
448,192,159195,1,0,0:0:0:0:
320,192,159195,1,0,0:0:0:0:
64,192,159260,1,0,0:0:0:0:
192,192,159325,1,0,0:0:0:0:
320,192,159390,1,0,0:0:0:0:
192,192,159455,1,0,0:0:0:0:
64,192,159455,1,0,0:0:0:0:
448,192,159519,1,0,0:0:0:0:
192,192,159584,1,0,0:0:0:0:
320,192,159649,1,0,0:0:0:0:
448,192,159714,1,0,0:0:0:0:
64,192,159714,1,0,0:0:0:0:
192,192,159779,1,0,0:0:0:0:
320,192,159844,1,0,0:0:0:0:
448,192,159909,1,0,0:0:0:0:
320,192,159974,1,0,0:0:0:0:
192,192,159974,1,0,0:0:0:0:
64,192,160039,1,0,0:0:0:0:
448,192,160104,1,0,0:0:0:0:
192,192,160169,1,0,0:0:0:0:
320,192,160234,1,0,0:0:0:0:
64,192,160234,1,0,0:0:0:0:
192,192,160299,1,0,0:0:0:0:
448,192,160364,1,0,0:0:0:0:
64,192,160429,1,0,0:0:0:0:
320,192,160494,1,0,0:0:0:0:
192,192,160494,1,0,0:0:0:0:
448,192,160558,1,0,0:0:0:0:
64,192,160623,1,0,0:0:0:0:
320,192,160688,1,0,0:0:0:0:
192,192,160753,1,0,0:0:0:0:
64,192,160753,1,0,0:0:0:0:
448,192,160818,1,0,0:0:0:0:
320,192,160883,1,0,0:0:0:0:
448,192,160948,1,0,0:0:0:0:
192,192,161013,1,0,0:0:0:0:
64,192,161013,1,0,0:0:0:0:
320,192,161078,1,0,0:0:0:0:
448,192,161143,1,0,0:0:0:0:
64,192,161208,1,0,0:0:0:0:
320,192,161273,1,0,0:0:0:0:
192,192,161273,1,0,0:0:0:0:
448,192,161338,1,0,0:0:0:0:
192,192,161403,1,0,0:0:0:0:
320,192,161468,1,0,0:0:0:0:
448,192,161532,1,0,0:0:0:0:
64,192,161532,1,0,0:0:0:0:
320,192,161597,1,0,0:0:0:0:
192,192,161662,1,0,0:0:0:0:
64,192,161727,1,0,0:0:0:0:
448,192,161792,1,0,0:0:0:0:
320,192,161792,1,0,0:0:0:0:
192,192,161857,1,0,0:0:0:0:
320,192,161922,1,0,0:0:0:0:
64,192,161987,1,0,0:0:0:0:
448,192,162052,1,0,0:0:0:0:
192,192,162052,1,0,0:0:0:0:
320,192,162117,1,0,0:0:0:0:
64,192,162182,1,0,0:0:0:0:
320,192,162247,1,0,0:0:0:0:
192,192,162312,1,0,0:0:0:0:
64,192,162312,1,0,0:0:0:0:
448,192,162377,1,0,0:0:0:0:
192,192,162442,1,0,0:0:0:0:
320,192,162506,1,0,0:0:0:0:
448,192,162571,1,0,0:0:0:0:
64,192,162571,1,0,0:0:0:0:
192,192,162636,1,0,0:0:0:0:
320,192,162701,1,0,0:0:0:0:
192,192,162766,1,0,0:0:0:0:
448,192,162831,1,0,0:0:0:0:
320,192,162831,1,0,0:0:0:0:
64,192,162896,1,0,0:0:0:0:
448,192,162961,1,0,0:0:0:0:
320,192,163026,1,0,0:0:0:0:
192,192,163091,1,0,0:0:0:0:
64,192,163091,1,0,0:0:0:0:
320,192,163156,1,0,0:0:0:0:
448,192,163221,1,0,0:0:0:0:
192,192,163286,1,0,0:0:0:0:
448,192,163351,1,0,0:0:0:0:
64,192,163351,1,0,0:0:0:0:
192,192,163416,1,0,0:0:0:0:
320,192,163481,1,0,0:0:0:0:
448,192,163545,1,0,0:0:0:0:
320,192,163610,1,0,0:0:0:0:
192,192,163610,1,0,0:0:0:0:
64,192,163675,1,0,0:0:0:0:
448,192,163740,1,0,0:0:0:0:
192,192,163805,1,0,0:0:0:0:
448,192,163870,1,0,0:0:0:0:
320,192,163870,1,0,0:0:0:0:
64,192,163935,1,0,0:0:0:0:
192,192,164000,1,0,0:0:0:0:
320,192,164065,1,0,0:0:0:0:
448,192,164130,1,0,0:0:0:0:
64,192,164130,1,0,0:0:0:0:
320,192,164195,1,0,0:0:0:0:
192,192,164260,1,0,0:0:0:0:
448,192,164325,1,0,0:0:0:0:
320,192,164390,1,0,0:0:0:0:
192,192,164390,1,0,0:0:0:0:
448,192,164455,1,0,0:0:0:0:
64,192,164519,1,0,0:0:0:0:
192,192,164584,1,0,0:0:0:0:
448,192,164649,1,0,0:0:0:0:
320,192,164649,1,0,0:0:0:0:
192,192,164714,1,0,0:0:0:0:
64,192,164779,1,0,0:0:0:0:
320,192,164844,1,0,0:0:0:0:
192,192,164909,1,0,0:0:0:0:
64,192,164909,1,0,0:0:0:0:
320,192,164974,1,0,0:0:0:0:
448,192,165039,1,0,0:0:0:0:
192,192,165104,1,0,0:0:0:0:
320,192,165169,1,0,0:0:0:0:
64,192,165169,1,0,0:0:0:0:
192,192,165234,1,0,0:0:0:0:
448,192,165299,1,0,0:0:0:0:
320,192,165364,1,0,0:0:0:0:
192,192,165429,1,0,0:0:0:0:
64,192,165429,1,0,0:0:0:0:
448,192,165494,1,0,0:0:0:0:
192,192,165558,1,0,0:0:0:0:
320,192,165623,1,0,0:0:0:0:
448,192,165688,1,0,0:0:0:0:
64,192,165688,1,0,0:0:0:0:
320,192,165753,1,0,0:0:0:0:
192,192,165818,1,0,0:0:0:0:
64,192,165883,1,0,0:0:0:0:
320,192,165948,1,0,0:0:0:0:
192,192,165948,1,0,0:0:0:0:
448,192,166013,1,0,0:0:0:0:
192,192,166078,1,0,0:0:0:0:
320,192,166143,1,0,0:0:0:0:
448,192,166208,1,0,0:0:0:0:
64,192,166208,1,0,0:0:0:0:
320,192,166273,1,0,0:0:0:0:
192,192,166338,1,0,0:0:0:0:
448,192,166403,1,0,0:0:0:0:
320,192,166468,1,0,0:0:0:0:
192,192,166468,1,0,0:0:0:0:
64,192,166532,1,0,0:0:0:0:
320,192,166597,1,0,0:0:0:0:
192,192,166662,1,0,0:0:0:0:
448,192,166727,1,0,0:0:0:0:
320,192,166727,1,0,0:0:0:0:
64,192,166792,1,0,0:0:0:0:
192,192,166857,1,0,0:0:0:0:
320,192,166922,1,0,0:0:0:0:
192,192,166987,1,0,0:0:0:0:
64,192,166987,1,0,0:0:0:0:
448,192,167052,1,0,0:0:0:0:
192,192,167117,1,0,0:0:0:0:
320,192,167182,1,0,0:0:0:0:
448,192,167247,1,0,0:0:0:0:
64,192,167247,1,0,0:0:0:0:
192,192,167312,1,0,0:0:0:0:
320,192,167377,1,0,0:0:0:0:
448,192,167442,1,0,0:0:0:0:
320,192,167506,1,0,0:0:0:0:
192,192,167506,1,0,0:0:0:0:
64,192,167571,1,0,0:0:0:0:
448,192,167636,1,0,0:0:0:0:
192,192,167701,1,0,0:0:0:0:
448,192,167766,1,0,0:0:0:0:
320,192,167766,1,0,0:0:0:0:
64,192,167831,1,0,0:0:0:0:
320,192,167896,1,0,0:0:0:0:
192,192,167961,1,0,0:0:0:0:
448,192,168026,1,0,0:0:0:0:
64,192,168026,1,0,0:0:0:0:
192,192,168091,1,0,0:0:0:0:
320,192,168156,1,0,0:0:0:0:
448,192,168221,1,0,0:0:0:0:
192,192,168286,1,0,0:0:0:0:
64,192,168286,1,0,0:0:0:0:
320,192,168351,1,0,0:0:0:0:
192,192,168416,1,0,0:0:0:0:
448,192,168481,1,0,0:0:0:0:
320,192,168545,1,0,0:0:0:0:
192,192,168545,1,0,0:0:0:0:
64,192,168610,1,0,0:0:0:0:
320,192,168675,1,0,0:0:0:0:
192,192,168740,1,0,0:0:0:0:
448,192,168805,1,0,0:0:0:0:
320,192,168805,1,0,0:0:0:0:
64,192,168870,1,0,0:0:0:0:
448,192,168935,1,0,0:0:0:0:
192,192,169000,1,0,0:0:0:0:
320,192,169065,1,0,0:0:0:0:
64,192,169065,1,0,0:0:0:0:
192,192,169130,1,0,0:0:0:0:
448,192,169195,1,0,0:0:0:0:
320,192,169260,1,0,0:0:0:0:
192,192,169325,1,0,0:0:0:0:
64,192,169325,1,0,0:0:0:0:
448,192,169390,1,0,0:0:0:0:
64,192,169455,1,0,0:0:0:0:
192,192,169519,1,0,0:0:0:0:
448,192,169584,1,0,0:0:0:0:
320,192,169584,1,0,0:0:0:0:
192,192,169649,1,0,0:0:0:0:
448,192,169714,1,0,0:0:0:0:
320,192,169779,1,0,0:0:0:0:
192,192,169844,1,0,0:0:0:0:
64,192,169844,1,0,0:0:0:0:
320,192,169909,1,0,0:0:0:0:
192,192,169974,1,0,0:0:0:0:
448,192,170039,1,0,0:0:0:0:
320,192,170104,1,0,0:0:0:0:
192,192,170104,1,0,0:0:0:0:
64,192,170169,1,0,0:0:0:0:
448,192,170234,1,0,0:0:0:0:
192,192,170299,1,0,0:0:0:0:
448,192,170364,1,0,0:0:0:0:
320,192,170364,1,0,0:0:0:0:
64,192,170429,1,0,0:0:0:0:
192,192,170494,1,0,0:0:0:0:
320,192,170558,1,0,0:0:0:0:
448,192,170623,1,0,0:0:0:0:
64,192,170623,1,0,0:0:0:0:
192,192,170688,1,0,0:0:0:0:
320,192,170753,1,0,0:0:0:0:
192,192,170818,1,0,0:0:0:0:
448,192,170883,1,0,0:0:0:0:
64,192,170883,1,0,0:0:0:0:
320,192,170948,1,0,0:0:0:0:
192,192,171013,1,0,0:0:0:0:
64,192,171078,1,0,0:0:0:0:
448,192,171143,1,0,0:0:0:0:
192,192,171143,1,0,0:0:0:0:
320,192,171208,1,0,0:0:0:0:
192,192,171273,1,0,0:0:0:0:
448,192,171338,1,0,0:0:0:0:
320,192,171403,1,0,0:0:0:0:
192,192,171403,1,0,0:0:0:0:
64,192,171468,1,0,0:0:0:0:
320,192,171532,1,0,0:0:0:0:
192,192,171597,1,0,0:0:0:0:
448,192,171662,1,0,0:0:0:0:
64,192,171662,1,0,0:0:0:0:
320,192,171727,1,0,0:0:0:0:
64,192,171792,1,0,0:0:0:0:
192,192,171857,1,0,0:0:0:0:
448,192,171922,1,0,0:0:0:0:
320,192,171922,1,0,0:0:0:0:
64,192,171987,1,0,0:0:0:0:
192,192,172052,1,0,0:0:0:0:
320,192,172117,1,0,0:0:0:0:
448,192,172182,1,0,0:0:0:0:
64,192,172182,1,0,0:0:0:0:
192,192,172247,1,0,0:0:0:0:
320,192,172312,1,0,0:0:0:0:
192,192,172377,1,0,0:0:0:0:
448,192,172442,1,0,0:0:0:0:
320,192,172442,1,0,0:0:0:0:
192,192,172506,1,0,0:0:0:0:
64,192,172571,1,0,0:0:0:0:
448,192,172636,1,0,0:0:0:0:
320,192,172701,1,0,0:0:0:0:
192,192,172701,1,0,0:0:0:0:
64,192,172766,1,0,0:0:0:0:
320,192,172831,1,0,0:0:0:0:
192,192,172896,1,0,0:0:0:0:
448,192,172961,1,0,0:0:0:0:
320,192,172961,1,0,0:0:0:0:
64,192,173026,1,0,0:0:0:0:
192,192,173091,1,0,0:0:0:0:
320,192,173156,1,0,0:0:0:0:
64,192,173221,1,0,0:0:0:0:
448,192,173221,1,0,0:0:0:0:
192,192,173286,1,0,0:0:0:0:
320,192,173351,1,0,0:0:0:0:
448,192,173416,1,0,0:0:0:0:
320,192,173481,1,0,0:0:0:0:
192,192,173481,1,0,0:0:0:0:
64,192,173545,1,0,0:0:0:0:
192,192,173610,1,0,0:0:0:0:
320,192,173675,1,0,0:0:0:0:
448,192,173740,1,0,0:0:0:0:
64,192,173740,1,0,0:0:0:0:
320,192,173805,1,0,0:0:0:0:
448,192,173870,1,0,0:0:0:0:
192,192,173935,1,0,0:0:0:0:
320,192,174000,1,0,0:0:0:0:
64,192,174000,1,0,0:0:0:0:
192,192,174065,1,0,0:0:0:0:
64,192,174130,1,0,0:0:0:0:
448,192,174195,1,0,0:0:0:0:
320,192,174260,1,0,0:0:0:0:
192,192,174260,1,0,0:0:0:0:
64,192,174325,1,0,0:0:0:0:
320,192,174390,1,0,0:0:0:0:
192,192,174455,1,0,0:0:0:0:
448,192,174519,1,0,0:0:0:0:
64,192,174519,1,0,0:0:0:0:
320,192,174584,1,0,0:0:0:0:
448,192,174649,1,0,0:0:0:0:
192,192,174714,1,0,0:0:0:0:
320,192,174779,1,0,0:0:0:0:
64,192,174779,1,0,0:0:0:0:
192,192,174844,1,0,0:0:0:0:
64,192,174909,1,0,0:0:0:0:
192,192,174974,1,0,0:0:0:0:
448,192,175039,1,0,0:0:0:0:
320,192,175039,1,0,0:0:0:0:
64,192,175104,1,0,0:0:0:0:
192,192,175169,1,0,0:0:0:0:
320,192,175234,1,0,0:0:0:0:
448,192,175299,1,0,0:0:0:0:
64,192,175299,1,0,0:0:0:0:
192,192,175364,1,0,0:0:0:0:
320,192,175429,1,0,0:0:0:0:
448,192,175493,1,0,0:0:0:0:
320,192,175558,1,0,0:0:0:0:
192,192,175558,1,0,0:0:0:0:
64,192,175623,1,0,0:0:0:0:
448,192,175688,1,0,0:0:0:0:
192,192,175753,1,0,0:0:0:0:
448,192,175818,1,0,0:0:0:0:
320,192,175818,1,0,0:0:0:0:
192,192,175883,1,0,0:0:0:0:
64,192,175948,1,0,0:0:0:0:
192,192,176013,1,0,0:0:0:0:
448,192,176078,1,0,0:0:0:0:
64,192,176078,1,0,0:0:0:0:
320,192,176143,1,0,0:0:0:0:
192,192,176208,1,0,0:0:0:0:
320,192,176273,1,0,0:0:0:0:
448,192,176338,1,0,0:0:0:0:
64,192,176338,1,0,0:0:0:0:
192,192,176403,1,0,0:0:0:0:
320,192,176468,1,0,0:0:0:0:
192,192,176532,1,0,0:0:0:0:
448,192,176597,1,0,0:0:0:0:
320,192,176597,1,0,0:0:0:0:
64,192,176662,1,0,0:0:0:0:
448,192,176727,1,0,0:0:0:0:
192,192,176792,1,0,0:0:0:0:
320,192,176857,1,0,0:0:0:0:
64,192,176857,1,0,0:0:0:0:
192,192,176922,1,0,0:0:0:0:
320,192,176987,1,0,0:0:0:0:
448,192,177052,1,0,0:0:0:0:
320,192,177117,1,0,0:0:0:0:
192,192,177117,1,0,0:0:0:0:
64,192,177182,1,0,0:0:0:0:
448,192,177247,1,0,0:0:0:0:
192,192,177312,1,0,0:0:0:0:
448,192,177377,1,0,0:0:0:0:
320,192,177377,1,0,0:0:0:0:
192,192,177442,1,0,0:0:0:0:
320,192,177506,1,0,0:0:0:0:
448,192,177571,1,0,0:0:0:0:
320,192,177636,1,0,0:0:0:0:
192,192,177636,1,0,0:0:0:0:
448,192,177701,1,0,0:0:0:0:
64,192,177766,1,0,0:0:0:0:
448,192,177831,1,0,0:0:0:0:
320,192,177896,1,0,0:0:0:0:
192,192,177896,1,0,0:0:0:0:
64,192,177961,1,0,0:0:0:0:
192,192,178026,1,0,0:0:0:0:
64,192,178091,1,0,0:0:0:0:
448,192,178156,1,0,0:0:0:0:
192,192,178156,1,0,0:0:0:0:
320,192,178221,1,0,0:0:0:0:
192,192,178286,1,0,0:0:0:0:
320,192,178351,1,0,0:0:0:0:
448,192,178416,1,0,0:0:0:0:
64,192,178416,1,0,0:0:0:0:
192,192,178481,1,0,0:0:0:0:
320,192,178545,1,0,0:0:0:0:
448,192,178610,1,0,0:0:0:0:
320,192,178675,1,0,0:0:0:0:
192,192,178675,1,0,0:0:0:0:
64,192,178740,1,0,0:0:0:0:
448,192,178805,1,0,0:0:0:0:
192,192,178870,1,0,0:0:0:0:
448,192,178935,1,0,0:0:0:0:
320,192,178935,1,0,0:0:0:0:
64,192,179000,1,0,0:0:0:0:
192,192,179065,1,0,0:0:0:0:
320,192,179130,1,0,0:0:0:0:
448,192,179195,1,0,0:0:0:0:
64,192,179195,1,0,0:0:0:0:
320,192,179260,1,0,0:0:0:0:
448,192,179325,1,0,0:0:0:0:
192,192,179390,1,0,0:0:0:0:
320,192,179455,1,0,0:0:0:0:
64,192,179455,1,0,0:0:0:0:
192,192,179519,1,0,0:0:0:0:
320,192,179584,1,0,0:0:0:0:
448,192,179649,1,0,0:0:0:0:
192,192,179714,1,0,0:0:0:0:
64,192,179714,1,0,0:0:0:0:
320,192,179779,1,0,0:0:0:0:
64,192,179844,1,0,0:0:0:0:
192,192,179909,1,0,0:0:0:0:
448,192,179974,1,0,0:0:0:0:
64,192,179974,1,0,0:0:0:0:
192,192,180039,1,0,0:0:0:0:
320,192,180104,1,0,0:0:0:0:
448,192,180169,1,0,0:0:0:0:
320,192,180234,1,0,0:0:0:0:
192,192,180234,1,0,0:0:0:0:
64,192,180299,1,0,0:0:0:0:
448,192,180364,1,0,0:0:0:0:
320,192,180364,1,0,0:0:0:0:
192,192,180429,1,0,0:0:0:0:
448,192,180493,1,0,0:0:0:0:
320,192,180493,1,0,0:0:0:0:
192,192,180558,1,0,0:0:0:0:
448,192,180623,1,0,0:0:0:0:
64,192,180623,1,0,0:0:0:0:
320,192,180688,1,0,0:0:0:0:
192,192,180753,1,0,0:0:0:0:
64,192,180753,1,0,0:0:0:0:
320,192,180818,1,0,0:0:0:0:
192,192,180883,1,0,0:0:0:0:
64,192,180883,1,0,0:0:0:0:
448,192,180948,1,0,0:0:0:0:
320,192,181013,1,0,0:0:0:0:
192,192,181013,1,0,0:0:0:0:
64,192,181078,1,0,0:0:0:0:
448,192,181143,1,0,0:0:0:0:
320,192,181143,1,0,0:0:0:0:
192,192,181208,1,0,0:0:0:0:
448,192,181273,1,0,0:0:0:0:
320,192,181273,1,0,0:0:0:0:
64,192,181338,1,0,0:0:0:0:
448,192,181403,1,0,0:0:0:0:
320,192,181403,1,0,0:0:0:0:
192,192,181468,1,0,0:0:0:0:
448,192,181532,1,0,0:0:0:0:
320,192,181532,1,0,0:0:0:0:
64,192,181597,1,0,0:0:0:0:
320,192,181662,1,0,0:0:0:0:
192,192,181662,1,0,0:0:0:0:
448,192,181727,1,0,0:0:0:0:
192,192,181792,1,0,0:0:0:0:
64,192,181792,1,0,0:0:0:0:
320,192,181857,1,0,0:0:0:0:
192,192,181922,1,0,0:0:0:0:
64,192,181922,1,0,0:0:0:0:
448,192,181987,1,0,0:0:0:0:
192,192,182052,1,0,0:0:0:0:
64,192,182052,1,0,0:0:0:0:
320,192,182117,1,0,0:0:0:0:
192,192,182182,1,0,0:0:0:0:
64,192,182182,1,0,0:0:0:0:
448,192,182247,1,0,0:0:0:0:
320,192,182312,1,0,0:0:0:0:
192,192,182312,1,0,0:0:0:0:
64,192,182377,1,0,0:0:0:0:
448,192,182442,1,0,0:0:0:0:
320,192,182442,1,0,0:0:0:0:
192,192,182506,1,0,0:0:0:0:
448,192,182571,1,0,0:0:0:0:
320,192,182571,1,0,0:0:0:0:
192,192,182636,1,0,0:0:0:0:
448,192,182701,1,0,0:0:0:0:
320,192,182701,1,0,0:0:0:0:
64,192,182766,1,0,0:0:0:0:
448,192,182831,1,0,0:0:0:0:
320,192,182831,1,0,0:0:0:0:
192,192,182896,1,0,0:0:0:0:
448,192,182961,1,0,0:0:0:0:
64,192,182961,1,0,0:0:0:0:
320,192,183026,1,0,0:0:0:0:
192,192,183091,1,0,0:0:0:0:
64,192,183091,1,0,0:0:0:0:
448,192,183156,1,0,0:0:0:0:
192,192,183221,1,0,0:0:0:0:
64,192,183221,1,0,0:0:0:0:
320,192,183286,1,0,0:0:0:0:
192,192,183351,1,0,0:0:0:0:
64,192,183351,1,0,0:0:0:0:
448,192,183416,1,0,0:0:0:0:
192,192,183481,1,0,0:0:0:0:
64,192,183481,1,0,0:0:0:0:
320,192,183545,1,0,0:0:0:0:
448,192,183610,1,0,0:0:0:0:
64,192,183610,1,0,0:0:0:0:
192,192,183675,1,0,0:0:0:0:
448,192,183740,1,0,0:0:0:0:
320,192,183740,1,0,0:0:0:0:
192,192,183805,1,0,0:0:0:0:
448,192,183870,1,0,0:0:0:0:
320,192,183870,1,0,0:0:0:0:
64,192,183935,1,0,0:0:0:0:
448,192,184000,1,0,0:0:0:0:
320,192,184000,1,0,0:0:0:0:
192,192,184065,1,0,0:0:0:0:
448,192,184130,1,0,0:0:0:0:
64,192,184130,1,0,0:0:0:0:
320,192,184195,1,0,0:0:0:0:
192,192,184260,1,0,0:0:0:0:
64,192,184260,1,0,0:0:0:0:
320,192,184325,1,0,0:0:0:0:
448,192,184390,1,0,0:0:0:0:
64,192,184390,1,0,0:0:0:0:
192,192,184455,1,0,0:0:0:0:
64,192,184519,1,0,0:0:0:0:
448,192,184584,1,0,0:0:0:0:
320,192,184584,1,0,0:0:0:0:
192,192,184649,1,0,0:0:0:0:
64,192,184714,1,0,0:0:0:0:
448,192,184779,1,0,0:0:0:0:
320,192,184779,1,0,0:0:0:0:
192,192,184844,1,0,0:0:0:0:
448,192,184909,1,0,0:0:0:0:
320,192,184909,1,0,0:0:0:0:
64,192,184974,1,0,0:0:0:0:
192,192,185039,1,0,0:0:0:0:
448,192,185104,1,0,0:0:0:0:
320,192,185104,1,0,0:0:0:0:
64,192,185169,1,0,0:0:0:0:
320,192,185234,1,0,0:0:0:0:
192,192,185299,1,0,0:0:0:0:
64,192,185299,1,0,0:0:0:0:
448,192,185364,1,0,0:0:0:0:
192,192,185429,1,0,0:0:0:0:
64,192,185429,1,0,0:0:0:0:
320,192,185493,1,0,0:0:0:0:
448,192,185558,1,0,0:0:0:0:
192,192,185623,1,0,0:0:0:0:
64,192,185623,1,0,0:0:0:0:
320,192,185688,1,0,0:0:0:0:
448,192,185753,1,0,0:0:0:0:
320,192,185818,1,0,0:0:0:0:
192,192,185818,1,0,0:0:0:0:
64,192,185883,1,0,0:0:0:0:
448,192,185948,1,0,0:0:0:0:
320,192,185948,1,0,0:0:0:0:
64,192,186013,1,0,0:0:0:0:
192,192,186078,1,0,0:0:0:0:
448,192,186143,1,0,0:0:0:0:
320,192,186143,1,0,0:0:0:0:
64,192,186208,1,0,0:0:0:0:
320,192,186273,1,0,0:0:0:0:
192,192,186338,1,0,0:0:0:0:
64,192,186338,1,0,0:0:0:0:
448,192,186403,1,0,0:0:0:0:
192,192,186468,1,0,0:0:0:0:
64,192,186468,1,0,0:0:0:0:
320,192,186532,1,0,0:0:0:0:
448,192,186597,1,0,0:0:0:0:
192,192,186662,1,0,0:0:0:0:
64,192,186662,1,0,0:0:0:0:
320,192,186727,1,0,0:0:0:0:
448,192,186792,1,0,0:0:0:0:
320,192,186857,1,0,0:0:0:0:
192,192,186857,1,0,0:0:0:0:
64,192,186922,1,0,0:0:0:0:
448,192,186987,1,0,0:0:0:0:
320,192,186987,1,0,0:0:0:0:
192,192,187052,1,0,0:0:0:0:
320,192,187117,1,0,0:0:0:0:
192,192,187182,1,0,0:0:0:0:
64,192,187182,1,0,0:0:0:0:
320,192,187247,1,0,0:0:0:0:
192,192,187312,1,0,0:0:0:0:
448,192,187377,1,0,0:0:0:0:
320,192,187377,1,0,0:0:0:0:
64,192,187442,1,0,0:0:0:0:
448,192,187506,1,0,0:0:0:0:
320,192,187506,1,0,0:0:0:0:
64,192,187571,1,0,0:0:0:0:
192,192,187636,1,0,0:0:0:0:
448,192,187701,1,0,0:0:0:0:
320,192,187701,1,0,0:0:0:0:
64,192,187766,1,0,0:0:0:0:
448,192,187831,1,0,0:0:0:0:
192,192,187896,1,0,0:0:0:0:
64,192,187896,1,0,0:0:0:0:
320,192,187961,1,0,0:0:0:0:
192,192,188026,1,0,0:0:0:0:
64,192,188026,1,0,0:0:0:0:
448,192,188091,1,0,0:0:0:0:
320,192,188156,1,0,0:0:0:0:
192,192,188221,1,0,0:0:0:0:
64,192,188221,1,0,0:0:0:0:
320,192,188286,1,0,0:0:0:0:
448,192,188351,1,0,0:0:0:0:
192,192,188416,1,0,0:0:0:0:
64,192,188416,1,0,0:0:0:0:
448,192,188545,1,0,0:0:0:0:
192,192,188610,1,0,0:0:0:0:
448,192,188675,1,0,0:0:0:0:
64,192,188740,1,0,0:0:0:0:
320,192,188805,1,0,0:0:0:0:
192,192,188805,1,0,0:0:0:0:
64,192,188935,1,0,0:0:0:0:
192,192,189065,1,0,0:0:0:0:
320,192,189130,1,0,0:0:0:0:
448,192,189195,1,0,0:0:0:0:
320,192,189260,1,0,0:0:0:0:
192,192,189325,1,0,0:0:0:0:
64,192,189325,1,0,0:0:0:0:
192,192,189455,1,0,0:0:0:0:
320,192,189519,1,0,0:0:0:0:
448,192,189584,1,0,0:0:0:0:
320,192,189649,1,0,0:0:0:0:
192,192,189714,1,0,0:0:0:0:
448,192,189844,1,0,0:0:0:0:
64,192,189844,1,0,0:0:0:0:
320,192,189974,1,0,0:0:0:0:
192,192,190104,1,0,0:0:0:0:
448,192,190169,1,0,0:0:0:0:
320,192,190234,1,0,0:0:0:0:
192,192,190299,1,0,0:0:0:0:
448,192,190364,1,0,0:0:0:0:
320,192,190364,1,0,0:0:0:0:
64,192,190493,1,0,0:0:0:0:
192,192,190558,1,0,0:0:0:0:
448,192,190623,1,0,0:0:0:0:
320,192,190688,1,0,0:0:0:0:
192,192,190753,1,0,0:0:0:0:
448,192,190883,1,0,0:0:0:0:
64,192,190883,1,0,0:0:0:0:
320,192,191013,1,0,0:0:0:0:
192,192,191143,1,0,0:0:0:0:
448,192,191208,1,0,0:0:0:0:
320,192,191273,1,0,0:0:0:0:
192,192,191338,1,0,0:0:0:0:
448,192,191403,1,0,0:0:0:0:
64,192,191403,1,0,0:0:0:0:
192,192,191532,1,0,0:0:0:0:
320,192,191597,1,0,0:0:0:0:
192,192,191662,1,0,0:0:0:0:
448,192,191727,1,0,0:0:0:0:
320,192,191792,1,0,0:0:0:0:
192,192,191922,1,0,0:0:0:0:
64,192,191922,1,0,0:0:0:0:
320,192,192052,1,0,0:0:0:0:
64,192,192182,1,0,0:0:0:0:
448,192,192247,1,0,0:0:0:0:
192,192,192312,1,0,0:0:0:0:
320,192,192377,1,0,0:0:0:0:
192,192,192442,1,0,0:0:0:0:
64,192,192442,1,0,0:0:0:0:
448,192,192571,1,0,0:0:0:0:
320,192,192701,1,0,0:0:0:0:
192,192,192701,1,0,0:0:0:0:
64,192,192766,1,0,0:0:0:0:
448,192,192831,1,0,0:0:0:0:
320,192,192961,1,0,0:0:0:0:
64,192,192961,1,0,0:0:0:0:
192,192,193091,1,0,0:0:0:0:
448,192,193221,1,0,0:0:0:0:
64,192,193286,1,0,0:0:0:0:
192,192,193351,1,0,0:0:0:0:
320,192,193416,1,0,0:0:0:0:
192,192,193481,1,0,0:0:0:0:
64,192,193481,1,0,0:0:0:0:
320,192,193610,1,0,0:0:0:0:
192,192,193675,1,0,0:0:0:0:
448,192,193740,1,0,0:0:0:0:
192,192,193805,1,0,0:0:0:0:
320,192,193870,1,0,0:0:0:0:
448,192,194000,1,0,0:0:0:0:
64,192,194000,1,0,0:0:0:0:
192,192,194130,1,0,0:0:0:0:
320,192,194260,1,0,0:0:0:0:
448,192,194325,1,0,0:0:0:0:
64,192,194390,1,0,0:0:0:0:
320,192,194455,1,0,0:0:0:0:
192,192,194519,1,0,0:0:0:0:
64,192,194519,1,0,0:0:0:0:
448,192,194649,1,0,0:0:0:0:
192,192,194714,1,0,0:0:0:0:
448,192,194779,1,0,0:0:0:0:
320,192,194844,1,0,0:0:0:0:
192,192,194909,1,0,0:0:0:0:
448,192,195039,1,0,0:0:0:0:
64,192,195039,1,0,0:0:0:0:
192,192,195169,1,0,0:0:0:0:
320,192,195299,1,0,0:0:0:0:
192,192,195364,1,0,0:0:0:0:
448,192,195429,1,0,0:0:0:0:
320,192,195493,1,0,0:0:0:0:
192,192,195558,1,0,0:0:0:0:
64,192,195558,1,0,0:0:0:0:
320,192,195688,1,0,0:0:0:0:
448,192,195753,1,0,0:0:0:0:
320,192,195818,1,0,0:0:0:0:
192,192,195883,1,0,0:0:0:0:
64,192,195948,1,0,0:0:0:0:
448,192,196078,1,0,0:0:0:0:
192,192,196078,1,0,0:0:0:0:
320,192,196208,1,0,0:0:0:0:
192,192,196338,1,0,0:0:0:0:
64,192,196338,1,0,0:0:0:0:
320,192,196468,1,0,0:0:0:0:
448,192,196532,1,0,0:0:0:0:
192,192,196597,1,0,0:0:0:0:
64,192,196597,1,0,0:0:0:0:
320,192,196630,1,0,0:0:0:0:
448,192,196662,1,0,0:0:0:0:
64,192,196695,1,0,0:0:0:0:
192,192,196727,1,0,0:0:0:0:
320,192,196760,1,0,0:0:0:0:
448,192,196792,1,0,0:0:0:0:
64,192,196825,1,0,0:0:0:0:
320,192,196857,1,0,0:0:0:0:
192,192,196857,1,0,0:0:0:0:
448,192,196922,1,0,0:0:0:0:
64,192,196987,1,0,0:0:0:0:
320,192,197117,1,0,0:0:0:0:
192,192,197117,1,0,0:0:0:0:
448,192,197247,1,0,0:0:0:0:
192,192,197377,1,0,0:0:0:0:
64,192,197377,1,0,0:0:0:0:
448,192,197442,1,0,0:0:0:0:
320,192,197506,1,0,0:0:0:0:
192,192,197571,1,0,0:0:0:0:
448,192,197636,1,0,0:0:0:0:
320,192,197636,1,0,0:0:0:0:
64,192,197766,1,0,0:0:0:0:
320,192,197831,1,0,0:0:0:0:
448,192,197896,1,0,0:0:0:0:
64,192,197896,1,0,0:0:0:0:
192,192,197961,1,0,0:0:0:0:
448,192,198026,1,0,0:0:0:0:
320,192,198026,1,0,0:0:0:0:
448,192,198156,1,0,0:0:0:0:
320,192,198156,1,0,0:0:0:0:
448,192,198286,1,0,0:0:0:0:
64,192,198286,1,0,0:0:0:0:
192,192,198416,1,0,0:0:0:0:
64,192,198416,1,0,0:0:0:0:
320,192,198481,1,0,0:0:0:0:
448,192,198545,1,0,0:0:0:0:
192,192,198610,1,0,0:0:0:0:
448,192,198675,1,0,0:0:0:0:
320,192,198675,1,0,0:0:0:0:
192,192,198805,1,0,0:0:0:0:
64,192,198805,1,0,0:0:0:0:
448,192,198870,1,0,0:0:0:0:
192,192,198935,1,0,0:0:0:0:
64,192,198935,1,0,0:0:0:0:
320,192,199000,1,0,0:0:0:0:
448,192,199065,1,0,0:0:0:0:
64,192,199065,1,0,0:0:0:0:
192,192,199130,1,0,0:0:0:0:
448,192,199195,1,0,0:0:0:0:
320,192,199195,1,0,0:0:0:0:
192,192,199325,1,0,0:0:0:0:
192,192,199455,1,0,0:0:0:0:
64,192,199455,1,0,0:0:0:0:
448,192,199519,1,0,0:0:0:0:
320,192,199584,1,0,0:0:0:0:
192,192,199649,1,0,0:0:0:0:
448,192,199714,1,0,0:0:0:0:
64,192,199714,1,0,0:0:0:0:
320,192,199844,1,0,0:0:0:0:
192,192,199909,1,0,0:0:0:0:
448,192,199974,1,0,0:0:0:0:
320,192,199974,1,0,0:0:0:0:
64,192,200039,1,0,0:0:0:0:
192,192,200104,1,0,0:0:0:0:
448,192,200234,1,0,0:0:0:0:
320,192,200234,1,0,0:0:0:0:
64,192,200364,1,0,0:0:0:0:
448,192,200493,1,0,0:0:0:0:
192,192,200493,1,0,0:0:0:0:
320,192,200623,1,0,0:0:0:0:
192,192,200656,1,0,0:0:0:0:
64,192,200688,1,0,0:0:0:0:
448,192,200753,1,0,0:0:0:0:
320,192,200753,1,0,0:0:0:0:
192,192,200883,1,0,0:0:0:0:
320,192,200948,1,0,0:0:0:0:
448,192,201013,1,0,0:0:0:0:
64,192,201013,1,0,0:0:0:0:
192,192,201078,1,0,0:0:0:0:
320,192,201143,1,0,0:0:0:0:
192,192,201273,1,0,0:0:0:0:
64,192,201273,1,0,0:0:0:0:
448,192,201403,1,0,0:0:0:0:
320,192,201403,1,0,0:0:0:0:
192,192,201532,1,0,0:0:0:0:
64,192,201532,1,0,0:0:0:0:
320,192,201597,1,0,0:0:0:0:
448,192,201662,1,0,0:0:0:0:
64,192,201727,1,0,0:0:0:0:
320,192,201792,1,0,0:0:0:0:
192,192,201792,1,0,0:0:0:0:
64,192,201922,1,0,0:0:0:0:
192,192,201987,1,0,0:0:0:0:
448,192,202052,1,0,0:0:0:0:
320,192,202052,1,0,0:0:0:0:
192,192,202117,1,0,0:0:0:0:
448,192,202182,1,0,0:0:0:0:
320,192,202182,1,0,0:0:0:0:
192,192,202312,1,0,0:0:0:0:
64,192,202312,1,0,0:0:0:0:
448,192,202442,1,0,0:0:0:0:
192,192,202442,1,0,0:0:0:0:
448,192,202571,1,0,0:0:0:0:
320,192,202571,1,0,0:0:0:0:
192,192,202636,1,0,0:0:0:0:
64,192,202701,1,0,0:0:0:0:
192,192,202766,1,0,0:0:0:0:
448,192,202831,1,0,0:0:0:0:
320,192,202831,1,0,0:0:0:0:
192,192,202961,1,0,0:0:0:0:
64,192,202961,1,0,0:0:0:0:
448,192,203026,1,0,0:0:0:0:
192,192,203091,1,0,0:0:0:0:
64,192,203091,1,0,0:0:0:0:
320,192,203156,1,0,0:0:0:0:
448,192,203221,1,0,0:0:0:0:
192,192,203351,1,0,0:0:0:0:
64,192,203351,1,0,0:0:0:0:
448,192,203481,1,0,0:0:0:0:
192,192,203481,1,0,0:0:0:0:
448,192,203610,1,0,0:0:0:0:
320,192,203610,1,0,0:0:0:0:
64,192,203675,1,0,0:0:0:0:
192,192,203740,1,0,0:0:0:0:
320,192,203805,1,0,0:0:0:0:
448,192,203870,1,0,0:0:0:0:
64,192,203870,1,0,0:0:0:0:
320,192,204000,1,0,0:0:0:0:
192,192,204065,1,0,0:0:0:0:
448,192,204130,1,0,0:0:0:0:
64,192,204130,1,0,0:0:0:0:
192,192,204260,1,0,0:0:0:0:
448,192,204325,1,0,0:0:0:0:
64,192,204325,1,0,0:0:0:0:
320,192,204390,1,0,0:0:0:0:
192,192,204519,1,0,0:0:0:0:
64,192,204519,1,0,0:0:0:0:
448,192,204649,1,0,0:0:0:0:
320,192,204649,1,0,0:0:0:0:
192,192,204779,1,0,0:0:0:0:
448,192,204909,1,0,0:0:0:0:
320,192,204909,1,0,0:0:0:0:
64,192,205039,1,0,0:0:0:0:
320,192,205169,1,0,0:0:0:0:
192,192,205169,1,0,0:0:0:0:
448,192,205234,1,0,0:0:0:0:
192,192,205299,1,0,0:0:0:0:
320,192,205364,1,0,0:0:0:0:
192,192,205429,1,0,0:0:0:0:
64,192,205429,1,0,0:0:0:0:
448,192,205558,1,0,0:0:0:0:
320,192,205558,1,0,0:0:0:0:
192,192,205688,1,0,0:0:0:0:
64,192,205688,1,0,0:0:0:0:
320,192,205753,1,0,0:0:0:0:
448,192,205818,1,0,0:0:0:0:
192,192,205883,1,0,0:0:0:0:
448,192,205948,1,0,0:0:0:0:
320,192,205948,1,0,0:0:0:0:
192,192,206078,1,0,0:0:0:0:
320,192,206143,1,0,0:0:0:0:
448,192,206208,1,0,0:0:0:0:
64,192,206208,1,0,0:0:0:0:
192,192,206273,1,0,0:0:0:0:
320,192,206338,1,0,0:0:0:0:
192,192,206403,1,0,0:0:0:0:
448,192,206468,1,0,0:0:0:0:
64,192,206468,1,0,0:0:0:0:
320,192,206597,1,0,0:0:0:0:
192,192,206597,1,0,0:0:0:0:
192,192,206727,1,0,0:0:0:0:
64,192,206727,1,0,0:0:0:0:
448,192,206792,1,0,0:0:0:0:
320,192,206857,1,0,0:0:0:0:
192,192,206922,1,0,0:0:0:0:
448,192,206987,1,0,0:0:0:0:
64,192,206987,1,0,0:0:0:0:
448,192,207117,1,0,0:0:0:0:
64,192,207117,1,0,0:0:0:0:
448,192,207247,1,0,0:0:0:0:
320,192,207247,1,0,0:0:0:0:
192,192,207312,1,0,0:0:0:0:
64,192,207377,1,0,0:0:0:0:
192,192,207442,1,0,0:0:0:0:
448,192,207506,1,0,0:0:0:0:
320,192,207506,1,0,0:0:0:0:
192,192,207636,1,0,0:0:0:0:
448,192,207766,1,0,0:0:0:0:
64,192,207766,1,0,0:0:0:0:
192,192,207831,1,0,0:0:0:0:
320,192,207896,1,0,0:0:0:0:
448,192,207961,1,0,0:0:0:0:
192,192,208026,1,0,0:0:0:0:
64,192,208026,1,0,0:0:0:0:
320,192,208156,1,0,0:0:0:0:
448,192,208221,1,0,0:0:0:0:
192,192,208286,1,0,0:0:0:0:
64,192,208286,1,0,0:0:0:0:
448,192,208351,1,0,0:0:0:0:
320,192,208416,1,0,0:0:0:0:
192,192,208481,1,0,0:0:0:0:
448,192,208545,1,0,0:0:0:0:
320,192,208545,1,0,0:0:0:0:
192,192,208675,1,0,0:0:0:0:
64,192,208675,1,0,0:0:0:0:
448,192,208805,1,0,0:0:0:0:
64,192,208805,1,0,0:0:0:0:
320,192,208870,1,0,0:0:0:0:
192,192,208935,1,0,0:0:0:0:
64,192,209000,1,0,0:0:0:0:
320,192,209065,1,0,0:0:0:0:
192,192,209065,1,0,0:0:0:0:
448,192,209195,1,0,0:0:0:0:
320,192,209195,1,0,0:0:0:0:
192,192,209325,1,0,0:0:0:0:
64,192,209325,1,0,0:0:0:0:
448,192,209390,1,0,0:0:0:0:
320,192,209455,1,0,0:0:0:0:
192,192,209519,1,0,0:0:0:0:
448,192,209584,1,0,0:0:0:0:
64,192,209584,1,0,0:0:0:0:
448,192,209714,1,0,0:0:0:0:
320,192,209714,1,0,0:0:0:0:
192,192,209844,1,0,0:0:0:0:
64,192,209844,1,0,0:0:0:0:
320,192,209909,1,0,0:0:0:0:
192,192,209974,1,0,0:0:0:0:
448,192,210039,1,0,0:0:0:0:
320,192,210104,1,0,0:0:0:0:
192,192,210104,1,0,0:0:0:0:
64,192,210234,1,0,0:0:0:0:
192,192,210299,1,0,0:0:0:0:
448,192,210364,1,0,0:0:0:0:
320,192,210364,1,0,0:0:0:0:
192,192,210429,1,0,0:0:0:0:
64,192,210493,1,0,0:0:0:0:
448,192,210558,1,0,0:0:0:0:
320,192,210623,1,0,0:0:0:0:
192,192,210623,1,0,0:0:0:0:
192,192,210753,1,0,0:0:0:0:
64,192,210753,1,0,0:0:0:0:
448,192,210883,1,0,0:0:0:0:
320,192,210883,1,0,0:0:0:0:
192,192,210948,1,0,0:0:0:0:
448,192,211013,1,0,0:0:0:0:
64,192,211078,1,0,0:0:0:0:
320,192,211143,1,0,0:0:0:0:
192,192,211143,1,0,0:0:0:0:
448,192,211273,1,0,0:0:0:0:
192,192,211338,1,0,0:0:0:0:
448,192,211403,1,0,0:0:0:0:
320,192,211403,1,0,0:0:0:0:
64,192,211468,1,0,0:0:0:0:
192,192,211532,1,0,0:0:0:0:
320,192,211597,1,0,0:0:0:0:
448,192,211662,1,0,0:0:0:0:
64,192,211662,1,0,0:0:0:0:
320,192,211792,1,0,0:0:0:0:
192,192,211792,1,0,0:0:0:0:
448,192,211922,1,0,0:0:0:0:
64,192,211922,1,0,0:0:0:0:
192,192,211987,1,0,0:0:0:0:
320,192,212052,1,0,0:0:0:0:
192,192,212117,1,0,0:0:0:0:
448,192,212182,1,0,0:0:0:0:
320,192,212182,1,0,0:0:0:0:
192,192,212312,1,0,0:0:0:0:
64,192,212377,1,0,0:0:0:0:
320,192,212442,1,0,0:0:0:0:
192,192,212442,1,0,0:0:0:0:
448,192,212506,1,0,0:0:0:0:
64,192,212571,1,0,0:0:0:0:
448,192,212636,1,0,0:0:0:0:
192,192,212701,1,0,0:0:0:0:
64,192,212701,1,0,0:0:0:0:
320,192,212766,1,0,0:0:0:0:
448,192,212831,1,0,0:0:0:0:
64,192,212896,1,0,0:0:0:0:
320,192,212961,1,0,0:0:0:0:
192,192,212961,1,0,0:0:0:0:
448,192,213091,1,0,0:0:0:0:
320,192,213156,1,0,0:0:0:0:
192,192,213221,1,0,0:0:0:0:
64,192,213221,1,0,0:0:0:0:
448,192,213351,1,0,0:0:0:0:
192,192,213416,1,0,0:0:0:0:
448,192,213481,1,0,0:0:0:0:
320,192,213481,1,0,0:0:0:0:
64,192,213545,1,0,0:0:0:0:
192,192,213610,1,0,0:0:0:0:
448,192,213740,1,0,0:0:0:0:
320,192,213740,1,0,0:0:0:0:
192,192,213805,1,0,0:0:0:0:
64,192,213870,1,0,0:0:0:0:
448,192,214000,1,0,0:0:0:0:
192,192,214000,1,0,0:0:0:0:
320,192,214065,1,0,0:0:0:0:
64,192,214130,1,0,0:0:0:0:
192,192,214195,1,0,0:0:0:0:
448,192,214260,1,0,0:0:0:0:
320,192,214260,1,0,0:0:0:0:
192,192,214390,1,0,0:0:0:0:
320,192,214455,1,0,0:0:0:0:
448,192,214519,1,0,0:0:0:0:
64,192,214519,1,0,0:0:0:0:
192,192,214584,1,0,0:0:0:0:
320,192,214649,1,0,0:0:0:0:
448,192,214779,1,0,0:0:0:0:
64,192,214779,1,0,0:0:0:0:
320,192,214844,1,0,0:0:0:0:
192,192,214909,1,0,0:0:0:0:
192,192,215039,1,0,0:0:0:0:
64,192,215039,1,0,0:0:0:0:
448,192,215104,1,0,0:0:0:0:
320,192,215169,1,0,0:0:0:0:
192,192,215299,1,0,0:0:0:0:
64,192,215299,1,0,0:0:0:0:
320,192,215429,1,0,0:0:0:0:
192,192,215493,1,0,0:0:0:0:
448,192,215558,1,0,0:0:0:0:
64,192,215558,1,0,0:0:0:0:
320,192,215623,1,0,0:0:0:0:
192,192,215688,1,0,0:0:0:0:
448,192,215818,1,0,0:0:0:0:
320,192,215818,1,0,0:0:0:0:
64,192,215883,1,0,0:0:0:0:
192,192,215948,1,0,0:0:0:0:
448,192,216078,1,0,0:0:0:0:
320,192,216078,1,0,0:0:0:0:
192,192,216143,1,0,0:0:0:0:
64,192,216208,1,0,0:0:0:0:
448,192,216338,1,0,0:0:0:0:
192,192,216338,1,0,0:0:0:0:
320,192,216468,1,0,0:0:0:0:
64,192,216532,1,0,0:0:0:0:
320,192,216597,1,0,0:0:0:0:
192,192,216597,1,0,0:0:0:0:
448,192,216662,1,0,0:0:0:0:
64,192,216727,1,0,0:0:0:0:
320,192,216857,1,0,0:0:0:0:
192,192,216857,1,0,0:0:0:0:
448,192,216922,1,0,0:0:0:0:
192,192,216987,1,0,0:0:0:0:
448,192,217117,1,0,0:0:0:0:
320,192,217117,1,0,0:0:0:0:
192,192,217182,1,0,0:0:0:0:
64,192,217247,1,0,0:0:0:0:
448,192,217377,1,0,0:0:0:0:
192,192,217377,1,0,0:0:0:0:
320,192,217506,1,0,0:0:0:0:
192,192,217571,1,0,0:0:0:0:
448,192,217636,1,0,0:0:0:0:
64,192,217636,1,0,0:0:0:0:
320,192,217701,1,0,0:0:0:0:
192,192,217766,1,0,0:0:0:0:
448,192,217896,1,0,0:0:0:0:
64,192,217896,1,0,0:0:0:0:
192,192,217961,1,0,0:0:0:0:
320,192,218026,1,0,0:0:0:0:
448,192,218156,1,0,0:0:0:0:
320,192,218156,1,0,0:0:0:0:
64,192,218221,1,0,0:0:0:0:
192,192,218286,1,0,0:0:0:0:
448,192,218416,1,0,0:0:0:0:
320,192,218416,1,0,0:0:0:0:
192,192,218545,1,0,0:0:0:0:
320,192,218610,1,0,0:0:0:0:
448,192,218675,1,0,0:0:0:0:
64,192,218675,1,0,0:0:0:0:
192,192,218740,1,0,0:0:0:0:
320,192,218805,1,0,0:0:0:0:
192,192,218935,1,0,0:0:0:0:
64,192,218935,1,0,0:0:0:0:
448,192,219000,1,0,0:0:0:0:
192,192,219065,1,0,0:0:0:0:
448,192,219195,1,0,0:0:0:0:
320,192,219195,1,0,0:0:0:0:
192,192,219260,1,0,0:0:0:0:
64,192,219325,1,0,0:0:0:0:
320,192,219455,1,0,0:0:0:0:
192,192,219455,1,0,0:0:0:0:
448,192,219584,1,0,0:0:0:0:
192,192,219649,1,0,0:0:0:0:
448,192,219714,1,0,0:0:0:0:
320,192,219714,1,0,0:0:0:0:
64,192,219779,1,0,0:0:0:0:
192,192,219844,1,0,0:0:0:0:
448,192,219974,1,0,0:0:0:0:
64,192,219974,1,0,0:0:0:0:
192,192,220039,1,0,0:0:0:0:
320,192,220104,1,0,0:0:0:0:
192,192,220234,1,0,0:0:0:0:
64,192,220234,1,0,0:0:0:0:
448,192,220299,1,0,0:0:0:0:
192,192,220364,1,0,0:0:0:0:
448,192,220493,1,0,0:0:0:0:
320,192,220493,1,0,0:0:0:0:
192,192,220623,1,0,0:0:0:0:
320,192,220688,1,0,0:0:0:0:
448,192,220753,1,0,0:0:0:0:
64,192,220753,1,0,0:0:0:0:
192,192,220818,1,0,0:0:0:0:
448,192,220883,1,0,0:0:0:0:
320,192,220883,1,0,0:0:0:0:
192,192,220948,1,0,0:0:0:0:
448,192,221013,1,0,0:0:0:0:
320,192,221013,1,0,0:0:0:0:
192,192,221078,1,0,0:0:0:0:
64,192,221078,1,0,0:0:0:0:
448,192,221143,1,0,0:0:0:0:
320,192,221143,1,0,0:0:0:0:
192,192,221208,1,0,0:0:0:0:
64,192,221208,1,0,0:0:0:0:
448,192,221273,1,0,0:0:0:0:
320,192,221273,1,0,0:0:0:0:
192,192,221338,1,0,0:0:0:0:
64,192,221338,1,0,0:0:0:0:
448,192,221403,1,0,0:0:0:0:
320,192,221403,1,0,0:0:0:0:
192,192,221468,1,0,0:0:0:0:
64,192,221468,1,0,0:0:0:0:
448,192,221532,1,0,0:0:0:0:
320,192,221532,1,0,0:0:0:0:
192,192,221597,1,0,0:0:0:0:
64,192,221597,1,0,0:0:0:0:
448,192,221662,1,0,0:0:0:0:
320,192,221662,1,0,0:0:0:0:
192,192,221727,1,0,0:0:0:0:
64,192,221727,1,0,0:0:0:0:
448,192,221792,1,0,0:0:0:0:
320,192,221792,1,0,0:0:0:0:
192,192,221857,1,0,0:0:0:0:
64,192,221922,1,0,0:0:0:0:
448,192,221987,1,0,0:0:0:0:
192,192,222052,1,0,0:0:0:0:
64,192,222052,1,0,0:0:0:0:
320,192,222117,1,0,0:0:0:0:
192,192,222182,1,0,0:0:0:0:
448,192,222247,1,0,0:0:0:0:
192,192,222312,1,0,0:0:0:0:
64,192,222312,1,0,0:0:0:0:
320,192,222377,1,0,0:0:0:0:
448,192,222442,1,0,0:0:0:0:
64,192,222506,1,0,0:0:0:0:
320,192,222571,1,0,0:0:0:0:
192,192,222571,1,0,0:0:0:0:
448,192,222636,1,0,0:0:0:0:
192,192,222701,1,0,0:0:0:0:
320,192,222766,1,0,0:0:0:0:
448,192,222831,1,0,0:0:0:0:
64,192,222831,1,0,0:0:0:0:
192,192,222896,1,0,0:0:0:0:
320,192,222961,1,0,0:0:0:0:
192,192,223026,1,0,0:0:0:0:
448,192,223091,1,0,0:0:0:0:
320,192,223091,1,0,0:0:0:0:
64,192,223156,1,0,0:0:0:0:
192,192,223221,1,0,0:0:0:0:
320,192,223286,1,0,0:0:0:0:
448,192,223351,1,0,0:0:0:0:
64,192,223351,1,0,0:0:0:0:
320,192,223416,1,0,0:0:0:0:
192,192,223481,1,0,0:0:0:0:
320,192,223545,1,0,0:0:0:0:
448,192,223610,1,0,0:0:0:0:
64,192,223610,1,0,0:0:0:0:
192,192,223675,1,0,0:0:0:0:
64,192,223740,1,0,0:0:0:0:
320,192,223805,1,0,0:0:0:0:
192,192,223870,1,0,0:0:0:0:
64,192,223870,1,0,0:0:0:0:
448,192,223935,1,0,0:0:0:0:
320,192,224000,1,0,0:0:0:0:
192,192,224065,1,0,0:0:0:0:
448,192,224130,1,0,0:0:0:0:
64,192,224130,1,0,0:0:0:0:
192,192,224195,1,0,0:0:0:0:
320,192,224260,1,0,0:0:0:0:
192,192,224325,1,0,0:0:0:0:
448,192,224390,1,0,0:0:0:0:
320,192,224390,1,0,0:0:0:0:
64,192,224455,1,0,0:0:0:0:
192,192,224519,1,0,0:0:0:0:
320,192,224584,1,0,0:0:0:0:
448,192,224649,1,0,0:0:0:0:
64,192,224649,1,0,0:0:0:0:
192,192,224714,1,0,0:0:0:0:
320,192,224779,1,0,0:0:0:0:
192,192,224844,1,0,0:0:0:0:
448,192,224909,1,0,0:0:0:0:
320,192,224909,1,0,0:0:0:0:
64,192,224974,1,0,0:0:0:0:
448,192,225039,1,0,0:0:0:0:
192,192,225104,1,0,0:0:0:0:
320,192,225169,1,0,0:0:0:0:
64,192,225169,1,0,0:0:0:0:
448,192,225234,1,0,0:0:0:0:
192,192,225299,1,0,0:0:0:0:
64,192,225364,1,0,0:0:0:0:
448,192,225429,1,0,0:0:0:0:
320,192,225429,1,0,0:0:0:0:
192,192,225493,1,0,0:0:0:0:
448,192,225558,1,0,0:0:0:0:
320,192,225558,1,0,0:0:0:0:
192,192,225623,1,0,0:0:0:0:
64,192,225623,1,0,0:0:0:0:
448,192,225688,1,0,0:0:0:0:
320,192,225688,1,0,0:0:0:0:
192,192,225753,1,0,0:0:0:0:
448,192,225818,1,0,0:0:0:0:
320,192,225818,1,0,0:0:0:0:
192,192,225883,1,0,0:0:0:0:
448,192,225948,1,0,0:0:0:0:
64,192,225948,1,0,0:0:0:0:
320,192,226013,1,0,0:0:0:0:
192,192,226078,1,0,0:0:0:0:
64,192,226143,1,0,0:0:0:0:
448,192,226208,1,0,0:0:0:0:
320,192,226208,1,0,0:0:0:0:
192,192,226273,1,0,0:0:0:0:
64,192,226338,1,0,0:0:0:0:
192,192,226403,1,0,0:0:0:0:
448,192,226468,1,0,0:0:0:0:
320,192,226468,1,0,0:0:0:0:
64,192,226532,1,0,0:0:0:0:
192,192,226597,1,0,0:0:0:0:
320,192,226662,1,0,0:0:0:0:
448,192,226727,1,0,0:0:0:0:
64,192,226727,1,0,0:0:0:0:
192,192,226792,1,0,0:0:0:0:
320,192,226857,1,0,0:0:0:0:
448,192,226922,1,0,0:0:0:0:
320,192,226987,1,0,0:0:0:0:
192,192,226987,1,0,0:0:0:0:
64,192,227052,1,0,0:0:0:0:
448,192,227117,1,0,0:0:0:0:
192,192,227182,1,0,0:0:0:0:
448,192,227247,1,0,0:0:0:0:
320,192,227247,1,0,0:0:0:0:
64,192,227312,1,0,0:0:0:0:
320,192,227377,1,0,0:0:0:0:
192,192,227442,1,0,0:0:0:0:
320,192,227506,1,0,0:0:0:0:
64,192,227506,1,0,0:0:0:0:
448,192,227571,1,0,0:0:0:0:
320,192,227636,1,0,0:0:0:0:
192,192,227701,1,0,0:0:0:0:
448,192,227766,1,0,0:0:0:0:
64,192,227766,1,0,0:0:0:0:
320,192,227831,1,0,0:0:0:0:
192,192,227896,1,0,0:0:0:0:
64,192,227961,1,0,0:0:0:0:
448,192,228026,1,0,0:0:0:0:
320,192,228026,1,0,0:0:0:0:
64,192,228091,1,0,0:0:0:0:
192,192,228156,1,0,0:0:0:0:
320,192,228221,1,0,0:0:0:0:
448,192,228286,1,0,0:0:0:0:
64,192,228286,1,0,0:0:0:0:
192,192,228351,1,0,0:0:0:0:
320,192,228416,1,0,0:0:0:0:
448,192,228481,1,0,0:0:0:0:
192,192,228545,1,0,0:0:0:0:
64,192,228545,1,0,0:0:0:0:
320,192,228610,1,0,0:0:0:0:
192,192,228675,1,0,0:0:0:0:
320,192,228740,1,0,0:0:0:0:
448,192,228805,1,0,0:0:0:0:
64,192,228805,1,0,0:0:0:0:
192,192,228870,1,0,0:0:0:0:
320,192,228935,1,0,0:0:0:0:
64,192,229000,1,0,0:0:0:0:
448,192,229065,1,0,0:0:0:0:
320,192,229065,1,0,0:0:0:0:
192,192,229130,1,0,0:0:0:0:
448,192,229195,1,0,0:0:0:0:
320,192,229195,1,0,0:0:0:0:
192,192,229260,1,0,0:0:0:0:
64,192,229260,1,0,0:0:0:0:
448,192,229325,1,0,0:0:0:0:
320,192,229325,1,0,0:0:0:0:
192,192,229390,1,0,0:0:0:0:
448,192,229455,1,0,0:0:0:0:
64,192,229455,1,0,0:0:0:0:
320,192,229519,1,0,0:0:0:0:
192,192,229584,1,0,0:0:0:0:
64,192,229584,1,0,0:0:0:0:
320,192,229649,1,0,0:0:0:0:
192,192,229714,1,0,0:0:0:0:
64,192,229714,1,0,0:0:0:0:
448,192,229779,1,0,0:0:0:0:
320,192,229779,1,0,0:0:0:0:
192,192,229844,1,0,0:0:0:0:
64,192,229844,1,0,0:0:0:0:
320,192,229909,1,0,0:0:0:0:
192,192,229974,1,0,0:0:0:0:
64,192,229974,1,0,0:0:0:0:
320,192,230039,1,0,0:0:0:0:
448,192,230104,1,0,0:0:0:0:
64,192,230104,1,0,0:0:0:0:
192,192,230169,1,0,0:0:0:0:
320,192,230234,1,0,0:0:0:0:
448,192,230299,1,0,0:0:0:0:
192,192,230364,1,0,0:0:0:0:
64,192,230364,1,0,0:0:0:0:
320,192,230429,1,0,0:0:0:0:
192,192,230493,1,0,0:0:0:0:
448,192,230558,1,0,0:0:0:0:
320,192,230623,1,0,0:0:0:0:
192,192,230623,1,0,0:0:0:0:
64,192,230688,1,0,0:0:0:0:
448,192,230753,1,0,0:0:0:0:
192,192,230818,1,0,0:0:0:0:
448,192,230883,1,0,0:0:0:0:
320,192,230883,1,0,0:0:0:0:
64,192,230948,1,0,0:0:0:0:
192,192,231013,1,0,0:0:0:0:
320,192,231078,1,0,0:0:0:0:
448,192,231143,1,0,0:0:0:0:
64,192,231143,1,0,0:0:0:0:
192,192,231208,1,0,0:0:0:0:
320,192,231273,1,0,0:0:0:0:
192,192,231338,1,0,0:0:0:0:
320,192,231403,1,0,0:0:0:0:
64,192,231403,1,0,0:0:0:0:
448,192,231468,1,0,0:0:0:0:
320,192,231532,1,0,0:0:0:0:
192,192,231597,1,0,0:0:0:0:
448,192,231662,1,0,0:0:0:0:
64,192,231662,1,0,0:0:0:0:
320,192,231727,1,0,0:0:0:0:
192,192,231792,1,0,0:0:0:0:
64,192,231857,1,0,0:0:0:0:
448,192,231922,1,0,0:0:0:0:
320,192,231922,1,0,0:0:0:0:
192,192,231987,1,0,0:0:0:0:
320,192,232052,1,0,0:0:0:0:
448,192,232117,1,0,0:0:0:0:
192,192,232182,1,0,0:0:0:0:
64,192,232182,1,0,0:0:0:0:
320,192,232247,1,0,0:0:0:0:
192,192,232312,1,0,0:0:0:0:
448,192,232377,1,0,0:0:0:0:
320,192,232442,1,0,0:0:0:0:
64,192,232442,1,0,0:0:0:0:
192,192,232506,1,0,0:0:0:0:
448,192,232571,1,0,0:0:0:0:
320,192,232636,1,0,0:0:0:0:
192,192,232701,1,0,0:0:0:0:
64,192,232701,1,0,0:0:0:0:
448,192,232766,1,0,0:0:0:0:
192,192,232831,1,0,0:0:0:0:
320,192,232896,1,0,0:0:0:0:
448,192,232961,1,0,0:0:0:0:
64,192,232961,1,0,0:0:0:0:
192,192,233026,1,0,0:0:0:0:
320,192,233091,1,0,0:0:0:0:
448,192,233156,1,0,0:0:0:0:
192,192,233221,1,0,0:0:0:0:
64,192,233221,1,0,0:0:0:0:
320,192,233286,1,0,0:0:0:0:
192,192,233351,1,0,0:0:0:0:
448,192,233416,1,0,0:0:0:0:
320,192,233481,1,0,0:0:0:0:
192,192,233481,1,0,0:0:0:0:
64,192,233545,1,0,0:0:0:0:
192,192,233610,1,0,0:0:0:0:
64,192,233675,1,0,0:0:0:0:
448,192,233740,1,0,0:0:0:0:
320,192,233740,1,0,0:0:0:0:
192,192,233805,1,0,0:0:0:0:
448,192,233870,1,0,0:0:0:0:
320,192,233870,1,0,0:0:0:0:
192,192,233935,1,0,0:0:0:0:
64,192,233935,1,0,0:0:0:0:
448,192,234000,1,0,0:0:0:0:
320,192,234000,1,0,0:0:0:0:
192,192,234065,1,0,0:0:0:0:
448,192,234130,1,0,0:0:0:0:
320,192,234130,1,0,0:0:0:0:
192,192,234195,1,0,0:0:0:0:
448,192,234260,1,0,0:0:0:0:
64,192,234260,1,0,0:0:0:0:
320,192,234325,1,0,0:0:0:0:
192,192,234390,1,0,0:0:0:0:
64,192,234455,1,0,0:0:0:0:
448,192,234519,1,0,0:0:0:0:
320,192,234519,1,0,0:0:0:0:
192,192,234584,1,0,0:0:0:0:
320,192,234649,1,0,0:0:0:0:
64,192,234714,1,0,0:0:0:0:
320,192,234779,1,0,0:0:0:0:
192,192,234779,1,0,0:0:0:0:
448,192,234844,1,0,0:0:0:0:
64,192,234909,1,0,0:0:0:0:
192,192,234974,1,0,0:0:0:0:
448,192,235039,1,0,0:0:0:0:
320,192,235039,1,0,0:0:0:0:
192,192,235104,1,0,0:0:0:0:
320,192,235169,1,0,0:0:0:0:
64,192,235234,1,0,0:0:0:0:
448,192,235299,1,0,0:0:0:0:
192,192,235299,1,0,0:0:0:0:
320,192,235364,1,0,0:0:0:0:
192,192,235429,1,0,0:0:0:0:
64,192,235493,1,0,0:0:0:0:
448,192,235558,1,0,0:0:0:0:
320,192,235558,1,0,0:0:0:0:
192,192,235623,1,0,0:0:0:0:
64,192,235688,1,0,0:0:0:0:
448,192,235753,1,0,0:0:0:0:
192,192,235818,1,0,0:0:0:0:
64,192,235818,1,0,0:0:0:0:
320,192,235883,1,0,0:0:0:0:
448,192,235948,1,0,0:0:0:0:
192,192,236013,1,0,0:0:0:0:
448,192,236078,1,0,0:0:0:0:
320,192,236078,1,0,0:0:0:0:
192,192,236143,1,0,0:0:0:0:
64,192,236208,1,0,0:0:0:0:
448,192,236273,1,0,0:0:0:0:
320,192,236338,1,0,0:0:0:0:
192,192,236338,1,0,0:0:0:0:
64,192,236403,1,0,0:0:0:0:
448,192,236468,1,0,0:0:0:0:
192,192,236532,1,0,0:0:0:0:
448,192,236597,1,0,0:0:0:0:
320,192,236597,1,0,0:0:0:0:
64,192,236662,1,0,0:0:0:0:
192,192,236727,1,0,0:0:0:0:
320,192,236792,1,0,0:0:0:0:
448,192,236857,1,0,0:0:0:0:
64,192,236857,1,0,0:0:0:0:
192,192,236922,1,0,0:0:0:0:
320,192,236987,1,0,0:0:0:0:
448,192,237052,1,0,0:0:0:0:
192,192,237117,1,0,0:0:0:0:
64,192,237117,1,0,0:0:0:0:
320,192,237182,1,0,0:0:0:0:
192,192,237247,1,0,0:0:0:0:
64,192,237312,1,0,0:0:0:0:
448,192,237377,1,0,0:0:0:0:
320,192,237377,1,0,0:0:0:0:
192,192,237442,1,0,0:0:0:0:
448,192,237506,1,0,0:0:0:0:
320,192,237506,1,0,0:0:0:0:
192,192,237571,1,0,0:0:0:0:
64,192,237571,1,0,0:0:0:0:
448,192,237636,1,0,0:0:0:0:
320,192,237636,1,0,0:0:0:0:
192,192,237701,1,0,0:0:0:0:
448,192,237766,1,0,0:0:0:0:
64,192,237766,1,0,0:0:0:0:
320,192,237831,1,0,0:0:0:0:
192,192,237896,1,0,0:0:0:0:
64,192,237896,1,0,0:0:0:0:
448,192,237961,1,0,0:0:0:0:
320,192,237961,1,0,0:0:0:0:
192,192,238026,1,0,0:0:0:0:
64,192,238026,1,0,0:0:0:0:
448,192,238091,1,0,0:0:0:0:
320,192,238091,1,0,0:0:0:0:
192,192,238156,1,0,0:0:0:0:
64,192,238156,1,0,0:0:0:0:
448,192,238221,1,0,0:0:0:0:
320,192,238221,1,0,0:0:0:0:
192,192,238286,1,0,0:0:0:0:
64,192,238286,1,0,0:0:0:0:
320,192,238351,1,0,0:0:0:0:
448,192,238416,1,0,0:0:0:0:
64,192,238416,1,0,0:0:0:0:
192,192,238481,1,0,0:0:0:0:
320,192,238545,1,0,0:0:0:0:
448,192,238610,1,0,0:0:0:0:
192,192,238675,1,0,0:0:0:0:
64,192,238675,1,0,0:0:0:0:
320,192,238740,1,0,0:0:0:0:
192,192,238805,1,0,0:0:0:0:
448,192,238870,1,0,0:0:0:0:
320,192,238935,1,0,0:0:0:0:
64,192,238935,1,0,0:0:0:0:
192,192,239000,1,0,0:0:0:0:
448,192,239065,1,0,0:0:0:0:
320,192,239130,1,0,0:0:0:0:
192,192,239195,1,0,0:0:0:0:
64,192,239195,1,0,0:0:0:0:
448,192,239260,1,0,0:0:0:0:
192,192,239325,1,0,0:0:0:0:
320,192,239390,1,0,0:0:0:0:
448,192,239455,1,0,0:0:0:0:
64,192,239455,1,0,0:0:0:0:
192,192,239519,1,0,0:0:0:0:
320,192,239584,1,0,0:0:0:0:
448,192,239649,1,0,0:0:0:0:
192,192,239714,1,0,0:0:0:0:
64,192,239714,1,0,0:0:0:0:
320,192,239779,1,0,0:0:0:0:
192,192,239844,1,0,0:0:0:0:
448,192,239909,1,0,0:0:0:0:
320,192,239974,1,0,0:0:0:0:
192,192,239974,1,0,0:0:0:0:
64,192,240039,1,0,0:0:0:0:
448,192,240104,1,0,0:0:0:0:
192,192,240169,1,0,0:0:0:0:
448,192,240234,1,0,0:0:0:0:
320,192,240234,1,0,0:0:0:0:
64,192,240299,1,0,0:0:0:0:
448,192,240364,1,0,0:0:0:0:
192,192,240429,1,0,0:0:0:0:
448,192,240493,1,0,0:0:0:0:
320,192,240493,1,0,0:0:0:0:
192,192,240558,1,0,0:0:0:0:
64,192,240623,1,0,0:0:0:0:
448,192,240688,1,0,0:0:0:0:
192,192,240753,1,0,0:0:0:0:
64,192,240753,1,0,0:0:0:0:
320,192,240818,1,0,0:0:0:0:
192,192,240883,1,0,0:0:0:0:
448,192,240948,1,0,0:0:0:0:
192,192,241013,1,0,0:0:0:0:
64,192,241013,1,0,0:0:0:0:
320,192,241078,1,0,0:0:0:0:
448,192,241143,1,0,0:0:0:0:
64,192,241208,1,0,0:0:0:0:
320,192,241273,1,0,0:0:0:0:
192,192,241273,1,0,0:0:0:0:
448,192,241338,1,0,0:0:0:0:
192,192,241403,1,0,0:0:0:0:
320,192,241468,1,0,0:0:0:0:
448,192,241532,1,0,0:0:0:0:
64,192,241532,1,0,0:0:0:0:
192,192,241597,1,0,0:0:0:0:
320,192,241662,1,0,0:0:0:0:
192,192,241727,1,0,0:0:0:0:
448,192,241792,1,0,0:0:0:0:
64,192,241792,1,0,0:0:0:0:
320,192,241857,1,0,0:0:0:0:
192,192,241922,1,0,0:0:0:0:
64,192,241987,1,0,0:0:0:0:
448,192,242052,1,0,0:0:0:0:
320,192,242052,1,0,0:0:0:0:
192,192,242117,1,0,0:0:0:0:
448,192,242182,1,0,0:0:0:0:
320,192,242182,1,0,0:0:0:0:
192,192,242247,1,0,0:0:0:0:
64,192,242247,1,0,0:0:0:0:
448,192,242312,1,0,0:0:0:0:
320,192,242312,1,0,0:0:0:0:
192,192,242377,1,0,0:0:0:0:
448,192,242442,1,0,0:0:0:0:
320,192,242442,1,0,0:0:0:0:
192,192,242506,1,0,0:0:0:0:
448,192,242571,1,0,0:0:0:0:
64,192,242571,1,0,0:0:0:0:
320,192,242636,1,0,0:0:0:0:
192,192,242701,1,0,0:0:0:0:
64,192,242766,1,0,0:0:0:0:
448,192,242831,1,0,0:0:0:0:
320,192,242831,1,0,0:0:0:0:
64,192,242896,1,0,0:0:0:0:
192,192,242961,1,0,0:0:0:0:
320,192,243026,1,0,0:0:0:0:
448,192,243091,1,0,0:0:0:0:
64,192,243091,1,0,0:0:0:0:
192,192,243156,1,0,0:0:0:0:
448,192,243221,1,0,0:0:0:0:
320,192,243286,1,0,0:0:0:0:
448,192,243351,1,0,0:0:0:0:
64,192,243351,1,0,0:0:0:0:
192,192,243416,1,0,0:0:0:0:
320,192,243481,1,0,0:0:0:0:
448,192,243545,1,0,0:0:0:0:
192,192,243610,1,0,0:0:0:0:
64,192,243610,1,0,0:0:0:0:
448,192,243675,1,0,0:0:0:0:
64,192,243740,1,0,0:0:0:0:
192,192,243805,1,0,0:0:0:0:
448,192,243870,1,0,0:0:0:0:
320,192,243870,1,0,0:0:0:0:
192,192,243935,1,0,0:0:0:0:
64,192,244000,1,0,0:0:0:0:
448,192,244065,1,0,0:0:0:0:
192,192,244130,1,0,0:0:0:0:
64,192,244130,1,0,0:0:0:0:
320,192,244195,1,0,0:0:0:0:
448,192,244260,1,0,0:0:0:0:
64,192,244325,1,0,0:0:0:0:
320,192,244390,1,0,0:0:0:0:
192,192,244390,1,0,0:0:0:0:
448,192,244455,1,0,0:0:0:0:
192,192,244519,1,0,0:0:0:0:
320,192,244584,1,0,0:0:0:0:
448,192,244649,1,0,0:0:0:0:
64,192,244649,1,0,0:0:0:0:
192,192,244714,1,0,0:0:0:0:
320,192,244779,1,0,0:0:0:0:
192,192,244844,1,0,0:0:0:0:
448,192,244909,1,0,0:0:0:0:
64,192,244909,1,0,0:0:0:0:
320,192,244974,1,0,0:0:0:0:
192,192,245039,1,0,0:0:0:0:
64,192,245104,1,0,0:0:0:0:
448,192,245169,1,0,0:0:0:0:
320,192,245169,1,0,0:0:0:0:
192,192,245234,1,0,0:0:0:0:
448,192,245299,1,0,0:0:0:0:
64,192,245364,1,0,0:0:0:0:
320,192,245429,1,0,0:0:0:0:
192,192,245429,1,0,0:0:0:0:
448,192,245493,1,0,0:0:0:0:
64,192,245558,1,0,0:0:0:0:
320,192,245623,1,0,0:0:0:0:
192,192,245688,1,0,0:0:0:0:
64,192,245688,1,0,0:0:0:0:
320,192,245753,1,0,0:0:0:0:
192,192,245818,1,0,0:0:0:0:
64,192,245818,1,0,0:0:0:0:
448,192,245883,1,0,0:0:0:0:
320,192,245883,1,0,0:0:0:0:
192,192,245948,1,0,0:0:0:0:
64,192,245948,1,0,0:0:0:0:
320,192,246013,1,0,0:0:0:0:
192,192,246078,1,0,0:0:0:0:
64,192,246078,1,0,0:0:0:0:
448,192,246143,1,0,0:0:0:0:
320,192,246143,1,0,0:0:0:0:
192,192,246208,1,0,0:0:0:0:
64,192,246208,1,0,0:0:0:0:
320,192,246273,1,0,0:0:0:0:
192,192,246338,1,0,0:0:0:0:
64,192,246338,1,0,0:0:0:0:
448,192,246403,1,0,0:0:0:0:
320,192,246403,1,0,0:0:0:0:
192,192,246468,1,0,0:0:0:0:
64,192,246468,1,0,0:0:0:0:
320,192,246532,1,0,0:0:0:0:
192,192,246597,1,0,0:0:0:0:
64,192,246597,1,0,0:0:0:0:
448,192,246662,1,0,0:0:0:0:
320,192,246662,1,0,0:0:0:0:
192,192,246727,1,0,0:0:0:0:
64,192,246727,1,0,0:0:0:0:
320,192,246792,1,0,0:0:0:0:
448,192,246857,1,0,0:0:0:0:
64,192,246922,1,0,0:0:0:0:
320,192,246987,1,0,0:0:0:0:
192,192,246987,1,0,0:0:0:0:
448,192,247052,1,0,0:0:0:0:
64,192,247117,1,0,0:0:0:0:
320,192,247182,1,0,0:0:0:0:
448,192,247247,1,0,0:0:0:0:
64,192,247247,1,0,0:0:0:0:
192,192,247312,1,0,0:0:0:0:
320,192,247377,1,0,0:0:0:0:
192,192,247442,1,0,0:0:0:0:
448,192,247506,1,0,0:0:0:0:
320,192,247506,1,0,0:0:0:0:
192,192,247571,1,0,0:0:0:0:
64,192,247636,1,0,0:0:0:0:
448,192,247701,1,0,0:0:0:0:
192,192,247766,1,0,0:0:0:0:
64,192,247766,1,0,0:0:0:0:
320,192,247831,1,0,0:0:0:0:
192,192,247896,1,0,0:0:0:0:
448,192,247961,1,0,0:0:0:0:
320,192,248026,1,0,0:0:0:0:
192,192,248026,1,0,0:0:0:0:
64,192,248091,1,0,0:0:0:0:
448,192,248156,1,0,0:0:0:0:
192,192,248221,1,0,0:0:0:0:
448,192,248286,1,0,0:0:0:0:
320,192,248286,1,0,0:0:0:0:
64,192,248351,1,0,0:0:0:0:
192,192,248416,1,0,0:0:0:0:
320,192,248481,1,0,0:0:0:0:
448,192,248545,1,0,0:0:0:0:
64,192,248545,1,0,0:0:0:0:
192,192,248610,1,0,0:0:0:0:
320,192,248675,1,0,0:0:0:0:
448,192,248740,1,0,0:0:0:0:
320,192,248805,1,0,0:0:0:0:
64,192,248805,1,0,0:0:0:0:
192,192,248870,1,0,0:0:0:0:
64,192,248935,1,0,0:0:0:0:
448,192,249000,1,0,0:0:0:0:
320,192,249065,1,0,0:0:0:0:
192,192,249065,1,0,0:0:0:0:
448,192,249130,1,0,0:0:0:0:
192,192,249195,1,0,0:0:0:0:
320,192,249260,1,0,0:0:0:0:
448,192,249325,1,0,0:0:0:0:
64,192,249325,1,0,0:0:0:0:
192,192,249390,1,0,0:0:0:0:
320,192,249455,1,0,0:0:0:0:
448,192,249519,1,0,0:0:0:0:
192,192,249584,1,0,0:0:0:0:
64,192,249584,1,0,0:0:0:0:
320,192,249649,1,0,0:0:0:0:
192,192,249714,1,0,0:0:0:0:
448,192,249779,1,0,0:0:0:0:
320,192,249844,1,0,0:0:0:0:
192,192,249844,1,0,0:0:0:0:
64,192,249909,1,0,0:0:0:0:
448,192,249974,1,0,0:0:0:0:
320,192,250039,1,0,0:0:0:0:
192,192,250104,1,0,0:0:0:0:
64,192,250104,1,0,0:0:0:0:
448,192,250169,1,0,0:0:0:0:
192,192,250234,1,0,0:0:0:0:
64,192,250299,1,0,0:0:0:0:
448,192,250364,1,0,0:0:0:0:
320,192,250364,1,0,0:0:0:0:
192,192,250429,1,0,0:0:0:0:
448,192,250493,1,0,0:0:0:0:
320,192,250493,1,0,0:0:0:0:
192,192,250558,1,0,0:0:0:0:
64,192,250558,1,0,0:0:0:0:
448,192,250623,1,0,0:0:0:0:
320,192,250623,1,0,0:0:0:0:
192,192,250688,1,0,0:0:0:0:
448,192,250753,1,0,0:0:0:0:
320,192,250753,1,0,0:0:0:0:
192,192,250818,1,0,0:0:0:0:
448,192,250883,1,0,0:0:0:0:
320,192,250883,1,0,0:0:0:0:
192,192,250948,1,0,0:0:0:0:
64,192,251013,1,0,0:0:0:0:
448,192,251078,1,0,0:0:0:0:
320,192,251143,1,0,0:0:0:0:
64,192,251143,1,0,0:0:0:0:
192,192,251208,1,0,0:0:0:0:
448,192,251273,1,0,0:0:0:0:
320,192,251338,1,0,0:0:0:0:
192,192,251403,1,0,0:0:0:0:
64,192,251403,1,0,0:0:0:0:
320,192,251468,1,0,0:0:0:0:
64,192,251532,1,0,0:0:0:0:
320,192,251597,1,0,0:0:0:0:
448,192,251662,1,0,0:0:0:0:
64,192,251662,1,0,0:0:0:0:
192,192,251727,1,0,0:0:0:0:
320,192,251792,1,0,0:0:0:0:
192,192,251857,1,0,0:0:0:0:
448,192,251922,1,0,0:0:0:0:
64,192,251922,1,0,0:0:0:0:
320,192,251987,1,0,0:0:0:0:
192,192,252052,1,0,0:0:0:0:
64,192,252117,1,0,0:0:0:0:
448,192,252182,1,0,0:0:0:0:
320,192,252182,1,0,0:0:0:0:
192,192,252247,1,0,0:0:0:0:
448,192,252312,1,0,0:0:0:0:
320,192,252312,1,0,0:0:0:0:
192,192,252377,1,0,0:0:0:0:
448,192,252442,1,0,0:0:0:0:
320,192,252442,1,0,0:0:0:0:
64,192,252506,1,0,0:0:0:0:
192,192,252571,1,0,0:0:0:0:
320,192,252636,1,0,0:0:0:0:
192,192,252701,1,0,0:0:0:0:
64,192,252701,1,0,0:0:0:0:
448,192,252766,1,0,0:0:0:0:
192,192,252831,1,0,0:0:0:0:
64,192,252831,1,0,0:0:0:0:
448,192,252896,1,0,0:0:0:0:
192,192,252961,1,0,0:0:0:0:
64,192,252961,1,0,0:0:0:0:
320,192,253026,1,0,0:0:0:0:
192,192,253091,1,0,0:0:0:0:
64,192,253156,1,0,0:0:0:0:
448,192,253221,1,0,0:0:0:0:
320,192,253221,1,0,0:0:0:0:
192,192,253286,1,0,0:0:0:0:
448,192,253351,1,0,0:0:0:0:
320,192,253351,1,0,0:0:0:0:
192,192,253416,1,0,0:0:0:0:
448,192,253481,1,0,0:0:0:0:
320,192,253481,1,0,0:0:0:0:
64,192,253545,1,0,0:0:0:0:
192,192,253610,1,0,0:0:0:0:
320,192,253675,1,0,0:0:0:0:
192,192,253740,1,0,0:0:0:0:
64,192,253740,1,0,0:0:0:0:
448,192,253805,1,0,0:0:0:0:
192,192,253870,1,0,0:0:0:0:
64,192,253870,1,0,0:0:0:0:
320,192,253935,1,0,0:0:0:0:
192,192,254000,1,0,0:0:0:0:
64,192,254000,1,0,0:0:0:0:
448,192,254065,1,0,0:0:0:0:
192,192,254130,1,0,0:0:0:0:
64,192,254130,1,0,0:0:0:0:
448,192,254195,1,0,0:0:0:0:
320,192,254195,1,0,0:0:0:0:
192,192,254260,1,0,0:0:0:0:
64,192,254260,1,0,0:0:0:0:
320,192,254325,1,0,0:0:0:0:
448,192,254390,1,0,0:0:0:0:
64,192,254390,1,0,0:0:0:0:
192,192,254455,1,0,0:0:0:0:
448,192,254519,1,0,0:0:0:0:
320,192,254519,1,0,0:0:0:0:
64,192,254584,1,0,0:0:0:0:
448,192,254649,1,0,0:0:0:0:
320,192,254649,1,0,0:0:0:0:
192,192,254714,1,0,0:0:0:0:
64,192,254714,1,0,0:0:0:0:
448,192,254779,1,0,0:0:0:0:
320,192,254779,1,0,0:0:0:0:
192,192,254844,1,0,0:0:0:0:
448,192,254909,1,0,0:0:0:0:
64,192,254909,1,0,0:0:0:0:
320,192,254974,1,0,0:0:0:0:
448,192,255039,1,0,0:0:0:0:
64,192,255039,1,0,0:0:0:0:
192,192,255104,1,0,0:0:0:0:
320,192,255169,1,0,0:0:0:0:
192,192,255234,1,0,0:0:0:0:
448,192,255299,1,0,0:0:0:0:
64,192,255299,1,0,0:0:0:0:
320,192,255364,1,0,0:0:0:0:
192,192,255429,1,0,0:0:0:0:
64,192,255493,1,0,0:0:0:0:
448,192,255558,1,0,0:0:0:0:
320,192,255558,1,0,0:0:0:0:
192,192,255623,1,0,0:0:0:0:
320,192,255688,1,0,0:0:0:0:
64,192,255753,1,0,0:0:0:0:
320,192,255818,1,0,0:0:0:0:
192,192,255818,1,0,0:0:0:0:
448,192,255883,1,0,0:0:0:0:
64,192,255948,1,0,0:0:0:0:
192,192,256013,1,0,0:0:0:0:
448,192,256078,1,0,0:0:0:0:
320,192,256078,1,0,0:0:0:0:
192,192,256143,1,0,0:0:0:0:
64,192,256208,1,0,0:0:0:0:
448,192,256273,1,0,0:0:0:0:
192,192,256338,1,0,0:0:0:0:
64,192,256338,1,0,0:0:0:0:
320,192,256403,1,0,0:0:0:0:
192,192,256468,1,0,0:0:0:0:
448,192,256532,1,0,0:0:0:0:
320,192,256597,1,0,0:0:0:0:
64,192,256597,1,0,0:0:0:0:
192,192,256662,1,0,0:0:0:0:
320,192,256727,1,0,0:0:0:0:
448,192,256792,1,0,0:0:0:0:
192,192,256857,1,0,0:0:0:0:
64,192,256857,1,0,0:0:0:0:
320,192,256922,1,0,0:0:0:0:
448,192,256987,1,0,0:0:0:0:
64,192,257052,1,0,0:0:0:0:
320,192,257117,1,0,0:0:0:0:
192,192,257117,1,0,0:0:0:0:
448,192,257182,1,0,0:0:0:0:
192,192,257247,1,0,0:0:0:0:
320,192,257312,1,0,0:0:0:0:
448,192,257377,1,0,0:0:0:0:
64,192,257377,1,0,0:0:0:0:
192,192,257442,1,0,0:0:0:0:
320,192,257506,1,0,0:0:0:0:
192,192,257571,1,0,0:0:0:0:
448,192,257636,1,0,0:0:0:0:
320,192,257636,1,0,0:0:0:0:
64,192,257701,1,0,0:0:0:0:
448,192,257766,1,0,0:0:0:0:
320,192,257831,1,0,0:0:0:0:
192,192,257896,1,0,0:0:0:0:
64,192,257896,1,0,0:0:0:0:
448,192,257961,1,0,0:0:0:0:
192,192,258026,1,0,0:0:0:0:
320,192,258091,1,0,0:0:0:0:
448,192,258156,1,0,0:0:0:0:
64,192,258156,1,0,0:0:0:0:
192,192,258221,1,0,0:0:0:0:
320,192,258286,1,0,0:0:0:0:
448,192,258351,1,0,0:0:0:0:
320,192,258416,1,0,0:0:0:0:
192,192,258416,1,0,0:0:0:0:
64,192,258481,1,0,0:0:0:0:
448,192,258545,1,0,0:0:0:0:
192,192,258610,1,0,0:0:0:0:
448,192,258675,1,0,0:0:0:0:
320,192,258675,1,0,0:0:0:0:
64,192,258740,1,0,0:0:0:0:
448,192,258805,1,0,0:0:0:0:
320,192,258805,1,0,0:0:0:0:
192,192,258870,1,0,0:0:0:0:
64,192,258870,1,0,0:0:0:0:
448,192,258935,1,0,0:0:0:0:
320,192,258935,1,0,0:0:0:0:
192,192,259000,1,0,0:0:0:0:
320,192,259065,1,0,0:0:0:0:
192,192,259130,1,0,0:0:0:0:
448,192,259195,1,0,0:0:0:0:
320,192,259195,1,0,0:0:0:0:
64,192,259195,1,0,0:0:0:0:
192,192,259260,1,0,0:0:0:0:
448,192,259325,1,0,0:0:0:0:
320,192,259390,1,0,0:0:0:0:
192,192,259455,1,0,0:0:0:0:
64,192,259455,1,0,0:0:0:0:
448,192,259519,1,0,0:0:0:0:
192,192,259584,1,0,0:0:0:0:
320,192,259649,1,0,0:0:0:0:
448,192,259714,1,0,0:0:0:0:
64,192,259714,1,0,0:0:0:0:
192,192,259779,1,0,0:0:0:0:
320,192,259844,1,0,0:0:0:0:
448,192,259909,1,0,0:0:0:0:
320,192,259974,1,0,0:0:0:0:
192,192,259974,1,0,0:0:0:0:
64,192,260039,1,0,0:0:0:0:
448,192,260104,1,0,0:0:0:0:
192,192,260169,1,0,0:0:0:0:
448,192,260234,1,0,0:0:0:0:
320,192,260234,1,0,0:0:0:0:
64,192,260299,1,0,0:0:0:0:
448,192,260364,1,0,0:0:0:0:
192,192,260429,1,0,0:0:0:0:
448,192,260493,1,0,0:0:0:0:
320,192,260493,1,0,0:0:0:0:
64,192,260558,1,0,0:0:0:0:
192,192,260623,1,0,0:0:0:0:
320,192,260688,1,0,0:0:0:0:
448,192,260753,1,0,0:0:0:0:
64,192,260753,1,0,0:0:0:0:
192,192,260818,1,0,0:0:0:0:
320,192,260883,1,0,0:0:0:0:
448,192,260948,1,0,0:0:0:0:
192,192,261013,1,0,0:0:0:0:
64,192,261013,1,0,0:0:0:0:
320,192,261078,1,0,0:0:0:0:
192,192,261143,1,0,0:0:0:0:
64,192,261208,1,0,0:0:0:0:
448,192,261273,1,0,0:0:0:0:
192,192,261273,1,0,0:0:0:0:
320,192,261338,1,0,0:0:0:0:
448,192,261403,1,0,0:0:0:0:
64,192,261468,1,0,0:0:0:0:
320,192,261532,1,0,0:0:0:0:
192,192,261532,1,0,0:0:0:0:
448,192,261597,1,0,0:0:0:0:
192,192,261662,1,0,0:0:0:0:
320,192,261727,1,0,0:0:0:0:
192,192,261792,1,0,0:0:0:0:
64,192,261792,1,0,0:0:0:0:
448,192,261857,1,0,0:0:0:0:
320,192,261922,1,0,0:0:0:0:
192,192,261987,1,0,0:0:0:0:
448,192,262052,1,0,0:0:0:0:
64,192,262052,1,0,0:0:0:0:
192,192,262117,1,0,0:0:0:0:
320,192,262182,1,0,0:0:0:0:
448,192,262247,1,0,0:0:0:0:
320,192,262312,1,0,0:0:0:0:
192,192,262312,1,0,0:0:0:0:
64,192,262377,1,0,0:0:0:0:
448,192,262442,1,0,0:0:0:0:
320,192,262442,1,0,0:0:0:0:
192,192,262506,1,0,0:0:0:0:
64,192,262506,1,0,0:0:0:0:
448,192,262571,1,0,0:0:0:0:
320,192,262571,1,0,0:0:0:0:
192,192,262636,1,0,0:0:0:0:
448,192,262701,1,0,0:0:0:0:
320,192,262701,1,0,0:0:0:0:
192,192,262766,1,0,0:0:0:0:
64,192,262766,1,0,0:0:0:0:
448,192,262831,1,0,0:0:0:0:
320,192,262831,1,0,0:0:0:0:
192,192,262896,1,0,0:0:0:0:
448,192,262961,1,0,0:0:0:0:
320,192,262961,1,0,0:0:0:0:
192,192,263026,1,0,0:0:0:0:
64,192,263026,1,0,0:0:0:0:
448,192,263091,1,0,0:0:0:0:
320,192,263091,1,0,0:0:0:0:
192,192,263156,1,0,0:0:0:0:
320,192,263221,1,0,0:0:0:0:
64,192,263286,1,0,0:0:0:0:
448,192,263351,1,0,0:0:0:0:
320,192,263351,1,0,0:0:0:0:
192,192,263351,1,0,0:0:0:0:
64,192,263416,1,0,0:0:0:0:
448,192,263481,1,0,0:0:0:0:
320,192,263545,1,0,0:0:0:0:
192,192,263610,1,0,0:0:0:0:
64,192,263610,1,0,0:0:0:0:
448,192,263675,1,0,0:0:0:0:
64,192,263740,1,0,0:0:0:0:
320,192,263805,1,0,0:0:0:0:
192,192,263870,1,0,0:0:0:0:
64,192,263870,1,0,0:0:0:0:
448,192,263935,1,0,0:0:0:0:
320,192,264000,1,0,0:0:0:0:
192,192,264065,1,0,0:0:0:0:
448,192,264130,1,0,0:0:0:0:
64,192,264130,1,0,0:0:0:0:
192,192,264195,1,0,0:0:0:0:
320,192,264260,1,0,0:0:0:0:
448,192,264325,1,0,0:0:0:0:
192,192,264390,1,0,0:0:0:0:
64,192,264390,1,0,0:0:0:0:
448,192,264455,1,0,0:0:0:0:
192,192,264519,1,0,0:0:0:0:
320,192,264584,1,0,0:0:0:0:
448,192,264649,1,0,0:0:0:0:
64,192,264649,1,0,0:0:0:0:
192,192,264714,1,0,0:0:0:0:
320,192,264779,1,0,0:0:0:0:
192,192,264844,1,0,0:0:0:0:
448,192,264909,1,0,0:0:0:0:
320,192,264909,1,0,0:0:0:0:
64,192,264974,1,0,0:0:0:0:
448,192,265039,1,0,0:0:0:0:
320,192,265104,1,0,0:0:0:0:
192,192,265169,1,0,0:0:0:0:
64,192,265169,1,0,0:0:0:0:
448,192,265234,1,0,0:0:0:0:
192,192,265299,1,0,0:0:0:0:
320,192,265364,1,0,0:0:0:0:
192,192,265429,1,0,0:0:0:0:
64,192,265429,1,0,0:0:0:0:
448,192,265493,1,0,0:0:0:0:
64,192,265558,1,0,0:0:0:0:
192,192,265623,1,0,0:0:0:0:
448,192,265688,1,0,0:0:0:0:
64,192,265688,1,0,0:0:0:0:
320,192,265753,1,0,0:0:0:0:
192,192,265818,1,0,0:0:0:0:
320,192,265883,1,0,0:0:0:0:
448,192,265948,1,0,0:0:0:0:
64,192,265948,1,0,0:0:0:0:
192,192,266013,1,0,0:0:0:0:
320,192,266078,1,0,0:0:0:0:
448,192,266143,1,0,0:0:0:0:
320,192,266208,1,0,0:0:0:0:
192,192,266208,1,0,0:0:0:0:
64,192,266273,1,0,0:0:0:0:
448,192,266338,1,0,0:0:0:0:
192,192,266403,1,0,0:0:0:0:
448,192,266468,1,0,0:0:0:0:
320,192,266468,1,0,0:0:0:0:
64,192,266532,1,0,0:0:0:0:
192,192,266597,1,0,0:0:0:0:
320,192,266662,1,0,0:0:0:0:
192,192,266727,1,0,0:0:0:0:
64,192,266727,1,0,0:0:0:0:
448,192,266792,1,0,0:0:0:0:
192,192,266857,1,0,0:0:0:0:
320,192,266922,1,0,0:0:0:0:
448,192,266987,1,0,0:0:0:0:
64,192,266987,1,0,0:0:0:0:
192,192,267052,1,0,0:0:0:0:
448,192,267117,1,0,0:0:0:0:
320,192,267117,1,0,0:0:0:0:
192,192,267182,1,0,0:0:0:0:
64,192,267182,1,0,0:0:0:0:
448,192,267247,1,0,0:0:0:0:
320,192,267247,1,0,0:0:0:0:
64,192,267312,1,0,0:0:0:0:
320,192,267377,1,0,0:0:0:0:
192,192,267442,1,0,0:0:0:0:
448,192,267506,1,0,0:0:0:0:
320,192,267506,1,0,0:0:0:0:
64,192,267506,1,0,0:0:0:0:
192,192,267571,1,0,0:0:0:0:
64,192,267636,1,0,0:0:0:0:
320,192,267701,1,0,0:0:0:0:
192,192,267766,1,0,0:0:0:0:
64,192,267766,1,0,0:0:0:0:
448,192,267831,1,0,0:0:0:0:
192,192,267896,1,0,0:0:0:0:
320,192,267961,1,0,0:0:0:0:
448,192,268026,1,0,0:0:0:0:
64,192,268026,1,0,0:0:0:0:
192,192,268091,1,0,0:0:0:0:
320,192,268156,1,0,0:0:0:0:
192,192,268221,1,0,0:0:0:0:
448,192,268286,1,0,0:0:0:0:
64,192,268286,1,0,0:0:0:0:
320,192,268351,1,0,0:0:0:0:
192,192,268416,1,0,0:0:0:0:
64,192,268481,1,0,0:0:0:0:
448,192,268545,1,0,0:0:0:0:
320,192,268545,1,0,0:0:0:0:
192,192,268610,1,0,0:0:0:0:
320,192,268675,1,0,0:0:0:0:
448,192,268740,1,0,0:0:0:0:
192,192,268805,1,0,0:0:0:0:
64,192,268805,1,0,0:0:0:0:
320,192,268870,1,0,0:0:0:0:
192,192,268935,1,0,0:0:0:0:
448,192,269000,1,0,0:0:0:0:
320,192,269065,1,0,0:0:0:0:
192,192,269065,1,0,0:0:0:0:
64,192,269130,1,0,0:0:0:0:
448,192,269195,1,0,0:0:0:0:
192,192,269260,1,0,0:0:0:0:
448,192,269325,1,0,0:0:0:0:
320,192,269325,1,0,0:0:0:0:
64,192,269390,1,0,0:0:0:0:
192,192,269455,1,0,0:0:0:0:
320,192,269519,1,0,0:0:0:0:
192,192,269584,1,0,0:0:0:0:
64,192,269584,1,0,0:0:0:0:
448,192,269649,1,0,0:0:0:0:
192,192,269714,1,0,0:0:0:0:
320,192,269779,1,0,0:0:0:0:
448,192,269844,1,0,0:0:0:0:
64,192,269844,1,0,0:0:0:0:
192,192,269909,1,0,0:0:0:0:
320,192,269974,1,0,0:0:0:0:
448,192,270039,1,0,0:0:0:0:
192,192,270104,1,0,0:0:0:0:
64,192,270104,1,0,0:0:0:0:
320,192,270169,1,0,0:0:0:0:
192,192,270234,1,0,0:0:0:0:
448,192,270299,1,0,0:0:0:0:
320,192,270364,1,0,0:0:0:0:
64,192,270364,1,0,0:0:0:0:
192,192,270429,1,0,0:0:0:0:
448,192,270493,1,0,0:0:0:0:
64,192,270558,1,0,0:0:0:0:
448,192,270623,1,0,0:0:0:0:
192,192,270623,1,0,0:0:0:0:
320,192,270688,1,0,0:0:0:0:
192,192,270753,1,0,0:0:0:0:
64,192,270753,1,0,0:0:0:0:
448,192,270818,1,0,0:0:0:0:
320,192,270818,1,0,0:0:0:0:
192,192,270883,1,0,0:0:0:0:
64,192,270883,1,0,0:0:0:0:
448,192,270948,1,0,0:0:0:0:
192,192,271013,1,0,0:0:0:0:
64,192,271013,1,0,0:0:0:0:
320,192,271078,1,0,0:0:0:0:
448,192,271143,1,0,0:0:0:0:
64,192,271143,1,0,0:0:0:0:
192,192,271208,1,0,0:0:0:0:
448,192,271273,1,0,0:0:0:0:
320,192,271273,1,0,0:0:0:0:
192,192,271338,1,0,0:0:0:0:
64,192,271338,1,0,0:0:0:0:
448,192,271403,1,0,0:0:0:0:
320,192,271403,1,0,0:0:0:0:
64,192,271468,1,0,0:0:0:0:
192,192,271532,1,0,0:0:0:0:
320,192,271597,1,0,0:0:0:0:
448,192,271662,1,0,0:0:0:0:
192,192,271662,1,0,0:0:0:0:
64,192,271662,1,0,0:0:0:0:
320,192,271727,1,0,0:0:0:0:
192,192,271792,1,0,0:0:0:0:
64,192,271857,1,0,0:0:0:0:
448,192,271922,1,0,0:0:0:0:
192,192,271922,1,0,0:0:0:0:
320,192,271987,1,0,0:0:0:0:
448,192,272052,1,0,0:0:0:0:
64,192,272117,1,0,0:0:0:0:
320,192,272182,1,0,0:0:0:0:
192,192,272182,1,0,0:0:0:0:
448,192,272247,1,0,0:0:0:0:
192,192,272312,1,0,0:0:0:0:
320,192,272377,1,0,0:0:0:0:
192,192,272442,1,0,0:0:0:0:
64,192,272442,1,0,0:0:0:0:
448,192,272506,1,0,0:0:0:0:
192,192,272571,1,0,0:0:0:0:
320,192,272636,1,0,0:0:0:0:
448,192,272701,1,0,0:0:0:0:
64,192,272701,1,0,0:0:0:0:
192,192,272766,1,0,0:0:0:0:
320,192,272831,1,0,0:0:0:0:
192,192,272896,1,0,0:0:0:0:
448,192,272961,1,0,0:0:0:0:
320,192,272961,1,0,0:0:0:0:
64,192,273026,1,0,0:0:0:0:
448,192,273091,1,0,0:0:0:0:
320,192,273156,1,0,0:0:0:0:
192,192,273221,1,0,0:0:0:0:
64,192,273221,1,0,0:0:0:0:
448,192,273286,1,0,0:0:0:0:
192,192,273351,1,0,0:0:0:0:
320,192,273416,1,0,0:0:0:0:
448,192,273481,1,0,0:0:0:0:
64,192,273481,1,0,0:0:0:0:
192,192,273545,1,0,0:0:0:0:
320,192,273610,1,0,0:0:0:0:
192,192,273675,1,0,0:0:0:0:
448,192,273740,1,0,0:0:0:0:
64,192,273740,1,0,0:0:0:0:
192,192,273805,1,0,0:0:0:0:
320,192,273870,1,0,0:0:0:0:
64,192,273935,1,0,0:0:0:0:
448,192,274000,1,0,0:0:0:0:
320,192,274000,1,0,0:0:0:0:
192,192,274065,1,0,0:0:0:0:
64,192,274130,1,0,0:0:0:0:
448,192,274195,1,0,0:0:0:0:
320,192,274260,1,0,0:0:0:0:
192,192,274260,1,0,0:0:0:0:
64,192,274325,1,0,0:0:0:0:
320,192,274390,1,0,0:0:0:0:
192,192,274455,1,0,0:0:0:0:
448,192,274519,1,0,0:0:0:0:
64,192,274519,1,0,0:0:0:0:
192,192,274584,1,0,0:0:0:0:
320,192,274649,1,0,0:0:0:0:
448,192,274714,1,0,0:0:0:0:
192,192,274779,1,0,0:0:0:0:
64,192,274779,1,0,0:0:0:0:
320,192,274844,1,0,0:0:0:0:
448,192,274909,1,0,0:0:0:0:
64,192,274974,1,0,0:0:0:0:
448,192,275039,1,0,0:0:0:0:
320,192,275039,1,0,0:0:0:0:
192,192,275104,1,0,0:0:0:0:
64,192,275169,1,0,0:0:0:0:
448,192,275234,1,0,0:0:0:0:
192,192,275299,1,0,0:0:0:0:
64,192,275299,1,0,0:0:0:0:
320,192,275364,1,0,0:0:0:0:
192,192,275429,1,0,0:0:0:0:
64,192,275429,1,0,0:0:0:0:
448,192,275493,1,0,0:0:0:0:
320,192,275493,1,0,0:0:0:0:
192,192,275558,1,0,0:0:0:0:
64,192,275558,1,0,0:0:0:0:
320,192,275623,1,0,0:0:0:0:
448,192,275688,1,0,0:0:0:0:
192,192,275753,1,0,0:0:0:0:
448,192,275818,1,0,0:0:0:0:
320,192,275818,1,0,0:0:0:0:
64,192,275818,1,0,0:0:0:0:
192,192,275883,1,0,0:0:0:0:
64,192,275948,1,0,0:0:0:0:
320,192,276013,1,0,0:0:0:0:
448,192,276078,1,0,0:0:0:0:
64,192,276078,1,0,0:0:0:0:
192,192,276143,1,0,0:0:0:0:
320,192,276208,1,0,0:0:0:0:
192,192,276273,1,0,0:0:0:0:
448,192,276338,1,0,0:0:0:0:
320,192,276338,1,0,0:0:0:0:
64,192,276403,1,0,0:0:0:0:
192,192,276468,1,0,0:0:0:0:
448,192,276532,1,0,0:0:0:0:
320,192,276597,1,0,0:0:0:0:
192,192,276597,1,0,0:0:0:0:
64,192,276662,1,0,0:0:0:0:
448,192,276727,1,0,0:0:0:0:
192,192,276792,1,0,0:0:0:0:
448,192,276857,1,0,0:0:0:0:
320,192,276857,1,0,0:0:0:0:
64,192,276922,1,0,0:0:0:0:
192,192,276987,1,0,0:0:0:0:
320,192,277052,1,0,0:0:0:0:
192,192,277117,1,0,0:0:0:0:
64,192,277117,1,0,0:0:0:0:
448,192,277182,1,0,0:0:0:0:
192,192,277247,1,0,0:0:0:0:
320,192,277312,1,0,0:0:0:0:
448,192,277377,1,0,0:0:0:0:
64,192,277377,1,0,0:0:0:0:
192,192,277442,1,0,0:0:0:0:
320,192,277506,1,0,0:0:0:0:
448,192,277571,1,0,0:0:0:0:
192,192,277636,1,0,0:0:0:0:
64,192,277636,1,0,0:0:0:0:
320,192,277701,1,0,0:0:0:0:
192,192,277766,1,0,0:0:0:0:
448,192,277831,1,0,0:0:0:0:
320,192,277896,1,0,0:0:0:0:
192,192,277896,1,0,0:0:0:0:
64,192,277961,1,0,0:0:0:0:
448,192,278026,1,0,0:0:0:0:
192,192,278091,1,0,0:0:0:0:
448,192,278156,1,0,0:0:0:0:
320,192,278156,1,0,0:0:0:0:
64,192,278221,1,0,0:0:0:0:
320,192,278286,1,0,0:0:0:0:
192,192,278351,1,0,0:0:0:0:
448,192,278416,1,0,0:0:0:0:
64,192,278416,1,0,0:0:0:0:
192,192,278481,1,0,0:0:0:0:
320,192,278545,1,0,0:0:0:0:
448,192,278610,1,0,0:0:0:0:
192,192,278675,1,0,0:0:0:0:
64,192,278675,1,0,0:0:0:0:
320,192,278740,1,0,0:0:0:0:
64,192,278805,1,0,0:0:0:0:
448,192,278870,1,0,0:0:0:0:
320,192,278935,1,0,0:0:0:0:
192,192,278935,1,0,0:0:0:0:
64,192,279000,1,0,0:0:0:0:
448,192,279065,1,0,0:0:0:0:
320,192,279065,1,0,0:0:0:0:
192,192,279130,1,0,0:0:0:0:
64,192,279130,1,0,0:0:0:0:
448,192,279195,1,0,0:0:0:0:
320,192,279195,1,0,0:0:0:0:
192,192,279260,1,0,0:0:0:0:
448,192,279325,1,0,0:0:0:0:
320,192,279325,1,0,0:0:0:0:
192,192,279390,1,0,0:0:0:0:
64,192,279390,1,0,0:0:0:0:
448,192,279455,1,0,0:0:0:0:
320,192,279455,1,0,0:0:0:0:
192,192,279519,1,0,0:0:0:0:
448,192,279584,1,0,0:0:0:0:
320,192,279584,1,0,0:0:0:0:
192,192,279649,1,0,0:0:0:0:
64,192,279649,1,0,0:0:0:0:
448,192,279714,1,0,0:0:0:0:
320,192,279714,1,0,0:0:0:0:
192,192,279779,1,0,0:0:0:0:
448,192,279844,1,0,0:0:0:0:
320,192,279844,1,0,0:0:0:0:
192,192,279909,1,0,0:0:0:0:
448,192,279974,1,0,0:0:0:0:
320,192,279974,1,0,0:0:0:0:
64,192,279974,1,0,0:0:0:0:
192,192,280039,1,0,0:0:0:0:
448,192,280104,1,0,0:0:0:0:
320,192,280104,1,0,0:0:0:0:
64,192,280169,1,0,0:0:0:0:
320,192,280234,1,0,0:0:0:0:
192,192,280234,1,0,0:0:0:0:
448,192,280299,1,0,0:0:0:0:
192,192,280364,1,0,0:0:0:0:
64,192,280364,1,0,0:0:0:0:
320,192,280429,1,0,0:0:0:0:
448,192,280493,1,0,0:0:0:0:
64,192,280493,1,0,0:0:0:0:
192,192,280558,1,0,0:0:0:0:
448,192,280623,1,0,0:0:0:0:
320,192,280623,1,0,0:0:0:0:
192,192,280688,1,0,0:0:0:0:
448,192,280753,1,0,0:0:0:0:
320,192,280753,1,0,0:0:0:0:
64,192,280818,1,0,0:0:0:0:
448,192,280883,1,0,0:0:0:0:
320,192,280883,1,0,0:0:0:0:
192,192,280948,1,0,0:0:0:0:
448,192,281013,1,0,0:0:0:0:
64,192,281013,1,0,0:0:0:0:
192,192,281078,1,0,0:0:0:0:
448,192,281143,1,0,0:0:0:0:
320,192,281143,1,0,0:0:0:0:
192,192,281208,1,0,0:0:0:0:
448,192,281273,1,0,0:0:0:0:
320,192,281273,1,0,0:0:0:0:
192,192,281338,1,0,0:0:0:0:
448,192,281403,1,0,0:0:0:0:
64,192,281403,1,0,0:0:0:0:
320,192,281468,1,0,0:0:0:0:
192,192,281532,1,0,0:0:0:0:
64,192,281532,1,0,0:0:0:0:
320,192,281597,1,0,0:0:0:0:
192,192,281662,1,0,0:0:0:0:
64,192,281662,1,0,0:0:0:0:
448,192,281727,1,0,0:0:0:0:
192,192,281792,1,0,0:0:0:0:
64,192,281792,1,0,0:0:0:0:
320,192,281857,1,0,0:0:0:0:
192,192,281922,1,0,0:0:0:0:
64,192,281922,1,0,0:0:0:0:
320,192,281987,1,0,0:0:0:0:
448,192,282052,1,0,0:0:0:0:
64,192,282052,1,0,0:0:0:0:
320,192,282117,1,0,0:0:0:0:
192,192,282182,1,0,0:0:0:0:
64,192,282182,1,0,0:0:0:0:
320,192,282247,1,0,0:0:0:0:
448,192,282312,1,0,0:0:0:0:
64,192,282312,1,0,0:0:0:0:
192,192,282377,1,0,0:0:0:0:
448,192,282442,1,0,0:0:0:0:
320,192,282442,1,0,0:0:0:0:
64,192,282506,1,0,0:0:0:0:
448,192,282571,1,0,0:0:0:0:
320,192,282571,1,0,0:0:0:0:
64,192,282636,1,0,0:0:0:0:
320,192,282701,1,0,0:0:0:0:
192,192,282701,1,0,0:0:0:0:
448,192,282766,1,0,0:0:0:0:
320,192,282831,1,0,0:0:0:0:
192,192,282831,1,0,0:0:0:0:
64,192,282896,1,0,0:0:0:0:
448,192,282961,1,0,0:0:0:0:
320,192,282961,1,0,0:0:0:0:
192,192,283026,1,0,0:0:0:0:
448,192,283091,1,0,0:0:0:0:
320,192,283091,1,0,0:0:0:0:
192,192,283156,1,0,0:0:0:0:
448,192,283221,1,0,0:0:0:0:
64,192,283221,1,0,0:0:0:0:
320,192,283286,1,0,0:0:0:0:
192,192,283351,1,0,0:0:0:0:
64,192,283351,1,0,0:0:0:0:
448,192,283416,1,0,0:0:0:0:
192,192,283481,1,0,0:0:0:0:
64,192,283481,1,0,0:0:0:0:
320,192,283545,1,0,0:0:0:0:
448,192,283610,1,0,0:0:0:0:
64,192,283610,1,0,0:0:0:0:
192,192,283675,1,0,0:0:0:0:
448,192,283740,1,0,0:0:0:0:
320,192,283740,1,0,0:0:0:0:
192,192,283805,1,0,0:0:0:0:
64,192,283805,1,0,0:0:0:0:
448,192,283870,1,0,0:0:0:0:
320,192,283870,1,0,0:0:0:0:
64,192,283935,1,0,0:0:0:0:
448,192,284000,1,0,0:0:0:0:
320,192,284000,1,0,0:0:0:0:
64,192,284065,1,0,0:0:0:0:
448,192,284130,1,0,0:0:0:0:
320,192,284130,1,0,0:0:0:0:
192,192,284130,1,0,0:0:0:0:
64,192,284195,1,0,0:0:0:0:
448,192,284260,1,0,0:0:0:0:
192,192,284325,1,0,0:0:0:0:
64,192,284325,1,0,0:0:0:0:
320,192,284390,1,0,0:0:0:0:
448,192,284455,1,0,0:0:0:0:
192,192,284519,1,0,0:0:0:0:
64,192,284519,1,0,0:0:0:0:
320,192,284584,1,0,0:0:0:0:
448,192,284649,1,0,0:0:0:0:
64,192,284649,1,0,0:0:0:0:
192,192,284714,1,0,0:0:0:0:
320,192,284779,1,0,0:0:0:0:
192,192,284844,1,0,0:0:0:0:
64,192,284844,1,0,0:0:0:0:
448,192,284909,1,0,0:0:0:0:
192,192,284974,1,0,0:0:0:0:
448,192,285039,1,0,0:0:0:0:
320,192,285039,1,0,0:0:0:0:
192,192,285104,1,0,0:0:0:0:
448,192,285169,1,0,0:0:0:0:
320,192,285169,1,0,0:0:0:0:
64,192,285234,1,0,0:0:0:0:
192,192,285299,1,0,0:0:0:0:
448,192,285364,1,0,0:0:0:0:
320,192,285364,1,0,0:0:0:0:
192,192,285429,1,0,0:0:0:0:
64,192,285493,1,0,0:0:0:0:
448,192,285558,1,0,0:0:0:0:
320,192,285558,1,0,0:0:0:0:
64,192,285623,1,0,0:0:0:0:
320,192,285688,1,0,0:0:0:0:
192,192,285688,1,0,0:0:0:0:
448,192,285753,1,0,0:0:0:0:
64,192,285818,1,0,0:0:0:0:
320,192,285883,1,0,0:0:0:0:
192,192,285883,1,0,0:0:0:0:
448,192,285948,1,0,0:0:0:0:
64,192,286013,1,0,0:0:0:0:
448,192,286078,1,0,0:0:0:0:
320,192,286078,1,0,0:0:0:0:
192,192,286143,1,0,0:0:0:0:
448,192,286208,1,0,0:0:0:0:
64,192,286208,1,0,0:0:0:0:
320,192,286273,1,0,0:0:0:0:
448,192,286338,1,0,0:0:0:0:
192,192,286403,1,0,0:0:0:0:
64,192,286403,1,0,0:0:0:0:
320,192,286468,1,0,0:0:0:0:
448,192,286532,1,0,0:0:0:0:
192,192,286597,1,0,0:0:0:0:
64,192,286597,1,0,0:0:0:0:
320,192,286662,1,0,0:0:0:0:
192,192,286727,1,0,0:0:0:0:
64,192,286727,1,0,0:0:0:0:
448,192,286792,1,0,0:0:0:0:
320,192,286857,1,0,0:0:0:0:
192,192,286922,1,0,0:0:0:0:
64,192,286922,1,0,0:0:0:0:
448,192,286987,1,0,0:0:0:0:
320,192,287052,1,0,0:0:0:0:
448,192,287117,1,0,0:0:0:0:
64,192,287117,1,0,0:0:0:0:
192,192,287182,1,0,0:0:0:0:
448,192,287247,1,0,0:0:0:0:
320,192,287247,1,0,0:0:0:0:
64,192,287312,1,0,0:0:0:0:
192,192,287377,1,0,0:0:0:0:
448,192,287442,1,0,0:0:0:0:
320,192,287442,1,0,0:0:0:0:
64,192,287506,1,0,0:0:0:0:
192,192,287571,1,0,0:0:0:0:
448,192,287636,1,0,0:0:0:0:
320,192,287636,1,0,0:0:0:0:
64,192,287701,1,0,0:0:0:0:
448,192,287766,1,0,0:0:0:0:
320,192,287766,1,0,0:0:0:0:
192,192,287831,1,0,0:0:0:0:
64,192,287896,1,0,0:0:0:0:
448,192,287961,1,0,0:0:0:0:
192,192,287961,1,0,0:0:0:0:
320,192,288026,1,0,0:0:0:0:
64,192,288091,1,0,0:0:0:0:
320,192,288156,1,0,0:0:0:0:
192,192,288156,1,0,0:0:0:0:
448,192,288221,1,0,0:0:0:0:
320,192,288286,1,0,0:0:0:0:
192,192,288286,1,0,0:0:0:0:
64,192,288286,1,0,0:0:0:0:
448,192,288481,1,0,0:0:0:0:
320,192,288481,1,0,0:0:0:0:
192,192,288481,1,0,0:0:0:0:
448,192,288675,1,0,0:0:0:0:
192,192,288675,1,0,0:0:0:0:
64,192,288675,1,0,0:0:0:0:
448,192,288805,1,0,0:0:0:0:
320,192,288805,1,0,0:0:0:0:
64,192,288805,1,0,0:0:0:0:
320,192,288999,1,0,0:0:0:0:
192,192,288999,1,0,0:0:0:0:
64,192,288999,1,0,0:0:0:0:
448,192,289194,1,0,0:0:0:0:
320,192,289194,1,0,0:0:0:0:
192,192,289194,1,0,0:0:0:0:
320,192,289324,1,0,0:0:0:0:
192,192,289324,1,0,0:0:0:0:
64,192,289324,1,0,0:0:0:0:
448,192,289519,1,0,0:0:0:0:
192,192,289519,1,0,0:0:0:0:
64,192,289519,1,0,0:0:0:0:
448,192,289714,1,0,0:0:0:0:
320,192,289714,1,0,0:0:0:0:
64,192,289714,1,0,0:0:0:0:
448,192,289843,1,0,0:0:0:0:
192,192,289843,1,0,0:0:0:0:
64,192,289843,1,0,0:0:0:0:
448,192,290038,1,0,0:0:0:0:
320,192,290038,1,0,0:0:0:0:
64,192,290038,1,0,0:0:0:0:
320,192,290233,1,0,0:0:0:0:
192,192,290233,1,0,0:0:0:0:
64,192,290233,1,0,0:0:0:0:
448,192,290363,1,0,0:0:0:0:
320,192,290363,1,0,0:0:0:0:
192,192,290363,1,0,0:0:0:0:
448,192,290558,1,0,0:0:0:0:
320,192,290558,1,0,0:0:0:0:
64,192,290558,1,0,0:0:0:0:
320,192,290753,1,0,0:0:0:0:
448,192,290753,1,0,0:0:0:0:
64,192,290753,1,0,0:0:0:0:
192,192,290753,1,0,0:0:0:0:
320,192,290882,1,0,0:0:0:0:
448,192,290882,1,0,0:0:0:0:
64,192,290882,1,0,0:0:0:0:
192,192,290882,1,0,0:0:0:0:
320,192,291077,1,0,0:0:0:0:
448,192,291077,1,0,0:0:0:0:
64,192,291077,1,0,0:0:0:0:
192,192,291077,1,0,0:0:0:0:
320,192,291272,1,0,0:0:0:0:
448,192,291272,1,0,0:0:0:0:
64,192,291272,1,0,0:0:0:0:
192,192,291272,1,0,0:0:0:0:
320,192,291402,1,0,0:0:0:0:
448,192,291402,1,0,0:0:0:0:
64,192,291402,1,0,0:0:0:0:
192,192,291402,1,0,0:0:0:0:
320,192,291597,1,0,0:0:0:0:
448,192,291597,1,0,0:0:0:0:
64,192,291597,1,0,0:0:0:0:
192,192,291597,1,0,0:0:0:0:
320,192,291792,1,0,0:0:0:0:
448,192,291792,1,0,0:0:0:0:
64,192,291792,1,0,0:0:0:0:
192,192,291792,1,0,0:0:0:0:
320,192,291921,1,0,0:0:0:0:
448,192,291921,1,0,0:0:0:0:
64,192,291921,1,0,0:0:0:0:
192,192,291921,1,0,0:0:0:0:
320,192,292116,1,0,0:0:0:0:
448,192,292116,1,0,0:0:0:0:
64,192,292116,1,0,0:0:0:0:
192,192,292116,1,0,0:0:0:0:
320,192,292311,1,0,0:0:0:0:
448,192,292311,1,0,0:0:0:0:
64,192,292311,1,0,0:0:0:0:
192,192,292311,1,0,0:0:0:0:
320,192,292441,128,0,292571:0:0:0:0:
448,192,292441,128,0,292571:0:0:0:0:
64,192,292441,128,0,292571:0:0:0:0:
192,192,292441,128,0,292571:0:0:0:0:
