osu file format v14

[General]
AudioFilename: audio.mp3
AudioLeadIn: 0
PreviewTime: 177930
Countdown: 0
SampleSet: Normal
StackLeniency: 0.7
Mode: 3
LetterboxInBreaks: 0
SpecialStyle: 0
WidescreenStoryboard: 0

[Editor]
DistanceSpacing: 0.8
BeatDivisor: 4
GridSize: 16
TimelineZoom: 1.7

[Metadata]
Title:Tactical Railroad
TitleUnicode:Tactical Railroad
Artist:DJ Sharpnel
ArtistUnicode:DJ Sharpnel
Creator:YoungBurger14
Version:Tactical Speedjack !
Source:
Tags:レール・ウォーズ -nihonkoku yuuteddou kouantai- opening 茅原実里 chihara minori remix electronic japanese ver2.0 colossalcom2016 limited srpx-0002 srpx-0004 comiket c86 コミケット86 hardcore jcore j-core bootleg -日本國有鉄道公安隊- 向かい風に打たれながら mukai kaze ni utare nagara jack chord chordjack speedjack
BeatmapID:4536765
BeatmapSetID:2153117

[Difficulty]
HPDrainRate:7
CircleSize:4
OverallDifficulty:8
ApproachRate:5
SliderMultiplier:1.4
SliderTickRate:1

[Events]
//Background and Video events
0,0,"Tactical Railroad.jpg",0,0
//Break Periods
//Storyboard Layer 0 (Background)
//Storyboard Layer 1 (Fail)
//Storyboard Layer 2 (Pass)
//Storyboard Layer 3 (Foreground)
//Storyboard Layer 4 (Overlay)
//Storyboard Sound Samples

[TimingPoints]
1158,293.399,4,1,0,30,1,0
71573,-100,4,1,0,30,0,1
120864,-100,4,1,0,30,0,0
178370,-100,4,1,0,30,0,1
227662,-100,4,1,0,30,0,0

[HitObjects]
64,192,1158,5,0,0:0:0:0:
192,192,1158,1,0,0:0:0:0:
320,192,1158,1,0,0:0:0:0:
448,192,1158,1,0,0:0:0:0:
64,192,1304,1,0,0:0:0:0:
192,192,1304,1,0,0:0:0:0:
64,192,1451,1,0,0:0:0:0:
192,192,1451,1,0,0:0:0:0:
320,192,1451,1,0,0:0:0:0:
448,192,1451,1,0,0:0:0:0:
64,192,1598,1,0,0:0:0:0:
448,192,1598,1,0,0:0:0:0:
320,192,1744,1,0,0:0:0:0:
448,192,1744,1,0,0:0:0:0:
192,192,1744,1,0,0:0:0:0:
64,192,1744,1,0,0:0:0:0:
192,192,1891,1,0,0:0:0:0:
320,192,1891,1,0,0:0:0:0:
64,192,2038,1,0,0:0:0:0:
192,192,2038,1,0,0:0:0:0:
320,192,2038,1,0,0:0:0:0:
448,192,2038,1,0,0:0:0:0:
192,192,2184,1,0,0:0:0:0:
448,192,2184,1,0,0:0:0:0:
192,192,2331,1,0,0:0:0:0:
320,192,2331,1,0,0:0:0:0:
448,192,2331,1,0,0:0:0:0:
64,192,2331,1,0,0:0:0:0:
64,192,2478,1,0,0:0:0:0:
320,192,2478,1,0,0:0:0:0:
64,192,2624,1,0,0:0:0:0:
192,192,2624,1,0,0:0:0:0:
320,192,2624,1,0,0:0:0:0:
448,192,2624,1,0,0:0:0:0:
448,192,2771,1,0,0:0:0:0:
320,192,2771,1,0,0:0:0:0:
64,192,2918,1,0,0:0:0:0:
192,192,2918,1,0,0:0:0:0:
448,192,2918,1,0,0:0:0:0:
320,192,2918,1,0,0:0:0:0:
192,192,3065,1,0,0:0:0:0:
64,192,3065,1,0,0:0:0:0:
64,192,3211,1,0,0:0:0:0:
192,192,3211,1,0,0:0:0:0:
320,192,3211,1,0,0:0:0:0:
448,192,3211,1,0,0:0:0:0:
64,192,3358,1,0,0:0:0:0:
448,192,3358,1,0,0:0:0:0:
192,192,3505,1,0,0:0:0:0:
64,192,3505,1,0,0:0:0:0:
320,192,3505,1,0,0:0:0:0:
448,192,3505,1,0,0:0:0:0:
64,192,3651,1,0,0:0:0:0:
320,192,3651,1,0,0:0:0:0:
64,192,3798,1,0,0:0:0:0:
192,192,3798,1,0,0:0:0:0:
448,192,3798,1,0,0:0:0:0:
320,192,3798,1,0,0:0:0:0:
192,192,3945,1,0,0:0:0:0:
320,192,3945,1,0,0:0:0:0:
64,192,4091,1,0,0:0:0:0:
192,192,4091,1,0,0:0:0:0:
320,192,4091,1,0,0:0:0:0:
448,192,4091,1,0,0:0:0:0:
448,192,4238,1,0,0:0:0:0:
64,192,4238,1,0,0:0:0:0:
64,192,4385,1,0,0:0:0:0:
192,192,4385,1,0,0:0:0:0:
448,192,4385,1,0,0:0:0:0:
320,192,4385,1,0,0:0:0:0:
320,192,4532,1,0,0:0:0:0:
448,192,4532,1,0,0:0:0:0:
64,192,4678,1,0,0:0:0:0:
192,192,4678,1,0,0:0:0:0:
320,192,4678,1,0,0:0:0:0:
448,192,4678,1,0,0:0:0:0:
64,192,4825,1,0,0:0:0:0:
192,192,4825,1,0,0:0:0:0:
64,192,4972,1,0,0:0:0:0:
320,192,4972,1,0,0:0:0:0:
448,192,4972,1,0,0:0:0:0:
192,192,4972,1,0,0:0:0:0:
64,192,5118,1,0,0:0:0:0:
320,192,5118,1,0,0:0:0:0:
64,192,5265,1,0,0:0:0:0:
192,192,5265,1,0,0:0:0:0:
320,192,5265,1,0,0:0:0:0:
448,192,5265,1,0,0:0:0:0:
192,192,5412,1,0,0:0:0:0:
448,192,5412,1,0,0:0:0:0:
64,192,5558,1,0,0:0:0:0:
192,192,5558,1,0,0:0:0:0:
320,192,5558,1,0,0:0:0:0:
448,192,5558,1,0,0:0:0:0:
320,192,5705,1,0,0:0:0:0:
448,192,5705,1,0,0:0:0:0:
64,192,5852,1,0,0:0:0:0:
192,192,5852,1,0,0:0:0:0:
320,192,5852,1,0,0:0:0:0:
448,192,5852,1,0,0:0:0:0:
192,192,5999,1,0,0:0:0:0:
64,192,5999,1,0,0:0:0:0:
64,192,6145,1,0,0:0:0:0:
192,192,6145,1,0,0:0:0:0:
320,192,6145,1,0,0:0:0:0:
448,192,6145,1,0,0:0:0:0:
320,192,6292,1,0,0:0:0:0:
448,192,6292,1,0,0:0:0:0:
64,192,6439,1,0,0:0:0:0:
192,192,6439,1,0,0:0:0:0:
320,192,6439,1,0,0:0:0:0:
448,192,6439,1,0,0:0:0:0:
192,192,6585,1,0,0:0:0:0:
320,192,6585,1,0,0:0:0:0:
64,192,6732,1,0,0:0:0:0:
192,192,6732,1,0,0:0:0:0:
448,192,6732,1,0,0:0:0:0:
320,192,6732,1,0,0:0:0:0:
192,192,6879,1,0,0:0:0:0:
64,192,6879,1,0,0:0:0:0:
64,192,7025,1,0,0:0:0:0:
192,192,7025,1,0,0:0:0:0:
320,192,7025,1,0,0:0:0:0:
448,192,7025,1,0,0:0:0:0:
448,192,7172,1,0,0:0:0:0:
64,192,7172,1,0,0:0:0:0:
64,192,7319,1,0,0:0:0:0:
192,192,7319,1,0,0:0:0:0:
320,192,7319,1,0,0:0:0:0:
448,192,7319,1,0,0:0:0:0:
192,192,7466,1,0,0:0:0:0:
320,192,7466,1,0,0:0:0:0:
64,192,7612,1,0,0:0:0:0:
192,192,7612,1,0,0:0:0:0:
320,192,7612,1,0,0:0:0:0:
448,192,7612,1,0,0:0:0:0:
320,192,7759,1,0,0:0:0:0:
448,192,7759,1,0,0:0:0:0:
64,192,7906,1,0,0:0:0:0:
192,192,7906,1,0,0:0:0:0:
448,192,7906,1,0,0:0:0:0:
320,192,7906,1,0,0:0:0:0:
192,192,8052,1,0,0:0:0:0:
64,192,8052,1,0,0:0:0:0:
64,192,8199,1,0,0:0:0:0:
192,192,8199,1,0,0:0:0:0:
320,192,8199,1,0,0:0:0:0:
448,192,8199,1,0,0:0:0:0:
64,192,8346,1,0,0:0:0:0:
448,192,8346,1,0,0:0:0:0:
64,192,8492,1,0,0:0:0:0:
192,192,8492,1,0,0:0:0:0:
320,192,8492,1,0,0:0:0:0:
448,192,8492,1,0,0:0:0:0:
320,192,8639,1,0,0:0:0:0:
192,192,8639,1,0,0:0:0:0:
64,192,8786,1,0,0:0:0:0:
192,192,8786,1,0,0:0:0:0:
448,192,8786,1,0,0:0:0:0:
320,192,8786,1,0,0:0:0:0:
64,192,8933,1,0,0:0:0:0:
320,192,8933,1,0,0:0:0:0:
192,192,9079,1,0,0:0:0:0:
320,192,9079,1,0,0:0:0:0:
64,192,9079,1,0,0:0:0:0:
448,192,9079,1,0,0:0:0:0:
192,192,9226,1,0,0:0:0:0:
448,192,9226,1,0,0:0:0:0:
64,192,9373,1,0,0:0:0:0:
320,192,9373,1,0,0:0:0:0:
448,192,9373,1,0,0:0:0:0:
192,192,9373,1,0,0:0:0:0:
64,192,9519,1,0,0:0:0:0:
192,192,9519,1,0,0:0:0:0:
448,192,9666,1,0,0:0:0:0:
320,192,9666,1,0,0:0:0:0:
192,192,9666,1,0,0:0:0:0:
64,192,9666,1,0,0:0:0:0:
320,192,9813,1,0,0:0:0:0:
448,192,9813,1,0,0:0:0:0:
448,192,9959,1,0,0:0:0:0:
320,192,9959,1,0,0:0:0:0:
64,192,9959,1,0,0:0:0:0:
192,192,9959,1,0,0:0:0:0:
64,192,10106,1,0,0:0:0:0:
192,192,10143,1,0,0:0:0:0:
320,192,10180,1,0,0:0:0:0:
448,192,10216,1,0,0:0:0:0:
192,192,10253,1,0,0:0:0:0:
64,192,10253,1,0,0:0:0:0:
448,192,10400,1,0,0:0:0:0:
320,192,10436,1,0,0:0:0:0:
192,192,10473,1,0,0:0:0:0:
64,192,10473,1,0,0:0:0:0:
64,192,10546,5,0,0:0:0:0:
192,192,10546,1,0,0:0:0:0:
320,192,10546,1,0,0:0:0:0:
448,192,10620,1,0,0:0:0:0:
320,192,10620,1,0,0:0:0:0:
64,192,10693,1,0,0:0:0:0:
192,192,10693,1,0,0:0:0:0:
64,192,10766,1,0,0:0:0:0:
320,192,10766,1,0,0:0:0:0:
192,192,10840,1,0,0:0:0:0:
320,192,10840,1,0,0:0:0:0:
448,192,10840,1,0,0:0:0:0:
64,192,10913,1,0,0:0:0:0:
448,192,10913,1,0,0:0:0:0:
320,192,10986,1,0,0:0:0:0:
64,192,10986,1,0,0:0:0:0:
192,192,11060,1,0,0:0:0:0:
448,192,11060,1,0,0:0:0:0:
64,192,11133,1,0,0:0:0:0:
192,192,11133,1,0,0:0:0:0:
448,192,11133,1,0,0:0:0:0:
320,192,11206,1,0,0:0:0:0:
64,192,11206,1,0,0:0:0:0:
192,192,11280,1,0,0:0:0:0:
320,192,11280,1,0,0:0:0:0:
64,192,11353,1,0,0:0:0:0:
448,192,11353,1,0,0:0:0:0:
192,192,11426,1,0,0:0:0:0:
320,192,11426,1,0,0:0:0:0:
448,192,11426,1,0,0:0:0:0:
64,192,11500,1,0,0:0:0:0:
192,192,11500,1,0,0:0:0:0:
64,192,11573,1,0,0:0:0:0:
320,192,11573,1,0,0:0:0:0:
192,192,11647,1,0,0:0:0:0:
448,192,11647,1,0,0:0:0:0:
64,192,11720,1,0,0:0:0:0:
448,192,11720,1,0,0:0:0:0:
320,192,11720,1,0,0:0:0:0:
320,192,11793,1,0,0:0:0:0:
192,192,11793,1,0,0:0:0:0:
64,192,11867,1,0,0:0:0:0:
448,192,11867,1,0,0:0:0:0:
320,192,11940,1,0,0:0:0:0:
448,192,11940,1,0,0:0:0:0:
64,192,12013,1,0,0:0:0:0:
192,192,12013,1,0,0:0:0:0:
320,192,12013,1,0,0:0:0:0:
448,192,12087,1,0,0:0:0:0:
64,192,12087,1,0,0:0:0:0:
192,192,12160,1,0,0:0:0:0:
320,192,12160,1,0,0:0:0:0:
64,192,12233,1,0,0:0:0:0:
320,192,12233,1,0,0:0:0:0:
192,192,12307,1,0,0:0:0:0:
448,192,12307,1,0,0:0:0:0:
64,192,12307,1,0,0:0:0:0:
320,192,12380,1,0,0:0:0:0:
448,192,12380,1,0,0:0:0:0:
192,192,12453,1,0,0:0:0:0:
64,192,12453,1,0,0:0:0:0:
192,192,12527,1,0,0:0:0:0:
448,192,12527,1,0,0:0:0:0:
64,192,12600,1,0,0:0:0:0:
320,192,12600,1,0,0:0:0:0:
448,192,12600,1,0,0:0:0:0:
320,192,12673,1,0,0:0:0:0:
192,192,12673,1,0,0:0:0:0:
64,192,12747,1,0,0:0:0:0:
448,192,12747,1,0,0:0:0:0:
320,192,12820,1,0,0:0:0:0:
448,192,12820,1,0,0:0:0:0:
64,192,12893,1,0,0:0:0:0:
192,192,12893,1,0,0:0:0:0:
320,192,12893,1,0,0:0:0:0:
192,192,12967,1,0,0:0:0:0:
448,192,12967,1,0,0:0:0:0:
64,192,13040,1,0,0:0:0:0:
320,192,13040,1,0,0:0:0:0:
192,192,13114,1,0,0:0:0:0:
64,192,13114,1,0,0:0:0:0:
320,192,13187,1,0,0:0:0:0:
448,192,13187,1,0,0:0:0:0:
192,192,13187,1,0,0:0:0:0:
64,192,13260,1,0,0:0:0:0:
448,192,13260,1,0,0:0:0:0:
320,192,13334,1,0,0:0:0:0:
192,192,13334,1,0,0:0:0:0:
192,192,13407,1,0,0:0:0:0:
448,192,13407,1,0,0:0:0:0:
320,192,13480,1,0,0:0:0:0:
448,192,13480,1,0,0:0:0:0:
64,192,13480,1,0,0:0:0:0:
192,192,13554,1,0,0:0:0:0:
320,192,13554,1,0,0:0:0:0:
64,192,13627,1,0,0:0:0:0:
448,192,13627,1,0,0:0:0:0:
448,192,13700,1,0,0:0:0:0:
192,192,13700,1,0,0:0:0:0:
192,192,13774,1,0,0:0:0:0:
64,192,13774,1,0,0:0:0:0:
320,192,13774,1,0,0:0:0:0:
320,192,13847,1,0,0:0:0:0:
64,192,13847,1,0,0:0:0:0:
192,192,13920,1,0,0:0:0:0:
448,192,13920,1,0,0:0:0:0:
320,192,13994,1,0,0:0:0:0:
448,192,13994,1,0,0:0:0:0:
64,192,14067,1,0,0:0:0:0:
192,192,14067,1,0,0:0:0:0:
448,192,14067,1,0,0:0:0:0:
320,192,14140,1,0,0:0:0:0:
64,192,14140,1,0,0:0:0:0:
192,192,14214,1,0,0:0:0:0:
320,192,14214,1,0,0:0:0:0:
64,192,14287,1,0,0:0:0:0:
448,192,14287,1,0,0:0:0:0:
320,192,14360,1,0,0:0:0:0:
448,192,14360,1,0,0:0:0:0:
64,192,14360,1,0,0:0:0:0:
192,192,14434,1,0,0:0:0:0:
320,192,14434,1,0,0:0:0:0:
192,192,14507,1,0,0:0:0:0:
448,192,14507,1,0,0:0:0:0:
64,192,14581,1,0,0:0:0:0:
320,192,14581,1,0,0:0:0:0:
320,192,14654,1,0,0:0:0:0:
448,192,14654,1,0,0:0:0:0:
192,192,14654,1,0,0:0:0:0:
64,192,14727,1,0,0:0:0:0:
192,192,14727,1,0,0:0:0:0:
64,192,14801,1,0,0:0:0:0:
320,192,14801,1,0,0:0:0:0:
192,192,14874,1,0,0:0:0:0:
448,192,14874,1,0,0:0:0:0:
64,192,14947,1,0,0:0:0:0:
192,192,14947,1,0,0:0:0:0:
320,192,14947,1,0,0:0:0:0:
320,192,15021,1,0,0:0:0:0:
448,192,15021,1,0,0:0:0:0:
64,192,15094,1,0,0:0:0:0:
192,192,15094,1,0,0:0:0:0:
448,192,15094,1,0,0:0:0:0:
320,192,15167,1,0,0:0:0:0:
64,192,15167,1,0,0:0:0:0:
320,192,15241,1,0,0:0:0:0:
448,192,15241,1,0,0:0:0:0:
192,192,15241,1,0,0:0:0:0:
64,192,15314,1,0,0:0:0:0:
448,192,15314,1,0,0:0:0:0:
320,192,15387,1,0,0:0:0:0:
64,192,15387,1,0,0:0:0:0:
192,192,15461,1,0,0:0:0:0:
448,192,15461,1,0,0:0:0:0:
64,192,15534,1,0,0:0:0:0:
192,192,15534,1,0,0:0:0:0:
320,192,15534,1,0,0:0:0:0:
320,192,15607,1,0,0:0:0:0:
448,192,15607,1,0,0:0:0:0:
192,192,15681,1,0,0:0:0:0:
64,192,15681,1,0,0:0:0:0:
64,192,15754,1,0,0:0:0:0:
320,192,15754,1,0,0:0:0:0:
192,192,15827,1,0,0:0:0:0:
320,192,15827,1,0,0:0:0:0:
448,192,15827,1,0,0:0:0:0:
192,192,15901,1,0,0:0:0:0:
448,192,15901,1,0,0:0:0:0:
64,192,15974,1,0,0:0:0:0:
320,192,15974,1,0,0:0:0:0:
64,192,16047,1,0,0:0:0:0:
192,192,16047,1,0,0:0:0:0:
320,192,16121,1,0,0:0:0:0:
448,192,16121,1,0,0:0:0:0:
192,192,16121,1,0,0:0:0:0:
64,192,16194,1,0,0:0:0:0:
320,192,16194,1,0,0:0:0:0:
192,192,16268,1,0,0:0:0:0:
448,192,16268,1,0,0:0:0:0:
320,192,16341,1,0,0:0:0:0:
448,192,16341,1,0,0:0:0:0:
64,192,16414,1,0,0:0:0:0:
192,192,16414,1,0,0:0:0:0:
320,192,16414,1,0,0:0:0:0:
448,192,16488,1,0,0:0:0:0:
64,192,16488,1,0,0:0:0:0:
320,192,16561,1,0,0:0:0:0:
192,192,16561,1,0,0:0:0:0:
192,192,16634,1,0,0:0:0:0:
448,192,16634,1,0,0:0:0:0:
64,192,16708,1,0,0:0:0:0:
448,192,16708,1,0,0:0:0:0:
320,192,16708,1,0,0:0:0:0:
192,192,16781,1,0,0:0:0:0:
64,192,16781,1,0,0:0:0:0:
320,192,16854,1,0,0:0:0:0:
192,192,16854,1,0,0:0:0:0:
64,192,16928,1,0,0:0:0:0:
448,192,16928,1,0,0:0:0:0:
192,192,17001,1,0,0:0:0:0:
320,192,17001,1,0,0:0:0:0:
448,192,17001,1,0,0:0:0:0:
64,192,17074,1,0,0:0:0:0:
320,192,17074,1,0,0:0:0:0:
448,192,17148,1,0,0:0:0:0:
64,192,17148,1,0,0:0:0:0:
192,192,17221,1,0,0:0:0:0:
320,192,17221,1,0,0:0:0:0:
192,192,17294,1,0,0:0:0:0:
320,192,17294,1,0,0:0:0:0:
448,192,17294,1,0,0:0:0:0:
64,192,17368,1,0,0:0:0:0:
448,192,17368,1,0,0:0:0:0:
192,192,17441,1,0,0:0:0:0:
64,192,17441,1,0,0:0:0:0:
192,192,17514,1,0,0:0:0:0:
320,192,17514,1,0,0:0:0:0:
64,192,17588,1,0,0:0:0:0:
192,192,17588,1,0,0:0:0:0:
448,192,17588,1,0,0:0:0:0:
64,192,17661,1,0,0:0:0:0:
320,192,17661,1,0,0:0:0:0:
192,192,17735,1,0,0:0:0:0:
448,192,17735,1,0,0:0:0:0:
320,192,17808,1,0,0:0:0:0:
448,192,17808,1,0,0:0:0:0:
192,192,17881,1,0,0:0:0:0:
64,192,17881,1,0,0:0:0:0:
320,192,17881,1,0,0:0:0:0:
448,192,17955,1,0,0:0:0:0:
64,192,17955,1,0,0:0:0:0:
192,192,18028,1,0,0:0:0:0:
448,192,18028,1,0,0:0:0:0:
320,192,18101,1,0,0:0:0:0:
192,192,18101,1,0,0:0:0:0:
64,192,18175,1,0,0:0:0:0:
320,192,18175,1,0,0:0:0:0:
448,192,18175,1,0,0:0:0:0:
192,192,18248,1,0,0:0:0:0:
448,192,18248,1,0,0:0:0:0:
192,192,18321,1,0,0:0:0:0:
64,192,18321,1,0,0:0:0:0:
320,192,18395,1,0,0:0:0:0:
192,192,18395,1,0,0:0:0:0:
64,192,18468,1,0,0:0:0:0:
448,192,18468,1,0,0:0:0:0:
320,192,18468,1,0,0:0:0:0:
192,192,18541,1,0,0:0:0:0:
448,192,18541,1,0,0:0:0:0:
64,192,18615,1,0,0:0:0:0:
192,192,18615,1,0,0:0:0:0:
320,192,18688,1,0,0:0:0:0:
448,192,18688,1,0,0:0:0:0:
192,192,18761,1,0,0:0:0:0:
320,192,18761,1,0,0:0:0:0:
64,192,18761,1,0,0:0:0:0:
448,192,18835,1,0,0:0:0:0:
192,192,18835,1,0,0:0:0:0:
448,192,18908,1,0,0:0:0:0:
320,192,18908,1,0,0:0:0:0:
64,192,18908,1,0,0:0:0:0:
192,192,18981,1,0,0:0:0:0:
320,192,18981,1,0,0:0:0:0:
64,192,19055,1,0,0:0:0:0:
192,192,19055,1,0,0:0:0:0:
320,192,19055,1,0,0:0:0:0:
448,192,19128,1,0,0:0:0:0:
64,192,19128,1,0,0:0:0:0:
192,192,19202,1,0,0:0:0:0:
320,192,19202,1,0,0:0:0:0:
320,192,19275,1,0,0:0:0:0:
64,192,19275,1,0,0:0:0:0:
64,192,19348,1,0,0:0:0:0:
192,192,19348,1,0,0:0:0:0:
448,192,19348,1,0,0:0:0:0:
320,192,19422,1,0,0:0:0:0:
448,192,19422,1,0,0:0:0:0:
64,192,19495,1,0,0:0:0:0:
192,192,19532,1,0,0:0:0:0:
320,192,19568,1,0,0:0:0:0:
448,192,19605,1,0,0:0:0:0:
64,192,19642,1,0,0:0:0:0:
192,192,19678,1,0,0:0:0:0:
448,192,19715,1,0,0:0:0:0:
320,192,19752,1,0,0:0:0:0:
192,192,19788,1,0,0:0:0:0:
64,192,19825,1,0,0:0:0:0:
320,192,19862,1,0,0:0:0:0:
448,192,19862,1,0,0:0:0:0:
64,192,19935,1,0,0:0:0:0:
192,192,19935,1,0,0:0:0:0:
320,192,19935,1,0,0:0:0:0:
448,192,19935,1,0,0:0:0:0:
64,192,20008,1,0,0:0:0:0:
192,192,20008,1,0,0:0:0:0:
64,192,20082,1,0,0:0:0:0:
448,192,20082,1,0,0:0:0:0:
320,192,20155,1,0,0:0:0:0:
448,192,20155,1,0,0:0:0:0:
64,192,20228,1,0,0:0:0:0:
192,192,20228,1,0,0:0:0:0:
320,192,20228,1,0,0:0:0:0:
448,192,20228,1,0,0:0:0:0:
192,192,20302,1,0,0:0:0:0:
64,192,20302,1,0,0:0:0:0:
192,192,20375,1,0,0:0:0:0:
320,192,20375,1,0,0:0:0:0:
64,192,20448,1,0,0:0:0:0:
448,192,20448,1,0,0:0:0:0:
64,192,20522,1,0,0:0:0:0:
192,192,20522,1,0,0:0:0:0:
320,192,20522,1,0,0:0:0:0:
448,192,20522,1,0,0:0:0:0:
320,192,20595,1,0,0:0:0:0:
448,192,20595,1,0,0:0:0:0:
192,192,20669,1,0,0:0:0:0:
64,192,20669,1,0,0:0:0:0:
64,192,20742,1,0,0:0:0:0:
448,192,20742,1,0,0:0:0:0:
192,192,20815,1,0,0:0:0:0:
64,192,20815,1,0,0:0:0:0:
448,192,20815,1,0,0:0:0:0:
320,192,20815,1,0,0:0:0:0:
320,192,20889,1,0,0:0:0:0:
448,192,20889,1,0,0:0:0:0:
192,192,20962,1,0,0:0:0:0:
320,192,20962,1,0,0:0:0:0:
64,192,21035,1,0,0:0:0:0:
448,192,21035,1,0,0:0:0:0:
64,192,21109,1,0,0:0:0:0:
320,192,21109,1,0,0:0:0:0:
448,192,21109,1,0,0:0:0:0:
192,192,21109,1,0,0:0:0:0:
192,192,21182,1,0,0:0:0:0:
64,192,21182,1,0,0:0:0:0:
448,192,21255,1,0,0:0:0:0:
320,192,21255,1,0,0:0:0:0:
64,192,21329,1,0,0:0:0:0:
320,192,21329,1,0,0:0:0:0:
64,192,21402,1,0,0:0:0:0:
192,192,21402,1,0,0:0:0:0:
320,192,21402,1,0,0:0:0:0:
448,192,21402,1,0,0:0:0:0:
192,192,21475,1,0,0:0:0:0:
448,192,21475,1,0,0:0:0:0:
320,192,21549,1,0,0:0:0:0:
448,192,21549,1,0,0:0:0:0:
64,192,21622,1,0,0:0:0:0:
192,192,21622,1,0,0:0:0:0:
64,192,21695,1,0,0:0:0:0:
192,192,21695,1,0,0:0:0:0:
320,192,21695,1,0,0:0:0:0:
448,192,21695,1,0,0:0:0:0:
320,192,21769,1,0,0:0:0:0:
448,192,21769,1,0,0:0:0:0:
64,192,21842,1,0,0:0:0:0:
448,192,21842,1,0,0:0:0:0:
192,192,21915,1,0,0:0:0:0:
64,192,21915,1,0,0:0:0:0:
64,192,21989,1,0,0:0:0:0:
320,192,21989,1,0,0:0:0:0:
448,192,21989,1,0,0:0:0:0:
192,192,21989,1,0,0:0:0:0:
320,192,22062,1,0,0:0:0:0:
448,192,22062,1,0,0:0:0:0:
64,192,22136,1,0,0:0:0:0:
320,192,22136,1,0,0:0:0:0:
192,192,22209,1,0,0:0:0:0:
448,192,22209,1,0,0:0:0:0:
320,192,22282,1,0,0:0:0:0:
448,192,22282,1,0,0:0:0:0:
192,192,22282,1,0,0:0:0:0:
64,192,22282,1,0,0:0:0:0:
192,192,22356,1,0,0:0:0:0:
64,192,22356,1,0,0:0:0:0:
448,192,22429,1,0,0:0:0:0:
64,192,22429,1,0,0:0:0:0:
448,192,22502,1,0,0:0:0:0:
192,192,22502,1,0,0:0:0:0:
320,192,22576,1,0,0:0:0:0:
448,192,22576,1,0,0:0:0:0:
192,192,22576,1,0,0:0:0:0:
64,192,22576,1,0,0:0:0:0:
64,192,22649,1,0,0:0:0:0:
320,192,22649,1,0,0:0:0:0:
192,192,22722,1,0,0:0:0:0:
320,192,22722,1,0,0:0:0:0:
64,192,22796,1,0,0:0:0:0:
192,192,22796,1,0,0:0:0:0:
320,192,22869,1,0,0:0:0:0:
448,192,22869,1,0,0:0:0:0:
192,192,22869,1,0,0:0:0:0:
64,192,22869,1,0,0:0:0:0:
320,192,22942,1,0,0:0:0:0:
448,192,22942,1,0,0:0:0:0:
64,192,23016,1,0,0:0:0:0:
448,192,23016,1,0,0:0:0:0:
192,192,23089,1,0,0:0:0:0:
320,192,23089,1,0,0:0:0:0:
64,192,23162,1,0,0:0:0:0:
192,192,23162,1,0,0:0:0:0:
320,192,23162,1,0,0:0:0:0:
448,192,23162,1,0,0:0:0:0:
192,192,23236,1,0,0:0:0:0:
64,192,23236,1,0,0:0:0:0:
192,192,23309,1,0,0:0:0:0:
448,192,23309,1,0,0:0:0:0:
64,192,23382,1,0,0:0:0:0:
320,192,23382,1,0,0:0:0:0:
64,192,23456,1,0,0:0:0:0:
192,192,23456,1,0,0:0:0:0:
320,192,23456,1,0,0:0:0:0:
448,192,23456,1,0,0:0:0:0:
320,192,23529,1,0,0:0:0:0:
448,192,23529,1,0,0:0:0:0:
192,192,23603,1,0,0:0:0:0:
64,192,23603,1,0,0:0:0:0:
64,192,23676,1,0,0:0:0:0:
320,192,23676,1,0,0:0:0:0:
64,192,23749,1,0,0:0:0:0:
192,192,23749,1,0,0:0:0:0:
320,192,23749,1,0,0:0:0:0:
448,192,23749,1,0,0:0:0:0:
192,192,23823,1,0,0:0:0:0:
448,192,23823,1,0,0:0:0:0:
320,192,23896,1,0,0:0:0:0:
448,192,23896,1,0,0:0:0:0:
192,192,23969,1,0,0:0:0:0:
64,192,23969,1,0,0:0:0:0:
64,192,24043,1,0,0:0:0:0:
192,192,24043,1,0,0:0:0:0:
320,192,24043,1,0,0:0:0:0:
448,192,24043,1,0,0:0:0:0:
320,192,24116,1,0,0:0:0:0:
192,192,24116,1,0,0:0:0:0:
64,192,24189,1,0,0:0:0:0:
448,192,24189,1,0,0:0:0:0:
320,192,24263,1,0,0:0:0:0:
448,192,24263,1,0,0:0:0:0:
64,192,24336,1,0,0:0:0:0:
192,192,24336,1,0,0:0:0:0:
448,192,24336,1,0,0:0:0:0:
320,192,24336,1,0,0:0:0:0:
64,192,24409,1,0,0:0:0:0:
192,192,24409,1,0,0:0:0:0:
64,192,24483,1,0,0:0:0:0:
448,192,24483,1,0,0:0:0:0:
192,192,24556,1,0,0:0:0:0:
320,192,24556,1,0,0:0:0:0:
64,192,24629,1,0,0:0:0:0:
192,192,24629,1,0,0:0:0:0:
320,192,24629,1,0,0:0:0:0:
448,192,24629,1,0,0:0:0:0:
64,192,24776,1,0,0:0:0:0:
320,192,24776,1,0,0:0:0:0:
448,192,24776,1,0,0:0:0:0:
64,192,24923,1,0,0:0:0:0:
192,192,24923,1,0,0:0:0:0:
320,192,24923,1,0,0:0:0:0:
448,192,24923,1,0,0:0:0:0:
320,192,25070,1,0,0:0:0:0:
448,192,25070,1,0,0:0:0:0:
192,192,25070,1,0,0:0:0:0:
64,192,25216,1,0,0:0:0:0:
192,192,25216,1,0,0:0:0:0:
320,192,25216,1,0,0:0:0:0:
448,192,25216,1,0,0:0:0:0:
192,192,25363,1,0,0:0:0:0:
64,192,25363,1,0,0:0:0:0:
320,192,25363,1,0,0:0:0:0:
64,192,25510,1,0,0:0:0:0:
192,192,25510,1,0,0:0:0:0:
320,192,25510,1,0,0:0:0:0:
448,192,25510,1,0,0:0:0:0:
64,192,25656,1,0,0:0:0:0:
448,192,25656,1,0,0:0:0:0:
320,192,25656,1,0,0:0:0:0:
320,192,25803,1,0,0:0:0:0:
192,192,25803,1,0,0:0:0:0:
448,192,25803,1,0,0:0:0:0:
64,192,25803,1,0,0:0:0:0:
320,192,25950,1,0,0:0:0:0:
448,192,25950,1,0,0:0:0:0:
64,192,25950,1,0,0:0:0:0:
64,192,26096,1,0,0:0:0:0:
192,192,26096,1,0,0:0:0:0:
448,192,26096,1,0,0:0:0:0:
320,192,26096,1,0,0:0:0:0:
64,192,26243,1,0,0:0:0:0:
320,192,26243,1,0,0:0:0:0:
448,192,26243,1,0,0:0:0:0:
64,192,26390,1,0,0:0:0:0:
320,192,26390,1,0,0:0:0:0:
448,192,26390,1,0,0:0:0:0:
192,192,26390,1,0,0:0:0:0:
192,192,26537,1,0,0:0:0:0:
64,192,26537,1,0,0:0:0:0:
320,192,26537,1,0,0:0:0:0:
64,192,26683,1,0,0:0:0:0:
320,192,26683,1,0,0:0:0:0:
448,192,26683,1,0,0:0:0:0:
192,192,26683,1,0,0:0:0:0:
320,192,26830,1,0,0:0:0:0:
448,192,26830,1,0,0:0:0:0:
192,192,26830,1,0,0:0:0:0:
192,192,26977,1,0,0:0:0:0:
64,192,26977,1,0,0:0:0:0:
320,192,27050,1,0,0:0:0:0:
448,192,27050,1,0,0:0:0:0:
192,192,27123,1,0,0:0:0:0:
64,192,27123,1,0,0:0:0:0:
320,192,27197,1,0,0:0:0:0:
448,192,27197,1,0,0:0:0:0:
192,192,27270,1,0,0:0:0:0:
64,192,27270,1,0,0:0:0:0:
320,192,27343,1,0,0:0:0:0:
448,192,27343,1,0,0:0:0:0:
192,192,27417,1,0,0:0:0:0:
64,192,27417,1,0,0:0:0:0:
320,192,27490,1,0,0:0:0:0:
448,192,27490,1,0,0:0:0:0:
64,192,27563,1,0,0:0:0:0:
192,192,27563,1,0,0:0:0:0:
320,192,27637,1,0,0:0:0:0:
448,192,27637,1,0,0:0:0:0:
192,192,27710,1,0,0:0:0:0:
64,192,27710,1,0,0:0:0:0:
320,192,27783,1,0,0:0:0:0:
448,192,27783,1,0,0:0:0:0:
192,192,27857,1,0,0:0:0:0:
64,192,27857,1,0,0:0:0:0:
320,192,27930,1,0,0:0:0:0:
448,192,27930,1,0,0:0:0:0:
192,192,28004,1,0,0:0:0:0:
64,192,28004,1,0,0:0:0:0:
320,192,28077,1,0,0:0:0:0:
448,192,28077,1,0,0:0:0:0:
64,192,28150,5,0,0:0:0:0:
192,192,28187,1,0,0:0:0:0:
320,192,28224,1,0,0:0:0:0:
448,192,28260,1,0,0:0:0:0:
64,192,28297,1,0,0:0:0:0:
192,192,28334,1,0,0:0:0:0:
448,192,28370,1,0,0:0:0:0:
320,192,28407,1,0,0:0:0:0:
192,192,28444,1,0,0:0:0:0:
64,192,28480,1,0,0:0:0:0:
448,192,28517,1,0,0:0:0:0:
320,192,28554,1,0,0:0:0:0:
64,192,28590,1,0,0:0:0:0:
192,192,28627,1,0,0:0:0:0:
320,192,28664,1,0,0:0:0:0:
448,192,28700,1,0,0:0:0:0:
64,192,28737,1,0,0:0:0:0:
192,192,28774,1,0,0:0:0:0:
320,192,28810,1,0,0:0:0:0:
448,192,28847,1,0,0:0:0:0:
192,192,28957,1,0,0:0:0:0:
320,192,28994,1,0,0:0:0:0:
448,192,29030,1,0,0:0:0:0:
64,192,29067,1,0,0:0:0:0:
320,192,29177,1,0,0:0:0:0:
448,192,29214,1,0,0:0:0:0:
64,192,29250,1,0,0:0:0:0:
192,192,29287,1,0,0:0:0:0:
320,192,29324,1,0,0:0:0:0:
448,192,29324,1,0,0:0:0:0:
64,192,29471,1,0,0:0:0:0:
320,192,29617,1,0,0:0:0:0:
448,192,29617,1,0,0:0:0:0:
192,192,29617,1,0,0:0:0:0:
64,192,29617,1,0,0:0:0:0:
192,192,29764,1,0,0:0:0:0:
64,192,29911,1,0,0:0:0:0:
320,192,29911,1,0,0:0:0:0:
448,192,30057,1,0,0:0:0:0:
64,192,30204,1,0,0:0:0:0:
320,192,30204,1,0,0:0:0:0:
192,192,30204,1,0,0:0:0:0:
448,192,30204,1,0,0:0:0:0:
192,192,30351,1,0,0:0:0:0:
448,192,30497,1,0,0:0:0:0:
320,192,30497,1,0,0:0:0:0:
64,192,30644,1,0,0:0:0:0:
192,192,30791,1,0,0:0:0:0:
320,192,30791,1,0,0:0:0:0:
448,192,30791,1,0,0:0:0:0:
64,192,30791,1,0,0:0:0:0:
448,192,30937,1,0,0:0:0:0:
320,192,31084,1,0,0:0:0:0:
192,192,31084,1,0,0:0:0:0:
64,192,31231,1,0,0:0:0:0:
192,192,31378,1,0,0:0:0:0:
448,192,31378,1,0,0:0:0:0:
64,192,31378,1,0,0:0:0:0:
320,192,31378,1,0,0:0:0:0:
320,192,31524,1,0,0:0:0:0:
64,192,31671,1,0,0:0:0:0:
448,192,31671,1,0,0:0:0:0:
192,192,31818,1,0,0:0:0:0:
320,192,31964,1,0,0:0:0:0:
448,192,31964,1,0,0:0:0:0:
64,192,31964,1,0,0:0:0:0:
192,192,31964,1,0,0:0:0:0:
64,192,32111,1,0,0:0:0:0:
320,192,32258,1,0,0:0:0:0:
448,192,32404,1,0,0:0:0:0:
64,192,32551,1,0,0:0:0:0:
192,192,32551,1,0,0:0:0:0:
320,192,32551,1,0,0:0:0:0:
448,192,32551,1,0,0:0:0:0:
320,192,32698,1,0,0:0:0:0:
64,192,32845,1,0,0:0:0:0:
192,192,32991,1,0,0:0:0:0:
320,192,33138,1,0,0:0:0:0:
448,192,33138,1,0,0:0:0:0:
192,192,33138,1,0,0:0:0:0:
64,192,33138,1,0,0:0:0:0:
64,192,33285,1,0,0:0:0:0:
192,192,33431,1,0,0:0:0:0:
448,192,33578,1,0,0:0:0:0:
64,192,33725,1,0,0:0:0:0:
320,192,33725,1,0,0:0:0:0:
192,192,33725,1,0,0:0:0:0:
448,192,33725,1,0,0:0:0:0:
192,192,33871,1,0,0:0:0:0:
320,192,34018,1,0,0:0:0:0:
448,192,34018,1,0,0:0:0:0:
64,192,34165,1,0,0:0:0:0:
320,192,34312,1,0,0:0:0:0:
448,192,34312,1,0,0:0:0:0:
192,192,34312,1,0,0:0:0:0:
64,192,34312,1,0,0:0:0:0:
192,192,34458,1,0,0:0:0:0:
64,192,34605,1,0,0:0:0:0:
448,192,34605,1,0,0:0:0:0:
320,192,34752,1,0,0:0:0:0:
448,192,34898,1,0,0:0:0:0:
192,192,34898,1,0,0:0:0:0:
64,192,34898,1,0,0:0:0:0:
320,192,34898,1,0,0:0:0:0:
192,192,35045,1,0,0:0:0:0:
448,192,35045,1,0,0:0:0:0:
64,192,35192,1,0,0:0:0:0:
192,192,35338,1,0,0:0:0:0:
320,192,35338,1,0,0:0:0:0:
320,192,35485,1,0,0:0:0:0:
448,192,35485,1,0,0:0:0:0:
192,192,35485,1,0,0:0:0:0:
64,192,35485,1,0,0:0:0:0:
64,192,35632,1,0,0:0:0:0:
320,192,35632,1,0,0:0:0:0:
192,192,35779,1,0,0:0:0:0:
448,192,35779,1,0,0:0:0:0:
64,192,35925,1,0,0:0:0:0:
448,192,36072,1,0,0:0:0:0:
64,192,36072,1,0,0:0:0:0:
320,192,36072,1,0,0:0:0:0:
192,192,36072,1,0,0:0:0:0:
320,192,36219,1,0,0:0:0:0:
192,192,36365,1,0,0:0:0:0:
64,192,36365,1,0,0:0:0:0:
448,192,36512,1,0,0:0:0:0:
192,192,36659,1,0,0:0:0:0:
64,192,36659,1,0,0:0:0:0:
320,192,36659,1,0,0:0:0:0:
448,192,36659,1,0,0:0:0:0:
320,192,36805,1,0,0:0:0:0:
448,192,36952,1,0,0:0:0:0:
192,192,36952,1,0,0:0:0:0:
64,192,37099,1,0,0:0:0:0:
192,192,37246,1,0,0:0:0:0:
320,192,37246,1,0,0:0:0:0:
448,192,37246,1,0,0:0:0:0:
64,192,37246,1,0,0:0:0:0:
448,192,37392,1,0,0:0:0:0:
192,192,37392,1,0,0:0:0:0:
64,192,37539,1,0,0:0:0:0:
448,192,37686,1,0,0:0:0:0:
320,192,37686,1,0,0:0:0:0:
320,192,37832,1,0,0:0:0:0:
192,192,37832,1,0,0:0:0:0:
64,192,37832,1,0,0:0:0:0:
64,192,37979,1,0,0:0:0:0:
448,192,37979,1,0,0:0:0:0:
320,192,38126,1,0,0:0:0:0:
192,192,38126,1,0,0:0:0:0:
64,192,38272,1,0,0:0:0:0:
320,192,38272,1,0,0:0:0:0:
448,192,38272,1,0,0:0:0:0:
192,192,38419,1,0,0:0:0:0:
448,192,38419,1,0,0:0:0:0:
64,192,38566,1,0,0:0:0:0:
320,192,38566,1,0,0:0:0:0:
64,192,38713,1,0,0:0:0:0:
448,192,38713,1,0,0:0:0:0:
192,192,38713,1,0,0:0:0:0:
320,192,38786,1,0,0:0:0:0:
448,192,38786,1,0,0:0:0:0:
64,192,38859,1,0,0:0:0:0:
320,192,38859,1,0,0:0:0:0:
192,192,38933,1,0,0:0:0:0:
64,192,38933,1,0,0:0:0:0:
192,192,39006,1,0,0:0:0:0:
320,192,39006,1,0,0:0:0:0:
448,192,39006,1,0,0:0:0:0:
64,192,39079,1,0,0:0:0:0:
448,192,39079,1,0,0:0:0:0:
320,192,39153,1,0,0:0:0:0:
448,192,39153,1,0,0:0:0:0:
192,192,39226,1,0,0:0:0:0:
320,192,39226,1,0,0:0:0:0:
64,192,39299,1,0,0:0:0:0:
320,192,39299,1,0,0:0:0:0:
448,192,39299,1,0,0:0:0:0:
192,192,39373,1,0,0:0:0:0:
64,192,39373,1,0,0:0:0:0:
64,192,39446,1,0,0:0:0:0:
320,192,39446,1,0,0:0:0:0:
448,192,39519,1,0,0:0:0:0:
192,192,39519,1,0,0:0:0:0:
64,192,39593,1,0,0:0:0:0:
192,192,39593,1,0,0:0:0:0:
320,192,39593,1,0,0:0:0:0:
448,192,39666,1,0,0:0:0:0:
320,192,39666,1,0,0:0:0:0:
64,192,39739,1,0,0:0:0:0:
448,192,39739,1,0,0:0:0:0:
192,192,39813,1,0,0:0:0:0:
320,192,39813,1,0,0:0:0:0:
64,192,39886,1,0,0:0:0:0:
192,192,39886,1,0,0:0:0:0:
448,192,39886,1,0,0:0:0:0:
320,192,39960,1,0,0:0:0:0:
448,192,39960,1,0,0:0:0:0:
192,192,40033,1,0,0:0:0:0:
64,192,40033,1,0,0:0:0:0:
64,192,40106,1,0,0:0:0:0:
320,192,40106,1,0,0:0:0:0:
192,192,40180,1,0,0:0:0:0:
320,192,40180,1,0,0:0:0:0:
448,192,40180,1,0,0:0:0:0:
448,192,40253,1,0,0:0:0:0:
64,192,40253,1,0,0:0:0:0:
320,192,40326,1,0,0:0:0:0:
192,192,40326,1,0,0:0:0:0:
320,192,40400,1,0,0:0:0:0:
64,192,40400,1,0,0:0:0:0:
64,192,40473,1,0,0:0:0:0:
320,192,40473,1,0,0:0:0:0:
448,192,40473,1,0,0:0:0:0:
64,192,40546,1,0,0:0:0:0:
192,192,40546,1,0,0:0:0:0:
320,192,40620,1,0,0:0:0:0:
448,192,40620,1,0,0:0:0:0:
64,192,40693,1,0,0:0:0:0:
448,192,40693,1,0,0:0:0:0:
64,192,40766,1,0,0:0:0:0:
192,192,40766,1,0,0:0:0:0:
320,192,40766,1,0,0:0:0:0:
192,192,40840,1,0,0:0:0:0:
448,192,40840,1,0,0:0:0:0:
64,192,40913,1,0,0:0:0:0:
320,192,40913,1,0,0:0:0:0:
448,192,40986,1,0,0:0:0:0:
64,192,40986,1,0,0:0:0:0:
192,192,41060,1,0,0:0:0:0:
320,192,41060,1,0,0:0:0:0:
448,192,41060,1,0,0:0:0:0:
320,192,41133,1,0,0:0:0:0:
192,192,41133,1,0,0:0:0:0:
64,192,41206,1,0,0:0:0:0:
448,192,41206,1,0,0:0:0:0:
192,192,41280,1,0,0:0:0:0:
64,192,41280,1,0,0:0:0:0:
448,192,41353,1,0,0:0:0:0:
320,192,41353,1,0,0:0:0:0:
192,192,41353,1,0,0:0:0:0:
64,192,41427,1,0,0:0:0:0:
320,192,41427,1,0,0:0:0:0:
192,192,41500,1,0,0:0:0:0:
448,192,41500,1,0,0:0:0:0:
320,192,41573,1,0,0:0:0:0:
448,192,41573,1,0,0:0:0:0:
192,192,41647,1,0,0:0:0:0:
320,192,41647,1,0,0:0:0:0:
448,192,41647,1,0,0:0:0:0:
64,192,41720,1,0,0:0:0:0:
192,192,41720,1,0,0:0:0:0:
64,192,41793,1,0,0:0:0:0:
320,192,41793,1,0,0:0:0:0:
192,192,41867,1,0,0:0:0:0:
320,192,41867,1,0,0:0:0:0:
64,192,41940,5,0,0:0:0:0:
320,192,41940,1,0,0:0:0:0:
448,192,41940,1,0,0:0:0:0:
192,192,42013,1,0,0:0:0:0:
448,192,42013,1,0,0:0:0:0:
320,192,42087,1,0,0:0:0:0:
64,192,42087,1,0,0:0:0:0:
64,192,42160,1,0,0:0:0:0:
192,192,42160,1,0,0:0:0:0:
64,192,42233,1,0,0:0:0:0:
192,192,42233,1,0,0:0:0:0:
320,192,42233,1,0,0:0:0:0:
448,192,42307,1,0,0:0:0:0:
320,192,42307,1,0,0:0:0:0:
192,192,42380,1,0,0:0:0:0:
64,192,42380,1,0,0:0:0:0:
192,192,42453,1,0,0:0:0:0:
448,192,42453,1,0,0:0:0:0:
448,192,42527,1,0,0:0:0:0:
192,192,42527,1,0,0:0:0:0:
320,192,42527,1,0,0:0:0:0:
64,192,42600,1,0,0:0:0:0:
320,192,42600,1,0,0:0:0:0:
192,192,42673,1,0,0:0:0:0:
64,192,42673,1,0,0:0:0:0:
448,192,42747,1,0,0:0:0:0:
320,192,42747,1,0,0:0:0:0:
64,192,42820,1,0,0:0:0:0:
448,192,42820,1,0,0:0:0:0:
192,192,42820,1,0,0:0:0:0:
192,192,42894,1,0,0:0:0:0:
320,192,42894,1,0,0:0:0:0:
448,192,42967,1,0,0:0:0:0:
64,192,42967,1,0,0:0:0:0:
64,192,43040,1,0,0:0:0:0:
320,192,43040,1,0,0:0:0:0:
448,192,43114,5,0,0:0:0:0:
320,192,43114,1,0,0:0:0:0:
192,192,43114,1,0,0:0:0:0:
64,192,43187,1,0,0:0:0:0:
448,192,43187,1,0,0:0:0:0:
320,192,43260,1,0,0:0:0:0:
192,192,43260,1,0,0:0:0:0:
64,192,43260,1,0,0:0:0:0:
192,192,43334,1,0,0:0:0:0:
320,192,43334,1,0,0:0:0:0:
64,192,43407,1,0,0:0:0:0:
320,192,43407,1,0,0:0:0:0:
448,192,43407,1,0,0:0:0:0:
192,192,43480,1,0,0:0:0:0:
64,192,43480,1,0,0:0:0:0:
192,192,43554,1,0,0:0:0:0:
448,192,43554,1,0,0:0:0:0:
320,192,43627,1,0,0:0:0:0:
448,192,43627,1,0,0:0:0:0:
320,192,43700,1,0,0:0:0:0:
192,192,43700,1,0,0:0:0:0:
64,192,43700,1,0,0:0:0:0:
448,192,43774,1,0,0:0:0:0:
64,192,43774,1,0,0:0:0:0:
192,192,43847,1,0,0:0:0:0:
320,192,43847,1,0,0:0:0:0:
64,192,43920,1,0,0:0:0:0:
320,192,43920,1,0,0:0:0:0:
64,192,43994,1,0,0:0:0:0:
192,192,43994,1,0,0:0:0:0:
448,192,43994,1,0,0:0:0:0:
320,192,44067,1,0,0:0:0:0:
448,192,44067,1,0,0:0:0:0:
320,192,44140,1,0,0:0:0:0:
64,192,44140,1,0,0:0:0:0:
192,192,44214,1,0,0:0:0:0:
64,192,44214,1,0,0:0:0:0:
320,192,44287,1,0,0:0:0:0:
192,192,44287,1,0,0:0:0:0:
448,192,44287,1,0,0:0:0:0:
64,192,44361,1,0,0:0:0:0:
320,192,44361,1,0,0:0:0:0:
192,192,44434,1,0,0:0:0:0:
448,192,44434,1,0,0:0:0:0:
320,192,44507,1,0,0:0:0:0:
448,192,44507,1,0,0:0:0:0:
64,192,44581,1,0,0:0:0:0:
320,192,44581,1,0,0:0:0:0:
448,192,44581,1,0,0:0:0:0:
192,192,44654,1,0,0:0:0:0:
64,192,44654,1,0,0:0:0:0:
192,192,44727,1,0,0:0:0:0:
320,192,44727,1,0,0:0:0:0:
64,192,44801,1,0,0:0:0:0:
448,192,44801,1,0,0:0:0:0:
64,192,44874,1,0,0:0:0:0:
192,192,44874,1,0,0:0:0:0:
448,192,44874,1,0,0:0:0:0:
320,192,44947,1,0,0:0:0:0:
192,192,44947,1,0,0:0:0:0:
64,192,45021,1,0,0:0:0:0:
448,192,45021,1,0,0:0:0:0:
320,192,45094,1,0,0:0:0:0:
192,192,45094,1,0,0:0:0:0:
64,192,45167,1,0,0:0:0:0:
192,192,45167,1,0,0:0:0:0:
320,192,45167,1,0,0:0:0:0:
64,192,45241,1,0,0:0:0:0:
448,192,45241,1,0,0:0:0:0:
192,192,45314,1,0,0:0:0:0:
448,192,45314,1,0,0:0:0:0:
320,192,45387,1,0,0:0:0:0:
192,192,45387,1,0,0:0:0:0:
192,192,45461,1,0,0:0:0:0:
320,192,45461,1,0,0:0:0:0:
448,192,45461,1,0,0:0:0:0:
64,192,45534,1,0,0:0:0:0:
448,192,45534,1,0,0:0:0:0:
320,192,45607,1,0,0:0:0:0:
64,192,45607,1,0,0:0:0:0:
192,192,45681,1,0,0:0:0:0:
448,192,45681,1,0,0:0:0:0:
64,192,45754,1,0,0:0:0:0:
320,192,45754,1,0,0:0:0:0:
448,192,45754,1,0,0:0:0:0:
192,192,45827,1,0,0:0:0:0:
320,192,45827,1,0,0:0:0:0:
64,192,45901,1,0,0:0:0:0:
448,192,45901,1,0,0:0:0:0:
320,192,45974,1,0,0:0:0:0:
448,192,45974,1,0,0:0:0:0:
64,192,46048,1,0,0:0:0:0:
192,192,46048,1,0,0:0:0:0:
320,192,46048,1,0,0:0:0:0:
448,192,46121,1,0,0:0:0:0:
64,192,46121,1,0,0:0:0:0:
192,192,46194,1,0,0:0:0:0:
448,192,46194,1,0,0:0:0:0:
320,192,46268,1,0,0:0:0:0:
64,192,46268,1,0,0:0:0:0:
64,192,46341,1,0,0:0:0:0:
448,192,46341,1,0,0:0:0:0:
192,192,46341,1,0,0:0:0:0:
320,192,46414,1,0,0:0:0:0:
448,192,46414,1,0,0:0:0:0:
192,192,46488,1,0,0:0:0:0:
320,192,46488,1,0,0:0:0:0:
64,192,46561,1,0,0:0:0:0:
448,192,46561,1,0,0:0:0:0:
192,192,46634,1,0,0:0:0:0:
448,192,46634,1,0,0:0:0:0:
320,192,46634,1,0,0:0:0:0:
192,192,46708,1,0,0:0:0:0:
64,192,46708,1,0,0:0:0:0:
320,192,46781,1,0,0:0:0:0:
64,192,46781,1,0,0:0:0:0:
192,192,46854,1,0,0:0:0:0:
448,192,46854,1,0,0:0:0:0:
64,192,46928,1,0,0:0:0:0:
320,192,46928,1,0,0:0:0:0:
448,192,46928,1,0,0:0:0:0:
192,192,47001,1,0,0:0:0:0:
320,192,47001,1,0,0:0:0:0:
64,192,47074,1,0,0:0:0:0:
320,192,47074,1,0,0:0:0:0:
192,192,47148,1,0,0:0:0:0:
448,192,47148,1,0,0:0:0:0:
192,192,47221,1,0,0:0:0:0:
64,192,47221,1,0,0:0:0:0:
320,192,47221,1,0,0:0:0:0:
192,192,47294,1,0,0:0:0:0:
320,192,47294,1,0,0:0:0:0:
64,192,47368,1,0,0:0:0:0:
448,192,47368,1,0,0:0:0:0:
192,192,47441,1,0,0:0:0:0:
320,192,47441,1,0,0:0:0:0:
448,192,47515,1,0,0:0:0:0:
64,192,47515,1,0,0:0:0:0:
320,192,47515,1,0,0:0:0:0:
192,192,47588,1,0,0:0:0:0:
448,192,47588,1,0,0:0:0:0:
64,192,47661,1,0,0:0:0:0:
192,192,47661,1,0,0:0:0:0:
320,192,47735,1,0,0:0:0:0:
448,192,47735,1,0,0:0:0:0:
448,192,47808,1,0,0:0:0:0:
192,192,47808,1,0,0:0:0:0:
64,192,47808,1,0,0:0:0:0:
320,192,47881,1,0,0:0:0:0:
192,192,47881,1,0,0:0:0:0:
448,192,47955,1,0,0:0:0:0:
64,192,47955,1,0,0:0:0:0:
320,192,47955,1,0,0:0:0:0:
192,192,48028,1,0,0:0:0:0:
64,192,48028,1,0,0:0:0:0:
192,192,48101,5,0,0:0:0:0:
320,192,48101,1,0,0:0:0:0:
448,192,48101,1,0,0:0:0:0:
64,192,48175,1,0,0:0:0:0:
320,192,48175,1,0,0:0:0:0:
192,192,48248,1,0,0:0:0:0:
448,192,48248,1,0,0:0:0:0:
320,192,48321,1,0,0:0:0:0:
448,192,48321,1,0,0:0:0:0:
64,192,48395,1,0,0:0:0:0:
448,192,48395,1,0,0:0:0:0:
320,192,48395,1,0,0:0:0:0:
192,192,48468,1,0,0:0:0:0:
64,192,48468,1,0,0:0:0:0:
192,192,48541,1,0,0:0:0:0:
448,192,48541,1,0,0:0:0:0:
320,192,48615,1,0,0:0:0:0:
64,192,48615,1,0,0:0:0:0:
64,192,48688,1,0,0:0:0:0:
448,192,48688,1,0,0:0:0:0:
192,192,48688,1,0,0:0:0:0:
320,192,48761,1,0,0:0:0:0:
448,192,48761,1,0,0:0:0:0:
320,192,48835,1,0,0:0:0:0:
192,192,48835,1,0,0:0:0:0:
64,192,48908,1,0,0:0:0:0:
448,192,48908,1,0,0:0:0:0:
64,192,48982,1,0,0:0:0:0:
192,192,48982,1,0,0:0:0:0:
320,192,48982,1,0,0:0:0:0:
448,192,49055,1,0,0:0:0:0:
320,192,49055,1,0,0:0:0:0:
192,192,49128,1,0,0:0:0:0:
448,192,49128,1,0,0:0:0:0:
192,192,49202,1,0,0:0:0:0:
64,192,49202,1,0,0:0:0:0:
64,192,49275,1,0,0:0:0:0:
448,192,49275,1,0,0:0:0:0:
320,192,49275,1,0,0:0:0:0:
192,192,49348,1,0,0:0:0:0:
448,192,49348,1,0,0:0:0:0:
320,192,49422,1,0,0:0:0:0:
192,192,49422,1,0,0:0:0:0:
64,192,49495,1,0,0:0:0:0:
448,192,49495,1,0,0:0:0:0:
64,192,49568,1,0,0:0:0:0:
192,192,49568,1,0,0:0:0:0:
448,192,49568,1,0,0:0:0:0:
320,192,49642,1,0,0:0:0:0:
64,192,49642,1,0,0:0:0:0:
192,192,49715,1,0,0:0:0:0:
448,192,49715,1,0,0:0:0:0:
320,192,49788,1,0,0:0:0:0:
448,192,49788,1,0,0:0:0:0:
64,192,49862,1,0,0:0:0:0:
192,192,49862,1,0,0:0:0:0:
320,192,49862,1,0,0:0:0:0:
448,192,49935,1,0,0:0:0:0:
64,192,49935,1,0,0:0:0:0:
192,192,50008,1,0,0:0:0:0:
320,192,50008,1,0,0:0:0:0:
192,192,50082,1,0,0:0:0:0:
448,192,50082,1,0,0:0:0:0:
64,192,50155,1,0,0:0:0:0:
320,192,50155,1,0,0:0:0:0:
448,192,50155,1,0,0:0:0:0:
320,192,50228,1,0,0:0:0:0:
448,192,50228,1,0,0:0:0:0:
64,192,50302,1,0,0:0:0:0:
192,192,50302,1,0,0:0:0:0:
64,192,50375,1,0,0:0:0:0:
320,192,50375,1,0,0:0:0:0:
192,192,50449,1,0,0:0:0:0:
320,192,50449,1,0,0:0:0:0:
448,192,50449,1,0,0:0:0:0:
448,192,50522,1,0,0:0:0:0:
64,192,50522,1,0,0:0:0:0:
192,192,50595,1,0,0:0:0:0:
320,192,50595,1,0,0:0:0:0:
64,192,50669,1,0,0:0:0:0:
320,192,50669,1,0,0:0:0:0:
64,192,50742,1,0,0:0:0:0:
448,192,50742,1,0,0:0:0:0:
192,192,50742,1,0,0:0:0:0:
320,192,50815,1,0,0:0:0:0:
448,192,50815,1,0,0:0:0:0:
64,192,50889,1,0,0:0:0:0:
320,192,50889,1,0,0:0:0:0:
192,192,50962,1,0,0:0:0:0:
64,192,50962,1,0,0:0:0:0:
192,192,51035,1,0,0:0:0:0:
320,192,51035,1,0,0:0:0:0:
448,192,51035,1,0,0:0:0:0:
64,192,51109,1,0,0:0:0:0:
448,192,51109,1,0,0:0:0:0:
192,192,51182,1,0,0:0:0:0:
448,192,51182,1,0,0:0:0:0:
320,192,51255,1,0,0:0:0:0:
64,192,51255,1,0,0:0:0:0:
192,192,51329,1,0,0:0:0:0:
320,192,51329,1,0,0:0:0:0:
448,192,51329,1,0,0:0:0:0:
64,192,51402,1,0,0:0:0:0:
448,192,51402,1,0,0:0:0:0:
64,192,51475,1,0,0:0:0:0:
320,192,51475,1,0,0:0:0:0:
192,192,51549,1,0,0:0:0:0:
448,192,51549,1,0,0:0:0:0:
64,192,51622,5,0,0:0:0:0:
192,192,51622,1,0,0:0:0:0:
320,192,51622,1,0,0:0:0:0:
320,192,51695,1,0,0:0:0:0:
448,192,51695,1,0,0:0:0:0:
64,192,51769,1,0,0:0:0:0:
448,192,51769,1,0,0:0:0:0:
192,192,51842,1,0,0:0:0:0:
320,192,51842,1,0,0:0:0:0:
448,192,51916,1,0,0:0:0:0:
320,192,51916,1,0,0:0:0:0:
64,192,51916,1,0,0:0:0:0:
192,192,51989,1,0,0:0:0:0:
64,192,51989,1,0,0:0:0:0:
448,192,52062,1,0,0:0:0:0:
192,192,52062,1,0,0:0:0:0:
64,192,52136,1,0,0:0:0:0:
320,192,52136,1,0,0:0:0:0:
192,192,52209,1,0,0:0:0:0:
320,192,52209,1,0,0:0:0:0:
448,192,52209,1,0,0:0:0:0:
320,192,52282,1,0,0:0:0:0:
448,192,52282,1,0,0:0:0:0:
448,192,52356,1,0,0:0:0:0:
64,192,52356,1,0,0:0:0:0:
64,192,52429,1,0,0:0:0:0:
192,192,52429,1,0,0:0:0:0:
192,192,52502,5,0,0:0:0:0:
320,192,52502,1,0,0:0:0:0:
448,192,52502,1,0,0:0:0:0:
64,192,52576,1,0,0:0:0:0:
320,192,52576,1,0,0:0:0:0:
192,192,52649,1,0,0:0:0:0:
64,192,52649,1,0,0:0:0:0:
448,192,52649,1,0,0:0:0:0:
320,192,52722,1,0,0:0:0:0:
448,192,52722,1,0,0:0:0:0:
64,192,52796,5,0,0:0:0:0:
192,192,52796,1,0,0:0:0:0:
320,192,52796,1,0,0:0:0:0:
64,192,52869,1,0,0:0:0:0:
448,192,52869,1,0,0:0:0:0:
192,192,52942,1,0,0:0:0:0:
320,192,52942,1,0,0:0:0:0:
64,192,53016,1,0,0:0:0:0:
320,192,53016,1,0,0:0:0:0:
192,192,53089,1,0,0:0:0:0:
448,192,53089,1,0,0:0:0:0:
64,192,53089,1,0,0:0:0:0:
320,192,53162,1,0,0:0:0:0:
448,192,53162,1,0,0:0:0:0:
64,192,53236,1,0,0:0:0:0:
320,192,53236,1,0,0:0:0:0:
192,192,53309,1,0,0:0:0:0:
448,192,53309,1,0,0:0:0:0:
320,192,53383,1,0,0:0:0:0:
192,192,53383,1,0,0:0:0:0:
64,192,53383,1,0,0:0:0:0:
64,192,53456,1,0,0:0:0:0:
448,192,53456,1,0,0:0:0:0:
320,192,53529,1,0,0:0:0:0:
448,192,53529,1,0,0:0:0:0:
192,192,53603,1,0,0:0:0:0:
64,192,53603,1,0,0:0:0:0:
64,192,53676,1,0,0:0:0:0:
448,192,53676,1,0,0:0:0:0:
320,192,53676,1,0,0:0:0:0:
192,192,53749,1,0,0:0:0:0:
448,192,53749,1,0,0:0:0:0:
320,192,53823,1,0,0:0:0:0:
64,192,53823,1,0,0:0:0:0:
192,192,53896,1,0,0:0:0:0:
64,192,53896,1,0,0:0:0:0:
320,192,53969,1,0,0:0:0:0:
192,192,53969,1,0,0:0:0:0:
448,192,53969,1,0,0:0:0:0:
64,192,54043,1,0,0:0:0:0:
320,192,54043,1,0,0:0:0:0:
192,192,54116,1,0,0:0:0:0:
448,192,54116,1,0,0:0:0:0:
320,192,54189,1,0,0:0:0:0:
448,192,54189,1,0,0:0:0:0:
192,192,54263,1,0,0:0:0:0:
64,192,54263,1,0,0:0:0:0:
320,192,54263,1,0,0:0:0:0:
448,192,54336,1,0,0:0:0:0:
64,192,54336,1,0,0:0:0:0:
192,192,54409,1,0,0:0:0:0:
320,192,54409,1,0,0:0:0:0:
448,192,54483,1,0,0:0:0:0:
320,192,54483,1,0,0:0:0:0:
192,192,54556,1,0,0:0:0:0:
64,192,54556,1,0,0:0:0:0:
448,192,54556,1,0,0:0:0:0:
320,192,54629,1,0,0:0:0:0:
64,192,54629,1,0,0:0:0:0:
192,192,54703,1,0,0:0:0:0:
320,192,54703,1,0,0:0:0:0:
64,192,54776,1,0,0:0:0:0:
448,192,54776,1,0,0:0:0:0:
192,192,54850,1,0,0:0:0:0:
320,192,54850,1,0,0:0:0:0:
448,192,54850,1,0,0:0:0:0:
64,192,54923,1,0,0:0:0:0:
320,192,54923,1,0,0:0:0:0:
192,192,54996,1,0,0:0:0:0:
64,192,54996,1,0,0:0:0:0:
320,192,55070,1,0,0:0:0:0:
448,192,55070,1,0,0:0:0:0:
64,192,55143,1,0,0:0:0:0:
192,192,55143,1,0,0:0:0:0:
448,192,55143,1,0,0:0:0:0:
320,192,55216,1,0,0:0:0:0:
64,192,55216,1,0,0:0:0:0:
192,192,55290,1,0,0:0:0:0:
320,192,55290,1,0,0:0:0:0:
448,192,55363,1,0,0:0:0:0:
64,192,55363,1,0,0:0:0:0:
192,192,55436,1,0,0:0:0:0:
320,192,55436,1,0,0:0:0:0:
448,192,55436,1,0,0:0:0:0:
64,192,55510,1,0,0:0:0:0:
320,192,55510,1,0,0:0:0:0:
192,192,55583,1,0,0:0:0:0:
64,192,55583,1,0,0:0:0:0:
448,192,55656,1,0,0:0:0:0:
192,192,55656,1,0,0:0:0:0:
64,192,55730,1,0,0:0:0:0:
320,192,55730,1,0,0:0:0:0:
448,192,55730,1,0,0:0:0:0:
192,192,55803,1,0,0:0:0:0:
64,192,55803,1,0,0:0:0:0:
448,192,55876,1,0,0:0:0:0:
320,192,55876,1,0,0:0:0:0:
192,192,55950,1,0,0:0:0:0:
448,192,55950,1,0,0:0:0:0:
320,192,56023,1,0,0:0:0:0:
192,192,56023,1,0,0:0:0:0:
64,192,56023,1,0,0:0:0:0:
448,192,56096,1,0,0:0:0:0:
320,192,56096,1,0,0:0:0:0:
64,192,56170,1,0,0:0:0:0:
192,192,56170,1,0,0:0:0:0:
64,192,56243,1,0,0:0:0:0:
320,192,56243,1,0,0:0:0:0:
192,192,56317,1,0,0:0:0:0:
320,192,56317,1,0,0:0:0:0:
448,192,56317,1,0,0:0:0:0:
64,192,56390,1,0,0:0:0:0:
448,192,56390,1,0,0:0:0:0:
64,192,56463,1,0,0:0:0:0:
320,192,56463,1,0,0:0:0:0:
192,192,56537,1,0,0:0:0:0:
320,192,56537,1,0,0:0:0:0:
64,192,56610,1,0,0:0:0:0:
192,192,56610,1,0,0:0:0:0:
448,192,56610,1,0,0:0:0:0:
320,192,56683,1,0,0:0:0:0:
448,192,56683,1,0,0:0:0:0:
192,192,56757,1,0,0:0:0:0:
64,192,56757,1,0,0:0:0:0:
64,192,56830,1,0,0:0:0:0:
320,192,56830,1,0,0:0:0:0:
192,192,56903,1,0,0:0:0:0:
64,192,56903,1,0,0:0:0:0:
448,192,56903,1,0,0:0:0:0:
448,192,57050,1,0,0:0:0:0:
320,192,57087,1,0,0:0:0:0:
192,192,57123,1,0,0:0:0:0:
64,192,57160,1,0,0:0:0:0:
320,192,57197,1,0,0:0:0:0:
448,192,57197,1,0,0:0:0:0:
64,192,57343,1,0,0:0:0:0:
192,192,57380,1,0,0:0:0:0:
320,192,57417,1,0,0:0:0:0:
448,192,57453,1,0,0:0:0:0:
64,192,57490,5,0,0:0:0:0:
192,192,57490,1,0,0:0:0:0:
320,192,57563,1,0,0:0:0:0:
192,192,57637,1,0,0:0:0:0:
448,192,57710,1,0,0:0:0:0:
320,192,57784,1,0,0:0:0:0:
64,192,57784,1,0,0:0:0:0:
192,192,57857,1,0,0:0:0:0:
320,192,57930,1,0,0:0:0:0:
448,192,57930,1,0,0:0:0:0:
64,192,58004,1,0,0:0:0:0:
448,192,58077,1,0,0:0:0:0:
64,192,58150,1,0,0:0:0:0:
192,192,58224,1,0,0:0:0:0:
448,192,58224,1,0,0:0:0:0:
320,192,58297,1,0,0:0:0:0:
192,192,58370,1,0,0:0:0:0:
64,192,58370,1,0,0:0:0:0:
448,192,58444,1,0,0:0:0:0:
192,192,58517,1,0,0:0:0:0:
448,192,58590,1,0,0:0:0:0:
320,192,58664,1,0,0:0:0:0:
64,192,58664,1,0,0:0:0:0:
192,192,58737,1,0,0:0:0:0:
448,192,58810,1,0,0:0:0:0:
320,192,58884,1,0,0:0:0:0:
192,192,58957,1,0,0:0:0:0:
64,192,58957,1,0,0:0:0:0:
448,192,59030,1,0,0:0:0:0:
320,192,59104,1,0,0:0:0:0:
192,192,59177,1,0,0:0:0:0:
64,192,59251,1,0,0:0:0:0:
448,192,59251,1,0,0:0:0:0:
448,192,59324,1,0,0:0:0:0:
320,192,59397,1,0,0:0:0:0:
64,192,59397,1,0,0:0:0:0:
64,192,59471,1,0,0:0:0:0:
320,192,59544,1,0,0:0:0:0:
448,192,59544,1,0,0:0:0:0:
192,192,59544,1,0,0:0:0:0:
448,192,59617,1,0,0:0:0:0:
192,192,59691,1,0,0:0:0:0:
64,192,59691,1,0,0:0:0:0:
64,192,59764,1,0,0:0:0:0:
320,192,59764,1,0,0:0:0:0:
192,192,59837,1,0,0:0:0:0:
320,192,59837,1,0,0:0:0:0:
448,192,59837,1,0,0:0:0:0:
64,192,59911,1,0,0:0:0:0:
448,192,59911,1,0,0:0:0:0:
192,192,59984,1,0,0:0:0:0:
64,192,59984,1,0,0:0:0:0:
320,192,60057,1,0,0:0:0:0:
448,192,60057,1,0,0:0:0:0:
192,192,60131,1,0,0:0:0:0:
64,192,60131,1,0,0:0:0:0:
448,192,60131,1,0,0:0:0:0:
320,192,60204,1,0,0:0:0:0:
192,192,60204,1,0,0:0:0:0:
64,192,60277,1,0,0:0:0:0:
448,192,60277,1,0,0:0:0:0:
320,192,60351,1,0,0:0:0:0:
64,192,60351,1,0,0:0:0:0:
192,192,60424,1,0,0:0:0:0:
320,192,60424,1,0,0:0:0:0:
448,192,60424,1,0,0:0:0:0:
192,192,60497,1,0,0:0:0:0:
448,192,60497,1,0,0:0:0:0:
320,192,60571,1,0,0:0:0:0:
448,192,60571,1,0,0:0:0:0:
192,192,60644,1,0,0:0:0:0:
64,192,60644,1,0,0:0:0:0:
64,192,60717,1,0,0:0:0:0:
192,192,60717,1,0,0:0:0:0:
320,192,60717,1,0,0:0:0:0:
448,192,60791,1,0,0:0:0:0:
320,192,60791,1,0,0:0:0:0:
64,192,60864,1,0,0:0:0:0:
448,192,60864,1,0,0:0:0:0:
320,192,60938,1,0,0:0:0:0:
192,192,60938,1,0,0:0:0:0:
192,192,61011,1,0,0:0:0:0:
320,192,61011,1,0,0:0:0:0:
448,192,61011,1,0,0:0:0:0:
64,192,61084,1,0,0:0:0:0:
448,192,61084,1,0,0:0:0:0:
192,192,61158,1,0,0:0:0:0:
64,192,61158,1,0,0:0:0:0:
320,192,61231,1,0,0:0:0:0:
448,192,61231,1,0,0:0:0:0:
64,192,61304,1,0,0:0:0:0:
320,192,61304,1,0,0:0:0:0:
448,192,61304,1,0,0:0:0:0:
192,192,61378,1,0,0:0:0:0:
64,192,61378,1,0,0:0:0:0:
64,192,61451,1,0,0:0:0:0:
320,192,61451,1,0,0:0:0:0:
448,192,61524,1,0,0:0:0:0:
192,192,61524,1,0,0:0:0:0:
64,192,61598,1,0,0:0:0:0:
192,192,61598,1,0,0:0:0:0:
320,192,61598,1,0,0:0:0:0:
320,192,61671,1,0,0:0:0:0:
448,192,61671,1,0,0:0:0:0:
192,192,61744,1,0,0:0:0:0:
64,192,61744,1,0,0:0:0:0:
320,192,61818,1,0,0:0:0:0:
448,192,61818,1,0,0:0:0:0:
64,192,61891,1,0,0:0:0:0:
192,192,61891,1,0,0:0:0:0:
448,192,61891,1,0,0:0:0:0:
64,192,61964,1,0,0:0:0:0:
320,192,61964,1,0,0:0:0:0:
64,192,62038,1,0,0:0:0:0:
192,192,62038,1,0,0:0:0:0:
320,192,62038,1,0,0:0:0:0:
192,192,62111,1,0,0:0:0:0:
448,192,62111,1,0,0:0:0:0:
64,192,62184,1,0,0:0:0:0:
192,192,62184,1,0,0:0:0:0:
448,192,62184,1,0,0:0:0:0:
320,192,62258,1,0,0:0:0:0:
448,192,62258,1,0,0:0:0:0:
192,192,62331,1,0,0:0:0:0:
64,192,62331,1,0,0:0:0:0:
448,192,62405,1,0,0:0:0:0:
192,192,62405,1,0,0:0:0:0:
64,192,62478,1,0,0:0:0:0:
320,192,62478,1,0,0:0:0:0:
448,192,62478,1,0,0:0:0:0:
192,192,62551,1,0,0:0:0:0:
64,192,62551,1,0,0:0:0:0:
320,192,62625,1,0,0:0:0:0:
448,192,62625,1,0,0:0:0:0:
64,192,62698,1,0,0:0:0:0:
320,192,62698,1,0,0:0:0:0:
192,192,62771,1,0,0:0:0:0:
320,192,62771,1,0,0:0:0:0:
448,192,62771,1,0,0:0:0:0:
192,192,62845,1,0,0:0:0:0:
448,192,62845,1,0,0:0:0:0:
320,192,62918,1,0,0:0:0:0:
64,192,62918,1,0,0:0:0:0:
192,192,62991,1,0,0:0:0:0:
64,192,62991,1,0,0:0:0:0:
64,192,63065,1,0,0:0:0:0:
192,192,63065,1,0,0:0:0:0:
448,192,63065,1,0,0:0:0:0:
320,192,63138,1,0,0:0:0:0:
448,192,63138,1,0,0:0:0:0:
64,192,63211,1,0,0:0:0:0:
320,192,63211,1,0,0:0:0:0:
192,192,63285,1,0,0:0:0:0:
64,192,63285,1,0,0:0:0:0:
64,192,63358,1,0,0:0:0:0:
320,192,63358,1,0,0:0:0:0:
448,192,63358,1,0,0:0:0:0:
192,192,63431,1,0,0:0:0:0:
320,192,63431,1,0,0:0:0:0:
64,192,63505,1,0,0:0:0:0:
448,192,63505,1,0,0:0:0:0:
320,192,63578,1,0,0:0:0:0:
448,192,63578,1,0,0:0:0:0:
192,192,63651,1,0,0:0:0:0:
448,192,63651,1,0,0:0:0:0:
320,192,63651,1,0,0:0:0:0:
192,192,63725,1,0,0:0:0:0:
64,192,63725,1,0,0:0:0:0:
64,192,63798,1,0,0:0:0:0:
320,192,63798,1,0,0:0:0:0:
448,192,63872,1,0,0:0:0:0:
192,192,63872,1,0,0:0:0:0:
192,192,63945,1,0,0:0:0:0:
64,192,63945,1,0,0:0:0:0:
320,192,63945,1,0,0:0:0:0:
320,192,64018,1,0,0:0:0:0:
448,192,64018,1,0,0:0:0:0:
192,192,64092,1,0,0:0:0:0:
64,192,64092,1,0,0:0:0:0:
320,192,64165,1,0,0:0:0:0:
64,192,64165,1,0,0:0:0:0:
64,192,64238,1,0,0:0:0:0:
192,192,64238,1,0,0:0:0:0:
448,192,64238,1,0,0:0:0:0:
192,192,64312,1,0,0:0:0:0:
320,192,64312,1,0,0:0:0:0:
64,192,64385,1,0,0:0:0:0:
448,192,64385,1,0,0:0:0:0:
320,192,64458,1,0,0:0:0:0:
192,192,64458,1,0,0:0:0:0:
192,192,64532,1,0,0:0:0:0:
320,192,64532,1,0,0:0:0:0:
448,192,64532,1,0,0:0:0:0:
64,192,64605,1,0,0:0:0:0:
448,192,64605,1,0,0:0:0:0:
320,192,64678,1,0,0:0:0:0:
64,192,64678,1,0,0:0:0:0:
192,192,64752,1,0,0:0:0:0:
448,192,64752,1,0,0:0:0:0:
64,192,64825,1,0,0:0:0:0:
192,192,64825,1,0,0:0:0:0:
320,192,64825,1,0,0:0:0:0:
320,192,64898,1,0,0:0:0:0:
448,192,64898,1,0,0:0:0:0:
192,192,64972,1,0,0:0:0:0:
64,192,64972,1,0,0:0:0:0:
192,192,65045,1,0,0:0:0:0:
320,192,65045,1,0,0:0:0:0:
64,192,65118,1,0,0:0:0:0:
320,192,65118,1,0,0:0:0:0:
448,192,65118,1,0,0:0:0:0:
64,192,65192,1,0,0:0:0:0:
448,192,65192,1,0,0:0:0:0:
192,192,65265,1,0,0:0:0:0:
320,192,65265,1,0,0:0:0:0:
192,192,65339,1,0,0:0:0:0:
64,192,65339,1,0,0:0:0:0:
64,192,65412,1,0,0:0:0:0:
320,192,65412,1,0,0:0:0:0:
448,192,65412,1,0,0:0:0:0:
320,192,65485,1,0,0:0:0:0:
448,192,65485,1,0,0:0:0:0:
64,192,65559,1,0,0:0:0:0:
320,192,65559,1,0,0:0:0:0:
192,192,65632,1,0,0:0:0:0:
448,192,65632,1,0,0:0:0:0:
64,192,65705,1,0,0:0:0:0:
192,192,65705,1,0,0:0:0:0:
320,192,65705,1,0,0:0:0:0:
448,192,65779,1,0,0:0:0:0:
320,192,65779,1,0,0:0:0:0:
192,192,65852,1,0,0:0:0:0:
64,192,65852,1,0,0:0:0:0:
320,192,65925,1,0,0:0:0:0:
192,192,65925,1,0,0:0:0:0:
64,192,65999,1,0,0:0:0:0:
192,192,65999,1,0,0:0:0:0:
448,192,65999,1,0,0:0:0:0:
64,192,66072,1,0,0:0:0:0:
448,192,66072,1,0,0:0:0:0:
192,192,66145,1,0,0:0:0:0:
320,192,66145,1,0,0:0:0:0:
64,192,66219,1,0,0:0:0:0:
320,192,66219,1,0,0:0:0:0:
64,192,66292,1,0,0:0:0:0:
320,192,66292,1,0,0:0:0:0:
448,192,66292,1,0,0:0:0:0:
192,192,66365,1,0,0:0:0:0:
448,192,66365,1,0,0:0:0:0:
320,192,66439,1,0,0:0:0:0:
64,192,66439,1,0,0:0:0:0:
192,192,66512,1,0,0:0:0:0:
64,192,66512,1,0,0:0:0:0:
192,192,66585,1,0,0:0:0:0:
320,192,66585,1,0,0:0:0:0:
448,192,66585,1,0,0:0:0:0:
320,192,66659,1,0,0:0:0:0:
448,192,66659,1,0,0:0:0:0:
64,192,66732,1,0,0:0:0:0:
448,192,66732,1,0,0:0:0:0:
320,192,66806,1,0,0:0:0:0:
192,192,66806,1,0,0:0:0:0:
64,192,66879,1,0,0:0:0:0:
192,192,66879,1,0,0:0:0:0:
448,192,66879,1,0,0:0:0:0:
320,192,66952,1,0,0:0:0:0:
64,192,66952,1,0,0:0:0:0:
448,192,67026,1,0,0:0:0:0:
320,192,67026,1,0,0:0:0:0:
192,192,67099,1,0,0:0:0:0:
64,192,67099,1,0,0:0:0:0:
192,192,67172,1,0,0:0:0:0:
320,192,67172,1,0,0:0:0:0:
448,192,67172,1,0,0:0:0:0:
64,192,67246,1,0,0:0:0:0:
448,192,67246,1,0,0:0:0:0:
192,192,67319,1,0,0:0:0:0:
448,192,67319,1,0,0:0:0:0:
320,192,67392,1,0,0:0:0:0:
64,192,67392,1,0,0:0:0:0:
64,192,67466,1,0,0:0:0:0:
448,192,67466,1,0,0:0:0:0:
192,192,67466,1,0,0:0:0:0:
320,192,67539,1,0,0:0:0:0:
448,192,67539,1,0,0:0:0:0:
64,192,67612,1,0,0:0:0:0:
320,192,67612,1,0,0:0:0:0:
192,192,67686,1,0,0:0:0:0:
64,192,67686,1,0,0:0:0:0:
64,192,67759,1,0,0:0:0:0:
192,192,67759,1,0,0:0:0:0:
320,192,67759,1,0,0:0:0:0:
448,192,67832,1,0,0:0:0:0:
320,192,67832,1,0,0:0:0:0:
64,192,67906,1,0,0:0:0:0:
448,192,67906,1,0,0:0:0:0:
320,192,67979,1,0,0:0:0:0:
192,192,67979,1,0,0:0:0:0:
64,192,68052,1,0,0:0:0:0:
192,192,68052,1,0,0:0:0:0:
448,192,68052,1,0,0:0:0:0:
320,192,68126,1,0,0:0:0:0:
448,192,68126,1,0,0:0:0:0:
192,192,68199,1,0,0:0:0:0:
64,192,68199,1,0,0:0:0:0:
64,192,68273,1,0,0:0:0:0:
320,192,68273,1,0,0:0:0:0:
64,192,68346,1,0,0:0:0:0:
320,192,68346,1,0,0:0:0:0:
448,192,68346,1,0,0:0:0:0:
192,192,68419,1,0,0:0:0:0:
448,192,68419,1,0,0:0:0:0:
320,192,68493,1,0,0:0:0:0:
448,192,68493,1,0,0:0:0:0:
192,192,68566,1,0,0:0:0:0:
64,192,68566,1,0,0:0:0:0:
192,192,68639,1,0,0:0:0:0:
320,192,68639,1,0,0:0:0:0:
448,192,68639,1,0,0:0:0:0:
448,192,68713,1,0,0:0:0:0:
320,192,68713,1,0,0:0:0:0:
192,192,68786,1,0,0:0:0:0:
320,192,68786,1,0,0:0:0:0:
64,192,68859,1,0,0:0:0:0:
448,192,68859,1,0,0:0:0:0:
64,192,68933,1,0,0:0:0:0:
320,192,68933,1,0,0:0:0:0:
448,192,68933,1,0,0:0:0:0:
192,192,69006,1,0,0:0:0:0:
320,192,69006,1,0,0:0:0:0:
192,192,69079,1,0,0:0:0:0:
64,192,69079,1,0,0:0:0:0:
320,192,69153,1,0,0:0:0:0:
448,192,69153,1,0,0:0:0:0:
192,192,69226,5,0,0:0:0:0:
64,192,69226,1,0,0:0:0:0:
320,192,69226,1,0,0:0:0:0:
192,192,69299,1,0,0:0:0:0:
64,192,69299,1,0,0:0:0:0:
64,192,69373,1,0,0:0:0:0:
448,192,69373,1,0,0:0:0:0:
320,192,69446,1,0,0:0:0:0:
448,192,69446,1,0,0:0:0:0:
64,192,69519,1,0,0:0:0:0:
192,192,69519,1,0,0:0:0:0:
448,192,69519,1,0,0:0:0:0:
320,192,69593,1,0,0:0:0:0:
192,192,69593,1,0,0:0:0:0:
64,192,69666,1,0,0:0:0:0:
448,192,69666,1,0,0:0:0:0:
320,192,69740,1,0,0:0:0:0:
192,192,69740,1,0,0:0:0:0:
64,192,69813,1,0,0:0:0:0:
192,192,69813,1,0,0:0:0:0:
320,192,69813,1,0,0:0:0:0:
448,192,69886,1,0,0:0:0:0:
320,192,69886,1,0,0:0:0:0:
64,192,69960,1,0,0:0:0:0:
448,192,69960,1,0,0:0:0:0:
192,192,70033,1,0,0:0:0:0:
64,192,70033,1,0,0:0:0:0:
64,192,70106,1,0,0:0:0:0:
320,192,70106,1,0,0:0:0:0:
448,192,70106,1,0,0:0:0:0:
192,192,70180,1,0,0:0:0:0:
448,192,70180,1,0,0:0:0:0:
320,192,70253,1,0,0:0:0:0:
192,192,70253,1,0,0:0:0:0:
64,192,70326,1,0,0:0:0:0:
320,192,70326,1,0,0:0:0:0:
448,192,70400,128,0,70546:0:0:0:0:
192,192,70546,128,0,70693:0:0:0:0:
320,192,70693,128,0,70840:0:0:0:0:
64,192,70840,128,0,71133:0:0:0:0:
320,192,71133,1,0,0:0:0:0:
448,192,71133,1,0,0:0:0:0:
192,192,71280,1,0,0:0:0:0:
320,192,71280,1,0,0:0:0:0:
448,192,71280,1,0,0:0:0:0:
64,192,71427,1,0,0:0:0:0:
192,192,71427,1,0,0:0:0:0:
448,192,71427,1,0,0:0:0:0:
320,192,71427,1,0,0:0:0:0:
192,192,71573,1,0,0:0:0:0:
64,192,71573,1,0,0:0:0:0:
320,192,71573,1,0,0:0:0:0:
448,192,71573,1,0,0:0:0:0:
64,192,71647,1,0,0:0:0:0:
192,192,71647,1,0,0:0:0:0:
64,192,71720,1,0,0:0:0:0:
448,192,71720,1,0,0:0:0:0:
320,192,71793,1,0,0:0:0:0:
448,192,71793,1,0,0:0:0:0:
64,192,71867,1,0,0:0:0:0:
192,192,71867,1,0,0:0:0:0:
448,192,71867,1,0,0:0:0:0:
320,192,71867,1,0,0:0:0:0:
192,192,71940,1,0,0:0:0:0:
64,192,71940,1,0,0:0:0:0:
448,192,72013,1,0,0:0:0:0:
192,192,72013,1,0,0:0:0:0:
64,192,72087,1,0,0:0:0:0:
320,192,72087,1,0,0:0:0:0:
64,192,72160,1,0,0:0:0:0:
192,192,72160,1,0,0:0:0:0:
320,192,72160,1,0,0:0:0:0:
448,192,72160,1,0,0:0:0:0:
448,192,72233,1,0,0:0:0:0:
192,192,72233,1,0,0:0:0:0:
320,192,72307,1,0,0:0:0:0:
448,192,72307,1,0,0:0:0:0:
192,192,72380,1,0,0:0:0:0:
64,192,72380,1,0,0:0:0:0:
64,192,72453,1,0,0:0:0:0:
192,192,72453,1,0,0:0:0:0:
320,192,72453,1,0,0:0:0:0:
448,192,72453,1,0,0:0:0:0:
320,192,72527,1,0,0:0:0:0:
448,192,72527,1,0,0:0:0:0:
192,192,72600,1,0,0:0:0:0:
320,192,72600,1,0,0:0:0:0:
64,192,72674,1,0,0:0:0:0:
448,192,72674,1,0,0:0:0:0:
192,192,72747,1,0,0:0:0:0:
320,192,72747,1,0,0:0:0:0:
448,192,72747,1,0,0:0:0:0:
64,192,72747,1,0,0:0:0:0:
320,192,72820,1,0,0:0:0:0:
192,192,72820,1,0,0:0:0:0:
320,192,72894,1,0,0:0:0:0:
448,192,72894,1,0,0:0:0:0:
192,192,72967,1,0,0:0:0:0:
64,192,72967,1,0,0:0:0:0:
64,192,73040,1,0,0:0:0:0:
192,192,73040,1,0,0:0:0:0:
320,192,73040,1,0,0:0:0:0:
448,192,73040,1,0,0:0:0:0:
320,192,73114,1,0,0:0:0:0:
448,192,73114,1,0,0:0:0:0:
64,192,73187,1,0,0:0:0:0:
448,192,73187,1,0,0:0:0:0:
320,192,73260,1,0,0:0:0:0:
64,192,73260,1,0,0:0:0:0:
64,192,73334,1,0,0:0:0:0:
192,192,73334,1,0,0:0:0:0:
320,192,73334,1,0,0:0:0:0:
448,192,73334,1,0,0:0:0:0:
192,192,73407,1,0,0:0:0:0:
448,192,73407,1,0,0:0:0:0:
320,192,73480,1,0,0:0:0:0:
448,192,73480,1,0,0:0:0:0:
192,192,73554,1,0,0:0:0:0:
64,192,73554,1,0,0:0:0:0:
64,192,73627,1,0,0:0:0:0:
192,192,73627,1,0,0:0:0:0:
320,192,73627,1,0,0:0:0:0:
448,192,73627,1,0,0:0:0:0:
448,192,73700,1,0,0:0:0:0:
320,192,73700,1,0,0:0:0:0:
64,192,73774,1,0,0:0:0:0:
192,192,73774,1,0,0:0:0:0:
64,192,73847,1,0,0:0:0:0:
448,192,73847,1,0,0:0:0:0:
64,192,73920,1,0,0:0:0:0:
192,192,73920,1,0,0:0:0:0:
320,192,73920,1,0,0:0:0:0:
448,192,73920,1,0,0:0:0:0:
192,192,73994,1,0,0:0:0:0:
320,192,73994,1,0,0:0:0:0:
64,192,74067,1,0,0:0:0:0:
448,192,74067,1,0,0:0:0:0:
192,192,74141,1,0,0:0:0:0:
448,192,74141,1,0,0:0:0:0:
64,192,74214,1,0,0:0:0:0:
192,192,74214,1,0,0:0:0:0:
320,192,74214,1,0,0:0:0:0:
448,192,74214,1,0,0:0:0:0:
320,192,74287,1,0,0:0:0:0:
64,192,74287,1,0,0:0:0:0:
192,192,74361,1,0,0:0:0:0:
64,192,74361,1,0,0:0:0:0:
320,192,74434,1,0,0:0:0:0:
448,192,74434,1,0,0:0:0:0:
64,192,74507,1,0,0:0:0:0:
192,192,74507,1,0,0:0:0:0:
320,192,74507,1,0,0:0:0:0:
448,192,74507,1,0,0:0:0:0:
192,192,74581,1,0,0:0:0:0:
64,192,74581,1,0,0:0:0:0:
64,192,74654,1,0,0:0:0:0:
448,192,74654,1,0,0:0:0:0:
320,192,74727,1,0,0:0:0:0:
192,192,74727,1,0,0:0:0:0:
64,192,74801,1,0,0:0:0:0:
192,192,74801,1,0,0:0:0:0:
320,192,74801,1,0,0:0:0:0:
448,192,74801,1,0,0:0:0:0:
64,192,74874,1,0,0:0:0:0:
448,192,74874,1,0,0:0:0:0:
320,192,74947,1,0,0:0:0:0:
448,192,74947,1,0,0:0:0:0:
192,192,75021,1,0,0:0:0:0:
64,192,75021,1,0,0:0:0:0:
192,192,75094,1,0,0:0:0:0:
64,192,75094,1,0,0:0:0:0:
320,192,75094,1,0,0:0:0:0:
448,192,75094,1,0,0:0:0:0:
320,192,75167,1,0,0:0:0:0:
448,192,75167,1,0,0:0:0:0:
64,192,75241,1,0,0:0:0:0:
320,192,75241,1,0,0:0:0:0:
64,192,75314,1,0,0:0:0:0:
448,192,75314,1,0,0:0:0:0:
64,192,75387,1,0,0:0:0:0:
192,192,75387,1,0,0:0:0:0:
320,192,75387,1,0,0:0:0:0:
448,192,75387,1,0,0:0:0:0:
192,192,75461,1,0,0:0:0:0:
320,192,75461,1,0,0:0:0:0:
448,192,75534,1,0,0:0:0:0:
64,192,75534,1,0,0:0:0:0:
192,192,75607,1,0,0:0:0:0:
448,192,75607,1,0,0:0:0:0:
64,192,75681,1,0,0:0:0:0:
192,192,75681,1,0,0:0:0:0:
320,192,75681,1,0,0:0:0:0:
448,192,75681,1,0,0:0:0:0:
320,192,75754,1,0,0:0:0:0:
64,192,75754,1,0,0:0:0:0:
192,192,75828,1,0,0:0:0:0:
64,192,75828,1,0,0:0:0:0:
320,192,75901,1,0,0:0:0:0:
448,192,75901,1,0,0:0:0:0:
64,192,75974,1,0,0:0:0:0:
192,192,75974,1,0,0:0:0:0:
320,192,75974,1,0,0:0:0:0:
448,192,75974,1,0,0:0:0:0:
192,192,76048,1,0,0:0:0:0:
64,192,76048,1,0,0:0:0:0:
448,192,76121,1,0,0:0:0:0:
320,192,76121,1,0,0:0:0:0:
64,192,76121,1,0,0:0:0:0:
192,192,76121,1,0,0:0:0:0:
320,192,76194,1,0,0:0:0:0:
448,192,76194,1,0,0:0:0:0:
64,192,76268,1,0,0:0:0:0:
192,192,76268,1,0,0:0:0:0:
320,192,76268,1,0,0:0:0:0:
448,192,76268,1,0,0:0:0:0:
192,192,76341,1,0,0:0:0:0:
64,192,76341,1,0,0:0:0:0:
448,192,76414,1,0,0:0:0:0:
64,192,76414,1,0,0:0:0:0:
192,192,76488,1,0,0:0:0:0:
320,192,76488,1,0,0:0:0:0:
64,192,76561,1,0,0:0:0:0:
192,192,76561,1,0,0:0:0:0:
320,192,76561,1,0,0:0:0:0:
448,192,76561,1,0,0:0:0:0:
64,192,76634,1,0,0:0:0:0:
448,192,76634,1,0,0:0:0:0:
320,192,76708,1,0,0:0:0:0:
448,192,76708,1,0,0:0:0:0:
192,192,76781,1,0,0:0:0:0:
64,192,76781,1,0,0:0:0:0:
64,192,76854,1,0,0:0:0:0:
192,192,76854,1,0,0:0:0:0:
320,192,76854,1,0,0:0:0:0:
448,192,76854,1,0,0:0:0:0:
320,192,76928,1,0,0:0:0:0:
448,192,76928,1,0,0:0:0:0:
64,192,77001,1,0,0:0:0:0:
320,192,77001,1,0,0:0:0:0:
64,192,77074,1,0,0:0:0:0:
192,192,77074,1,0,0:0:0:0:
64,192,77148,1,0,0:0:0:0:
192,192,77148,1,0,0:0:0:0:
320,192,77148,1,0,0:0:0:0:
448,192,77148,1,0,0:0:0:0:
320,192,77221,1,0,0:0:0:0:
448,192,77221,1,0,0:0:0:0:
64,192,77295,1,0,0:0:0:0:
320,192,77295,1,0,0:0:0:0:
192,192,77368,1,0,0:0:0:0:
448,192,77368,1,0,0:0:0:0:
64,192,77441,1,0,0:0:0:0:
192,192,77441,1,0,0:0:0:0:
320,192,77441,1,0,0:0:0:0:
448,192,77441,1,0,0:0:0:0:
320,192,77515,1,0,0:0:0:0:
64,192,77515,1,0,0:0:0:0:
192,192,77588,1,0,0:0:0:0:
64,192,77588,1,0,0:0:0:0:
320,192,77661,1,0,0:0:0:0:
448,192,77661,1,0,0:0:0:0:
192,192,77735,1,0,0:0:0:0:
320,192,77735,1,0,0:0:0:0:
448,192,77735,1,0,0:0:0:0:
64,192,77735,1,0,0:0:0:0:
192,192,77808,1,0,0:0:0:0:
64,192,77808,1,0,0:0:0:0:
448,192,77881,1,0,0:0:0:0:
64,192,77881,1,0,0:0:0:0:
320,192,77955,1,0,0:0:0:0:
448,192,77955,1,0,0:0:0:0:
448,192,78028,1,0,0:0:0:0:
320,192,78028,1,0,0:0:0:0:
192,192,78028,1,0,0:0:0:0:
64,192,78028,1,0,0:0:0:0:
64,192,78101,1,0,0:0:0:0:
192,192,78101,1,0,0:0:0:0:
320,192,78175,1,0,0:0:0:0:
64,192,78175,1,0,0:0:0:0:
320,192,78248,1,0,0:0:0:0:
448,192,78248,1,0,0:0:0:0:
64,192,78321,1,0,0:0:0:0:
320,192,78321,1,0,0:0:0:0:
448,192,78321,1,0,0:0:0:0:
192,192,78321,1,0,0:0:0:0:
64,192,78395,1,0,0:0:0:0:
192,192,78395,1,0,0:0:0:0:
64,192,78468,1,0,0:0:0:0:
448,192,78468,1,0,0:0:0:0:
320,192,78541,1,0,0:0:0:0:
448,192,78541,1,0,0:0:0:0:
192,192,78615,1,0,0:0:0:0:
320,192,78615,1,0,0:0:0:0:
64,192,78615,1,0,0:0:0:0:
448,192,78615,1,0,0:0:0:0:
192,192,78688,1,0,0:0:0:0:
64,192,78688,1,0,0:0:0:0:
448,192,78762,1,0,0:0:0:0:
64,192,78762,1,0,0:0:0:0:
192,192,78835,1,0,0:0:0:0:
320,192,78835,1,0,0:0:0:0:
192,192,78908,1,0,0:0:0:0:
320,192,78908,1,0,0:0:0:0:
448,192,78908,1,0,0:0:0:0:
64,192,78908,1,0,0:0:0:0:
64,192,78982,1,0,0:0:0:0:
448,192,78982,1,0,0:0:0:0:
320,192,79055,1,0,0:0:0:0:
448,192,79055,1,0,0:0:0:0:
192,192,79128,1,0,0:0:0:0:
64,192,79128,1,0,0:0:0:0:
192,192,79202,1,0,0:0:0:0:
320,192,79202,1,0,0:0:0:0:
448,192,79202,1,0,0:0:0:0:
64,192,79202,1,0,0:0:0:0:
320,192,79275,1,0,0:0:0:0:
448,192,79275,1,0,0:0:0:0:
64,192,79348,1,0,0:0:0:0:
320,192,79348,1,0,0:0:0:0:
192,192,79422,1,0,0:0:0:0:
64,192,79422,1,0,0:0:0:0:
64,192,79495,1,0,0:0:0:0:
192,192,79495,1,0,0:0:0:0:
320,192,79495,1,0,0:0:0:0:
448,192,79495,1,0,0:0:0:0:
320,192,79568,1,0,0:0:0:0:
448,192,79568,1,0,0:0:0:0:
64,192,79642,1,0,0:0:0:0:
448,192,79642,1,0,0:0:0:0:
320,192,79715,1,0,0:0:0:0:
192,192,79715,1,0,0:0:0:0:
64,192,79788,1,0,0:0:0:0:
192,192,79788,1,0,0:0:0:0:
320,192,79788,1,0,0:0:0:0:
448,192,79788,1,0,0:0:0:0:
64,192,79862,1,0,0:0:0:0:
448,192,79862,1,0,0:0:0:0:
320,192,79935,1,0,0:0:0:0:
192,192,79935,1,0,0:0:0:0:
192,192,80008,1,0,0:0:0:0:
448,192,80008,1,0,0:0:0:0:
64,192,80082,1,0,0:0:0:0:
192,192,80082,1,0,0:0:0:0:
320,192,80082,1,0,0:0:0:0:
448,192,80082,1,0,0:0:0:0:
320,192,80155,1,0,0:0:0:0:
64,192,80155,1,0,0:0:0:0:
320,192,80229,1,0,0:0:0:0:
448,192,80229,1,0,0:0:0:0:
192,192,80302,1,0,0:0:0:0:
64,192,80302,1,0,0:0:0:0:
64,192,80375,1,0,0:0:0:0:
192,192,80375,1,0,0:0:0:0:
448,192,80375,1,0,0:0:0:0:
320,192,80375,1,0,0:0:0:0:
448,192,80522,1,0,0:0:0:0:
320,192,80559,1,0,0:0:0:0:
192,192,80595,1,0,0:0:0:0:
64,192,80632,1,0,0:0:0:0:
320,192,80669,1,0,0:0:0:0:
448,192,80669,1,0,0:0:0:0:
64,192,80815,1,0,0:0:0:0:
192,192,80852,1,0,0:0:0:0:
320,192,80889,1,0,0:0:0:0:
448,192,80889,1,0,0:0:0:0:
192,192,80962,1,0,0:0:0:0:
64,192,80962,1,0,0:0:0:0:
448,192,80962,1,0,0:0:0:0:
320,192,80962,1,0,0:0:0:0:
320,192,81035,1,0,0:0:0:0:
64,192,81035,1,0,0:0:0:0:
192,192,81109,1,0,0:0:0:0:
448,192,81109,1,0,0:0:0:0:
320,192,81182,1,0,0:0:0:0:
448,192,81182,1,0,0:0:0:0:
448,192,81255,1,0,0:0:0:0:
320,192,81255,1,0,0:0:0:0:
192,192,81255,1,0,0:0:0:0:
64,192,81255,1,0,0:0:0:0:
192,192,81329,1,0,0:0:0:0:
64,192,81329,1,0,0:0:0:0:
64,192,81402,1,0,0:0:0:0:
448,192,81402,1,0,0:0:0:0:
448,192,81475,1,0,0:0:0:0:
320,192,81475,1,0,0:0:0:0:
192,192,81549,1,0,0:0:0:0:
64,192,81549,1,0,0:0:0:0:
320,192,81549,1,0,0:0:0:0:
448,192,81549,1,0,0:0:0:0:
192,192,81622,1,0,0:0:0:0:
64,192,81622,1,0,0:0:0:0:
64,192,81696,1,0,0:0:0:0:
320,192,81696,1,0,0:0:0:0:
192,192,81769,1,0,0:0:0:0:
448,192,81769,1,0,0:0:0:0:
320,192,81842,1,0,0:0:0:0:
192,192,81842,1,0,0:0:0:0:
64,192,81842,1,0,0:0:0:0:
448,192,81842,1,0,0:0:0:0:
320,192,81916,1,0,0:0:0:0:
64,192,81916,1,0,0:0:0:0:
320,192,81989,1,0,0:0:0:0:
448,192,81989,1,0,0:0:0:0:
64,192,82062,1,0,0:0:0:0:
448,192,82062,1,0,0:0:0:0:
448,192,82136,1,0,0:0:0:0:
320,192,82136,1,0,0:0:0:0:
192,192,82136,1,0,0:0:0:0:
64,192,82136,1,0,0:0:0:0:
192,192,82209,1,0,0:0:0:0:
320,192,82209,1,0,0:0:0:0:
64,192,82282,1,0,0:0:0:0:
448,192,82282,1,0,0:0:0:0:
192,192,82356,1,0,0:0:0:0:
64,192,82356,1,0,0:0:0:0:
320,192,82429,1,0,0:0:0:0:
448,192,82429,1,0,0:0:0:0:
192,192,82429,1,0,0:0:0:0:
64,192,82429,1,0,0:0:0:0:
320,192,82502,1,0,0:0:0:0:
448,192,82502,1,0,0:0:0:0:
64,192,82576,1,0,0:0:0:0:
448,192,82576,1,0,0:0:0:0:
320,192,82649,1,0,0:0:0:0:
64,192,82649,1,0,0:0:0:0:
192,192,82722,1,0,0:0:0:0:
320,192,82722,1,0,0:0:0:0:
448,192,82722,1,0,0:0:0:0:
64,192,82722,1,0,0:0:0:0:
192,192,82796,1,0,0:0:0:0:
448,192,82796,1,0,0:0:0:0:
320,192,82869,1,0,0:0:0:0:
448,192,82869,1,0,0:0:0:0:
64,192,82942,1,0,0:0:0:0:
192,192,82942,1,0,0:0:0:0:
192,192,83016,1,0,0:0:0:0:
64,192,83016,1,0,0:0:0:0:
320,192,83016,1,0,0:0:0:0:
448,192,83016,1,0,0:0:0:0:
448,192,83089,1,0,0:0:0:0:
320,192,83089,1,0,0:0:0:0:
192,192,83163,1,0,0:0:0:0:
64,192,83163,1,0,0:0:0:0:
64,192,83236,1,0,0:0:0:0:
320,192,83236,1,0,0:0:0:0:
64,192,83309,1,0,0:0:0:0:
192,192,83309,1,0,0:0:0:0:
320,192,83309,1,0,0:0:0:0:
448,192,83309,1,0,0:0:0:0:
192,192,83383,1,0,0:0:0:0:
448,192,83383,1,0,0:0:0:0:
320,192,83456,1,0,0:0:0:0:
448,192,83456,1,0,0:0:0:0:
192,192,83529,1,0,0:0:0:0:
64,192,83529,1,0,0:0:0:0:
320,192,83603,1,0,0:0:0:0:
448,192,83603,1,0,0:0:0:0:
192,192,83603,1,0,0:0:0:0:
64,192,83603,1,0,0:0:0:0:
320,192,83676,1,0,0:0:0:0:
448,192,83676,1,0,0:0:0:0:
64,192,83749,1,0,0:0:0:0:
448,192,83749,1,0,0:0:0:0:
320,192,83823,1,0,0:0:0:0:
192,192,83823,1,0,0:0:0:0:
64,192,83896,1,0,0:0:0:0:
192,192,83896,1,0,0:0:0:0:
320,192,83896,1,0,0:0:0:0:
448,192,83896,1,0,0:0:0:0:
64,192,83969,1,0,0:0:0:0:
448,192,83969,1,0,0:0:0:0:
192,192,84043,1,0,0:0:0:0:
64,192,84043,1,0,0:0:0:0:
320,192,84116,1,0,0:0:0:0:
448,192,84116,1,0,0:0:0:0:
448,192,84189,1,0,0:0:0:0:
320,192,84189,1,0,0:0:0:0:
192,192,84189,1,0,0:0:0:0:
64,192,84189,1,0,0:0:0:0:
64,192,84263,1,0,0:0:0:0:
192,192,84263,1,0,0:0:0:0:
320,192,84336,1,0,0:0:0:0:
64,192,84336,1,0,0:0:0:0:
192,192,84409,1,0,0:0:0:0:
448,192,84409,1,0,0:0:0:0:
64,192,84483,1,0,0:0:0:0:
192,192,84483,1,0,0:0:0:0:
448,192,84483,1,0,0:0:0:0:
320,192,84483,1,0,0:0:0:0:
320,192,84556,1,0,0:0:0:0:
64,192,84556,1,0,0:0:0:0:
192,192,84630,1,0,0:0:0:0:
64,192,84630,1,0,0:0:0:0:
320,192,84703,1,0,0:0:0:0:
448,192,84703,1,0,0:0:0:0:
64,192,84776,1,0,0:0:0:0:
192,192,84776,1,0,0:0:0:0:
448,192,84776,1,0,0:0:0:0:
320,192,84776,1,0,0:0:0:0:
192,192,84850,1,0,0:0:0:0:
64,192,84850,1,0,0:0:0:0:
448,192,84923,1,0,0:0:0:0:
192,192,84923,1,0,0:0:0:0:
64,192,84996,1,0,0:0:0:0:
320,192,84996,1,0,0:0:0:0:
64,192,85070,1,0,0:0:0:0:
320,192,85070,1,0,0:0:0:0:
448,192,85070,1,0,0:0:0:0:
192,192,85070,1,0,0:0:0:0:
192,192,85143,1,0,0:0:0:0:
448,192,85143,1,0,0:0:0:0:
64,192,85216,1,0,0:0:0:0:
448,192,85216,1,0,0:0:0:0:
320,192,85290,1,0,0:0:0:0:
64,192,85290,1,0,0:0:0:0:
64,192,85363,1,0,0:0:0:0:
320,192,85363,1,0,0:0:0:0:
448,192,85363,1,0,0:0:0:0:
192,192,85363,1,0,0:0:0:0:
192,192,85436,1,0,0:0:0:0:
448,192,85436,1,0,0:0:0:0:
320,192,85510,1,0,0:0:0:0:
448,192,85510,1,0,0:0:0:0:
192,192,85583,1,0,0:0:0:0:
64,192,85583,1,0,0:0:0:0:
64,192,85656,1,0,0:0:0:0:
192,192,85656,1,0,0:0:0:0:
320,192,85656,1,0,0:0:0:0:
448,192,85656,1,0,0:0:0:0:
320,192,85730,1,0,0:0:0:0:
448,192,85730,1,0,0:0:0:0:
64,192,85803,1,0,0:0:0:0:
448,192,85803,1,0,0:0:0:0:
192,192,85876,1,0,0:0:0:0:
64,192,85876,1,0,0:0:0:0:
64,192,85950,1,0,0:0:0:0:
192,192,85950,1,0,0:0:0:0:
320,192,85950,1,0,0:0:0:0:
448,192,85950,1,0,0:0:0:0:
320,192,86023,1,0,0:0:0:0:
448,192,86023,1,0,0:0:0:0:
192,192,86097,1,0,0:0:0:0:
64,192,86097,1,0,0:0:0:0:
64,192,86170,1,0,0:0:0:0:
320,192,86170,1,0,0:0:0:0:
320,192,86243,1,0,0:0:0:0:
448,192,86243,1,0,0:0:0:0:
64,192,86243,1,0,0:0:0:0:
192,192,86243,1,0,0:0:0:0:
192,192,86317,1,0,0:0:0:0:
448,192,86317,1,0,0:0:0:0:
320,192,86390,1,0,0:0:0:0:
448,192,86390,1,0,0:0:0:0:
192,192,86463,1,0,0:0:0:0:
64,192,86463,1,0,0:0:0:0:
64,192,86537,1,0,0:0:0:0:
192,192,86537,1,0,0:0:0:0:
320,192,86537,1,0,0:0:0:0:
448,192,86537,1,0,0:0:0:0:
320,192,86610,1,0,0:0:0:0:
448,192,86610,1,0,0:0:0:0:
64,192,86683,1,0,0:0:0:0:
448,192,86683,1,0,0:0:0:0:
320,192,86757,1,0,0:0:0:0:
192,192,86757,1,0,0:0:0:0:
64,192,86830,1,0,0:0:0:0:
192,192,86830,1,0,0:0:0:0:
320,192,86830,1,0,0:0:0:0:
448,192,86830,1,0,0:0:0:0:
448,192,86903,1,0,0:0:0:0:
64,192,86903,1,0,0:0:0:0:
192,192,86977,1,0,0:0:0:0:
64,192,86977,1,0,0:0:0:0:
320,192,87050,1,0,0:0:0:0:
448,192,87050,1,0,0:0:0:0:
64,192,87123,1,0,0:0:0:0:
192,192,87123,1,0,0:0:0:0:
320,192,87123,1,0,0:0:0:0:
448,192,87123,1,0,0:0:0:0:
192,192,87197,1,0,0:0:0:0:
64,192,87197,1,0,0:0:0:0:
64,192,87270,1,0,0:0:0:0:
320,192,87270,1,0,0:0:0:0:
192,192,87343,1,0,0:0:0:0:
448,192,87343,1,0,0:0:0:0:
64,192,87417,1,0,0:0:0:0:
320,192,87417,1,0,0:0:0:0:
448,192,87417,1,0,0:0:0:0:
192,192,87417,1,0,0:0:0:0:
320,192,87490,1,0,0:0:0:0:
64,192,87490,1,0,0:0:0:0:
192,192,87564,1,0,0:0:0:0:
64,192,87564,1,0,0:0:0:0:
320,192,87637,1,0,0:0:0:0:
448,192,87637,1,0,0:0:0:0:
64,192,87710,1,0,0:0:0:0:
192,192,87710,1,0,0:0:0:0:
320,192,87710,1,0,0:0:0:0:
448,192,87710,1,0,0:0:0:0:
64,192,87784,1,0,0:0:0:0:
192,192,87784,1,0,0:0:0:0:
448,192,87857,1,0,0:0:0:0:
64,192,87857,1,0,0:0:0:0:
192,192,87930,1,0,0:0:0:0:
448,192,87930,1,0,0:0:0:0:
64,192,88004,1,0,0:0:0:0:
192,192,88004,1,0,0:0:0:0:
320,192,88004,1,0,0:0:0:0:
448,192,88004,1,0,0:0:0:0:
320,192,88077,1,0,0:0:0:0:
64,192,88077,1,0,0:0:0:0:
192,192,88150,1,0,0:0:0:0:
64,192,88150,1,0,0:0:0:0:
192,192,88224,1,0,0:0:0:0:
320,192,88224,1,0,0:0:0:0:
64,192,88297,1,0,0:0:0:0:
192,192,88297,1,0,0:0:0:0:
320,192,88297,1,0,0:0:0:0:
448,192,88297,1,0,0:0:0:0:
64,192,88370,1,0,0:0:0:0:
448,192,88370,1,0,0:0:0:0:
192,192,88444,1,0,0:0:0:0:
64,192,88444,1,0,0:0:0:0:
320,192,88517,1,0,0:0:0:0:
448,192,88517,1,0,0:0:0:0:
64,192,88590,1,0,0:0:0:0:
448,192,88590,1,0,0:0:0:0:
320,192,88590,1,0,0:0:0:0:
192,192,88590,1,0,0:0:0:0:
192,192,88664,1,0,0:0:0:0:
64,192,88664,1,0,0:0:0:0:
320,192,88737,1,0,0:0:0:0:
192,192,88737,1,0,0:0:0:0:
448,192,88810,1,0,0:0:0:0:
64,192,88810,1,0,0:0:0:0:
448,192,88884,1,0,0:0:0:0:
320,192,88884,1,0,0:0:0:0:
64,192,88884,1,0,0:0:0:0:
192,192,88884,1,0,0:0:0:0:
192,192,88957,1,0,0:0:0:0:
320,192,88957,1,0,0:0:0:0:
64,192,89031,1,0,0:0:0:0:
192,192,89031,1,0,0:0:0:0:
320,192,89031,1,0,0:0:0:0:
448,192,89031,1,0,0:0:0:0:
64,192,89104,1,0,0:0:0:0:
448,192,89104,1,0,0:0:0:0:
64,192,89177,1,0,0:0:0:0:
192,192,89177,1,0,0:0:0:0:
448,192,89177,1,0,0:0:0:0:
320,192,89177,1,0,0:0:0:0:
192,192,89251,1,0,0:0:0:0:
320,192,89324,1,0,0:0:0:0:
448,192,89324,1,0,0:0:0:0:
192,192,89397,1,0,0:0:0:0:
64,192,89397,1,0,0:0:0:0:
320,192,89471,1,0,0:0:0:0:
448,192,89471,1,0,0:0:0:0:
64,192,89544,1,0,0:0:0:0:
192,192,89544,1,0,0:0:0:0:
64,192,89617,1,0,0:0:0:0:
192,192,89617,1,0,0:0:0:0:
320,192,89617,1,0,0:0:0:0:
448,192,89617,1,0,0:0:0:0:
320,192,89691,1,0,0:0:0:0:
448,192,89691,1,0,0:0:0:0:
64,192,89764,1,0,0:0:0:0:
192,192,89764,1,0,0:0:0:0:
448,192,89764,1,0,0:0:0:0:
320,192,89764,1,0,0:0:0:0:
192,192,89837,1,0,0:0:0:0:
64,192,89837,1,0,0:0:0:0:
64,192,89911,1,0,0:0:0:0:
448,192,89911,1,0,0:0:0:0:
320,192,89984,1,0,0:0:0:0:
192,192,89984,1,0,0:0:0:0:
64,192,90057,1,0,0:0:0:0:
192,192,90057,1,0,0:0:0:0:
320,192,90057,1,0,0:0:0:0:
448,192,90057,1,0,0:0:0:0:
64,192,90131,1,0,0:0:0:0:
448,192,90131,1,0,0:0:0:0:
320,192,90204,1,0,0:0:0:0:
448,192,90204,1,0,0:0:0:0:
192,192,90277,1,0,0:0:0:0:
64,192,90277,1,0,0:0:0:0:
64,192,90351,1,0,0:0:0:0:
192,192,90351,1,0,0:0:0:0:
320,192,90351,1,0,0:0:0:0:
448,192,90351,1,0,0:0:0:0:
448,192,90424,1,0,0:0:0:0:
320,192,90424,1,0,0:0:0:0:
192,192,90497,1,0,0:0:0:0:
320,192,90497,1,0,0:0:0:0:
64,192,90571,1,0,0:0:0:0:
448,192,90571,1,0,0:0:0:0:
320,192,90644,1,0,0:0:0:0:
64,192,90644,1,0,0:0:0:0:
192,192,90644,1,0,0:0:0:0:
448,192,90644,1,0,0:0:0:0:
320,192,90718,1,0,0:0:0:0:
192,192,90718,1,0,0:0:0:0:
64,192,90791,1,0,0:0:0:0:
448,192,90791,1,0,0:0:0:0:
192,192,90864,1,0,0:0:0:0:
64,192,90864,1,0,0:0:0:0:
448,192,90938,1,0,0:0:0:0:
192,192,90938,1,0,0:0:0:0:
64,192,90938,1,0,0:0:0:0:
320,192,90938,1,0,0:0:0:0:
320,192,91011,1,0,0:0:0:0:
448,192,91011,1,0,0:0:0:0:
64,192,91084,1,0,0:0:0:0:
192,192,91084,1,0,0:0:0:0:
448,192,91158,1,0,0:0:0:0:
320,192,91158,1,0,0:0:0:0:
64,192,91231,1,0,0:0:0:0:
192,192,91231,1,0,0:0:0:0:
448,192,91231,1,0,0:0:0:0:
320,192,91231,1,0,0:0:0:0:
192,192,91304,1,0,0:0:0:0:
64,192,91304,1,0,0:0:0:0:
64,192,91378,1,0,0:0:0:0:
448,192,91378,1,0,0:0:0:0:
320,192,91451,1,0,0:0:0:0:
192,192,91451,1,0,0:0:0:0:
64,192,91524,1,0,0:0:0:0:
192,192,91524,1,0,0:0:0:0:
448,192,91524,1,0,0:0:0:0:
320,192,91524,1,0,0:0:0:0:
64,192,91598,1,0,0:0:0:0:
448,192,91598,1,0,0:0:0:0:
320,192,91671,1,0,0:0:0:0:
64,192,91671,1,0,0:0:0:0:
320,192,91744,1,0,0:0:0:0:
448,192,91744,1,0,0:0:0:0:
64,192,91818,1,0,0:0:0:0:
192,192,91818,1,0,0:0:0:0:
320,192,91818,1,0,0:0:0:0:
448,192,91818,1,0,0:0:0:0:
192,192,91891,1,0,0:0:0:0:
64,192,91891,1,0,0:0:0:0:
64,192,91964,1,0,0:0:0:0:
448,192,91964,1,0,0:0:0:0:
320,192,92038,1,0,0:0:0:0:
448,192,92038,1,0,0:0:0:0:
320,192,92111,1,0,0:0:0:0:
64,192,92111,1,0,0:0:0:0:
192,192,92111,1,0,0:0:0:0:
448,192,92111,1,0,0:0:0:0:
192,192,92185,1,0,0:0:0:0:
64,192,92185,1,0,0:0:0:0:
64,192,92258,1,0,0:0:0:0:
448,192,92258,1,0,0:0:0:0:
320,192,92331,1,0,0:0:0:0:
192,192,92331,1,0,0:0:0:0:
64,192,92405,1,0,0:0:0:0:
192,192,92405,1,0,0:0:0:0:
320,192,92405,1,0,0:0:0:0:
448,192,92405,1,0,0:0:0:0:
64,192,92478,1,0,0:0:0:0:
448,192,92478,1,0,0:0:0:0:
320,192,92551,1,0,0:0:0:0:
448,192,92551,1,0,0:0:0:0:
192,192,92625,1,0,0:0:0:0:
64,192,92625,1,0,0:0:0:0:
64,192,92698,1,0,0:0:0:0:
192,192,92698,1,0,0:0:0:0:
320,192,92698,1,0,0:0:0:0:
448,192,92698,1,0,0:0:0:0:
320,192,92771,1,0,0:0:0:0:
448,192,92771,1,0,0:0:0:0:
64,192,92845,1,0,0:0:0:0:
448,192,92845,1,0,0:0:0:0:
320,192,92918,1,0,0:0:0:0:
64,192,92918,1,0,0:0:0:0:
192,192,92991,1,0,0:0:0:0:
320,192,92991,1,0,0:0:0:0:
448,192,92991,1,0,0:0:0:0:
64,192,92991,1,0,0:0:0:0:
192,192,93065,1,0,0:0:0:0:
448,192,93065,1,0,0:0:0:0:
320,192,93138,1,0,0:0:0:0:
448,192,93138,1,0,0:0:0:0:
64,192,93211,1,0,0:0:0:0:
192,192,93211,1,0,0:0:0:0:
64,192,93285,1,0,0:0:0:0:
192,192,93285,1,0,0:0:0:0:
320,192,93285,1,0,0:0:0:0:
448,192,93285,1,0,0:0:0:0:
320,192,93358,1,0,0:0:0:0:
448,192,93358,1,0,0:0:0:0:
192,192,93431,1,0,0:0:0:0:
64,192,93431,1,0,0:0:0:0:
64,192,93505,1,0,0:0:0:0:
448,192,93505,1,0,0:0:0:0:
320,192,93578,1,0,0:0:0:0:
64,192,93578,1,0,0:0:0:0:
192,192,93578,1,0,0:0:0:0:
448,192,93578,1,0,0:0:0:0:
192,192,93652,1,0,0:0:0:0:
320,192,93652,1,0,0:0:0:0:
64,192,93725,1,0,0:0:0:0:
448,192,93725,1,0,0:0:0:0:
320,192,93798,1,0,0:0:0:0:
448,192,93798,1,0,0:0:0:0:
64,192,93872,1,0,0:0:0:0:
192,192,93872,1,0,0:0:0:0:
320,192,93872,1,0,0:0:0:0:
448,192,93872,1,0,0:0:0:0:
192,192,93945,1,0,0:0:0:0:
64,192,93945,1,0,0:0:0:0:
320,192,94018,1,0,0:0:0:0:
448,192,94018,1,0,0:0:0:0:
64,192,94092,1,0,0:0:0:0:
448,192,94092,1,0,0:0:0:0:
448,192,94165,1,0,0:0:0:0:
320,192,94165,1,0,0:0:0:0:
192,192,94165,1,0,0:0:0:0:
64,192,94165,1,0,0:0:0:0:
192,192,94238,1,0,0:0:0:0:
320,192,94238,1,0,0:0:0:0:
448,192,94312,1,0,0:0:0:0:
64,192,94312,1,0,0:0:0:0:
192,192,94385,1,0,0:0:0:0:
448,192,94385,1,0,0:0:0:0:
320,192,94458,1,0,0:0:0:0:
448,192,94458,1,0,0:0:0:0:
192,192,94458,1,0,0:0:0:0:
64,192,94458,1,0,0:0:0:0:
64,192,94532,1,0,0:0:0:0:
320,192,94532,1,0,0:0:0:0:
192,192,94605,1,0,0:0:0:0:
64,192,94605,1,0,0:0:0:0:
320,192,94678,1,0,0:0:0:0:
448,192,94678,1,0,0:0:0:0:
64,192,94752,1,0,0:0:0:0:
192,192,94752,1,0,0:0:0:0:
320,192,94752,1,0,0:0:0:0:
448,192,94752,1,0,0:0:0:0:
64,192,94825,1,0,0:0:0:0:
192,192,94825,1,0,0:0:0:0:
64,192,94898,1,0,0:0:0:0:
192,192,94898,1,0,0:0:0:0:
320,192,94898,1,0,0:0:0:0:
448,192,94898,1,0,0:0:0:0:
320,192,94972,1,0,0:0:0:0:
448,192,94972,1,0,0:0:0:0:
64,192,95045,1,0,0:0:0:0:
192,192,95045,1,0,0:0:0:0:
320,192,95045,1,0,0:0:0:0:
448,192,95045,1,0,0:0:0:0:
64,192,95119,1,0,0:0:0:0:
192,192,95119,1,0,0:0:0:0:
448,192,95192,1,0,0:0:0:0:
320,192,95192,1,0,0:0:0:0:
64,192,95265,1,0,0:0:0:0:
448,192,95265,1,0,0:0:0:0:
448,192,95339,1,0,0:0:0:0:
320,192,95339,1,0,0:0:0:0:
192,192,95339,1,0,0:0:0:0:
64,192,95339,1,0,0:0:0:0:
192,192,95412,1,0,0:0:0:0:
320,192,95412,1,0,0:0:0:0:
448,192,95485,1,0,0:0:0:0:
64,192,95485,1,0,0:0:0:0:
192,192,95559,1,0,0:0:0:0:
64,192,95559,1,0,0:0:0:0:
64,192,95632,1,0,0:0:0:0:
192,192,95632,1,0,0:0:0:0:
320,192,95632,1,0,0:0:0:0:
448,192,95632,1,0,0:0:0:0:
320,192,95705,1,0,0:0:0:0:
448,192,95705,1,0,0:0:0:0:
192,192,95779,1,0,0:0:0:0:
320,192,95779,1,0,0:0:0:0:
64,192,95852,1,0,0:0:0:0:
192,192,95852,1,0,0:0:0:0:
64,192,95925,1,0,0:0:0:0:
192,192,95925,1,0,0:0:0:0:
320,192,95925,1,0,0:0:0:0:
448,192,95925,1,0,0:0:0:0:
320,192,95999,1,0,0:0:0:0:
448,192,95999,1,0,0:0:0:0:
64,192,96072,1,0,0:0:0:0:
448,192,96072,1,0,0:0:0:0:
64,192,96145,1,0,0:0:0:0:
192,192,96145,1,0,0:0:0:0:
320,192,96219,1,0,0:0:0:0:
448,192,96219,1,0,0:0:0:0:
192,192,96219,1,0,0:0:0:0:
64,192,96219,1,0,0:0:0:0:
320,192,96292,1,0,0:0:0:0:
448,192,96292,1,0,0:0:0:0:
64,192,96365,1,0,0:0:0:0:
448,192,96365,1,0,0:0:0:0:
320,192,96439,1,0,0:0:0:0:
192,192,96439,1,0,0:0:0:0:
448,192,96512,1,0,0:0:0:0:
320,192,96512,1,0,0:0:0:0:
192,192,96512,1,0,0:0:0:0:
64,192,96512,1,0,0:0:0:0:
64,192,96586,1,0,0:0:0:0:
448,192,96586,1,0,0:0:0:0:
320,192,96659,1,0,0:0:0:0:
448,192,96659,1,0,0:0:0:0:
192,192,96732,1,0,0:0:0:0:
64,192,96732,1,0,0:0:0:0:
64,192,96806,1,0,0:0:0:0:
192,192,96806,1,0,0:0:0:0:
320,192,96806,1,0,0:0:0:0:
448,192,96806,1,0,0:0:0:0:
320,192,96879,1,0,0:0:0:0:
448,192,96879,1,0,0:0:0:0:
192,192,96952,1,0,0:0:0:0:
64,192,96952,1,0,0:0:0:0:
64,192,97026,1,0,0:0:0:0:
448,192,97026,1,0,0:0:0:0:
64,192,97099,1,0,0:0:0:0:
192,192,97099,1,0,0:0:0:0:
448,192,97099,1,0,0:0:0:0:
320,192,97099,1,0,0:0:0:0:
192,192,97172,1,0,0:0:0:0:
320,192,97172,1,0,0:0:0:0:
64,192,97246,1,0,0:0:0:0:
448,192,97246,1,0,0:0:0:0:
320,192,97319,1,0,0:0:0:0:
448,192,97319,1,0,0:0:0:0:
64,192,97392,1,0,0:0:0:0:
192,192,97392,1,0,0:0:0:0:
320,192,97392,1,0,0:0:0:0:
448,192,97392,1,0,0:0:0:0:
192,192,97466,1,0,0:0:0:0:
64,192,97466,1,0,0:0:0:0:
320,192,97539,1,0,0:0:0:0:
64,192,97539,1,0,0:0:0:0:
192,192,97612,1,0,0:0:0:0:
448,192,97612,1,0,0:0:0:0:
64,192,97686,1,0,0:0:0:0:
192,192,97686,1,0,0:0:0:0:
320,192,97686,1,0,0:0:0:0:
448,192,97686,1,0,0:0:0:0:
320,192,97759,1,0,0:0:0:0:
64,192,97759,1,0,0:0:0:0:
320,192,97832,1,0,0:0:0:0:
448,192,97832,1,0,0:0:0:0:
192,192,97906,1,0,0:0:0:0:
64,192,97906,1,0,0:0:0:0:
192,192,97979,1,0,0:0:0:0:
64,192,97979,1,0,0:0:0:0:
320,192,97979,1,0,0:0:0:0:
448,192,97979,1,0,0:0:0:0:
448,192,98053,1,0,0:0:0:0:
320,192,98053,1,0,0:0:0:0:
64,192,98126,1,0,0:0:0:0:
448,192,98126,1,0,0:0:0:0:
192,192,98199,1,0,0:0:0:0:
64,192,98199,1,0,0:0:0:0:
64,192,98273,1,0,0:0:0:0:
192,192,98273,1,0,0:0:0:0:
320,192,98273,1,0,0:0:0:0:
448,192,98273,1,0,0:0:0:0:
320,192,98346,1,0,0:0:0:0:
448,192,98346,1,0,0:0:0:0:
192,192,98419,1,0,0:0:0:0:
320,192,98419,1,0,0:0:0:0:
64,192,98493,1,0,0:0:0:0:
448,192,98493,1,0,0:0:0:0:
192,192,98566,1,0,0:0:0:0:
64,192,98566,1,0,0:0:0:0:
320,192,98566,1,0,0:0:0:0:
448,192,98566,1,0,0:0:0:0:
320,192,98639,1,0,0:0:0:0:
192,192,98639,1,0,0:0:0:0:
64,192,98713,1,0,0:0:0:0:
448,192,98713,1,0,0:0:0:0:
320,192,98786,1,0,0:0:0:0:
64,192,98786,1,0,0:0:0:0:
64,192,98859,1,0,0:0:0:0:
192,192,98859,1,0,0:0:0:0:
320,192,98859,1,0,0:0:0:0:
448,192,98859,1,0,0:0:0:0:
192,192,98933,1,0,0:0:0:0:
448,192,98933,1,0,0:0:0:0:
320,192,99006,1,0,0:0:0:0:
448,192,99006,1,0,0:0:0:0:
192,192,99079,1,0,0:0:0:0:
64,192,99079,1,0,0:0:0:0:
64,192,99153,1,0,0:0:0:0:
192,192,99153,1,0,0:0:0:0:
448,192,99153,1,0,0:0:0:0:
320,192,99153,1,0,0:0:0:0:
192,192,99299,1,0,0:0:0:0:
64,192,99299,1,0,0:0:0:0:
320,192,99373,1,0,0:0:0:0:
448,192,99373,1,0,0:0:0:0:
192,192,99446,1,0,0:0:0:0:
64,192,99446,1,0,0:0:0:0:
320,192,99446,1,0,0:0:0:0:
448,192,99446,1,0,0:0:0:0:
320,192,99593,1,0,0:0:0:0:
448,192,99593,1,0,0:0:0:0:
192,192,99666,1,0,0:0:0:0:
64,192,99666,1,0,0:0:0:0:
64,192,99740,1,0,0:0:0:0:
192,192,99740,1,0,0:0:0:0:
320,192,99740,1,0,0:0:0:0:
448,192,99740,1,0,0:0:0:0:
320,192,99813,1,0,0:0:0:0:
448,192,99813,1,0,0:0:0:0:
64,192,99886,1,0,0:0:0:0:
448,192,99886,1,0,0:0:0:0:
192,192,99960,1,0,0:0:0:0:
64,192,99960,1,0,0:0:0:0:
192,192,100033,1,0,0:0:0:0:
320,192,100033,1,0,0:0:0:0:
448,192,100033,1,0,0:0:0:0:
64,192,100033,1,0,0:0:0:0:
320,192,100106,1,0,0:0:0:0:
448,192,100106,1,0,0:0:0:0:
192,192,100180,1,0,0:0:0:0:
320,192,100180,1,0,0:0:0:0:
64,192,100253,1,0,0:0:0:0:
448,192,100253,1,0,0:0:0:0:
448,192,100326,1,0,0:0:0:0:
320,192,100326,1,0,0:0:0:0:
192,192,100326,1,0,0:0:0:0:
64,192,100326,1,0,0:0:0:0:
192,192,100400,1,0,0:0:0:0:
320,192,100400,1,0,0:0:0:0:
64,192,100473,1,0,0:0:0:0:
320,192,100473,1,0,0:0:0:0:
192,192,100546,1,0,0:0:0:0:
448,192,100546,1,0,0:0:0:0:
320,192,100620,1,0,0:0:0:0:
448,192,100620,1,0,0:0:0:0:
192,192,100620,1,0,0:0:0:0:
64,192,100620,1,0,0:0:0:0:
64,192,100693,1,0,0:0:0:0:
320,192,100693,1,0,0:0:0:0:
192,192,100766,1,0,0:0:0:0:
64,192,100766,1,0,0:0:0:0:
192,192,100840,1,0,0:0:0:0:
320,192,100840,1,0,0:0:0:0:
64,192,100913,1,0,0:0:0:0:
192,192,100913,1,0,0:0:0:0:
320,192,100913,1,0,0:0:0:0:
448,192,100913,1,0,0:0:0:0:
64,192,100987,1,0,0:0:0:0:
448,192,100987,1,0,0:0:0:0:
320,192,101060,1,0,0:0:0:0:
448,192,101060,1,0,0:0:0:0:
192,192,101133,1,0,0:0:0:0:
64,192,101133,1,0,0:0:0:0:
64,192,101207,1,0,0:0:0:0:
192,192,101207,1,0,0:0:0:0:
448,192,101207,1,0,0:0:0:0:
320,192,101207,1,0,0:0:0:0:
320,192,101280,1,0,0:0:0:0:
448,192,101280,1,0,0:0:0:0:
64,192,101353,1,0,0:0:0:0:
320,192,101353,1,0,0:0:0:0:
64,192,101427,1,0,0:0:0:0:
448,192,101427,1,0,0:0:0:0:
320,192,101500,1,0,0:0:0:0:
448,192,101500,1,0,0:0:0:0:
192,192,101500,1,0,0:0:0:0:
64,192,101500,1,0,0:0:0:0:
192,192,101573,1,0,0:0:0:0:
320,192,101573,1,0,0:0:0:0:
64,192,101647,1,0,0:0:0:0:
448,192,101647,1,0,0:0:0:0:
320,192,101720,1,0,0:0:0:0:
448,192,101720,1,0,0:0:0:0:
192,192,101793,1,0,0:0:0:0:
64,192,101793,1,0,0:0:0:0:
320,192,101793,1,0,0:0:0:0:
448,192,101793,1,0,0:0:0:0:
192,192,101867,1,0,0:0:0:0:
64,192,101867,1,0,0:0:0:0:
320,192,101940,1,0,0:0:0:0:
448,192,101940,1,0,0:0:0:0:
320,192,102013,1,0,0:0:0:0:
192,192,102013,1,0,0:0:0:0:
448,192,102087,1,0,0:0:0:0:
320,192,102087,1,0,0:0:0:0:
64,192,102087,1,0,0:0:0:0:
192,192,102087,1,0,0:0:0:0:
64,192,102160,1,0,0:0:0:0:
448,192,102160,1,0,0:0:0:0:
192,192,102233,1,0,0:0:0:0:
64,192,102233,1,0,0:0:0:0:
320,192,102307,1,0,0:0:0:0:
448,192,102307,1,0,0:0:0:0:
64,192,102380,1,0,0:0:0:0:
192,192,102380,1,0,0:0:0:0:
320,192,102380,1,0,0:0:0:0:
448,192,102380,1,0,0:0:0:0:
192,192,102454,1,0,0:0:0:0:
64,192,102454,1,0,0:0:0:0:
64,192,102527,1,0,0:0:0:0:
320,192,102527,1,0,0:0:0:0:
192,192,102600,1,0,0:0:0:0:
448,192,102600,1,0,0:0:0:0:
64,192,102674,1,0,0:0:0:0:
192,192,102674,1,0,0:0:0:0:
448,192,102674,1,0,0:0:0:0:
320,192,102674,1,0,0:0:0:0:
320,192,102747,1,0,0:0:0:0:
64,192,102747,1,0,0:0:0:0:
192,192,102820,1,0,0:0:0:0:
64,192,102820,1,0,0:0:0:0:
192,192,102894,1,0,0:0:0:0:
320,192,102894,1,0,0:0:0:0:
64,192,102967,1,0,0:0:0:0:
192,192,102967,1,0,0:0:0:0:
320,192,102967,1,0,0:0:0:0:
448,192,102967,1,0,0:0:0:0:
64,192,103040,1,0,0:0:0:0:
448,192,103040,1,0,0:0:0:0:
192,192,103114,1,0,0:0:0:0:
320,192,103114,1,0,0:0:0:0:
320,192,103187,1,0,0:0:0:0:
448,192,103187,1,0,0:0:0:0:
64,192,103260,1,0,0:0:0:0:
192,192,103260,1,0,0:0:0:0:
320,192,103260,1,0,0:0:0:0:
448,192,103260,1,0,0:0:0:0:
192,192,103334,1,0,0:0:0:0:
64,192,103334,1,0,0:0:0:0:
64,192,103407,1,0,0:0:0:0:
320,192,103407,1,0,0:0:0:0:
448,192,103480,1,0,0:0:0:0:
320,192,103480,1,0,0:0:0:0:
64,192,103554,1,0,0:0:0:0:
192,192,103554,1,0,0:0:0:0:
320,192,103554,1,0,0:0:0:0:
448,192,103554,1,0,0:0:0:0:
192,192,103627,1,0,0:0:0:0:
64,192,103627,1,0,0:0:0:0:
448,192,103700,1,0,0:0:0:0:
320,192,103700,1,0,0:0:0:0:
64,192,103774,1,0,0:0:0:0:
448,192,103774,1,0,0:0:0:0:
64,192,103847,1,0,0:0:0:0:
192,192,103847,1,0,0:0:0:0:
320,192,103847,1,0,0:0:0:0:
448,192,103847,1,0,0:0:0:0:
320,192,103920,1,0,0:0:0:0:
192,192,103920,1,0,0:0:0:0:
192,192,103994,1,0,0:0:0:0:
448,192,103994,1,0,0:0:0:0:
320,192,104067,1,0,0:0:0:0:
64,192,104067,1,0,0:0:0:0:
64,192,104141,1,0,0:0:0:0:
192,192,104141,1,0,0:0:0:0:
320,192,104141,1,0,0:0:0:0:
448,192,104141,1,0,0:0:0:0:
192,192,104214,1,0,0:0:0:0:
448,192,104214,1,0,0:0:0:0:
448,192,104287,1,0,0:0:0:0:
64,192,104287,1,0,0:0:0:0:
64,192,104361,1,0,0:0:0:0:
192,192,104361,1,0,0:0:0:0:
64,192,104434,1,0,0:0:0:0:
192,192,104434,1,0,0:0:0:0:
320,192,104434,1,0,0:0:0:0:
448,192,104434,1,0,0:0:0:0:
320,192,104507,1,0,0:0:0:0:
448,192,104507,1,0,0:0:0:0:
192,192,104581,1,0,0:0:0:0:
320,192,104581,1,0,0:0:0:0:
64,192,104654,1,0,0:0:0:0:
192,192,104654,1,0,0:0:0:0:
64,192,104727,1,0,0:0:0:0:
192,192,104727,1,0,0:0:0:0:
448,192,104727,1,0,0:0:0:0:
320,192,104727,1,0,0:0:0:0:
320,192,104801,1,0,0:0:0:0:
448,192,104801,1,0,0:0:0:0:
64,192,104874,1,0,0:0:0:0:
320,192,104874,1,0,0:0:0:0:
192,192,104947,1,0,0:0:0:0:
448,192,104947,1,0,0:0:0:0:
64,192,105021,1,0,0:0:0:0:
192,192,105021,1,0,0:0:0:0:
320,192,105021,1,0,0:0:0:0:
448,192,105021,1,0,0:0:0:0:
320,192,105094,1,0,0:0:0:0:
64,192,105094,1,0,0:0:0:0:
192,192,105167,1,0,0:0:0:0:
64,192,105167,1,0,0:0:0:0:
320,192,105241,1,0,0:0:0:0:
448,192,105241,1,0,0:0:0:0:
64,192,105314,1,0,0:0:0:0:
192,192,105314,1,0,0:0:0:0:
320,192,105314,1,0,0:0:0:0:
448,192,105314,1,0,0:0:0:0:
192,192,105387,1,0,0:0:0:0:
64,192,105387,1,0,0:0:0:0:
448,192,105461,1,0,0:0:0:0:
64,192,105461,1,0,0:0:0:0:
320,192,105534,1,0,0:0:0:0:
448,192,105534,1,0,0:0:0:0:
64,192,105608,5,0,0:0:0:0:
320,192,105608,1,0,0:0:0:0:
448,192,105608,1,0,0:0:0:0:
192,192,105608,1,0,0:0:0:0:
192,192,105681,1,0,0:0:0:0:
64,192,105681,1,0,0:0:0:0:
320,192,105754,1,0,0:0:0:0:
64,192,105754,1,0,0:0:0:0:
320,192,105828,1,0,0:0:0:0:
448,192,105828,1,0,0:0:0:0:
64,192,105901,5,0,0:0:0:0:
192,192,105901,1,0,0:0:0:0:
320,192,105901,1,0,0:0:0:0:
448,192,105901,1,0,0:0:0:0:
192,192,105974,1,0,0:0:0:0:
64,192,105974,1,0,0:0:0:0:
64,192,106048,1,0,0:0:0:0:
448,192,106048,1,0,0:0:0:0:
192,192,106121,1,0,0:0:0:0:
320,192,106121,1,0,0:0:0:0:
64,192,106194,5,0,0:0:0:0:
192,192,106194,1,0,0:0:0:0:
320,192,106194,1,0,0:0:0:0:
448,192,106194,1,0,0:0:0:0:
64,192,106268,1,0,0:0:0:0:
448,192,106268,1,0,0:0:0:0:
64,192,106341,1,0,0:0:0:0:
320,192,106341,1,0,0:0:0:0:
192,192,106414,1,0,0:0:0:0:
320,192,106414,1,0,0:0:0:0:
64,192,106488,5,0,0:0:0:0:
320,192,106488,1,0,0:0:0:0:
448,192,106488,1,0,0:0:0:0:
192,192,106488,1,0,0:0:0:0:
448,192,106561,1,0,0:0:0:0:
64,192,106561,1,0,0:0:0:0:
320,192,106634,1,0,0:0:0:0:
448,192,106634,1,0,0:0:0:0:
192,192,106708,1,0,0:0:0:0:
64,192,106708,1,0,0:0:0:0:
64,192,106781,5,0,0:0:0:0:
192,192,106781,1,0,0:0:0:0:
448,192,106781,1,0,0:0:0:0:
320,192,106781,1,0,0:0:0:0:
64,192,106928,1,0,0:0:0:0:
448,192,107075,1,0,0:0:0:0:
320,192,107221,1,0,0:0:0:0:
448,192,107368,1,0,0:0:0:0:
192,192,107515,1,0,0:0:0:0:
448,192,107661,1,0,0:0:0:0:
64,192,107808,1,0,0:0:0:0:
64,192,107955,1,0,0:0:0:0:
192,192,107955,1,0,0:0:0:0:
320,192,107955,1,0,0:0:0:0:
448,192,107955,1,0,0:0:0:0:
320,192,108101,1,0,0:0:0:0:
448,192,108101,1,0,0:0:0:0:
64,192,108248,1,0,0:0:0:0:
192,192,108248,1,0,0:0:0:0:
320,192,108248,1,0,0:0:0:0:
448,192,108248,1,0,0:0:0:0:
192,192,108395,1,0,0:0:0:0:
64,192,108395,1,0,0:0:0:0:
64,192,108542,1,0,0:0:0:0:
192,192,108542,1,0,0:0:0:0:
320,192,108542,1,0,0:0:0:0:
448,192,108542,1,0,0:0:0:0:
448,192,108688,1,0,0:0:0:0:
320,192,108725,1,0,0:0:0:0:
192,192,108762,1,0,0:0:0:0:
64,192,108798,1,0,0:0:0:0:
320,192,108835,1,0,0:0:0:0:
448,192,108835,1,0,0:0:0:0:
64,192,108982,1,0,0:0:0:0:
192,192,109018,1,0,0:0:0:0:
320,192,109055,1,0,0:0:0:0:
448,192,109092,1,0,0:0:0:0:
64,192,109128,1,0,0:0:0:0:
192,192,109128,1,0,0:0:0:0:
320,192,109202,1,0,0:0:0:0:
64,192,109202,1,0,0:0:0:0:
192,192,109275,1,0,0:0:0:0:
448,192,109275,1,0,0:0:0:0:
320,192,109348,1,0,0:0:0:0:
448,192,109348,1,0,0:0:0:0:
64,192,109422,1,0,0:0:0:0:
192,192,109422,1,0,0:0:0:0:
320,192,109422,1,0,0:0:0:0:
448,192,109495,1,0,0:0:0:0:
64,192,109495,1,0,0:0:0:0:
192,192,109568,1,0,0:0:0:0:
448,192,109568,1,0,0:0:0:0:
320,192,109642,1,0,0:0:0:0:
192,192,109642,1,0,0:0:0:0:
64,192,109715,1,0,0:0:0:0:
320,192,109715,1,0,0:0:0:0:
448,192,109715,1,0,0:0:0:0:
192,192,109788,1,0,0:0:0:0:
448,192,109788,1,0,0:0:0:0:
192,192,109862,1,0,0:0:0:0:
64,192,109862,1,0,0:0:0:0:
320,192,109935,1,0,0:0:0:0:
448,192,109935,1,0,0:0:0:0:
192,192,110009,1,0,0:0:0:0:
64,192,110009,1,0,0:0:0:0:
448,192,110009,1,0,0:0:0:0:
320,192,110082,1,0,0:0:0:0:
192,192,110082,1,0,0:0:0:0:
64,192,110155,1,0,0:0:0:0:
448,192,110155,1,0,0:0:0:0:
320,192,110229,1,0,0:0:0:0:
448,192,110229,1,0,0:0:0:0:
192,192,110302,1,0,0:0:0:0:
64,192,110302,1,0,0:0:0:0:
320,192,110302,1,0,0:0:0:0:
448,192,110375,1,0,0:0:0:0:
192,192,110375,1,0,0:0:0:0:
64,192,110449,1,0,0:0:0:0:
320,192,110449,1,0,0:0:0:0:
192,192,110522,1,0,0:0:0:0:
64,192,110522,1,0,0:0:0:0:
192,192,110595,1,0,0:0:0:0:
320,192,110595,1,0,0:0:0:0:
448,192,110595,1,0,0:0:0:0:
64,192,110669,1,0,0:0:0:0:
448,192,110669,1,0,0:0:0:0:
320,192,110742,1,0,0:0:0:0:
448,192,110742,1,0,0:0:0:0:
192,192,110815,1,0,0:0:0:0:
320,192,110815,1,0,0:0:0:0:
64,192,110889,1,0,0:0:0:0:
320,192,110889,1,0,0:0:0:0:
448,192,110889,1,0,0:0:0:0:
64,192,110962,1,0,0:0:0:0:
448,192,110962,1,0,0:0:0:0:
320,192,111035,1,0,0:0:0:0:
192,192,111035,1,0,0:0:0:0:
64,192,111109,1,0,0:0:0:0:
192,192,111109,1,0,0:0:0:0:
320,192,111182,1,0,0:0:0:0:
448,192,111182,1,0,0:0:0:0:
192,192,111182,1,0,0:0:0:0:
64,192,111255,1,0,0:0:0:0:
448,192,111255,1,0,0:0:0:0:
192,192,111329,1,0,0:0:0:0:
64,192,111329,1,0,0:0:0:0:
192,192,111402,1,0,0:0:0:0:
448,192,111402,1,0,0:0:0:0:
64,192,111476,1,0,0:0:0:0:
448,192,111476,1,0,0:0:0:0:
320,192,111476,1,0,0:0:0:0:
192,192,111549,1,0,0:0:0:0:
320,192,111549,1,0,0:0:0:0:
64,192,111622,1,0,0:0:0:0:
192,192,111622,1,0,0:0:0:0:
64,192,111696,1,0,0:0:0:0:
448,192,111696,1,0,0:0:0:0:
192,192,111769,1,0,0:0:0:0:
320,192,111769,1,0,0:0:0:0:
448,192,111769,1,0,0:0:0:0:
320,192,111842,1,0,0:0:0:0:
64,192,111842,1,0,0:0:0:0:
192,192,111916,1,0,0:0:0:0:
448,192,111916,1,0,0:0:0:0:
320,192,111989,1,0,0:0:0:0:
448,192,111989,1,0,0:0:0:0:
64,192,112062,1,0,0:0:0:0:
192,192,112062,1,0,0:0:0:0:
320,192,112062,1,0,0:0:0:0:
448,192,112136,1,0,0:0:0:0:
64,192,112136,1,0,0:0:0:0:
192,192,112209,1,0,0:0:0:0:
320,192,112209,1,0,0:0:0:0:
448,192,112282,1,0,0:0:0:0:
192,192,112282,1,0,0:0:0:0:
64,192,112356,1,0,0:0:0:0:
448,192,112356,1,0,0:0:0:0:
320,192,112356,1,0,0:0:0:0:
192,192,112429,1,0,0:0:0:0:
64,192,112429,1,0,0:0:0:0:
192,192,112502,1,0,0:0:0:0:
448,192,112502,1,0,0:0:0:0:
320,192,112576,1,0,0:0:0:0:
448,192,112576,1,0,0:0:0:0:
192,192,112649,1,0,0:0:0:0:
320,192,112649,1,0,0:0:0:0:
448,192,112649,1,0,0:0:0:0:
64,192,112722,1,0,0:0:0:0:
192,192,112722,1,0,0:0:0:0:
448,192,112796,1,0,0:0:0:0:
64,192,112796,1,0,0:0:0:0:
192,192,112869,1,0,0:0:0:0:
320,192,112869,1,0,0:0:0:0:
64,192,112943,1,0,0:0:0:0:
192,192,112943,1,0,0:0:0:0:
448,192,112943,1,0,0:0:0:0:
64,192,113016,1,0,0:0:0:0:
192,192,113016,1,0,0:0:0:0:
448,192,113089,1,0,0:0:0:0:
320,192,113089,1,0,0:0:0:0:
192,192,113163,1,0,0:0:0:0:
448,192,113163,1,0,0:0:0:0:
64,192,113236,1,0,0:0:0:0:
192,192,113236,1,0,0:0:0:0:
320,192,113236,1,0,0:0:0:0:
448,192,113309,1,0,0:0:0:0:
64,192,113309,1,0,0:0:0:0:
320,192,113383,1,0,0:0:0:0:
192,192,113383,1,0,0:0:0:0:
320,192,113456,1,0,0:0:0:0:
448,192,113456,1,0,0:0:0:0:
64,192,113529,1,0,0:0:0:0:
192,192,113529,1,0,0:0:0:0:
448,192,113529,1,0,0:0:0:0:
320,192,113603,1,0,0:0:0:0:
64,192,113603,1,0,0:0:0:0:
448,192,113676,1,0,0:0:0:0:
320,192,113676,1,0,0:0:0:0:
192,192,113749,1,0,0:0:0:0:
64,192,113749,1,0,0:0:0:0:
64,192,113823,1,0,0:0:0:0:
320,192,113823,1,0,0:0:0:0:
448,192,113823,1,0,0:0:0:0:
320,192,113969,1,0,0:0:0:0:
192,192,114116,1,0,0:0:0:0:
64,192,114116,1,0,0:0:0:0:
448,192,114263,1,0,0:0:0:0:
192,192,114410,1,0,0:0:0:0:
64,192,114410,1,0,0:0:0:0:
320,192,114556,1,0,0:0:0:0:
192,192,114703,1,0,0:0:0:0:
64,192,114703,1,0,0:0:0:0:
448,192,114850,1,0,0:0:0:0:
320,192,114996,1,0,0:0:0:0:
192,192,114996,1,0,0:0:0:0:
64,192,115143,1,0,0:0:0:0:
320,192,115290,1,0,0:0:0:0:
448,192,115290,1,0,0:0:0:0:
192,192,115436,1,0,0:0:0:0:
320,192,115583,1,0,0:0:0:0:
448,192,115583,1,0,0:0:0:0:
64,192,115730,1,0,0:0:0:0:
320,192,115877,1,0,0:0:0:0:
448,192,115877,1,0,0:0:0:0:
192,192,116023,1,0,0:0:0:0:
64,192,116170,1,0,0:0:0:0:
448,192,116170,1,0,0:0:0:0:
320,192,116317,1,0,0:0:0:0:
64,192,116463,1,0,0:0:0:0:
448,192,116463,1,0,0:0:0:0:
192,192,116610,1,0,0:0:0:0:
448,192,116757,1,0,0:0:0:0:
64,192,116757,1,0,0:0:0:0:
320,192,116903,1,0,0:0:0:0:
64,192,117050,1,0,0:0:0:0:
448,192,117050,1,0,0:0:0:0:
192,192,117197,1,0,0:0:0:0:
320,192,117344,1,0,0:0:0:0:
448,192,117344,1,0,0:0:0:0:
64,192,117490,1,0,0:0:0:0:
192,192,117637,1,0,0:0:0:0:
448,192,117637,1,0,0:0:0:0:
320,192,117784,1,0,0:0:0:0:
192,192,117930,1,0,0:0:0:0:
448,192,117930,1,0,0:0:0:0:
64,192,118077,1,0,0:0:0:0:
192,192,118224,1,0,0:0:0:0:
448,192,118224,1,0,0:0:0:0:
320,192,118370,1,0,0:0:0:0:
64,192,118517,1,0,0:0:0:0:
192,192,118517,1,0,0:0:0:0:
320,192,118517,1,0,0:0:0:0:
448,192,118517,1,0,0:0:0:0:
192,192,118590,1,0,0:0:0:0:
64,192,118590,1,0,0:0:0:0:
64,192,118664,1,0,0:0:0:0:
448,192,118664,1,0,0:0:0:0:
320,192,118737,1,0,0:0:0:0:
448,192,118737,1,0,0:0:0:0:
192,192,118810,1,0,0:0:0:0:
64,192,118810,1,0,0:0:0:0:
320,192,118810,1,0,0:0:0:0:
448,192,118810,1,0,0:0:0:0:
192,192,118884,1,0,0:0:0:0:
64,192,118884,1,0,0:0:0:0:
64,192,118957,1,0,0:0:0:0:
320,192,118957,1,0,0:0:0:0:
448,192,119031,1,0,0:0:0:0:
192,192,119031,1,0,0:0:0:0:
64,192,119104,1,0,0:0:0:0:
192,192,119104,1,0,0:0:0:0:
320,192,119104,1,0,0:0:0:0:
448,192,119104,1,0,0:0:0:0:
320,192,119177,1,0,0:0:0:0:
64,192,119177,1,0,0:0:0:0:
192,192,119251,1,0,0:0:0:0:
64,192,119251,1,0,0:0:0:0:
320,192,119324,1,0,0:0:0:0:
448,192,119324,1,0,0:0:0:0:
64,192,119397,1,0,0:0:0:0:
192,192,119397,1,0,0:0:0:0:
320,192,119397,1,0,0:0:0:0:
448,192,119397,1,0,0:0:0:0:
192,192,119471,1,0,0:0:0:0:
64,192,119471,1,0,0:0:0:0:
64,192,119544,1,0,0:0:0:0:
448,192,119544,1,0,0:0:0:0:
320,192,119617,1,0,0:0:0:0:
192,192,119617,1,0,0:0:0:0:
64,192,119691,1,0,0:0:0:0:
192,192,119691,1,0,0:0:0:0:
320,192,119691,1,0,0:0:0:0:
448,192,119691,1,0,0:0:0:0:
64,192,119764,1,0,0:0:0:0:
448,192,119764,1,0,0:0:0:0:
320,192,119837,1,0,0:0:0:0:
448,192,119837,1,0,0:0:0:0:
192,192,119911,1,0,0:0:0:0:
64,192,119911,1,0,0:0:0:0:
64,192,119984,1,0,0:0:0:0:
192,192,119984,1,0,0:0:0:0:
448,192,119984,1,0,0:0:0:0:
320,192,119984,1,0,0:0:0:0:
320,192,120057,1,0,0:0:0:0:
448,192,120057,1,0,0:0:0:0:
192,192,120131,1,0,0:0:0:0:
320,192,120131,1,0,0:0:0:0:
64,192,120204,1,0,0:0:0:0:
448,192,120204,1,0,0:0:0:0:
64,192,120277,1,0,0:0:0:0:
320,192,120277,1,0,0:0:0:0:
448,192,120277,1,0,0:0:0:0:
192,192,120277,1,0,0:0:0:0:
320,192,120351,1,0,0:0:0:0:
192,192,120351,1,0,0:0:0:0:
64,192,120424,1,0,0:0:0:0:
448,192,120424,1,0,0:0:0:0:
192,192,120498,1,0,0:0:0:0:
448,192,120498,1,0,0:0:0:0:
64,192,120571,1,0,0:0:0:0:
192,192,120571,1,0,0:0:0:0:
320,192,120571,1,0,0:0:0:0:
448,192,120571,1,0,0:0:0:0:
320,192,120644,1,0,0:0:0:0:
64,192,120644,1,0,0:0:0:0:
192,192,120718,1,0,0:0:0:0:
64,192,120718,1,0,0:0:0:0:
320,192,120791,1,0,0:0:0:0:
448,192,120791,1,0,0:0:0:0:
320,192,120864,1,0,0:0:0:0:
192,192,120864,1,0,0:0:0:0:
448,192,120864,1,0,0:0:0:0:
64,192,120864,1,0,0:0:0:0:
192,192,120938,1,0,0:0:0:0:
64,192,120938,1,0,0:0:0:0:
64,192,121011,1,0,0:0:0:0:
448,192,121011,1,0,0:0:0:0:
320,192,121084,1,0,0:0:0:0:
448,192,121084,1,0,0:0:0:0:
64,192,121158,1,0,0:0:0:0:
192,192,121158,1,0,0:0:0:0:
320,192,121158,1,0,0:0:0:0:
192,192,121231,1,0,0:0:0:0:
64,192,121231,1,0,0:0:0:0:
448,192,121304,1,0,0:0:0:0:
320,192,121304,1,0,0:0:0:0:
64,192,121378,1,0,0:0:0:0:
448,192,121378,1,0,0:0:0:0:
64,192,121451,1,0,0:0:0:0:
192,192,121451,1,0,0:0:0:0:
448,192,121451,1,0,0:0:0:0:
320,192,121524,1,0,0:0:0:0:
64,192,121524,1,0,0:0:0:0:
192,192,121598,1,0,0:0:0:0:
448,192,121598,1,0,0:0:0:0:
320,192,121671,1,0,0:0:0:0:
448,192,121671,1,0,0:0:0:0:
64,192,121744,1,0,0:0:0:0:
320,192,121744,1,0,0:0:0:0:
448,192,121744,1,0,0:0:0:0:
64,192,121818,1,0,0:0:0:0:
192,192,121818,1,0,0:0:0:0:
320,192,121891,1,0,0:0:0:0:
192,192,121891,1,0,0:0:0:0:
64,192,121965,1,0,0:0:0:0:
448,192,121965,1,0,0:0:0:0:
64,192,122038,1,0,0:0:0:0:
192,192,122038,1,0,0:0:0:0:
448,192,122038,1,0,0:0:0:0:
192,192,122111,1,0,0:0:0:0:
320,192,122111,1,0,0:0:0:0:
64,192,122185,1,0,0:0:0:0:
320,192,122185,1,0,0:0:0:0:
192,192,122258,1,0,0:0:0:0:
64,192,122258,1,0,0:0:0:0:
320,192,122331,1,0,0:0:0:0:
192,192,122331,1,0,0:0:0:0:
448,192,122331,1,0,0:0:0:0:
320,192,122405,1,0,0:0:0:0:
64,192,122405,1,0,0:0:0:0:
192,192,122478,1,0,0:0:0:0:
448,192,122478,1,0,0:0:0:0:
320,192,122551,1,0,0:0:0:0:
448,192,122551,1,0,0:0:0:0:
64,192,122625,1,0,0:0:0:0:
320,192,122625,1,0,0:0:0:0:
448,192,122625,1,0,0:0:0:0:
192,192,122698,1,0,0:0:0:0:
64,192,122698,1,0,0:0:0:0:
192,192,122771,1,0,0:0:0:0:
448,192,122771,1,0,0:0:0:0:
64,192,122845,1,0,0:0:0:0:
320,192,122845,1,0,0:0:0:0:
192,192,122918,1,0,0:0:0:0:
64,192,122918,1,0,0:0:0:0:
448,192,122918,1,0,0:0:0:0:
320,192,122991,1,0,0:0:0:0:
192,192,122991,1,0,0:0:0:0:
64,192,123065,1,0,0:0:0:0:
448,192,123065,1,0,0:0:0:0:
448,192,123138,1,0,0:0:0:0:
320,192,123138,1,0,0:0:0:0:
192,192,123211,1,0,0:0:0:0:
320,192,123211,1,0,0:0:0:0:
64,192,123211,1,0,0:0:0:0:
192,192,123285,1,0,0:0:0:0:
64,192,123285,1,0,0:0:0:0:
448,192,123358,1,0,0:0:0:0:
320,192,123358,1,0,0:0:0:0:
64,192,123432,1,0,0:0:0:0:
448,192,123432,1,0,0:0:0:0:
64,192,123505,1,0,0:0:0:0:
320,192,123505,1,0,0:0:0:0:
192,192,123505,1,0,0:0:0:0:
192,192,123578,1,0,0:0:0:0:
448,192,123578,1,0,0:0:0:0:
320,192,123652,1,0,0:0:0:0:
448,192,123652,1,0,0:0:0:0:
192,192,123725,1,0,0:0:0:0:
64,192,123725,1,0,0:0:0:0:
64,192,123798,1,0,0:0:0:0:
448,192,123798,1,0,0:0:0:0:
320,192,123798,1,0,0:0:0:0:
192,192,123872,1,0,0:0:0:0:
448,192,123872,1,0,0:0:0:0:
320,192,123945,1,0,0:0:0:0:
64,192,123945,1,0,0:0:0:0:
192,192,124018,1,0,0:0:0:0:
64,192,124018,1,0,0:0:0:0:
64,192,124092,1,0,0:0:0:0:
192,192,124092,1,0,0:0:0:0:
448,192,124092,1,0,0:0:0:0:
320,192,124165,1,0,0:0:0:0:
448,192,124165,1,0,0:0:0:0:
64,192,124238,1,0,0:0:0:0:
320,192,124238,1,0,0:0:0:0:
192,192,124312,1,0,0:0:0:0:
64,192,124312,1,0,0:0:0:0:
192,192,124385,1,0,0:0:0:0:
320,192,124385,1,0,0:0:0:0:
448,192,124385,1,0,0:0:0:0:
320,192,124458,1,0,0:0:0:0:
448,192,124458,1,0,0:0:0:0:
64,192,124532,1,0,0:0:0:0:
448,192,124532,1,0,0:0:0:0:
192,192,124605,1,0,0:0:0:0:
64,192,124605,1,0,0:0:0:0:
64,192,124678,1,0,0:0:0:0:
192,192,124678,1,0,0:0:0:0:
320,192,124678,1,0,0:0:0:0:
448,192,124752,1,0,0:0:0:0:
320,192,124752,1,0,0:0:0:0:
64,192,124825,1,0,0:0:0:0:
448,192,124825,1,0,0:0:0:0:
320,192,124899,1,0,0:0:0:0:
192,192,124899,1,0,0:0:0:0:
64,192,124972,1,0,0:0:0:0:
320,192,124972,1,0,0:0:0:0:
448,192,124972,1,0,0:0:0:0:
192,192,125045,1,0,0:0:0:0:
448,192,125045,1,0,0:0:0:0:
64,192,125119,1,0,0:0:0:0:
320,192,125119,1,0,0:0:0:0:
192,192,125192,1,0,0:0:0:0:
64,192,125192,1,0,0:0:0:0:
192,192,125265,1,0,0:0:0:0:
320,192,125265,1,0,0:0:0:0:
448,192,125265,1,0,0:0:0:0:
320,192,125339,1,0,0:0:0:0:
448,192,125339,1,0,0:0:0:0:
64,192,125412,1,0,0:0:0:0:
192,192,125412,1,0,0:0:0:0:
448,192,125485,1,0,0:0:0:0:
192,192,125485,1,0,0:0:0:0:
192,192,125559,1,0,0:0:0:0:
320,192,125559,1,0,0:0:0:0:
448,192,125559,1,0,0:0:0:0:
64,192,125632,1,0,0:0:0:0:
320,192,125632,1,0,0:0:0:0:
192,192,125705,1,0,0:0:0:0:
64,192,125705,1,0,0:0:0:0:
320,192,125779,1,0,0:0:0:0:
448,192,125779,1,0,0:0:0:0:
64,192,125852,1,0,0:0:0:0:
192,192,125852,1,0,0:0:0:0:
448,192,125852,1,0,0:0:0:0:
320,192,125925,1,0,0:0:0:0:
64,192,125925,1,0,0:0:0:0:
192,192,125999,1,0,0:0:0:0:
448,192,125999,1,0,0:0:0:0:
64,192,126072,1,0,0:0:0:0:
320,192,126072,1,0,0:0:0:0:
64,192,126145,1,0,0:0:0:0:
192,192,126145,1,0,0:0:0:0:
448,192,126145,1,0,0:0:0:0:
320,192,126219,1,0,0:0:0:0:
448,192,126219,1,0,0:0:0:0:
192,192,126292,1,0,0:0:0:0:
64,192,126292,1,0,0:0:0:0:
64,192,126366,1,0,0:0:0:0:
320,192,126366,1,0,0:0:0:0:
192,192,126439,1,0,0:0:0:0:
320,192,126439,1,0,0:0:0:0:
448,192,126439,1,0,0:0:0:0:
64,192,126512,1,0,0:0:0:0:
448,192,126512,1,0,0:0:0:0:
320,192,126586,1,0,0:0:0:0:
448,192,126586,1,0,0:0:0:0:
192,192,126659,1,0,0:0:0:0:
64,192,126659,1,0,0:0:0:0:
64,192,126732,1,0,0:0:0:0:
192,192,126732,1,0,0:0:0:0:
320,192,126732,1,0,0:0:0:0:
448,192,126806,1,0,0:0:0:0:
320,192,126806,1,0,0:0:0:0:
192,192,126879,1,0,0:0:0:0:
448,192,126879,1,0,0:0:0:0:
64,192,126952,1,0,0:0:0:0:
320,192,126952,1,0,0:0:0:0:
64,192,127026,1,0,0:0:0:0:
192,192,127026,1,0,0:0:0:0:
448,192,127026,1,0,0:0:0:0:
320,192,127099,1,0,0:0:0:0:
192,192,127099,1,0,0:0:0:0:
448,192,127172,1,0,0:0:0:0:
64,192,127172,1,0,0:0:0:0:
192,192,127246,1,0,0:0:0:0:
64,192,127246,1,0,0:0:0:0:
192,192,127319,1,0,0:0:0:0:
320,192,127319,1,0,0:0:0:0:
448,192,127319,1,0,0:0:0:0:
320,192,127392,1,0,0:0:0:0:
448,192,127392,1,0,0:0:0:0:
64,192,127466,1,0,0:0:0:0:
192,192,127466,1,0,0:0:0:0:
320,192,127539,1,0,0:0:0:0:
192,192,127539,1,0,0:0:0:0:
64,192,127612,1,0,0:0:0:0:
320,192,127612,1,0,0:0:0:0:
448,192,127612,1,0,0:0:0:0:
192,192,127686,1,0,0:0:0:0:
448,192,127686,1,0,0:0:0:0:
320,192,127759,1,0,0:0:0:0:
64,192,127759,1,0,0:0:0:0:
448,192,127833,1,0,0:0:0:0:
192,192,127833,1,0,0:0:0:0:
192,192,127906,1,0,0:0:0:0:
64,192,127906,1,0,0:0:0:0:
320,192,127906,1,0,0:0:0:0:
320,192,127979,1,0,0:0:0:0:
448,192,127979,1,0,0:0:0:0:
64,192,128053,1,0,0:0:0:0:
192,192,128053,1,0,0:0:0:0:
320,192,128126,1,0,0:0:0:0:
448,192,128126,1,0,0:0:0:0:
64,192,128199,1,0,0:0:0:0:
448,192,128199,1,0,0:0:0:0:
192,192,128199,1,0,0:0:0:0:
320,192,128273,1,0,0:0:0:0:
192,192,128273,1,0,0:0:0:0:
64,192,128346,1,0,0:0:0:0:
448,192,128346,1,0,0:0:0:0:
192,192,128419,1,0,0:0:0:0:
64,192,128419,1,0,0:0:0:0:
64,192,128493,1,0,0:0:0:0:
320,192,128493,1,0,0:0:0:0:
448,192,128493,1,0,0:0:0:0:
192,192,128566,1,0,0:0:0:0:
448,192,128566,1,0,0:0:0:0:
320,192,128639,1,0,0:0:0:0:
448,192,128639,1,0,0:0:0:0:
192,192,128713,1,0,0:0:0:0:
64,192,128713,1,0,0:0:0:0:
192,192,128786,1,0,0:0:0:0:
448,192,128786,1,0,0:0:0:0:
320,192,128786,1,0,0:0:0:0:
64,192,128859,1,0,0:0:0:0:
448,192,128859,1,0,0:0:0:0:
320,192,128933,1,0,0:0:0:0:
192,192,128933,1,0,0:0:0:0:
448,192,129006,1,0,0:0:0:0:
192,192,129006,1,0,0:0:0:0:
64,192,129079,1,0,0:0:0:0:
320,192,129079,1,0,0:0:0:0:
448,192,129079,1,0,0:0:0:0:
320,192,129153,1,0,0:0:0:0:
448,192,129153,1,0,0:0:0:0:
192,192,129226,1,0,0:0:0:0:
64,192,129226,1,0,0:0:0:0:
64,192,129300,1,0,0:0:0:0:
320,192,129300,1,0,0:0:0:0:
64,192,129373,1,0,0:0:0:0:
192,192,129373,1,0,0:0:0:0:
448,192,129373,1,0,0:0:0:0:
192,192,129446,1,0,0:0:0:0:
320,192,129446,1,0,0:0:0:0:
64,192,129520,1,0,0:0:0:0:
448,192,129520,1,0,0:0:0:0:
320,192,129593,1,0,0:0:0:0:
448,192,129593,1,0,0:0:0:0:
64,192,129666,1,0,0:0:0:0:
192,192,129666,1,0,0:0:0:0:
320,192,129666,1,0,0:0:0:0:
448,192,129740,1,0,0:0:0:0:
192,192,129740,1,0,0:0:0:0:
64,192,129813,1,0,0:0:0:0:
192,192,129813,1,0,0:0:0:0:
320,192,129886,1,0,0:0:0:0:
448,192,129886,1,0,0:0:0:0:
64,192,129960,1,0,0:0:0:0:
192,192,129960,1,0,0:0:0:0:
448,192,129960,1,0,0:0:0:0:
64,192,130033,1,0,0:0:0:0:
448,192,130033,1,0,0:0:0:0:
320,192,130106,1,0,0:0:0:0:
192,192,130106,1,0,0:0:0:0:
64,192,130180,1,0,0:0:0:0:
448,192,130180,1,0,0:0:0:0:
192,192,130253,1,0,0:0:0:0:
320,192,130253,1,0,0:0:0:0:
448,192,130253,1,0,0:0:0:0:
64,192,130253,1,0,0:0:0:0:
192,192,130326,1,0,0:0:0:0:
320,192,130326,1,0,0:0:0:0:
64,192,130400,1,0,0:0:0:0:
448,192,130400,1,0,0:0:0:0:
192,192,130473,1,0,0:0:0:0:
64,192,130473,1,0,0:0:0:0:
192,192,130546,1,0,0:0:0:0:
320,192,130546,1,0,0:0:0:0:
448,192,130546,1,0,0:0:0:0:
320,192,130620,1,0,0:0:0:0:
448,192,130620,1,0,0:0:0:0:
64,192,130693,1,0,0:0:0:0:
192,192,130693,1,0,0:0:0:0:
64,192,130767,1,0,0:0:0:0:
320,192,130767,1,0,0:0:0:0:
192,192,130840,1,0,0:0:0:0:
448,192,130840,1,0,0:0:0:0:
320,192,130840,1,0,0:0:0:0:
192,192,130913,1,0,0:0:0:0:
320,192,130913,1,0,0:0:0:0:
64,192,130987,1,0,0:0:0:0:
448,192,130987,1,0,0:0:0:0:
320,192,131060,1,0,0:0:0:0:
448,192,131060,1,0,0:0:0:0:
192,192,131133,1,0,0:0:0:0:
64,192,131133,1,0,0:0:0:0:
320,192,131133,1,0,0:0:0:0:
192,192,131207,1,0,0:0:0:0:
64,192,131207,1,0,0:0:0:0:
448,192,131280,1,0,0:0:0:0:
64,192,131280,1,0,0:0:0:0:
192,192,131353,1,0,0:0:0:0:
320,192,131353,1,0,0:0:0:0:
320,192,131427,1,0,0:0:0:0:
448,192,131427,1,0,0:0:0:0:
64,192,131427,1,0,0:0:0:0:
192,192,131500,1,0,0:0:0:0:
64,192,131500,1,0,0:0:0:0:
192,192,131573,1,0,0:0:0:0:
448,192,131573,1,0,0:0:0:0:
320,192,131647,1,0,0:0:0:0:
448,192,131647,1,0,0:0:0:0:
320,192,131720,1,0,0:0:0:0:
64,192,131720,1,0,0:0:0:0:
192,192,131720,1,0,0:0:0:0:
448,192,131793,1,0,0:0:0:0:
192,192,131793,1,0,0:0:0:0:
64,192,131867,1,0,0:0:0:0:
320,192,131867,1,0,0:0:0:0:
320,192,131940,1,0,0:0:0:0:
448,192,131940,1,0,0:0:0:0:
192,192,132013,1,0,0:0:0:0:
64,192,132013,1,0,0:0:0:0:
448,192,132013,1,0,0:0:0:0:
320,192,132087,1,0,0:0:0:0:
64,192,132087,1,0,0:0:0:0:
320,192,132160,1,0,0:0:0:0:
448,192,132160,1,0,0:0:0:0:
192,192,132234,1,0,0:0:0:0:
64,192,132234,1,0,0:0:0:0:
192,192,132307,1,0,0:0:0:0:
320,192,132307,1,0,0:0:0:0:
448,192,132307,1,0,0:0:0:0:
64,192,132380,1,0,0:0:0:0:
320,192,132380,1,0,0:0:0:0:
448,192,132454,1,0,0:0:0:0:
192,192,132454,1,0,0:0:0:0:
320,192,132527,1,0,0:0:0:0:
448,192,132527,1,0,0:0:0:0:
64,192,132600,1,0,0:0:0:0:
320,192,132600,1,0,0:0:0:0:
448,192,132600,1,0,0:0:0:0:
192,192,132674,1,0,0:0:0:0:
64,192,132674,1,0,0:0:0:0:
320,192,132747,1,0,0:0:0:0:
192,192,132747,1,0,0:0:0:0:
64,192,132820,1,0,0:0:0:0:
448,192,132820,1,0,0:0:0:0:
192,192,132894,1,0,0:0:0:0:
320,192,132894,1,0,0:0:0:0:
64,192,132894,1,0,0:0:0:0:
448,192,132967,1,0,0:0:0:0:
320,192,132967,1,0,0:0:0:0:
192,192,133040,1,0,0:0:0:0:
448,192,133040,1,0,0:0:0:0:
320,192,133114,1,0,0:0:0:0:
64,192,133114,1,0,0:0:0:0:
192,192,133187,1,0,0:0:0:0:
320,192,133187,1,0,0:0:0:0:
448,192,133187,1,0,0:0:0:0:
64,192,133260,1,0,0:0:0:0:
192,192,133260,1,0,0:0:0:0:
320,192,133334,1,0,0:0:0:0:
448,192,133334,1,0,0:0:0:0:
64,192,133407,1,0,0:0:0:0:
320,192,133407,1,0,0:0:0:0:
64,192,133480,1,0,0:0:0:0:
192,192,133480,1,0,0:0:0:0:
448,192,133480,1,0,0:0:0:0:
320,192,133554,1,0,0:0:0:0:
448,192,133554,1,0,0:0:0:0:
64,192,133627,1,0,0:0:0:0:
320,192,133627,1,0,0:0:0:0:
192,192,133700,1,0,0:0:0:0:
448,192,133700,1,0,0:0:0:0:
64,192,133774,1,0,0:0:0:0:
192,192,133774,1,0,0:0:0:0:
320,192,133774,1,0,0:0:0:0:
320,192,133847,1,0,0:0:0:0:
448,192,133847,1,0,0:0:0:0:
64,192,133921,1,0,0:0:0:0:
448,192,133921,1,0,0:0:0:0:
320,192,133994,1,0,0:0:0:0:
64,192,133994,1,0,0:0:0:0:
64,192,134067,1,0,0:0:0:0:
320,192,134067,1,0,0:0:0:0:
448,192,134067,1,0,0:0:0:0:
192,192,134141,1,0,0:0:0:0:
448,192,134141,1,0,0:0:0:0:
320,192,134214,1,0,0:0:0:0:
448,192,134214,1,0,0:0:0:0:
192,192,134287,1,0,0:0:0:0:
64,192,134287,1,0,0:0:0:0:
192,192,134361,1,0,0:0:0:0:
320,192,134361,1,0,0:0:0:0:
448,192,134361,1,0,0:0:0:0:
320,192,134434,1,0,0:0:0:0:
64,192,134434,1,0,0:0:0:0:
192,192,134507,1,0,0:0:0:0:
64,192,134507,1,0,0:0:0:0:
320,192,134581,1,0,0:0:0:0:
448,192,134581,1,0,0:0:0:0:
320,192,134654,1,0,0:0:0:0:
192,192,134654,1,0,0:0:0:0:
64,192,134654,1,0,0:0:0:0:
192,192,134727,1,0,0:0:0:0:
448,192,134727,1,0,0:0:0:0:
64,192,134801,1,0,0:0:0:0:
320,192,134801,1,0,0:0:0:0:
192,192,134874,1,0,0:0:0:0:
64,192,134874,1,0,0:0:0:0:
448,192,134947,1,0,0:0:0:0:
320,192,134947,1,0,0:0:0:0:
192,192,134947,1,0,0:0:0:0:
64,192,135021,1,0,0:0:0:0:
448,192,135021,1,0,0:0:0:0:
320,192,135094,1,0,0:0:0:0:
448,192,135094,1,0,0:0:0:0:
192,192,135167,1,0,0:0:0:0:
320,192,135167,1,0,0:0:0:0:
192,192,135241,1,0,0:0:0:0:
64,192,135241,1,0,0:0:0:0:
320,192,135241,1,0,0:0:0:0:
64,192,135314,1,0,0:0:0:0:
448,192,135314,1,0,0:0:0:0:
192,192,135388,1,0,0:0:0:0:
448,192,135388,1,0,0:0:0:0:
320,192,135461,1,0,0:0:0:0:
192,192,135461,1,0,0:0:0:0:
64,192,135534,1,0,0:0:0:0:
192,192,135534,1,0,0:0:0:0:
448,192,135534,1,0,0:0:0:0:
64,192,135608,1,0,0:0:0:0:
320,192,135608,1,0,0:0:0:0:
448,192,135681,1,0,0:0:0:0:
320,192,135681,1,0,0:0:0:0:
192,192,135754,1,0,0:0:0:0:
64,192,135754,1,0,0:0:0:0:
192,192,135828,1,0,0:0:0:0:
320,192,135828,1,0,0:0:0:0:
448,192,135828,1,0,0:0:0:0:
64,192,135901,1,0,0:0:0:0:
448,192,135901,1,0,0:0:0:0:
192,192,135974,1,0,0:0:0:0:
64,192,135974,1,0,0:0:0:0:
192,192,136048,1,0,0:0:0:0:
320,192,136048,1,0,0:0:0:0:
64,192,136121,5,0,0:0:0:0:
448,192,136121,1,0,0:0:0:0:
192,192,136121,1,0,0:0:0:0:
320,192,136194,1,0,0:0:0:0:
448,192,136194,1,0,0:0:0:0:
64,192,136268,1,0,0:0:0:0:
320,192,136268,1,0,0:0:0:0:
192,192,136341,1,0,0:0:0:0:
64,192,136341,1,0,0:0:0:0:
192,192,136414,1,0,0:0:0:0:
320,192,136414,1,0,0:0:0:0:
448,192,136414,1,0,0:0:0:0:
64,192,136488,1,0,0:0:0:0:
448,192,136488,1,0,0:0:0:0:
192,192,136561,1,0,0:0:0:0:
320,192,136561,1,0,0:0:0:0:
448,192,136634,1,0,0:0:0:0:
320,192,136708,1,0,0:0:0:0:
192,192,136708,1,0,0:0:0:0:
64,192,136708,1,0,0:0:0:0:
448,192,136781,1,0,0:0:0:0:
64,192,136855,1,0,0:0:0:0:
192,192,136855,1,0,0:0:0:0:
448,192,136928,1,0,0:0:0:0:
64,192,137001,1,0,0:0:0:0:
320,192,137001,1,0,0:0:0:0:
192,192,137001,1,0,0:0:0:0:
448,192,137075,1,0,0:0:0:0:
320,192,137148,1,0,0:0:0:0:
64,192,137148,1,0,0:0:0:0:
192,192,137221,1,0,0:0:0:0:
448,192,137295,5,0,0:0:0:0:
320,192,137295,1,0,0:0:0:0:
64,192,137368,1,0,0:0:0:0:
192,192,137441,1,0,0:0:0:0:
448,192,137441,1,0,0:0:0:0:
320,192,137515,1,0,0:0:0:0:
192,192,137588,1,0,0:0:0:0:
64,192,137588,1,0,0:0:0:0:
448,192,137661,1,0,0:0:0:0:
320,192,137735,1,0,0:0:0:0:
192,192,137735,1,0,0:0:0:0:
64,192,137808,1,0,0:0:0:0:
320,192,137881,1,0,0:0:0:0:
448,192,137881,1,0,0:0:0:0:
192,192,137955,1,0,0:0:0:0:
448,192,138028,1,0,0:0:0:0:
64,192,138028,1,0,0:0:0:0:
320,192,138101,1,0,0:0:0:0:
192,192,138175,1,0,0:0:0:0:
64,192,138175,1,0,0:0:0:0:
448,192,138248,1,0,0:0:0:0:
320,192,138322,1,0,0:0:0:0:
64,192,138322,1,0,0:0:0:0:
192,192,138395,1,0,0:0:0:0:
320,192,138468,1,0,0:0:0:0:
448,192,138468,1,0,0:0:0:0:
64,192,138542,1,0,0:0:0:0:
192,192,138615,1,0,0:0:0:0:
448,192,138615,1,0,0:0:0:0:
320,192,138688,1,0,0:0:0:0:
192,192,138762,1,0,0:0:0:0:
64,192,138762,1,0,0:0:0:0:
448,192,138835,1,0,0:0:0:0:
320,192,138908,1,0,0:0:0:0:
192,192,138908,1,0,0:0:0:0:
64,192,138982,1,0,0:0:0:0:
320,192,139055,1,0,0:0:0:0:
448,192,139055,1,0,0:0:0:0:
192,192,139128,1,0,0:0:0:0:
448,192,139202,1,0,0:0:0:0:
64,192,139202,1,0,0:0:0:0:
192,192,139275,1,0,0:0:0:0:
320,192,139348,1,0,0:0:0:0:
448,192,139348,1,0,0:0:0:0:
192,192,139422,1,0,0:0:0:0:
64,192,139422,1,0,0:0:0:0:
320,192,139495,1,0,0:0:0:0:
448,192,139495,1,0,0:0:0:0:
192,192,139568,1,0,0:0:0:0:
64,192,139568,1,0,0:0:0:0:
320,192,139642,1,0,0:0:0:0:
448,192,139642,1,0,0:0:0:0:
64,192,139789,1,0,0:0:0:0:
192,192,139935,1,0,0:0:0:0:
448,192,140229,1,0,0:0:0:0:
192,192,140375,1,0,0:0:0:0:
320,192,140522,1,0,0:0:0:0:
64,192,140669,1,0,0:0:0:0:
64,192,140962,1,0,0:0:0:0:
192,192,141109,1,0,0:0:0:0:
448,192,141402,1,0,0:0:0:0:
64,192,141696,1,0,0:0:0:0:
64,192,141989,1,0,0:0:0:0:
320,192,141989,1,0,0:0:0:0:
448,192,142282,1,0,0:0:0:0:
64,192,142576,1,0,0:0:0:0:
192,192,142723,1,0,0:0:0:0:
320,192,143016,1,0,0:0:0:0:
192,192,143309,1,0,0:0:0:0:
64,192,143456,1,0,0:0:0:0:
448,192,143749,1,0,0:0:0:0:
320,192,144043,1,0,0:0:0:0:
64,192,144336,1,0,0:0:0:0:
192,192,144630,1,0,0:0:0:0:
448,192,144923,1,0,0:0:0:0:
320,192,145070,1,0,0:0:0:0:
192,192,145363,1,0,0:0:0:0:
320,192,145657,1,0,0:0:0:0:
192,192,145803,1,0,0:0:0:0:
64,192,146097,1,0,0:0:0:0:
320,192,146390,1,0,0:0:0:0:
192,192,146683,1,0,0:0:0:0:
320,192,146977,1,0,0:0:0:0:
448,192,147270,1,0,0:0:0:0:
192,192,147417,1,0,0:0:0:0:
320,192,147710,1,0,0:0:0:0:
64,192,148004,1,0,0:0:0:0:
192,192,148150,1,0,0:0:0:0:
448,192,148297,1,0,0:0:0:0:
64,192,148444,1,0,0:0:0:0:
320,192,148737,1,0,0:0:0:0:
192,192,149031,1,0,0:0:0:0:
448,192,149031,1,0,0:0:0:0:
64,192,149324,1,0,0:0:0:0:
320,192,149324,1,0,0:0:0:0:
448,192,149617,1,0,0:0:0:0:
320,192,149617,1,0,0:0:0:0:
192,192,149764,1,0,0:0:0:0:
320,192,149764,1,0,0:0:0:0:
192,192,149911,1,0,0:0:0:0:
64,192,149911,1,0,0:0:0:0:
64,192,150057,1,0,0:0:0:0:
320,192,150057,1,0,0:0:0:0:
192,192,150351,1,0,0:0:0:0:
448,192,150351,1,0,0:0:0:0:
320,192,150498,1,0,0:0:0:0:
448,192,150498,1,0,0:0:0:0:
320,192,150791,1,0,0:0:0:0:
192,192,150791,1,0,0:0:0:0:
64,192,150938,1,0,0:0:0:0:
448,192,150938,1,0,0:0:0:0:
192,192,151084,1,0,0:0:0:0:
64,192,151084,1,0,0:0:0:0:
320,192,151231,1,0,0:0:0:0:
448,192,151231,1,0,0:0:0:0:
192,192,151378,1,0,0:0:0:0:
448,192,151378,1,0,0:0:0:0:
64,192,151378,1,0,0:0:0:0:
320,192,151671,1,0,0:0:0:0:
448,192,151671,1,0,0:0:0:0:
192,192,151965,1,0,0:0:0:0:
320,192,151965,1,0,0:0:0:0:
64,192,152111,1,0,0:0:0:0:
448,192,152111,1,0,0:0:0:0:
192,192,152405,1,0,0:0:0:0:
320,192,152405,1,0,0:0:0:0:
320,192,152698,1,0,0:0:0:0:
448,192,152698,1,0,0:0:0:0:
64,192,152845,1,0,0:0:0:0:
320,192,152845,1,0,0:0:0:0:
192,192,153138,1,0,0:0:0:0:
64,192,153138,1,0,0:0:0:0:
192,192,153432,1,0,0:0:0:0:
448,192,153432,1,0,0:0:0:0:
192,192,153725,1,0,0:0:0:0:
64,192,153725,1,0,0:0:0:0:
320,192,153725,1,0,0:0:0:0:
320,192,154018,1,0,0:0:0:0:
448,192,154018,1,0,0:0:0:0:
192,192,154312,1,0,0:0:0:0:
64,192,154312,1,0,0:0:0:0:
64,192,154458,1,0,0:0:0:0:
320,192,154458,1,0,0:0:0:0:
192,192,154605,1,0,0:0:0:0:
448,192,154605,1,0,0:0:0:0:
320,192,154752,1,0,0:0:0:0:
448,192,154752,1,0,0:0:0:0:
192,192,155045,5,0,0:0:0:0:
320,192,155045,1,0,0:0:0:0:
64,192,155192,1,0,0:0:0:0:
320,192,155192,1,0,0:0:0:0:
192,192,155485,1,0,0:0:0:0:
64,192,155485,1,0,0:0:0:0:
64,192,155779,1,0,0:0:0:0:
320,192,155779,1,0,0:0:0:0:
64,192,156072,5,0,0:0:0:0:
192,192,156146,1,0,0:0:0:0:
320,192,156219,1,0,0:0:0:0:
448,192,156292,1,0,0:0:0:0:
64,192,156366,1,0,0:0:0:0:
192,192,156439,1,0,0:0:0:0:
448,192,156512,1,0,0:0:0:0:
320,192,156586,1,0,0:0:0:0:
192,192,156659,1,0,0:0:0:0:
64,192,156732,1,0,0:0:0:0:
448,192,156806,1,0,0:0:0:0:
320,192,156806,1,0,0:0:0:0:
192,192,156879,1,0,0:0:0:0:
64,192,156879,1,0,0:0:0:0:
320,192,156952,1,0,0:0:0:0:
448,192,156952,1,0,0:0:0:0:
192,192,157026,1,0,0:0:0:0:
64,192,157026,1,0,0:0:0:0:
320,192,157099,1,0,0:0:0:0:
448,192,157099,1,0,0:0:0:0:
192,192,157172,1,0,0:0:0:0:
64,192,157172,1,0,0:0:0:0:
320,192,157246,1,0,0:0:0:0:
448,192,157246,1,0,0:0:0:0:
192,192,157319,1,0,0:0:0:0:
64,192,157319,1,0,0:0:0:0:
320,192,157392,1,0,0:0:0:0:
448,192,157392,1,0,0:0:0:0:
192,192,157466,1,0,0:0:0:0:
64,192,157466,1,0,0:0:0:0:
320,192,157539,1,0,0:0:0:0:
448,192,157539,1,0,0:0:0:0:
192,192,157613,1,0,0:0:0:0:
64,192,157613,1,0,0:0:0:0:
320,192,157686,1,0,0:0:0:0:
448,192,157686,1,0,0:0:0:0:
192,192,157759,1,0,0:0:0:0:
64,192,157759,1,0,0:0:0:0:
448,192,157833,1,0,0:0:0:0:
320,192,157833,1,0,0:0:0:0:
192,192,157906,1,0,0:0:0:0:
448,192,157979,1,0,0:0:0:0:
320,192,157979,1,0,0:0:0:0:
64,192,157979,1,0,0:0:0:0:
192,192,158053,1,0,0:0:0:0:
448,192,158126,1,0,0:0:0:0:
192,192,158126,1,0,0:0:0:0:
64,192,158126,1,0,0:0:0:0:
320,192,158199,1,0,0:0:0:0:
320,192,158273,1,0,0:0:0:0:
192,192,158273,1,0,0:0:0:0:
64,192,158273,1,0,0:0:0:0:
64,192,158346,1,0,0:0:0:0:
448,192,158419,1,0,0:0:0:0:
320,192,158419,1,0,0:0:0:0:
192,192,158419,1,0,0:0:0:0:
64,192,158419,1,0,0:0:0:0:
448,192,158713,1,0,0:0:0:0:
320,192,158713,1,0,0:0:0:0:
192,192,158713,1,0,0:0:0:0:
64,192,158859,1,0,0:0:0:0:
192,192,159006,1,0,0:0:0:0:
320,192,159006,1,0,0:0:0:0:
64,192,159006,1,0,0:0:0:0:
192,192,159300,1,0,0:0:0:0:
64,192,159300,1,0,0:0:0:0:
448,192,159300,1,0,0:0:0:0:
320,192,159446,1,0,0:0:0:0:
192,192,159593,1,0,0:0:0:0:
320,192,159593,1,0,0:0:0:0:
448,192,159593,1,0,0:0:0:0:
64,192,159740,1,0,0:0:0:0:
448,192,159740,1,0,0:0:0:0:
192,192,159886,1,0,0:0:0:0:
320,192,159886,1,0,0:0:0:0:
448,192,159886,1,0,0:0:0:0:
64,192,160033,1,0,0:0:0:0:
192,192,160033,1,0,0:0:0:0:
64,192,160180,1,0,0:0:0:0:
192,192,160180,1,0,0:0:0:0:
320,192,160180,1,0,0:0:0:0:
448,192,160326,1,0,0:0:0:0:
320,192,160326,1,0,0:0:0:0:
64,192,160473,1,0,0:0:0:0:
320,192,160473,1,0,0:0:0:0:
448,192,160473,1,0,0:0:0:0:
192,192,160620,1,0,0:0:0:0:
64,192,160620,1,0,0:0:0:0:
192,192,160767,1,0,0:0:0:0:
320,192,160767,1,0,0:0:0:0:
448,192,160767,1,0,0:0:0:0:
64,192,161060,1,0,0:0:0:0:
192,192,161060,1,0,0:0:0:0:
320,192,161060,1,0,0:0:0:0:
320,192,161207,1,0,0:0:0:0:
192,192,161353,1,0,0:0:0:0:
64,192,161353,1,0,0:0:0:0:
448,192,161353,1,0,0:0:0:0:
192,192,161647,1,0,0:0:0:0:
320,192,161647,1,0,0:0:0:0:
448,192,161647,1,0,0:0:0:0:
64,192,161793,1,0,0:0:0:0:
192,192,161940,1,0,0:0:0:0:
320,192,161940,1,0,0:0:0:0:
448,192,161940,1,0,0:0:0:0:
448,192,162087,1,0,0:0:0:0:
64,192,162087,1,0,0:0:0:0:
320,192,162234,1,0,0:0:0:0:
192,192,162234,1,0,0:0:0:0:
64,192,162234,1,0,0:0:0:0:
192,192,162380,1,0,0:0:0:0:
448,192,162380,1,0,0:0:0:0:
64,192,162527,1,0,0:0:0:0:
320,192,162527,1,0,0:0:0:0:
448,192,162527,1,0,0:0:0:0:
64,192,162820,1,0,0:0:0:0:
192,192,162820,1,0,0:0:0:0:
320,192,162820,1,0,0:0:0:0:
192,192,163114,1,0,0:0:0:0:
64,192,163114,1,0,0:0:0:0:
448,192,163114,1,0,0:0:0:0:
320,192,163114,1,0,0:0:0:0:
192,192,163407,1,0,0:0:0:0:
320,192,163407,1,0,0:0:0:0:
448,192,163407,1,0,0:0:0:0:
192,192,163701,1,0,0:0:0:0:
64,192,163701,1,0,0:0:0:0:
320,192,163701,1,0,0:0:0:0:
448,192,163701,1,0,0:0:0:0:
64,192,163994,1,0,0:0:0:0:
320,192,163994,1,0,0:0:0:0:
448,192,163994,1,0,0:0:0:0:
192,192,164287,1,0,0:0:0:0:
320,192,164287,1,0,0:0:0:0:
448,192,164287,1,0,0:0:0:0:
64,192,164287,1,0,0:0:0:0:
64,192,164581,1,0,0:0:0:0:
192,192,164581,1,0,0:0:0:0:
320,192,164581,1,0,0:0:0:0:
192,192,164874,1,0,0:0:0:0:
320,192,164874,1,0,0:0:0:0:
448,192,164874,1,0,0:0:0:0:
64,192,165168,1,0,0:0:0:0:
192,192,165168,1,0,0:0:0:0:
448,192,165168,1,0,0:0:0:0:
192,192,165461,1,0,0:0:0:0:
320,192,165461,1,0,0:0:0:0:
448,192,165461,1,0,0:0:0:0:
448,192,165681,1,0,0:0:0:0:
64,192,165754,1,0,0:0:0:0:
192,192,165754,1,0,0:0:0:0:
320,192,165754,1,0,0:0:0:0:
192,192,165901,1,0,0:0:0:0:
320,192,165901,1,0,0:0:0:0:
64,192,166048,1,0,0:0:0:0:
320,192,166048,1,0,0:0:0:0:
448,192,166048,1,0,0:0:0:0:
64,192,166268,5,0,0:0:0:0:
320,192,166341,1,0,0:0:0:0:
192,192,166341,1,0,0:0:0:0:
448,192,166341,1,0,0:0:0:0:
64,192,166488,1,0,0:0:0:0:
448,192,166488,1,0,0:0:0:0:
320,192,166635,1,0,0:0:0:0:
192,192,166635,1,0,0:0:0:0:
64,192,166635,1,0,0:0:0:0:
64,192,166928,1,0,0:0:0:0:
320,192,166928,1,0,0:0:0:0:
448,192,166928,1,0,0:0:0:0:
192,192,167221,1,0,0:0:0:0:
64,192,167221,1,0,0:0:0:0:
320,192,167221,1,0,0:0:0:0:
448,192,167368,5,0,0:0:0:0:
320,192,167368,1,0,0:0:0:0:
64,192,167515,1,0,0:0:0:0:
448,192,167515,1,0,0:0:0:0:
192,192,167661,1,0,0:0:0:0:
64,192,167661,1,0,0:0:0:0:
192,192,167808,1,0,0:0:0:0:
320,192,167808,1,0,0:0:0:0:
448,192,167808,1,0,0:0:0:0:
64,192,168102,1,0,0:0:0:0:
192,192,168102,1,0,0:0:0:0:
320,192,168102,1,0,0:0:0:0:
448,192,168248,1,0,0:0:0:0:
64,192,168395,1,0,0:0:0:0:
320,192,168395,1,0,0:0:0:0:
448,192,168395,1,0,0:0:0:0:
64,192,168688,1,0,0:0:0:0:
192,192,168688,1,0,0:0:0:0:
320,192,168688,1,0,0:0:0:0:
448,192,168835,1,0,0:0:0:0:
192,192,168835,1,0,0:0:0:0:
64,192,168982,1,0,0:0:0:0:
320,192,168982,1,0,0:0:0:0:
448,192,168982,1,0,0:0:0:0:
192,192,169128,1,0,0:0:0:0:
320,192,169128,1,0,0:0:0:0:
192,192,169275,1,0,0:0:0:0:
320,192,169275,1,0,0:0:0:0:
448,192,169275,1,0,0:0:0:0:
64,192,169422,1,0,0:0:0:0:
448,192,169422,1,0,0:0:0:0:
64,192,169569,1,0,0:0:0:0:
192,192,169569,1,0,0:0:0:0:
320,192,169569,1,0,0:0:0:0:
320,192,169715,1,0,0:0:0:0:
448,192,169715,1,0,0:0:0:0:
64,192,169862,1,0,0:0:0:0:
192,192,169862,1,0,0:0:0:0:
448,192,169862,1,0,0:0:0:0:
64,192,170009,1,0,0:0:0:0:
320,192,170009,1,0,0:0:0:0:
192,192,170155,1,0,0:0:0:0:
320,192,170155,1,0,0:0:0:0:
448,192,170155,1,0,0:0:0:0:
192,192,170302,1,0,0:0:0:0:
64,192,170302,1,0,0:0:0:0:
320,192,170449,1,0,0:0:0:0:
448,192,170449,1,0,0:0:0:0:
64,192,170449,1,0,0:0:0:0:
320,192,170595,1,0,0:0:0:0:
448,192,170595,1,0,0:0:0:0:
64,192,170742,1,0,0:0:0:0:
192,192,170742,1,0,0:0:0:0:
320,192,170742,1,0,0:0:0:0:
64,192,170889,1,0,0:0:0:0:
448,192,170889,1,0,0:0:0:0:
64,192,171036,1,0,0:0:0:0:
192,192,171036,1,0,0:0:0:0:
448,192,171036,1,0,0:0:0:0:
320,192,171182,1,0,0:0:0:0:
448,192,171182,1,0,0:0:0:0:
64,192,171329,1,0,0:0:0:0:
192,192,171329,1,0,0:0:0:0:
320,192,171329,1,0,0:0:0:0:
320,192,171476,1,0,0:0:0:0:
64,192,171476,1,0,0:0:0:0:
192,192,171622,1,0,0:0:0:0:
320,192,171622,1,0,0:0:0:0:
448,192,171622,1,0,0:0:0:0:
192,192,171769,1,0,0:0:0:0:
64,192,171769,1,0,0:0:0:0:
64,192,171916,1,0,0:0:0:0:
320,192,171916,1,0,0:0:0:0:
448,192,171916,1,0,0:0:0:0:
320,192,172062,1,0,0:0:0:0:
448,192,172062,1,0,0:0:0:0:
64,192,172209,1,0,0:0:0:0:
192,192,172209,1,0,0:0:0:0:
320,192,172209,1,0,0:0:0:0:
192,192,172356,1,0,0:0:0:0:
448,192,172356,1,0,0:0:0:0:
64,192,172503,1,0,0:0:0:0:
192,192,172503,1,0,0:0:0:0:
320,192,172503,1,0,0:0:0:0:
448,192,172503,1,0,0:0:0:0:
320,192,172649,1,0,0:0:0:0:
192,192,172649,1,0,0:0:0:0:
64,192,172649,1,0,0:0:0:0:
64,192,172796,1,0,0:0:0:0:
192,192,172796,1,0,0:0:0:0:
320,192,172796,1,0,0:0:0:0:
448,192,172796,1,0,0:0:0:0:
64,192,172943,1,0,0:0:0:0:
320,192,172943,1,0,0:0:0:0:
448,192,172943,1,0,0:0:0:0:
192,192,173089,1,0,0:0:0:0:
64,192,173089,1,0,0:0:0:0:
320,192,173089,1,0,0:0:0:0:
448,192,173089,1,0,0:0:0:0:
192,192,173236,1,0,0:0:0:0:
320,192,173236,1,0,0:0:0:0:
448,192,173236,1,0,0:0:0:0:
64,192,173383,1,0,0:0:0:0:
192,192,173383,1,0,0:0:0:0:
320,192,173383,1,0,0:0:0:0:
448,192,173383,1,0,0:0:0:0:
192,192,173529,1,0,0:0:0:0:
64,192,173529,1,0,0:0:0:0:
448,192,173529,1,0,0:0:0:0:
64,192,173676,1,0,0:0:0:0:
192,192,173676,1,0,0:0:0:0:
320,192,173676,1,0,0:0:0:0:
448,192,173676,1,0,0:0:0:0:
320,192,173823,1,0,0:0:0:0:
64,192,173823,1,0,0:0:0:0:
192,192,173823,1,0,0:0:0:0:
64,192,173970,1,0,0:0:0:0:
192,192,173970,1,0,0:0:0:0:
448,192,173970,1,0,0:0:0:0:
320,192,173970,1,0,0:0:0:0:
64,192,174116,1,0,0:0:0:0:
320,192,174116,1,0,0:0:0:0:
448,192,174116,1,0,0:0:0:0:
64,192,174263,1,0,0:0:0:0:
192,192,174263,1,0,0:0:0:0:
320,192,174263,1,0,0:0:0:0:
448,192,174263,1,0,0:0:0:0:
192,192,174410,1,0,0:0:0:0:
320,192,174410,1,0,0:0:0:0:
448,192,174410,1,0,0:0:0:0:
64,192,174556,1,0,0:0:0:0:
192,192,174556,1,0,0:0:0:0:
320,192,174556,1,0,0:0:0:0:
448,192,174556,1,0,0:0:0:0:
64,192,174703,1,0,0:0:0:0:
320,192,174703,1,0,0:0:0:0:
448,192,174703,1,0,0:0:0:0:
64,192,174850,1,0,0:0:0:0:
192,192,174850,1,0,0:0:0:0:
448,192,174850,1,0,0:0:0:0:
320,192,174850,1,0,0:0:0:0:
192,192,174996,1,0,0:0:0:0:
64,192,174996,1,0,0:0:0:0:
448,192,174996,1,0,0:0:0:0:
64,192,175143,1,0,0:0:0:0:
192,192,175143,1,0,0:0:0:0:
320,192,175143,1,0,0:0:0:0:
448,192,175143,1,0,0:0:0:0:
64,192,175290,1,0,0:0:0:0:
192,192,175290,1,0,0:0:0:0:
320,192,175290,1,0,0:0:0:0:
448,192,175290,1,0,0:0:0:0:
64,192,175437,1,0,0:0:0:0:
192,192,175437,1,0,0:0:0:0:
320,192,175437,1,0,0:0:0:0:
448,192,175437,1,0,0:0:0:0:
192,192,175583,1,0,0:0:0:0:
64,192,175583,1,0,0:0:0:0:
320,192,175583,1,0,0:0:0:0:
64,192,175730,1,0,0:0:0:0:
192,192,175730,1,0,0:0:0:0:
320,192,175730,1,0,0:0:0:0:
448,192,175730,1,0,0:0:0:0:
64,192,175877,1,0,0:0:0:0:
192,192,175877,1,0,0:0:0:0:
448,192,175877,1,0,0:0:0:0:
64,192,176023,1,0,0:0:0:0:
192,192,176023,1,0,0:0:0:0:
320,192,176023,1,0,0:0:0:0:
448,192,176023,1,0,0:0:0:0:
448,192,176170,1,0,0:0:0:0:
320,192,176170,1,0,0:0:0:0:
192,192,176170,1,0,0:0:0:0:
64,192,176317,1,0,0:0:0:0:
192,192,176317,1,0,0:0:0:0:
320,192,176317,1,0,0:0:0:0:
448,192,176317,1,0,0:0:0:0:
64,192,176390,1,0,0:0:0:0:
192,192,176463,1,0,0:0:0:0:
320,192,176463,1,0,0:0:0:0:
448,192,176463,1,0,0:0:0:0:
64,192,176537,1,0,0:0:0:0:
64,192,176610,1,0,0:0:0:0:
192,192,176610,1,0,0:0:0:0:
320,192,176610,1,0,0:0:0:0:
448,192,176610,1,0,0:0:0:0:
320,192,176683,1,0,0:0:0:0:
448,192,176757,1,0,0:0:0:0:
192,192,176757,1,0,0:0:0:0:
64,192,176757,1,0,0:0:0:0:
320,192,176830,1,0,0:0:0:0:
64,192,176904,1,0,0:0:0:0:
192,192,176904,1,0,0:0:0:0:
448,192,176904,1,0,0:0:0:0:
320,192,176904,1,0,0:0:0:0:
64,192,176977,1,0,0:0:0:0:
192,192,177050,1,0,0:0:0:0:
320,192,177050,1,0,0:0:0:0:
448,192,177050,1,0,0:0:0:0:
320,192,177124,1,0,0:0:0:0:
64,192,177197,128,0,177344:0:0:0:0:
320,192,177344,128,0,177490:0:0:0:0:
192,192,177490,128,0,177637:0:0:0:0:
448,192,177637,128,0,177930:0:0:0:0:
64,192,177930,1,0,0:0:0:0:
192,192,177930,1,0,0:0:0:0:
64,192,178077,1,0,0:0:0:0:
192,192,178077,1,0,0:0:0:0:
320,192,178077,1,0,0:0:0:0:
64,192,178224,1,0,0:0:0:0:
192,192,178224,1,0,0:0:0:0:
320,192,178224,1,0,0:0:0:0:
448,192,178224,1,0,0:0:0:0:
64,192,178370,1,0,0:0:0:0:
320,192,178370,1,0,0:0:0:0:
448,192,178370,1,0,0:0:0:0:
192,192,178370,1,0,0:0:0:0:
448,192,178444,1,0,0:0:0:0:
320,192,178444,1,0,0:0:0:0:
64,192,178517,1,0,0:0:0:0:
448,192,178517,1,0,0:0:0:0:
192,192,178517,1,0,0:0:0:0:
320,192,178591,1,0,0:0:0:0:
64,192,178591,1,0,0:0:0:0:
64,192,178664,1,0,0:0:0:0:
192,192,178664,1,0,0:0:0:0:
448,192,178664,1,0,0:0:0:0:
320,192,178664,1,0,0:0:0:0:
192,192,178737,1,0,0:0:0:0:
320,192,178737,1,0,0:0:0:0:
448,192,178811,1,0,0:0:0:0:
64,192,178811,1,0,0:0:0:0:
192,192,178811,1,0,0:0:0:0:
320,192,178884,1,0,0:0:0:0:
448,192,178884,1,0,0:0:0:0:
448,192,178957,1,0,0:0:0:0:
320,192,178957,1,0,0:0:0:0:
192,192,178957,1,0,0:0:0:0:
64,192,178957,1,0,0:0:0:0:
192,192,179031,1,0,0:0:0:0:
64,192,179031,1,0,0:0:0:0:
64,192,179104,1,0,0:0:0:0:
320,192,179104,1,0,0:0:0:0:
448,192,179104,1,0,0:0:0:0:
192,192,179177,1,0,0:0:0:0:
320,192,179177,1,0,0:0:0:0:
64,192,179251,1,0,0:0:0:0:
192,192,179251,1,0,0:0:0:0:
320,192,179251,1,0,0:0:0:0:
448,192,179251,1,0,0:0:0:0:
64,192,179324,1,0,0:0:0:0:
448,192,179324,1,0,0:0:0:0:
320,192,179397,1,0,0:0:0:0:
192,192,179397,1,0,0:0:0:0:
64,192,179397,1,0,0:0:0:0:
192,192,179471,1,0,0:0:0:0:
448,192,179471,1,0,0:0:0:0:
64,192,179544,1,0,0:0:0:0:
192,192,179544,1,0,0:0:0:0:
320,192,179544,1,0,0:0:0:0:
448,192,179544,1,0,0:0:0:0:
448,192,179617,1,0,0:0:0:0:
320,192,179617,1,0,0:0:0:0:
192,192,179691,1,0,0:0:0:0:
64,192,179691,1,0,0:0:0:0:
320,192,179691,1,0,0:0:0:0:
64,192,179764,1,0,0:0:0:0:
448,192,179764,1,0,0:0:0:0:
64,192,179837,1,0,0:0:0:0:
192,192,179837,1,0,0:0:0:0:
448,192,179837,1,0,0:0:0:0:
320,192,179837,1,0,0:0:0:0:
320,192,179911,1,0,0:0:0:0:
192,192,179911,1,0,0:0:0:0:
320,192,179984,1,0,0:0:0:0:
448,192,179984,1,0,0:0:0:0:
64,192,179984,1,0,0:0:0:0:
192,192,180058,1,0,0:0:0:0:
64,192,180058,1,0,0:0:0:0:
64,192,180131,1,0,0:0:0:0:
192,192,180131,1,0,0:0:0:0:
320,192,180131,1,0,0:0:0:0:
448,192,180131,1,0,0:0:0:0:
448,192,180204,1,0,0:0:0:0:
320,192,180204,1,0,0:0:0:0:
192,192,180278,1,0,0:0:0:0:
320,192,180278,1,0,0:0:0:0:
448,192,180278,1,0,0:0:0:0:
192,192,180351,1,0,0:0:0:0:
64,192,180351,1,0,0:0:0:0:
64,192,180424,1,0,0:0:0:0:
320,192,180424,1,0,0:0:0:0:
192,192,180424,1,0,0:0:0:0:
448,192,180424,1,0,0:0:0:0:
448,192,180498,1,0,0:0:0:0:
64,192,180498,1,0,0:0:0:0:
320,192,180571,1,0,0:0:0:0:
448,192,180571,1,0,0:0:0:0:
192,192,180571,1,0,0:0:0:0:
64,192,180644,1,0,0:0:0:0:
320,192,180644,1,0,0:0:0:0:
64,192,180718,1,0,0:0:0:0:
192,192,180718,1,0,0:0:0:0:
448,192,180718,1,0,0:0:0:0:
320,192,180718,1,0,0:0:0:0:
192,192,180791,1,0,0:0:0:0:
448,192,180791,1,0,0:0:0:0:
320,192,180864,1,0,0:0:0:0:
64,192,180864,1,0,0:0:0:0:
192,192,180864,1,0,0:0:0:0:
448,192,180938,1,0,0:0:0:0:
64,192,180938,1,0,0:0:0:0:
64,192,181011,1,0,0:0:0:0:
320,192,181011,1,0,0:0:0:0:
192,192,181011,1,0,0:0:0:0:
448,192,181011,1,0,0:0:0:0:
192,192,181084,1,0,0:0:0:0:
320,192,181084,1,0,0:0:0:0:
64,192,181158,1,0,0:0:0:0:
192,192,181158,1,0,0:0:0:0:
448,192,181158,1,0,0:0:0:0:
448,192,181231,1,0,0:0:0:0:
320,192,181231,1,0,0:0:0:0:
64,192,181304,1,0,0:0:0:0:
192,192,181304,1,0,0:0:0:0:
320,192,181304,1,0,0:0:0:0:
448,192,181304,1,0,0:0:0:0:
64,192,181378,1,0,0:0:0:0:
192,192,181378,1,0,0:0:0:0:
64,192,181451,1,0,0:0:0:0:
320,192,181451,1,0,0:0:0:0:
448,192,181451,1,0,0:0:0:0:
192,192,181525,1,0,0:0:0:0:
448,192,181525,1,0,0:0:0:0:
64,192,181598,1,0,0:0:0:0:
320,192,181598,1,0,0:0:0:0:
448,192,181598,1,0,0:0:0:0:
192,192,181598,1,0,0:0:0:0:
320,192,181671,1,0,0:0:0:0:
64,192,181671,1,0,0:0:0:0:
192,192,181745,1,0,0:0:0:0:
448,192,181745,1,0,0:0:0:0:
320,192,181745,1,0,0:0:0:0:
192,192,181818,1,0,0:0:0:0:
64,192,181818,1,0,0:0:0:0:
64,192,181891,1,0,0:0:0:0:
320,192,181891,1,0,0:0:0:0:
448,192,181891,1,0,0:0:0:0:
192,192,181891,1,0,0:0:0:0:
320,192,181965,1,0,0:0:0:0:
448,192,181965,1,0,0:0:0:0:
64,192,182038,1,0,0:0:0:0:
192,192,182038,1,0,0:0:0:0:
448,192,182038,1,0,0:0:0:0:
320,192,182111,1,0,0:0:0:0:
64,192,182111,1,0,0:0:0:0:
64,192,182185,1,0,0:0:0:0:
192,192,182185,1,0,0:0:0:0:
320,192,182185,1,0,0:0:0:0:
448,192,182185,1,0,0:0:0:0:
192,192,182258,1,0,0:0:0:0:
448,192,182258,1,0,0:0:0:0:
320,192,182331,1,0,0:0:0:0:
448,192,182331,1,0,0:0:0:0:
64,192,182331,1,0,0:0:0:0:
192,192,182405,1,0,0:0:0:0:
64,192,182405,1,0,0:0:0:0:
64,192,182478,1,0,0:0:0:0:
320,192,182478,1,0,0:0:0:0:
192,192,182478,1,0,0:0:0:0:
448,192,182478,1,0,0:0:0:0:
320,192,182551,1,0,0:0:0:0:
448,192,182551,1,0,0:0:0:0:
320,192,182625,1,0,0:0:0:0:
192,192,182625,1,0,0:0:0:0:
64,192,182625,1,0,0:0:0:0:
64,192,182698,1,0,0:0:0:0:
448,192,182698,1,0,0:0:0:0:
64,192,182771,1,0,0:0:0:0:
192,192,182771,1,0,0:0:0:0:
448,192,182771,1,0,0:0:0:0:
320,192,182771,1,0,0:0:0:0:
320,192,182845,1,0,0:0:0:0:
192,192,182845,1,0,0:0:0:0:
64,192,182918,1,0,0:0:0:0:
192,192,182918,1,0,0:0:0:0:
320,192,182918,1,0,0:0:0:0:
448,192,182918,1,0,0:0:0:0:
64,192,182992,1,0,0:0:0:0:
448,192,182992,1,0,0:0:0:0:
64,192,183065,1,0,0:0:0:0:
192,192,183065,1,0,0:0:0:0:
320,192,183065,1,0,0:0:0:0:
448,192,183065,1,0,0:0:0:0:
320,192,183138,1,0,0:0:0:0:
192,192,183138,1,0,0:0:0:0:
64,192,183212,1,0,0:0:0:0:
192,192,183212,1,0,0:0:0:0:
320,192,183212,1,0,0:0:0:0:
448,192,183285,1,0,0:0:0:0:
64,192,183285,1,0,0:0:0:0:
192,192,183358,1,0,0:0:0:0:
320,192,183358,1,0,0:0:0:0:
448,192,183358,1,0,0:0:0:0:
64,192,183358,1,0,0:0:0:0:
192,192,183432,1,0,0:0:0:0:
320,192,183432,1,0,0:0:0:0:
64,192,183505,1,0,0:0:0:0:
320,192,183505,1,0,0:0:0:0:
448,192,183505,1,0,0:0:0:0:
192,192,183578,1,0,0:0:0:0:
64,192,183578,1,0,0:0:0:0:
192,192,183652,1,0,0:0:0:0:
320,192,183652,1,0,0:0:0:0:
448,192,183652,1,0,0:0:0:0:
64,192,183652,1,0,0:0:0:0:
448,192,183725,1,0,0:0:0:0:
320,192,183725,1,0,0:0:0:0:
192,192,183798,1,0,0:0:0:0:
320,192,183798,1,0,0:0:0:0:
448,192,183798,1,0,0:0:0:0:
64,192,183872,1,0,0:0:0:0:
192,192,183872,1,0,0:0:0:0:
64,192,183945,1,0,0:0:0:0:
192,192,183945,1,0,0:0:0:0:
320,192,183945,1,0,0:0:0:0:
448,192,183945,1,0,0:0:0:0:
320,192,184018,1,0,0:0:0:0:
448,192,184018,1,0,0:0:0:0:
64,192,184092,1,0,0:0:0:0:
192,192,184092,1,0,0:0:0:0:
448,192,184092,1,0,0:0:0:0:
320,192,184165,1,0,0:0:0:0:
64,192,184165,1,0,0:0:0:0:
64,192,184238,1,0,0:0:0:0:
192,192,184238,1,0,0:0:0:0:
320,192,184238,1,0,0:0:0:0:
448,192,184238,1,0,0:0:0:0:
192,192,184312,1,0,0:0:0:0:
448,192,184312,1,0,0:0:0:0:
320,192,184385,1,0,0:0:0:0:
192,192,184385,1,0,0:0:0:0:
64,192,184385,1,0,0:0:0:0:
320,192,184459,1,0,0:0:0:0:
448,192,184459,1,0,0:0:0:0:
64,192,184532,1,0,0:0:0:0:
192,192,184532,1,0,0:0:0:0:
448,192,184532,1,0,0:0:0:0:
320,192,184532,1,0,0:0:0:0:
192,192,184605,1,0,0:0:0:0:
64,192,184605,1,0,0:0:0:0:
192,192,184679,1,0,0:0:0:0:
320,192,184679,1,0,0:0:0:0:
448,192,184679,1,0,0:0:0:0:
64,192,184752,1,0,0:0:0:0:
320,192,184752,1,0,0:0:0:0:
192,192,184825,1,0,0:0:0:0:
64,192,184825,1,0,0:0:0:0:
448,192,184825,1,0,0:0:0:0:
320,192,184825,1,0,0:0:0:0:
192,192,184899,1,0,0:0:0:0:
448,192,184899,1,0,0:0:0:0:
64,192,184972,1,0,0:0:0:0:
320,192,184972,1,0,0:0:0:0:
448,192,184972,1,0,0:0:0:0:
192,192,185045,1,0,0:0:0:0:
64,192,185045,1,0,0:0:0:0:
320,192,185119,1,0,0:0:0:0:
448,192,185119,1,0,0:0:0:0:
192,192,185119,1,0,0:0:0:0:
64,192,185119,1,0,0:0:0:0:
320,192,185192,1,0,0:0:0:0:
448,192,185192,1,0,0:0:0:0:
64,192,185265,1,0,0:0:0:0:
320,192,185265,1,0,0:0:0:0:
448,192,185265,1,0,0:0:0:0:
192,192,185339,1,0,0:0:0:0:
64,192,185339,1,0,0:0:0:0:
64,192,185412,1,0,0:0:0:0:
320,192,185412,1,0,0:0:0:0:
448,192,185412,1,0,0:0:0:0:
192,192,185412,1,0,0:0:0:0:
192,192,185485,1,0,0:0:0:0:
320,192,185485,1,0,0:0:0:0:
64,192,185559,1,0,0:0:0:0:
320,192,185559,1,0,0:0:0:0:
448,192,185559,1,0,0:0:0:0:
448,192,185632,1,0,0:0:0:0:
192,192,185632,1,0,0:0:0:0:
64,192,185705,1,0,0:0:0:0:
192,192,185705,1,0,0:0:0:0:
320,192,185705,1,0,0:0:0:0:
448,192,185705,1,0,0:0:0:0:
320,192,185779,1,0,0:0:0:0:
64,192,185779,1,0,0:0:0:0:
192,192,185852,1,0,0:0:0:0:
64,192,185852,1,0,0:0:0:0:
448,192,185852,1,0,0:0:0:0:
320,192,185926,1,0,0:0:0:0:
448,192,185926,1,0,0:0:0:0:
64,192,185999,1,0,0:0:0:0:
192,192,185999,1,0,0:0:0:0:
448,192,185999,1,0,0:0:0:0:
320,192,185999,1,0,0:0:0:0:
192,192,186072,1,0,0:0:0:0:
64,192,186072,1,0,0:0:0:0:
64,192,186146,1,0,0:0:0:0:
448,192,186146,1,0,0:0:0:0:
192,192,186146,1,0,0:0:0:0:
448,192,186219,1,0,0:0:0:0:
320,192,186219,1,0,0:0:0:0:
448,192,186292,1,0,0:0:0:0:
320,192,186292,1,0,0:0:0:0:
192,192,186292,1,0,0:0:0:0:
64,192,186292,1,0,0:0:0:0:
192,192,186366,1,0,0:0:0:0:
64,192,186366,1,0,0:0:0:0:
448,192,186439,1,0,0:0:0:0:
192,192,186439,1,0,0:0:0:0:
320,192,186439,1,0,0:0:0:0:
64,192,186512,1,0,0:0:0:0:
320,192,186512,1,0,0:0:0:0:
448,192,186586,1,0,0:0:0:0:
320,192,186586,1,0,0:0:0:0:
192,192,186586,1,0,0:0:0:0:
64,192,186586,1,0,0:0:0:0:
192,192,186659,1,0,0:0:0:0:
448,192,186659,1,0,0:0:0:0:
320,192,186732,1,0,0:0:0:0:
192,192,186732,1,0,0:0:0:0:
64,192,186732,1,0,0:0:0:0:
448,192,186806,1,0,0:0:0:0:
64,192,186806,1,0,0:0:0:0:
64,192,186879,1,0,0:0:0:0:
192,192,186879,1,0,0:0:0:0:
320,192,186879,1,0,0:0:0:0:
448,192,186879,1,0,0:0:0:0:
192,192,186952,1,0,0:0:0:0:
320,192,186952,1,0,0:0:0:0:
448,192,187026,1,0,0:0:0:0:
192,192,187026,1,0,0:0:0:0:
64,192,187026,1,0,0:0:0:0:
320,192,187099,1,0,0:0:0:0:
448,192,187099,1,0,0:0:0:0:
64,192,187172,1,0,0:0:0:0:
192,192,187172,1,0,0:0:0:0:
320,192,187172,1,0,0:0:0:0:
448,192,187172,1,0,0:0:0:0:
64,192,187246,1,0,0:0:0:0:
192,192,187246,1,0,0:0:0:0:
448,192,187319,1,0,0:0:0:0:
320,192,187356,1,0,0:0:0:0:
64,192,187393,1,0,0:0:0:0:
192,192,187429,1,0,0:0:0:0:
320,192,187466,1,0,0:0:0:0:
448,192,187466,1,0,0:0:0:0:
64,192,187539,1,0,0:0:0:0:
448,192,187539,1,0,0:0:0:0:
192,192,187613,1,0,0:0:0:0:
320,192,187649,1,0,0:0:0:0:
64,192,187686,1,0,0:0:0:0:
448,192,187686,1,0,0:0:0:0:
192,192,187759,1,0,0:0:0:0:
320,192,187759,1,0,0:0:0:0:
448,192,187759,1,0,0:0:0:0:
64,192,187759,1,0,0:0:0:0:
192,192,187833,1,0,0:0:0:0:
320,192,187833,1,0,0:0:0:0:
64,192,187906,1,0,0:0:0:0:
192,192,187906,1,0,0:0:0:0:
448,192,187906,1,0,0:0:0:0:
320,192,187979,1,0,0:0:0:0:
448,192,187979,1,0,0:0:0:0:
448,192,188053,1,0,0:0:0:0:
320,192,188053,1,0,0:0:0:0:
192,192,188053,1,0,0:0:0:0:
64,192,188053,1,0,0:0:0:0:
192,192,188126,1,0,0:0:0:0:
64,192,188126,1,0,0:0:0:0:
320,192,188199,1,0,0:0:0:0:
448,192,188199,1,0,0:0:0:0:
192,192,188199,1,0,0:0:0:0:
64,192,188273,1,0,0:0:0:0:
448,192,188273,1,0,0:0:0:0:
64,192,188346,1,0,0:0:0:0:
192,192,188346,1,0,0:0:0:0:
320,192,188346,1,0,0:0:0:0:
448,192,188346,1,0,0:0:0:0:
320,192,188419,1,0,0:0:0:0:
192,192,188419,1,0,0:0:0:0:
64,192,188493,1,0,0:0:0:0:
192,192,188493,1,0,0:0:0:0:
448,192,188493,1,0,0:0:0:0:
320,192,188566,1,0,0:0:0:0:
448,192,188566,1,0,0:0:0:0:
64,192,188639,1,0,0:0:0:0:
192,192,188639,1,0,0:0:0:0:
320,192,188639,1,0,0:0:0:0:
448,192,188639,1,0,0:0:0:0:
192,192,188713,1,0,0:0:0:0:
64,192,188713,1,0,0:0:0:0:
64,192,188786,1,0,0:0:0:0:
448,192,188786,1,0,0:0:0:0:
320,192,188786,1,0,0:0:0:0:
192,192,188860,1,0,0:0:0:0:
448,192,188860,1,0,0:0:0:0:
64,192,188933,1,0,0:0:0:0:
192,192,188933,1,0,0:0:0:0:
448,192,188933,1,0,0:0:0:0:
320,192,188933,1,0,0:0:0:0:
320,192,189006,1,0,0:0:0:0:
64,192,189006,1,0,0:0:0:0:
192,192,189080,1,0,0:0:0:0:
64,192,189080,1,0,0:0:0:0:
448,192,189080,1,0,0:0:0:0:
320,192,189153,1,0,0:0:0:0:
192,192,189153,1,0,0:0:0:0:
64,192,189226,1,0,0:0:0:0:
192,192,189226,1,0,0:0:0:0:
320,192,189226,1,0,0:0:0:0:
448,192,189226,1,0,0:0:0:0:
64,192,189300,1,0,0:0:0:0:
448,192,189300,1,0,0:0:0:0:
192,192,189373,1,0,0:0:0:0:
320,192,189373,1,0,0:0:0:0:
448,192,189373,1,0,0:0:0:0:
64,192,189446,1,0,0:0:0:0:
320,192,189446,1,0,0:0:0:0:
64,192,189520,1,0,0:0:0:0:
320,192,189520,1,0,0:0:0:0:
192,192,189520,1,0,0:0:0:0:
448,192,189520,1,0,0:0:0:0:
192,192,189593,1,0,0:0:0:0:
448,192,189593,1,0,0:0:0:0:
320,192,189666,1,0,0:0:0:0:
448,192,189666,1,0,0:0:0:0:
64,192,189666,1,0,0:0:0:0:
192,192,189740,1,0,0:0:0:0:
64,192,189740,1,0,0:0:0:0:
64,192,189813,1,0,0:0:0:0:
192,192,189813,1,0,0:0:0:0:
320,192,189813,1,0,0:0:0:0:
448,192,189813,1,0,0:0:0:0:
320,192,189886,1,0,0:0:0:0:
448,192,189886,1,0,0:0:0:0:
64,192,189960,1,0,0:0:0:0:
192,192,189960,1,0,0:0:0:0:
448,192,189960,1,0,0:0:0:0:
320,192,190033,1,0,0:0:0:0:
192,192,190033,1,0,0:0:0:0:
64,192,190106,1,0,0:0:0:0:
192,192,190106,1,0,0:0:0:0:
320,192,190106,1,0,0:0:0:0:
448,192,190106,1,0,0:0:0:0:
64,192,190180,1,0,0:0:0:0:
448,192,190180,1,0,0:0:0:0:
192,192,190253,1,0,0:0:0:0:
320,192,190253,1,0,0:0:0:0:
448,192,190253,1,0,0:0:0:0:
320,192,190327,1,0,0:0:0:0:
64,192,190327,1,0,0:0:0:0:
64,192,190400,1,0,0:0:0:0:
192,192,190400,1,0,0:0:0:0:
448,192,190400,1,0,0:0:0:0:
320,192,190400,1,0,0:0:0:0:
192,192,190473,1,0,0:0:0:0:
448,192,190473,1,0,0:0:0:0:
320,192,190547,1,0,0:0:0:0:
192,192,190547,1,0,0:0:0:0:
64,192,190547,1,0,0:0:0:0:
448,192,190620,1,0,0:0:0:0:
64,192,190620,1,0,0:0:0:0:
64,192,190693,1,0,0:0:0:0:
192,192,190693,1,0,0:0:0:0:
448,192,190693,1,0,0:0:0:0:
320,192,190693,1,0,0:0:0:0:
192,192,190767,1,0,0:0:0:0:
320,192,190767,1,0,0:0:0:0:
320,192,190840,1,0,0:0:0:0:
448,192,190840,1,0,0:0:0:0:
64,192,190840,1,0,0:0:0:0:
192,192,190913,1,0,0:0:0:0:
64,192,190913,1,0,0:0:0:0:
64,192,190987,1,0,0:0:0:0:
192,192,190987,1,0,0:0:0:0:
320,192,190987,1,0,0:0:0:0:
448,192,190987,1,0,0:0:0:0:
320,192,191060,1,0,0:0:0:0:
448,192,191060,1,0,0:0:0:0:
64,192,191133,1,0,0:0:0:0:
192,192,191133,1,0,0:0:0:0:
320,192,191133,1,0,0:0:0:0:
448,192,191207,1,0,0:0:0:0:
64,192,191207,1,0,0:0:0:0:
64,192,191280,1,0,0:0:0:0:
192,192,191280,1,0,0:0:0:0:
448,192,191280,1,0,0:0:0:0:
320,192,191280,1,0,0:0:0:0:
192,192,191353,1,0,0:0:0:0:
320,192,191353,1,0,0:0:0:0:
320,192,191427,1,0,0:0:0:0:
64,192,191427,1,0,0:0:0:0:
448,192,191427,1,0,0:0:0:0:
64,192,191500,1,0,0:0:0:0:
192,192,191500,1,0,0:0:0:0:
64,192,191573,1,0,0:0:0:0:
192,192,191573,1,0,0:0:0:0:
448,192,191573,1,0,0:0:0:0:
320,192,191573,1,0,0:0:0:0:
320,192,191647,1,0,0:0:0:0:
448,192,191647,1,0,0:0:0:0:
192,192,191720,1,0,0:0:0:0:
64,192,191720,1,0,0:0:0:0:
320,192,191720,1,0,0:0:0:0:
448,192,191794,1,0,0:0:0:0:
64,192,191794,1,0,0:0:0:0:
448,192,191867,1,0,0:0:0:0:
320,192,191867,1,0,0:0:0:0:
64,192,191867,1,0,0:0:0:0:
192,192,191867,1,0,0:0:0:0:
320,192,191940,1,0,0:0:0:0:
192,192,191940,1,0,0:0:0:0:
64,192,192014,1,0,0:0:0:0:
192,192,192014,1,0,0:0:0:0:
448,192,192014,1,0,0:0:0:0:
320,192,192087,1,0,0:0:0:0:
448,192,192087,1,0,0:0:0:0:
64,192,192160,1,0,0:0:0:0:
192,192,192160,1,0,0:0:0:0:
320,192,192160,1,0,0:0:0:0:
448,192,192160,1,0,0:0:0:0:
64,192,192234,1,0,0:0:0:0:
192,192,192234,1,0,0:0:0:0:
64,192,192307,1,0,0:0:0:0:
320,192,192307,1,0,0:0:0:0:
448,192,192307,1,0,0:0:0:0:
192,192,192380,1,0,0:0:0:0:
448,192,192380,1,0,0:0:0:0:
64,192,192454,1,0,0:0:0:0:
192,192,192454,1,0,0:0:0:0:
320,192,192454,1,0,0:0:0:0:
448,192,192454,1,0,0:0:0:0:
320,192,192527,1,0,0:0:0:0:
64,192,192527,1,0,0:0:0:0:
192,192,192600,1,0,0:0:0:0:
64,192,192600,1,0,0:0:0:0:
448,192,192600,1,0,0:0:0:0:
320,192,192674,1,0,0:0:0:0:
448,192,192674,1,0,0:0:0:0:
448,192,192747,1,0,0:0:0:0:
320,192,192747,1,0,0:0:0:0:
64,192,192747,1,0,0:0:0:0:
192,192,192747,1,0,0:0:0:0:
64,192,192820,1,0,0:0:0:0:
192,192,192820,1,0,0:0:0:0:
192,192,192894,1,0,0:0:0:0:
320,192,192894,1,0,0:0:0:0:
448,192,192894,1,0,0:0:0:0:
64,192,192967,1,0,0:0:0:0:
448,192,192967,1,0,0:0:0:0:
64,192,193040,1,0,0:0:0:0:
192,192,193040,1,0,0:0:0:0:
320,192,193040,1,0,0:0:0:0:
448,192,193040,1,0,0:0:0:0:
320,192,193114,1,0,0:0:0:0:
192,192,193114,1,0,0:0:0:0:
64,192,193187,1,0,0:0:0:0:
192,192,193187,1,0,0:0:0:0:
448,192,193187,1,0,0:0:0:0:
320,192,193260,1,0,0:0:0:0:
448,192,193260,1,0,0:0:0:0:
64,192,193334,1,0,0:0:0:0:
192,192,193334,1,0,0:0:0:0:
320,192,193334,1,0,0:0:0:0:
448,192,193334,1,0,0:0:0:0:
192,192,193407,1,0,0:0:0:0:
64,192,193407,1,0,0:0:0:0:
64,192,193481,1,0,0:0:0:0:
320,192,193481,1,0,0:0:0:0:
448,192,193481,1,0,0:0:0:0:
192,192,193554,1,0,0:0:0:0:
320,192,193554,1,0,0:0:0:0:
64,192,193627,1,0,0:0:0:0:
192,192,193627,1,0,0:0:0:0:
320,192,193627,1,0,0:0:0:0:
448,192,193627,1,0,0:0:0:0:
64,192,193701,1,0,0:0:0:0:
448,192,193701,1,0,0:0:0:0:
320,192,193774,1,0,0:0:0:0:
192,192,193774,1,0,0:0:0:0:
64,192,193774,1,0,0:0:0:0:
320,192,193847,1,0,0:0:0:0:
448,192,193847,1,0,0:0:0:0:
64,192,193921,1,0,0:0:0:0:
192,192,193921,1,0,0:0:0:0:
320,192,193921,1,0,0:0:0:0:
448,192,193921,1,0,0:0:0:0:
192,192,193994,1,0,0:0:0:0:
64,192,193994,1,0,0:0:0:0:
64,192,194067,1,0,0:0:0:0:
448,192,194067,1,0,0:0:0:0:
320,192,194067,1,0,0:0:0:0:
448,192,194141,1,0,0:0:0:0:
192,192,194141,1,0,0:0:0:0:
64,192,194214,1,0,0:0:0:0:
192,192,194214,1,0,0:0:0:0:
448,192,194214,1,0,0:0:0:0:
320,192,194214,1,0,0:0:0:0:
320,192,194287,1,0,0:0:0:0:
64,192,194287,1,0,0:0:0:0:
192,192,194361,1,0,0:0:0:0:
320,192,194361,1,0,0:0:0:0:
448,192,194361,1,0,0:0:0:0:
192,192,194434,1,0,0:0:0:0:
64,192,194434,1,0,0:0:0:0:
448,192,194507,1,0,0:0:0:0:
320,192,194507,1,0,0:0:0:0:
192,192,194507,1,0,0:0:0:0:
64,192,194507,1,0,0:0:0:0:
320,192,194581,1,0,0:0:0:0:
448,192,194581,1,0,0:0:0:0:
192,192,194654,1,0,0:0:0:0:
64,192,194654,1,0,0:0:0:0:
448,192,194654,1,0,0:0:0:0:
320,192,194727,1,0,0:0:0:0:
64,192,194727,1,0,0:0:0:0:
64,192,194801,1,0,0:0:0:0:
192,192,194801,1,0,0:0:0:0:
448,192,194801,1,0,0:0:0:0:
320,192,194874,1,0,0:0:0:0:
448,192,194948,1,0,0:0:0:0:
64,192,195021,1,0,0:0:0:0:
192,192,195094,1,0,0:0:0:0:
448,192,195168,1,0,0:0:0:0:
64,192,195241,1,0,0:0:0:0:
320,192,195314,1,0,0:0:0:0:
192,192,195388,1,0,0:0:0:0:
64,192,195461,1,0,0:0:0:0:
448,192,195534,1,0,0:0:0:0:
320,192,195608,1,0,0:0:0:0:
192,192,195681,1,0,0:0:0:0:
64,192,195754,1,0,0:0:0:0:
192,192,195828,1,0,0:0:0:0:
320,192,195901,1,0,0:0:0:0:
448,192,195974,1,0,0:0:0:0:
64,192,195974,1,0,0:0:0:0:
192,192,195974,1,0,0:0:0:0:
320,192,196048,1,0,0:0:0:0:
192,192,196121,1,0,0:0:0:0:
64,192,196121,1,0,0:0:0:0:
448,192,196194,1,0,0:0:0:0:
320,192,196268,1,0,0:0:0:0:
64,192,196268,1,0,0:0:0:0:
192,192,196268,1,0,0:0:0:0:
448,192,196341,1,0,0:0:0:0:
64,192,196415,1,0,0:0:0:0:
320,192,196415,1,0,0:0:0:0:
192,192,196488,1,0,0:0:0:0:
320,192,196561,1,0,0:0:0:0:
448,192,196561,1,0,0:0:0:0:
64,192,196635,1,0,0:0:0:0:
448,192,196708,1,0,0:0:0:0:
320,192,196745,1,0,0:0:0:0:
64,192,196781,1,0,0:0:0:0:
192,192,196818,1,0,0:0:0:0:
320,192,196855,1,0,0:0:0:0:
448,192,196855,1,0,0:0:0:0:
448,192,196928,1,0,0:0:0:0:
64,192,196928,1,0,0:0:0:0:
64,192,197001,1,0,0:0:0:0:
192,192,197038,1,0,0:0:0:0:
448,192,197075,1,0,0:0:0:0:
320,192,197075,1,0,0:0:0:0:
64,192,197148,1,0,0:0:0:0:
192,192,197148,1,0,0:0:0:0:
448,192,197148,1,0,0:0:0:0:
320,192,197148,1,0,0:0:0:0:
192,192,197221,1,0,0:0:0:0:
448,192,197221,1,0,0:0:0:0:
64,192,197295,1,0,0:0:0:0:
448,192,197295,1,0,0:0:0:0:
320,192,197295,1,0,0:0:0:0:
192,192,197368,1,0,0:0:0:0:
448,192,197368,1,0,0:0:0:0:
320,192,197441,1,0,0:0:0:0:
448,192,197441,1,0,0:0:0:0:
192,192,197441,1,0,0:0:0:0:
64,192,197441,1,0,0:0:0:0:
64,192,197515,1,0,0:0:0:0:
320,192,197515,1,0,0:0:0:0:
192,192,197588,1,0,0:0:0:0:
64,192,197588,1,0,0:0:0:0:
448,192,197588,1,0,0:0:0:0:
320,192,197661,1,0,0:0:0:0:
448,192,197661,1,0,0:0:0:0:
448,192,197735,1,0,0:0:0:0:
320,192,197735,1,0,0:0:0:0:
192,192,197735,1,0,0:0:0:0:
64,192,197735,1,0,0:0:0:0:
64,192,197808,1,0,0:0:0:0:
192,192,197808,1,0,0:0:0:0:
448,192,197882,1,0,0:0:0:0:
320,192,197882,1,0,0:0:0:0:
64,192,197882,1,0,0:0:0:0:
192,192,197955,1,0,0:0:0:0:
448,192,197955,1,0,0:0:0:0:
448,192,198028,1,0,0:0:0:0:
320,192,198028,1,0,0:0:0:0:
192,192,198028,1,0,0:0:0:0:
64,192,198028,1,0,0:0:0:0:
64,192,198102,1,0,0:0:0:0:
320,192,198102,1,0,0:0:0:0:
192,192,198175,1,0,0:0:0:0:
64,192,198175,1,0,0:0:0:0:
448,192,198175,1,0,0:0:0:0:
320,192,198248,1,0,0:0:0:0:
192,192,198248,1,0,0:0:0:0:
64,192,198322,1,0,0:0:0:0:
320,192,198322,1,0,0:0:0:0:
448,192,198322,1,0,0:0:0:0:
192,192,198322,1,0,0:0:0:0:
64,192,198395,1,0,0:0:0:0:
448,192,198395,1,0,0:0:0:0:
320,192,198468,1,0,0:0:0:0:
64,192,198468,1,0,0:0:0:0:
192,192,198468,1,0,0:0:0:0:
448,192,198542,1,0,0:0:0:0:
320,192,198542,1,0,0:0:0:0:
64,192,198615,1,0,0:0:0:0:
192,192,198615,1,0,0:0:0:0:
320,192,198615,1,0,0:0:0:0:
448,192,198615,1,0,0:0:0:0:
192,192,198688,1,0,0:0:0:0:
64,192,198688,1,0,0:0:0:0:
64,192,198762,1,0,0:0:0:0:
192,192,198762,1,0,0:0:0:0:
448,192,198762,1,0,0:0:0:0:
192,192,198835,1,0,0:0:0:0:
448,192,198835,1,0,0:0:0:0:
64,192,198908,1,0,0:0:0:0:
192,192,198908,1,0,0:0:0:0:
320,192,198908,1,0,0:0:0:0:
448,192,198908,1,0,0:0:0:0:
320,192,198982,1,0,0:0:0:0:
64,192,198982,1,0,0:0:0:0:
192,192,199055,1,0,0:0:0:0:
320,192,199055,1,0,0:0:0:0:
448,192,199055,1,0,0:0:0:0:
64,192,199128,1,0,0:0:0:0:
448,192,199128,1,0,0:0:0:0:
64,192,199202,1,0,0:0:0:0:
192,192,199202,1,0,0:0:0:0:
320,192,199202,1,0,0:0:0:0:
448,192,199202,1,0,0:0:0:0:
320,192,199275,1,0,0:0:0:0:
192,192,199275,1,0,0:0:0:0:
64,192,199349,1,0,0:0:0:0:
320,192,199349,1,0,0:0:0:0:
448,192,199349,1,0,0:0:0:0:
192,192,199422,1,0,0:0:0:0:
64,192,199422,1,0,0:0:0:0:
64,192,199495,1,0,0:0:0:0:
320,192,199495,1,0,0:0:0:0:
192,192,199495,1,0,0:0:0:0:
448,192,199495,1,0,0:0:0:0:
320,192,199569,1,0,0:0:0:0:
448,192,199569,1,0,0:0:0:0:
64,192,199642,1,0,0:0:0:0:
192,192,199642,1,0,0:0:0:0:
448,192,199642,1,0,0:0:0:0:
320,192,199715,1,0,0:0:0:0:
192,192,199715,1,0,0:0:0:0:
64,192,199789,1,0,0:0:0:0:
192,192,199789,1,0,0:0:0:0:
448,192,199789,1,0,0:0:0:0:
320,192,199789,1,0,0:0:0:0:
192,192,199862,1,0,0:0:0:0:
448,192,199862,1,0,0:0:0:0:
192,192,199935,1,0,0:0:0:0:
320,192,199935,1,0,0:0:0:0:
448,192,199935,1,0,0:0:0:0:
64,192,200009,1,0,0:0:0:0:
320,192,200009,1,0,0:0:0:0:
64,192,200082,1,0,0:0:0:0:
192,192,200082,1,0,0:0:0:0:
320,192,200082,1,0,0:0:0:0:
448,192,200082,1,0,0:0:0:0:
320,192,200155,1,0,0:0:0:0:
448,192,200155,1,0,0:0:0:0:
64,192,200229,1,0,0:0:0:0:
192,192,200229,1,0,0:0:0:0:
448,192,200229,1,0,0:0:0:0:
320,192,200302,1,0,0:0:0:0:
64,192,200302,1,0,0:0:0:0:
64,192,200375,1,0,0:0:0:0:
192,192,200375,1,0,0:0:0:0:
320,192,200375,1,0,0:0:0:0:
448,192,200375,1,0,0:0:0:0:
192,192,200449,1,0,0:0:0:0:
320,192,200449,1,0,0:0:0:0:
320,192,200522,1,0,0:0:0:0:
192,192,200522,1,0,0:0:0:0:
64,192,200522,1,0,0:0:0:0:
448,192,200595,1,0,0:0:0:0:
64,192,200595,1,0,0:0:0:0:
192,192,200669,1,0,0:0:0:0:
320,192,200669,1,0,0:0:0:0:
64,192,200669,1,0,0:0:0:0:
448,192,200669,1,0,0:0:0:0:
192,192,200742,1,0,0:0:0:0:
320,192,200742,1,0,0:0:0:0:
448,192,200816,1,0,0:0:0:0:
320,192,200816,1,0,0:0:0:0:
64,192,200816,1,0,0:0:0:0:
192,192,200889,1,0,0:0:0:0:
448,192,200889,1,0,0:0:0:0:
64,192,200962,1,0,0:0:0:0:
192,192,200962,1,0,0:0:0:0:
320,192,200962,1,0,0:0:0:0:
448,192,200962,1,0,0:0:0:0:
320,192,201036,1,0,0:0:0:0:
64,192,201036,1,0,0:0:0:0:
192,192,201109,1,0,0:0:0:0:
64,192,201109,1,0,0:0:0:0:
448,192,201109,1,0,0:0:0:0:
448,192,201182,1,0,0:0:0:0:
64,192,201182,1,0,0:0:0:0:
448,192,201256,1,0,0:0:0:0:
320,192,201256,1,0,0:0:0:0:
64,192,201256,1,0,0:0:0:0:
192,192,201256,1,0,0:0:0:0:
320,192,201329,1,0,0:0:0:0:
64,192,201329,1,0,0:0:0:0:
192,192,201402,1,0,0:0:0:0:
448,192,201402,1,0,0:0:0:0:
64,192,201402,1,0,0:0:0:0:
448,192,201476,1,0,0:0:0:0:
320,192,201476,1,0,0:0:0:0:
64,192,201549,1,0,0:0:0:0:
192,192,201549,1,0,0:0:0:0:
320,192,201549,1,0,0:0:0:0:
448,192,201549,1,0,0:0:0:0:
192,192,201622,1,0,0:0:0:0:
64,192,201622,1,0,0:0:0:0:
448,192,201696,1,0,0:0:0:0:
320,192,201696,1,0,0:0:0:0:
192,192,201696,1,0,0:0:0:0:
64,192,201696,1,0,0:0:0:0:
448,192,201769,1,0,0:0:0:0:
320,192,201769,1,0,0:0:0:0:
192,192,201842,1,0,0:0:0:0:
320,192,201842,1,0,0:0:0:0:
448,192,201842,1,0,0:0:0:0:
64,192,201842,1,0,0:0:0:0:
64,192,201916,1,0,0:0:0:0:
192,192,201916,1,0,0:0:0:0:
320,192,201989,1,0,0:0:0:0:
448,192,201989,1,0,0:0:0:0:
64,192,201989,1,0,0:0:0:0:
192,192,202062,1,0,0:0:0:0:
320,192,202062,1,0,0:0:0:0:
64,192,202136,1,0,0:0:0:0:
192,192,202136,1,0,0:0:0:0:
448,192,202136,1,0,0:0:0:0:
320,192,202136,1,0,0:0:0:0:
64,192,202209,1,0,0:0:0:0:
448,192,202209,1,0,0:0:0:0:
320,192,202283,1,0,0:0:0:0:
192,192,202283,1,0,0:0:0:0:
64,192,202283,1,0,0:0:0:0:
192,192,202356,1,0,0:0:0:0:
448,192,202356,1,0,0:0:0:0:
64,192,202429,1,0,0:0:0:0:
192,192,202429,1,0,0:0:0:0:
320,192,202429,1,0,0:0:0:0:
448,192,202429,1,0,0:0:0:0:
320,192,202503,1,0,0:0:0:0:
448,192,202503,1,0,0:0:0:0:
192,192,202576,1,0,0:0:0:0:
64,192,202576,1,0,0:0:0:0:
448,192,202576,1,0,0:0:0:0:
64,192,202649,1,0,0:0:0:0:
448,192,202649,1,0,0:0:0:0:
64,192,202723,1,0,0:0:0:0:
320,192,202723,1,0,0:0:0:0:
448,192,202723,1,0,0:0:0:0:
192,192,202723,1,0,0:0:0:0:
192,192,202796,1,0,0:0:0:0:
320,192,202796,1,0,0:0:0:0:
64,192,202869,1,0,0:0:0:0:
320,192,202869,1,0,0:0:0:0:
448,192,202869,1,0,0:0:0:0:
64,192,202943,1,0,0:0:0:0:
192,192,202943,1,0,0:0:0:0:
64,192,203016,1,0,0:0:0:0:
192,192,203016,1,0,0:0:0:0:
320,192,203016,1,0,0:0:0:0:
448,192,203016,1,0,0:0:0:0:
448,192,203089,1,0,0:0:0:0:
320,192,203089,1,0,0:0:0:0:
64,192,203163,1,0,0:0:0:0:
192,192,203163,1,0,0:0:0:0:
448,192,203163,1,0,0:0:0:0:
320,192,203236,1,0,0:0:0:0:
192,192,203236,1,0,0:0:0:0:
64,192,203309,1,0,0:0:0:0:
192,192,203309,1,0,0:0:0:0:
320,192,203309,1,0,0:0:0:0:
448,192,203309,1,0,0:0:0:0:
320,192,203383,1,0,0:0:0:0:
64,192,203383,1,0,0:0:0:0:
192,192,203456,1,0,0:0:0:0:
448,192,203456,1,0,0:0:0:0:
64,192,203456,1,0,0:0:0:0:
320,192,203529,1,0,0:0:0:0:
448,192,203529,1,0,0:0:0:0:
448,192,203603,1,0,0:0:0:0:
320,192,203603,1,0,0:0:0:0:
192,192,203603,1,0,0:0:0:0:
64,192,203603,1,0,0:0:0:0:
192,192,203676,1,0,0:0:0:0:
64,192,203676,1,0,0:0:0:0:
64,192,203750,1,0,0:0:0:0:
320,192,203750,1,0,0:0:0:0:
448,192,203750,1,0,0:0:0:0:
192,192,203823,1,0,0:0:0:0:
448,192,203823,1,0,0:0:0:0:
64,192,203896,1,0,0:0:0:0:
192,192,203896,1,0,0:0:0:0:
448,192,203896,1,0,0:0:0:0:
320,192,203896,1,0,0:0:0:0:
320,192,203970,1,0,0:0:0:0:
64,192,203970,1,0,0:0:0:0:
192,192,204043,1,0,0:0:0:0:
64,192,204043,1,0,0:0:0:0:
448,192,204043,1,0,0:0:0:0:
320,192,204116,1,0,0:0:0:0:
448,192,204116,1,0,0:0:0:0:
320,192,204190,1,0,0:0:0:0:
64,192,204190,1,0,0:0:0:0:
192,192,204190,1,0,0:0:0:0:
448,192,204190,1,0,0:0:0:0:
192,192,204263,1,0,0:0:0:0:
64,192,204263,1,0,0:0:0:0:
320,192,204336,1,0,0:0:0:0:
64,192,204336,1,0,0:0:0:0:
448,192,204336,1,0,0:0:0:0:
192,192,204410,1,0,0:0:0:0:
320,192,204410,1,0,0:0:0:0:
64,192,204483,1,0,0:0:0:0:
192,192,204483,1,0,0:0:0:0:
448,192,204483,1,0,0:0:0:0:
320,192,204483,1,0,0:0:0:0:
64,192,204556,1,0,0:0:0:0:
320,192,204556,1,0,0:0:0:0:
320,192,204630,1,0,0:0:0:0:
64,192,204630,1,0,0:0:0:0:
448,192,204630,1,0,0:0:0:0:
320,192,204703,1,0,0:0:0:0:
448,192,204703,1,0,0:0:0:0:
320,192,204776,1,0,0:0:0:0:
64,192,204776,1,0,0:0:0:0:
192,192,204776,1,0,0:0:0:0:
448,192,204776,1,0,0:0:0:0:
192,192,204850,1,0,0:0:0:0:
64,192,204850,1,0,0:0:0:0:
192,192,204923,1,0,0:0:0:0:
448,192,204923,1,0,0:0:0:0:
320,192,204923,1,0,0:0:0:0:
64,192,204996,1,0,0:0:0:0:
448,192,204996,1,0,0:0:0:0:
192,192,205070,1,0,0:0:0:0:
64,192,205070,1,0,0:0:0:0:
320,192,205070,1,0,0:0:0:0:
448,192,205070,1,0,0:0:0:0:
320,192,205143,1,0,0:0:0:0:
192,192,205143,1,0,0:0:0:0:
320,192,205217,1,0,0:0:0:0:
64,192,205217,1,0,0:0:0:0:
448,192,205217,1,0,0:0:0:0:
192,192,205290,1,0,0:0:0:0:
64,192,205290,1,0,0:0:0:0:
64,192,205363,1,0,0:0:0:0:
192,192,205363,1,0,0:0:0:0:
320,192,205363,1,0,0:0:0:0:
448,192,205363,1,0,0:0:0:0:
320,192,205437,1,0,0:0:0:0:
448,192,205437,1,0,0:0:0:0:
192,192,205510,1,0,0:0:0:0:
64,192,205510,1,0,0:0:0:0:
448,192,205510,1,0,0:0:0:0:
320,192,205583,1,0,0:0:0:0:
192,192,205583,1,0,0:0:0:0:
448,192,205657,1,0,0:0:0:0:
320,192,205657,1,0,0:0:0:0:
192,192,205657,1,0,0:0:0:0:
64,192,205657,1,0,0:0:0:0:
64,192,205730,1,0,0:0:0:0:
448,192,205730,1,0,0:0:0:0:
192,192,205803,1,0,0:0:0:0:
64,192,205803,1,0,0:0:0:0:
320,192,205803,1,0,0:0:0:0:
320,192,205877,1,0,0:0:0:0:
448,192,205877,1,0,0:0:0:0:
448,192,205950,1,0,0:0:0:0:
320,192,205950,1,0,0:0:0:0:
192,192,205950,1,0,0:0:0:0:
64,192,205950,1,0,0:0:0:0:
64,192,206023,1,0,0:0:0:0:
192,192,206023,1,0,0:0:0:0:
448,192,206097,1,0,0:0:0:0:
320,192,206133,1,0,0:0:0:0:
64,192,206170,1,0,0:0:0:0:
192,192,206207,1,0,0:0:0:0:
320,192,206243,1,0,0:0:0:0:
448,192,206243,1,0,0:0:0:0:
192,192,206317,1,0,0:0:0:0:
64,192,206317,1,0,0:0:0:0:
448,192,206390,1,0,0:0:0:0:
320,192,206427,1,0,0:0:0:0:
192,192,206463,1,0,0:0:0:0:
64,192,206463,1,0,0:0:0:0:
64,192,206537,1,0,0:0:0:0:
192,192,206537,1,0,0:0:0:0:
320,192,206537,1,0,0:0:0:0:
448,192,206537,1,0,0:0:0:0:
320,192,206610,1,0,0:0:0:0:
448,192,206610,1,0,0:0:0:0:
64,192,206683,1,0,0:0:0:0:
192,192,206683,1,0,0:0:0:0:
448,192,206683,1,0,0:0:0:0:
320,192,206757,1,0,0:0:0:0:
192,192,206757,1,0,0:0:0:0:
64,192,206830,1,0,0:0:0:0:
192,192,206830,1,0,0:0:0:0:
320,192,206830,1,0,0:0:0:0:
448,192,206830,1,0,0:0:0:0:
64,192,206904,1,0,0:0:0:0:
448,192,206904,1,0,0:0:0:0:
320,192,206977,1,0,0:0:0:0:
192,192,206977,1,0,0:0:0:0:
448,192,206977,1,0,0:0:0:0:
64,192,207050,1,0,0:0:0:0:
320,192,207050,1,0,0:0:0:0:
64,192,207124,1,0,0:0:0:0:
192,192,207124,1,0,0:0:0:0:
320,192,207124,1,0,0:0:0:0:
448,192,207124,1,0,0:0:0:0:
192,192,207197,1,0,0:0:0:0:
448,192,207197,1,0,0:0:0:0:
320,192,207270,1,0,0:0:0:0:
448,192,207270,1,0,0:0:0:0:
64,192,207270,1,0,0:0:0:0:
192,192,207344,1,0,0:0:0:0:
64,192,207344,1,0,0:0:0:0:
64,192,207417,1,0,0:0:0:0:
192,192,207417,1,0,0:0:0:0:
320,192,207417,1,0,0:0:0:0:
448,192,207417,1,0,0:0:0:0:
192,192,207490,1,0,0:0:0:0:
448,192,207490,1,0,0:0:0:0:
192,192,207564,1,0,0:0:0:0:
64,192,207564,1,0,0:0:0:0:
320,192,207564,1,0,0:0:0:0:
64,192,207637,1,0,0:0:0:0:
448,192,207637,1,0,0:0:0:0:
64,192,207710,1,0,0:0:0:0:
192,192,207710,1,0,0:0:0:0:
320,192,207710,1,0,0:0:0:0:
448,192,207710,1,0,0:0:0:0:
192,192,207784,1,0,0:0:0:0:
320,192,207784,1,0,0:0:0:0:
64,192,207857,1,0,0:0:0:0:
320,192,207857,1,0,0:0:0:0:
448,192,207857,1,0,0:0:0:0:
448,192,207930,1,0,0:0:0:0:
192,192,207930,1,0,0:0:0:0:
64,192,208004,1,0,0:0:0:0:
320,192,208004,1,0,0:0:0:0:
448,192,208004,1,0,0:0:0:0:
192,192,208004,1,0,0:0:0:0:
320,192,208077,1,0,0:0:0:0:
448,192,208077,1,0,0:0:0:0:
448,192,208150,1,0,0:0:0:0:
64,192,208150,1,0,0:0:0:0:
192,192,208150,1,0,0:0:0:0:
192,192,208224,1,0,0:0:0:0:
320,192,208224,1,0,0:0:0:0:
64,192,208297,1,0,0:0:0:0:
192,192,208297,1,0,0:0:0:0:
448,192,208297,1,0,0:0:0:0:
320,192,208297,1,0,0:0:0:0:
64,192,208371,1,0,0:0:0:0:
448,192,208371,1,0,0:0:0:0:
448,192,208444,1,0,0:0:0:0:
320,192,208444,1,0,0:0:0:0:
192,192,208444,1,0,0:0:0:0:
64,192,208517,1,0,0:0:0:0:
320,192,208517,1,0,0:0:0:0:
64,192,208591,1,0,0:0:0:0:
192,192,208591,1,0,0:0:0:0:
448,192,208591,1,0,0:0:0:0:
320,192,208591,1,0,0:0:0:0:
192,192,208664,1,0,0:0:0:0:
448,192,208664,1,0,0:0:0:0:
192,192,208737,1,0,0:0:0:0:
64,192,208737,1,0,0:0:0:0:
320,192,208737,1,0,0:0:0:0:
448,192,208811,1,0,0:0:0:0:
320,192,208811,1,0,0:0:0:0:
64,192,208884,1,0,0:0:0:0:
192,192,208884,1,0,0:0:0:0:
320,192,208884,1,0,0:0:0:0:
448,192,208884,1,0,0:0:0:0:
192,192,208957,1,0,0:0:0:0:
64,192,208957,1,0,0:0:0:0:
448,192,209031,1,0,0:0:0:0:
320,192,209031,1,0,0:0:0:0:
64,192,209031,1,0,0:0:0:0:
192,192,209104,1,0,0:0:0:0:
320,192,209104,1,0,0:0:0:0:
64,192,209177,1,0,0:0:0:0:
192,192,209177,1,0,0:0:0:0:
320,192,209177,1,0,0:0:0:0:
448,192,209177,1,0,0:0:0:0:
64,192,209251,1,0,0:0:0:0:
448,192,209251,1,0,0:0:0:0:
448,192,209324,1,0,0:0:0:0:
192,192,209324,1,0,0:0:0:0:
320,192,209324,1,0,0:0:0:0:
192,192,209397,1,0,0:0:0:0:
64,192,209397,1,0,0:0:0:0:
320,192,209471,1,0,0:0:0:0:
448,192,209471,1,0,0:0:0:0:
64,192,209471,1,0,0:0:0:0:
192,192,209471,1,0,0:0:0:0:
192,192,209544,1,0,0:0:0:0:
448,192,209544,1,0,0:0:0:0:
64,192,209617,1,0,0:0:0:0:
192,192,209617,1,0,0:0:0:0:
320,192,209617,1,0,0:0:0:0:
448,192,209691,1,0,0:0:0:0:
64,192,209691,1,0,0:0:0:0:
64,192,209764,1,0,0:0:0:0:
192,192,209764,1,0,0:0:0:0:
320,192,209764,1,0,0:0:0:0:
448,192,209764,1,0,0:0:0:0:
192,192,209838,1,0,0:0:0:0:
320,192,209838,1,0,0:0:0:0:
320,192,209911,1,0,0:0:0:0:
448,192,209911,1,0,0:0:0:0:
64,192,209911,1,0,0:0:0:0:
192,192,209984,1,0,0:0:0:0:
64,192,209984,1,0,0:0:0:0:
64,192,210058,1,0,0:0:0:0:
192,192,210058,1,0,0:0:0:0:
320,192,210058,1,0,0:0:0:0:
448,192,210058,1,0,0:0:0:0:
320,192,210131,1,0,0:0:0:0:
448,192,210131,1,0,0:0:0:0:
192,192,210204,1,0,0:0:0:0:
64,192,210204,1,0,0:0:0:0:
448,192,210204,1,0,0:0:0:0:
320,192,210278,1,0,0:0:0:0:
192,192,210278,1,0,0:0:0:0:
448,192,210351,1,0,0:0:0:0:
320,192,210351,1,0,0:0:0:0:
64,192,210351,1,0,0:0:0:0:
192,192,210351,1,0,0:0:0:0:
64,192,210424,1,0,0:0:0:0:
448,192,210424,1,0,0:0:0:0:
192,192,210498,1,0,0:0:0:0:
320,192,210498,1,0,0:0:0:0:
448,192,210498,1,0,0:0:0:0:
64,192,210571,1,0,0:0:0:0:
320,192,210571,1,0,0:0:0:0:
64,192,210644,1,0,0:0:0:0:
320,192,210644,1,0,0:0:0:0:
448,192,210644,1,0,0:0:0:0:
192,192,210644,1,0,0:0:0:0:
192,192,210718,1,0,0:0:0:0:
448,192,210718,1,0,0:0:0:0:
64,192,210791,1,0,0:0:0:0:
192,192,210791,1,0,0:0:0:0:
320,192,210791,1,0,0:0:0:0:
64,192,210864,1,0,0:0:0:0:
448,192,210864,1,0,0:0:0:0:
64,192,210938,1,0,0:0:0:0:
320,192,210938,1,0,0:0:0:0:
192,192,210938,1,0,0:0:0:0:
448,192,210938,1,0,0:0:0:0:
64,192,211011,1,0,0:0:0:0:
192,192,211011,1,0,0:0:0:0:
320,192,211084,1,0,0:0:0:0:
192,192,211084,1,0,0:0:0:0:
448,192,211084,1,0,0:0:0:0:
64,192,211158,1,0,0:0:0:0:
448,192,211158,1,0,0:0:0:0:
448,192,211231,1,0,0:0:0:0:
192,192,211231,1,0,0:0:0:0:
64,192,211231,1,0,0:0:0:0:
320,192,211231,1,0,0:0:0:0:
192,192,211305,1,0,0:0:0:0:
320,192,211305,1,0,0:0:0:0:
448,192,211378,1,0,0:0:0:0:
320,192,211378,1,0,0:0:0:0:
64,192,211378,1,0,0:0:0:0:
64,192,211451,1,0,0:0:0:0:
192,192,211451,1,0,0:0:0:0:
64,192,211525,1,0,0:0:0:0:
192,192,211525,1,0,0:0:0:0:
320,192,211525,1,0,0:0:0:0:
448,192,211525,1,0,0:0:0:0:
320,192,211598,1,0,0:0:0:0:
448,192,211598,1,0,0:0:0:0:
192,192,211671,1,0,0:0:0:0:
64,192,211671,1,0,0:0:0:0:
320,192,211671,1,0,0:0:0:0:
64,192,211745,1,0,0:0:0:0:
448,192,211745,1,0,0:0:0:0:
64,192,211818,1,0,0:0:0:0:
192,192,211818,1,0,0:0:0:0:
448,192,211818,1,0,0:0:0:0:
320,192,211818,1,0,0:0:0:0:
192,192,211891,1,0,0:0:0:0:
320,192,211891,1,0,0:0:0:0:
64,192,211965,1,0,0:0:0:0:
320,192,211965,1,0,0:0:0:0:
448,192,211965,1,0,0:0:0:0:
192,192,212038,1,0,0:0:0:0:
448,192,212038,1,0,0:0:0:0:
64,192,212111,1,0,0:0:0:0:
192,192,212111,1,0,0:0:0:0:
320,192,212111,1,0,0:0:0:0:
448,192,212111,1,0,0:0:0:0:
320,192,212185,1,0,0:0:0:0:
64,192,212185,1,0,0:0:0:0:
320,192,212258,1,0,0:0:0:0:
64,192,212258,1,0,0:0:0:0:
448,192,212258,1,0,0:0:0:0:
192,192,212331,1,0,0:0:0:0:
448,192,212331,1,0,0:0:0:0:
64,192,212405,1,0,0:0:0:0:
192,192,212405,1,0,0:0:0:0:
320,192,212405,1,0,0:0:0:0:
448,192,212405,1,0,0:0:0:0:
192,192,212478,1,0,0:0:0:0:
64,192,212478,1,0,0:0:0:0:
448,192,212551,1,0,0:0:0:0:
192,192,212551,1,0,0:0:0:0:
320,192,212551,1,0,0:0:0:0:
64,192,212625,1,0,0:0:0:0:
320,192,212625,1,0,0:0:0:0:
192,192,212698,1,0,0:0:0:0:
448,192,212698,1,0,0:0:0:0:
320,192,212698,1,0,0:0:0:0:
64,192,212698,1,0,0:0:0:0:
192,192,212772,1,0,0:0:0:0:
448,192,212772,1,0,0:0:0:0:
320,192,212845,1,0,0:0:0:0:
192,192,212845,1,0,0:0:0:0:
64,192,212845,1,0,0:0:0:0:
64,192,212918,1,0,0:0:0:0:
448,192,212918,1,0,0:0:0:0:
192,192,212992,1,0,0:0:0:0:
320,192,212992,1,0,0:0:0:0:
64,192,212992,1,0,0:0:0:0:
448,192,212992,1,0,0:0:0:0:
192,192,213065,1,0,0:0:0:0:
320,192,213065,1,0,0:0:0:0:
64,192,213138,1,0,0:0:0:0:
320,192,213138,1,0,0:0:0:0:
448,192,213138,1,0,0:0:0:0:
320,192,213212,1,0,0:0:0:0:
448,192,213212,1,0,0:0:0:0:
64,192,213285,1,0,0:0:0:0:
192,192,213285,1,0,0:0:0:0:
448,192,213285,1,0,0:0:0:0:
320,192,213285,1,0,0:0:0:0:
192,192,213358,1,0,0:0:0:0:
64,192,213358,1,0,0:0:0:0:
64,192,213432,1,0,0:0:0:0:
320,192,213432,1,0,0:0:0:0:
448,192,213432,1,0,0:0:0:0:
192,192,213505,1,0,0:0:0:0:
320,192,213505,1,0,0:0:0:0:
64,192,213578,1,0,0:0:0:0:
192,192,213578,1,0,0:0:0:0:
320,192,213578,1,0,0:0:0:0:
448,192,213578,1,0,0:0:0:0:
64,192,213652,1,0,0:0:0:0:
192,192,213725,1,0,0:0:0:0:
320,192,213798,1,0,0:0:0:0:
448,192,213872,1,0,0:0:0:0:
64,192,213872,1,0,0:0:0:0:
192,192,213945,1,0,0:0:0:0:
448,192,214018,1,0,0:0:0:0:
320,192,214092,1,0,0:0:0:0:
192,192,214165,1,0,0:0:0:0:
64,192,214165,1,0,0:0:0:0:
448,192,214239,1,0,0:0:0:0:
320,192,214312,1,0,0:0:0:0:
192,192,214385,1,0,0:0:0:0:
64,192,214459,1,0,0:0:0:0:
320,192,214459,1,0,0:0:0:0:
448,192,214532,1,0,0:0:0:0:
64,192,214605,1,0,0:0:0:0:
192,192,214679,1,0,0:0:0:0:
448,192,214752,1,0,0:0:0:0:
64,192,214752,1,0,0:0:0:0:
320,192,214752,1,0,0:0:0:0:
192,192,214825,1,0,0:0:0:0:
448,192,214825,1,0,0:0:0:0:
64,192,214899,1,0,0:0:0:0:
192,192,214899,1,0,0:0:0:0:
448,192,214972,1,0,0:0:0:0:
64,192,214972,1,0,0:0:0:0:
192,192,215045,1,0,0:0:0:0:
320,192,215045,1,0,0:0:0:0:
448,192,215045,1,0,0:0:0:0:
192,192,215119,1,0,0:0:0:0:
320,192,215119,1,0,0:0:0:0:
64,192,215192,1,0,0:0:0:0:
448,192,215192,1,0,0:0:0:0:
192,192,215265,1,0,0:0:0:0:
64,192,215265,1,0,0:0:0:0:
320,192,215339,1,0,0:0:0:0:
448,192,215339,1,0,0:0:0:0:
64,192,215339,1,0,0:0:0:0:
448,192,215412,1,0,0:0:0:0:
320,192,215412,1,0,0:0:0:0:
64,192,215485,1,0,0:0:0:0:
192,192,215522,1,0,0:0:0:0:
320,192,215559,1,0,0:0:0:0:
448,192,215595,1,0,0:0:0:0:
192,192,215632,1,0,0:0:0:0:
64,192,215632,1,0,0:0:0:0:
448,192,215706,1,0,0:0:0:0:
192,192,215706,1,0,0:0:0:0:
64,192,215779,1,0,0:0:0:0:
320,192,215816,1,0,0:0:0:0:
448,192,215852,1,0,0:0:0:0:
192,192,215889,1,0,0:0:0:0:
64,192,215926,1,0,0:0:0:0:
320,192,215926,1,0,0:0:0:0:
448,192,215999,1,0,0:0:0:0:
192,192,215999,1,0,0:0:0:0:
320,192,216072,1,0,0:0:0:0:
448,192,216072,1,0,0:0:0:0:
192,192,216146,1,0,0:0:0:0:
64,192,216146,1,0,0:0:0:0:
64,192,216219,1,0,0:0:0:0:
320,192,216219,1,0,0:0:0:0:
448,192,216219,1,0,0:0:0:0:
192,192,216292,1,0,0:0:0:0:
448,192,216292,1,0,0:0:0:0:
320,192,216366,1,0,0:0:0:0:
64,192,216366,1,0,0:0:0:0:
192,192,216439,1,0,0:0:0:0:
320,192,216439,1,0,0:0:0:0:
64,192,216512,1,0,0:0:0:0:
320,192,216512,1,0,0:0:0:0:
448,192,216512,1,0,0:0:0:0:
192,192,216586,1,0,0:0:0:0:
64,192,216586,1,0,0:0:0:0:
192,192,216659,1,0,0:0:0:0:
448,192,216659,1,0,0:0:0:0:
320,192,216732,1,0,0:0:0:0:
64,192,216732,1,0,0:0:0:0:
64,192,216806,1,0,0:0:0:0:
192,192,216806,1,0,0:0:0:0:
448,192,216806,1,0,0:0:0:0:
320,192,216879,1,0,0:0:0:0:
448,192,216879,1,0,0:0:0:0:
192,192,216952,1,0,0:0:0:0:
448,192,216952,1,0,0:0:0:0:
64,192,217026,1,0,0:0:0:0:
192,192,217026,1,0,0:0:0:0:
64,192,217099,1,0,0:0:0:0:
192,192,217099,1,0,0:0:0:0:
448,192,217099,1,0,0:0:0:0:
320,192,217173,1,0,0:0:0:0:
448,192,217173,1,0,0:0:0:0:
64,192,217246,1,0,0:0:0:0:
192,192,217246,1,0,0:0:0:0:
64,192,217319,1,0,0:0:0:0:
448,192,217319,1,0,0:0:0:0:
64,192,217393,1,0,0:0:0:0:
320,192,217393,1,0,0:0:0:0:
448,192,217393,1,0,0:0:0:0:
192,192,217466,1,0,0:0:0:0:
320,192,217466,1,0,0:0:0:0:
64,192,217539,1,0,0:0:0:0:
448,192,217539,1,0,0:0:0:0:
448,192,217613,1,0,0:0:0:0:
192,192,217613,1,0,0:0:0:0:
320,192,217686,1,0,0:0:0:0:
64,192,217686,1,0,0:0:0:0:
192,192,217686,1,0,0:0:0:0:
320,192,217759,1,0,0:0:0:0:
448,192,217759,1,0,0:0:0:0:
64,192,217833,1,0,0:0:0:0:
448,192,217833,1,0,0:0:0:0:
64,192,217906,1,0,0:0:0:0:
320,192,217906,1,0,0:0:0:0:
192,192,217979,1,0,0:0:0:0:
320,192,217979,1,0,0:0:0:0:
448,192,217979,1,0,0:0:0:0:
64,192,218053,1,0,0:0:0:0:
448,192,218053,1,0,0:0:0:0:
320,192,218126,1,0,0:0:0:0:
64,192,218126,1,0,0:0:0:0:
192,192,218199,1,0,0:0:0:0:
448,192,218199,1,0,0:0:0:0:
320,192,218273,1,0,0:0:0:0:
448,192,218273,1,0,0:0:0:0:
64,192,218273,1,0,0:0:0:0:
192,192,218346,1,0,0:0:0:0:
320,192,218346,1,0,0:0:0:0:
64,192,218419,1,0,0:0:0:0:
448,192,218419,1,0,0:0:0:0:
192,192,218493,1,0,0:0:0:0:
448,192,218493,1,0,0:0:0:0:
320,192,218566,1,0,0:0:0:0:
448,192,218566,1,0,0:0:0:0:
64,192,218566,1,0,0:0:0:0:
320,192,218640,1,0,0:0:0:0:
192,192,218640,1,0,0:0:0:0:
64,192,218713,1,0,0:0:0:0:
448,192,218713,1,0,0:0:0:0:
320,192,218786,1,0,0:0:0:0:
64,192,218786,1,0,0:0:0:0:
192,192,218860,1,0,0:0:0:0:
320,192,218860,1,0,0:0:0:0:
448,192,218860,1,0,0:0:0:0:
64,192,218933,1,0,0:0:0:0:
192,192,218933,1,0,0:0:0:0:
64,192,219006,1,0,0:0:0:0:
448,192,219006,1,0,0:0:0:0:
320,192,219080,1,0,0:0:0:0:
448,192,219080,1,0,0:0:0:0:
192,192,219153,1,0,0:0:0:0:
320,192,219153,1,0,0:0:0:0:
64,192,219153,1,0,0:0:0:0:
448,192,219226,1,0,0:0:0:0:
192,192,219226,1,0,0:0:0:0:
64,192,219300,1,0,0:0:0:0:
320,192,219300,1,0,0:0:0:0:
64,192,219373,1,0,0:0:0:0:
192,192,219373,1,0,0:0:0:0:
192,192,219446,1,0,0:0:0:0:
448,192,219446,1,0,0:0:0:0:
64,192,219446,1,0,0:0:0:0:
320,192,219520,1,0,0:0:0:0:
448,192,219520,1,0,0:0:0:0:
64,192,219593,1,0,0:0:0:0:
320,192,219593,1,0,0:0:0:0:
192,192,219666,1,0,0:0:0:0:
448,192,219666,1,0,0:0:0:0:
320,192,219740,1,0,0:0:0:0:
64,192,219740,1,0,0:0:0:0:
448,192,219740,1,0,0:0:0:0:
192,192,219813,1,0,0:0:0:0:
64,192,219813,1,0,0:0:0:0:
192,192,219886,1,0,0:0:0:0:
448,192,219886,1,0,0:0:0:0:
320,192,219960,1,0,0:0:0:0:
64,192,219960,1,0,0:0:0:0:
64,192,220033,1,0,0:0:0:0:
448,192,220033,1,0,0:0:0:0:
192,192,220033,1,0,0:0:0:0:
320,192,220107,1,0,0:0:0:0:
448,192,220107,1,0,0:0:0:0:
320,192,220180,1,0,0:0:0:0:
192,192,220180,1,0,0:0:0:0:
64,192,220253,1,0,0:0:0:0:
448,192,220253,1,0,0:0:0:0:
320,192,220327,1,0,0:0:0:0:
192,192,220327,1,0,0:0:0:0:
64,192,220327,1,0,0:0:0:0:
448,192,220400,1,0,0:0:0:0:
192,192,220400,1,0,0:0:0:0:
320,192,220473,1,0,0:0:0:0:
448,192,220473,1,0,0:0:0:0:
64,192,220547,1,0,0:0:0:0:
192,192,220547,1,0,0:0:0:0:
64,192,220620,1,0,0:0:0:0:
192,192,220620,1,0,0:0:0:0:
448,192,220620,1,0,0:0:0:0:
192,192,220767,1,0,0:0:0:0:
320,192,220913,1,0,0:0:0:0:
448,192,220913,1,0,0:0:0:0:
192,192,221060,1,0,0:0:0:0:
320,192,221207,1,0,0:0:0:0:
448,192,221207,1,0,0:0:0:0:
64,192,221353,1,0,0:0:0:0:
320,192,221500,1,0,0:0:0:0:
448,192,221500,1,0,0:0:0:0:
64,192,221647,1,0,0:0:0:0:
192,192,221794,1,0,0:0:0:0:
448,192,221794,1,0,0:0:0:0:
320,192,221940,1,0,0:0:0:0:
192,192,222087,1,0,0:0:0:0:
64,192,222087,1,0,0:0:0:0:
448,192,222234,1,0,0:0:0:0:
320,192,222380,1,0,0:0:0:0:
64,192,222380,1,0,0:0:0:0:
192,192,222527,1,0,0:0:0:0:
448,192,222674,1,0,0:0:0:0:
320,192,222674,1,0,0:0:0:0:
64,192,222820,1,0,0:0:0:0:
192,192,222967,1,0,0:0:0:0:
448,192,222967,1,0,0:0:0:0:
320,192,223114,1,0,0:0:0:0:
192,192,223261,1,0,0:0:0:0:
64,192,223261,1,0,0:0:0:0:
448,192,223407,1,0,0:0:0:0:
320,192,223554,1,0,0:0:0:0:
192,192,223554,1,0,0:0:0:0:
64,192,223701,1,0,0:0:0:0:
320,192,223847,1,0,0:0:0:0:
448,192,223847,1,0,0:0:0:0:
192,192,223994,1,0,0:0:0:0:
64,192,224141,1,0,0:0:0:0:
320,192,224141,1,0,0:0:0:0:
192,192,224287,1,0,0:0:0:0:
448,192,224434,1,0,0:0:0:0:
64,192,224434,1,0,0:0:0:0:
320,192,224581,1,0,0:0:0:0:
192,192,224728,1,0,0:0:0:0:
64,192,224728,1,0,0:0:0:0:
448,192,224874,1,0,0:0:0:0:
320,192,225021,1,0,0:0:0:0:
192,192,225021,1,0,0:0:0:0:
64,192,225168,1,0,0:0:0:0:
64,192,225314,1,0,0:0:0:0:
192,192,225314,1,0,0:0:0:0:
320,192,225314,1,0,0:0:0:0:
448,192,225314,1,0,0:0:0:0:
320,192,225388,1,0,0:0:0:0:
448,192,225388,1,0,0:0:0:0:
64,192,225461,1,0,0:0:0:0:
192,192,225461,1,0,0:0:0:0:
448,192,225461,1,0,0:0:0:0:
320,192,225534,1,0,0:0:0:0:
64,192,225534,1,0,0:0:0:0:
192,192,225608,1,0,0:0:0:0:
64,192,225608,1,0,0:0:0:0:
320,192,225608,1,0,0:0:0:0:
448,192,225608,1,0,0:0:0:0:
192,192,225681,1,0,0:0:0:0:
448,192,225681,1,0,0:0:0:0:
448,192,225754,1,0,0:0:0:0:
320,192,225754,1,0,0:0:0:0:
64,192,225754,1,0,0:0:0:0:
192,192,225828,1,0,0:0:0:0:
320,192,225828,1,0,0:0:0:0:
64,192,225901,1,0,0:0:0:0:
320,192,225901,1,0,0:0:0:0:
448,192,225901,1,0,0:0:0:0:
192,192,225901,1,0,0:0:0:0:
192,192,225974,1,0,0:0:0:0:
448,192,225974,1,0,0:0:0:0:
320,192,226048,1,0,0:0:0:0:
448,192,226048,1,0,0:0:0:0:
64,192,226048,1,0,0:0:0:0:
192,192,226121,1,0,0:0:0:0:
64,192,226121,1,0,0:0:0:0:
64,192,226195,1,0,0:0:0:0:
192,192,226195,1,0,0:0:0:0:
320,192,226195,1,0,0:0:0:0:
448,192,226195,1,0,0:0:0:0:
192,192,226268,1,0,0:0:0:0:
448,192,226268,1,0,0:0:0:0:
320,192,226341,1,0,0:0:0:0:
192,192,226341,1,0,0:0:0:0:
64,192,226341,1,0,0:0:0:0:
64,192,226415,1,0,0:0:0:0:
448,192,226415,1,0,0:0:0:0:
64,192,226488,1,0,0:0:0:0:
192,192,226488,1,0,0:0:0:0:
320,192,226488,1,0,0:0:0:0:
448,192,226488,1,0,0:0:0:0:
192,192,226561,1,0,0:0:0:0:
320,192,226561,1,0,0:0:0:0:
64,192,226635,1,0,0:0:0:0:
448,192,226635,1,0,0:0:0:0:
320,192,226635,1,0,0:0:0:0:
192,192,226708,1,0,0:0:0:0:
64,192,226708,1,0,0:0:0:0:
64,192,226781,1,0,0:0:0:0:
192,192,226781,1,0,0:0:0:0:
320,192,226781,1,0,0:0:0:0:
448,192,226781,1,0,0:0:0:0:
320,192,226855,1,0,0:0:0:0:
448,192,226855,1,0,0:0:0:0:
64,192,226928,1,0,0:0:0:0:
448,192,226928,1,0,0:0:0:0:
192,192,226928,1,0,0:0:0:0:
320,192,227001,1,0,0:0:0:0:
64,192,227001,1,0,0:0:0:0:
64,192,227075,1,0,0:0:0:0:
192,192,227075,1,0,0:0:0:0:
320,192,227075,1,0,0:0:0:0:
448,192,227075,1,0,0:0:0:0:
64,192,227148,1,0,0:0:0:0:
192,192,227148,1,0,0:0:0:0:
64,192,227221,1,0,0:0:0:0:
448,192,227221,1,0,0:0:0:0:
320,192,227221,1,0,0:0:0:0:
320,192,227295,1,0,0:0:0:0:
448,192,227295,1,0,0:0:0:0:
64,192,227368,1,0,0:0:0:0:
192,192,227368,1,0,0:0:0:0:
320,192,227368,1,0,0:0:0:0:
448,192,227368,1,0,0:0:0:0:
448,192,227441,1,0,0:0:0:0:
64,192,227441,1,0,0:0:0:0:
448,192,227515,1,0,0:0:0:0:
192,192,227515,1,0,0:0:0:0:
320,192,227515,1,0,0:0:0:0:
320,192,227588,1,0,0:0:0:0:
64,192,227588,1,0,0:0:0:0:
64,192,227662,1,0,0:0:0:0:
192,192,227662,1,0,0:0:0:0:
448,192,227662,1,0,0:0:0:0:
320,192,227662,1,0,0:0:0:0:
192,192,227735,1,0,0:0:0:0:
64,192,227735,1,0,0:0:0:0:
64,192,227808,1,0,0:0:0:0:
448,192,227808,1,0,0:0:0:0:
192,192,227882,1,0,0:0:0:0:
320,192,227882,1,0,0:0:0:0:
320,192,227955,1,0,0:0:0:0:
448,192,227955,1,0,0:0:0:0:
192,192,227955,1,0,0:0:0:0:
64,192,227955,1,0,0:0:0:0:
64,192,228028,1,0,0:0:0:0:
448,192,228028,1,0,0:0:0:0:
320,192,228102,1,0,0:0:0:0:
448,192,228102,1,0,0:0:0:0:
192,192,228175,1,0,0:0:0:0:
320,192,228175,1,0,0:0:0:0:
64,192,228248,1,0,0:0:0:0:
192,192,228248,1,0,0:0:0:0:
320,192,228248,1,0,0:0:0:0:
448,192,228248,1,0,0:0:0:0:
192,192,228322,1,0,0:0:0:0:
64,192,228322,1,0,0:0:0:0:
448,192,228395,1,0,0:0:0:0:
320,192,228395,1,0,0:0:0:0:
192,192,228468,1,0,0:0:0:0:
448,192,228468,1,0,0:0:0:0:
320,192,228542,1,0,0:0:0:0:
192,192,228542,1,0,0:0:0:0:
64,192,228542,1,0,0:0:0:0:
448,192,228542,1,0,0:0:0:0:
320,192,228615,1,0,0:0:0:0:
64,192,228615,1,0,0:0:0:0:
192,192,228688,1,0,0:0:0:0:
448,192,228688,1,0,0:0:0:0:
448,192,228762,1,0,0:0:0:0:
320,192,228762,1,0,0:0:0:0:
64,192,228835,1,0,0:0:0:0:
192,192,228835,1,0,0:0:0:0:
320,192,228835,1,0,0:0:0:0:
448,192,228835,1,0,0:0:0:0:
192,192,228908,1,0,0:0:0:0:
64,192,228908,1,0,0:0:0:0:
64,192,228982,1,0,0:0:0:0:
320,192,228982,1,0,0:0:0:0:
192,192,229055,1,0,0:0:0:0:
320,192,229055,1,0,0:0:0:0:
192,192,229129,1,0,0:0:0:0:
320,192,229129,1,0,0:0:0:0:
448,192,229129,1,0,0:0:0:0:
64,192,229129,1,0,0:0:0:0:
64,192,229202,1,0,0:0:0:0:
448,192,229202,1,0,0:0:0:0:
192,192,229275,1,0,0:0:0:0:
448,192,229275,1,0,0:0:0:0:
192,192,229349,1,0,0:0:0:0:
64,192,229349,1,0,0:0:0:0:
64,192,229422,1,0,0:0:0:0:
192,192,229422,1,0,0:0:0:0:
320,192,229422,1,0,0:0:0:0:
448,192,229422,1,0,0:0:0:0:
320,192,229495,1,0,0:0:0:0:
448,192,229495,1,0,0:0:0:0:
64,192,229569,1,0,0:0:0:0:
192,192,229569,1,0,0:0:0:0:
64,192,229642,1,0,0:0:0:0:
448,192,229642,1,0,0:0:0:0:
64,192,229715,1,0,0:0:0:0:
192,192,229715,1,0,0:0:0:0:
448,192,229715,1,0,0:0:0:0:
320,192,229715,1,0,0:0:0:0:
320,192,229789,1,0,0:0:0:0:
448,192,229789,1,0,0:0:0:0:
192,192,229862,1,0,0:0:0:0:
64,192,229862,1,0,0:0:0:0:
64,192,229935,1,0,0:0:0:0:
320,192,229935,1,0,0:0:0:0:
64,192,230009,1,0,0:0:0:0:
192,192,230009,1,0,0:0:0:0:
320,192,230009,1,0,0:0:0:0:
448,192,230009,1,0,0:0:0:0:
192,192,230082,1,0,0:0:0:0:
448,192,230082,1,0,0:0:0:0:
320,192,230155,1,0,0:0:0:0:
448,192,230155,1,0,0:0:0:0:
192,192,230229,1,0,0:0:0:0:
320,192,230229,1,0,0:0:0:0:
64,192,230302,1,0,0:0:0:0:
192,192,230302,1,0,0:0:0:0:
320,192,230302,1,0,0:0:0:0:
448,192,230302,1,0,0:0:0:0:
64,192,230375,1,0,0:0:0:0:
448,192,230375,1,0,0:0:0:0:
192,192,230449,1,0,0:0:0:0:
64,192,230449,1,0,0:0:0:0:
320,192,230522,1,0,0:0:0:0:
448,192,230522,1,0,0:0:0:0:
64,192,230596,1,0,0:0:0:0:
192,192,230596,1,0,0:0:0:0:
320,192,230596,1,0,0:0:0:0:
448,192,230596,1,0,0:0:0:0:
192,192,230669,1,0,0:0:0:0:
448,192,230669,1,0,0:0:0:0:
320,192,230742,1,0,0:0:0:0:
64,192,230742,1,0,0:0:0:0:
192,192,230816,1,0,0:0:0:0:
64,192,230816,1,0,0:0:0:0:
64,192,230889,1,0,0:0:0:0:
320,192,230889,1,0,0:0:0:0:
192,192,230889,1,0,0:0:0:0:
448,192,230889,1,0,0:0:0:0:
192,192,230962,1,0,0:0:0:0:
320,192,230962,1,0,0:0:0:0:
64,192,231036,1,0,0:0:0:0:
448,192,231036,1,0,0:0:0:0:
192,192,231109,1,0,0:0:0:0:
320,192,231109,1,0,0:0:0:0:
64,192,231182,1,0,0:0:0:0:
192,192,231182,1,0,0:0:0:0:
320,192,231182,1,0,0:0:0:0:
448,192,231182,1,0,0:0:0:0:
64,192,231256,1,0,0:0:0:0:
448,192,231256,1,0,0:0:0:0:
320,192,231329,1,0,0:0:0:0:
448,192,231329,1,0,0:0:0:0:
192,192,231402,1,0,0:0:0:0:
64,192,231402,1,0,0:0:0:0:
64,192,231476,1,0,0:0:0:0:
192,192,231476,1,0,0:0:0:0:
448,192,231476,1,0,0:0:0:0:
320,192,231476,1,0,0:0:0:0:
320,192,231549,1,0,0:0:0:0:
448,192,231549,1,0,0:0:0:0:
192,192,231622,1,0,0:0:0:0:
448,192,231622,1,0,0:0:0:0:
320,192,231696,1,0,0:0:0:0:
192,192,231696,1,0,0:0:0:0:
64,192,231769,1,0,0:0:0:0:
192,192,231769,1,0,0:0:0:0:
448,192,231769,1,0,0:0:0:0:
320,192,231769,1,0,0:0:0:0:
64,192,231842,1,0,0:0:0:0:
448,192,231842,1,0,0:0:0:0:
192,192,231916,1,0,0:0:0:0:
64,192,231916,1,0,0:0:0:0:
320,192,231989,1,0,0:0:0:0:
448,192,231989,1,0,0:0:0:0:
64,192,232063,1,0,0:0:0:0:
448,192,232063,1,0,0:0:0:0:
320,192,232063,1,0,0:0:0:0:
192,192,232063,1,0,0:0:0:0:
192,192,232136,1,0,0:0:0:0:
64,192,232136,1,0,0:0:0:0:
64,192,232209,1,0,0:0:0:0:
320,192,232209,1,0,0:0:0:0:
192,192,232283,1,0,0:0:0:0:
448,192,232283,1,0,0:0:0:0:
320,192,232356,1,0,0:0:0:0:
448,192,232356,1,0,0:0:0:0:
192,192,232356,1,0,0:0:0:0:
64,192,232356,1,0,0:0:0:0:
192,192,232429,1,0,0:0:0:0:
64,192,232429,1,0,0:0:0:0:
320,192,232503,1,0,0:0:0:0:
448,192,232503,1,0,0:0:0:0:
64,192,232576,1,0,0:0:0:0:
448,192,232576,1,0,0:0:0:0:
448,192,232649,1,0,0:0:0:0:
320,192,232649,1,0,0:0:0:0:
192,192,232649,1,0,0:0:0:0:
64,192,232649,1,0,0:0:0:0:
64,192,232723,1,0,0:0:0:0:
192,192,232723,1,0,0:0:0:0:
320,192,232796,1,0,0:0:0:0:
192,192,232796,1,0,0:0:0:0:
64,192,232869,1,0,0:0:0:0:
448,192,232869,1,0,0:0:0:0:
64,192,232943,1,0,0:0:0:0:
192,192,232943,1,0,0:0:0:0:
320,192,232943,1,0,0:0:0:0:
448,192,232943,1,0,0:0:0:0:
320,192,233016,1,0,0:0:0:0:
448,192,233016,1,0,0:0:0:0:
192,192,233089,1,0,0:0:0:0:
320,192,233089,1,0,0:0:0:0:
64,192,233163,1,0,0:0:0:0:
448,192,233163,1,0,0:0:0:0:
192,192,233236,1,0,0:0:0:0:
320,192,233236,1,0,0:0:0:0:
448,192,233236,1,0,0:0:0:0:
64,192,233236,1,0,0:0:0:0:
192,192,233309,1,0,0:0:0:0:
64,192,233309,1,0,0:0:0:0:
448,192,233383,1,0,0:0:0:0:
192,192,233383,1,0,0:0:0:0:
320,192,233456,1,0,0:0:0:0:
448,192,233456,1,0,0:0:0:0:
64,192,233530,1,0,0:0:0:0:
192,192,233530,1,0,0:0:0:0:
320,192,233530,1,0,0:0:0:0:
448,192,233530,1,0,0:0:0:0:
64,192,233603,1,0,0:0:0:0:
192,192,233603,1,0,0:0:0:0:
64,192,233676,1,0,0:0:0:0:
448,192,233676,1,0,0:0:0:0:
192,192,233750,1,0,0:0:0:0:
320,192,233750,1,0,0:0:0:0:
192,192,233823,1,0,0:0:0:0:
320,192,233823,1,0,0:0:0:0:
448,192,233823,1,0,0:0:0:0:
64,192,233823,1,0,0:0:0:0:
192,192,233896,1,0,0:0:0:0:
448,192,233896,1,0,0:0:0:0:
320,192,233970,1,0,0:0:0:0:
448,192,233970,1,0,0:0:0:0:
192,192,234043,1,0,0:0:0:0:
64,192,234043,1,0,0:0:0:0:
448,192,234116,1,0,0:0:0:0:
320,192,234116,1,0,0:0:0:0:
192,192,234116,1,0,0:0:0:0:
64,192,234116,1,0,0:0:0:0:
320,192,234190,1,0,0:0:0:0:
64,192,234190,1,0,0:0:0:0:
192,192,234263,1,0,0:0:0:0:
64,192,234263,1,0,0:0:0:0:
320,192,234336,1,0,0:0:0:0:
448,192,234336,1,0,0:0:0:0:
64,192,234410,1,0,0:0:0:0:
320,192,234410,1,0,0:0:0:0:
448,192,234410,1,0,0:0:0:0:
192,192,234410,1,0,0:0:0:0:
192,192,234483,1,0,0:0:0:0:
64,192,234483,1,0,0:0:0:0:
320,192,234556,1,0,0:0:0:0:
448,192,234556,1,0,0:0:0:0:
192,192,234630,1,0,0:0:0:0:
64,192,234630,1,0,0:0:0:0:
64,192,234703,1,0,0:0:0:0:
192,192,234703,1,0,0:0:0:0:
320,192,234703,1,0,0:0:0:0:
448,192,234703,1,0,0:0:0:0:
320,192,234776,1,0,0:0:0:0:
448,192,234776,1,0,0:0:0:0:
64,192,234850,1,0,0:0:0:0:
448,192,234850,1,0,0:0:0:0:
192,192,234923,1,0,0:0:0:0:
320,192,234923,1,0,0:0:0:0:
64,192,234997,1,0,0:0:0:0:
192,192,234997,1,0,0:0:0:0:
448,192,234997,1,0,0:0:0:0:
320,192,234997,1,0,0:0:0:0:
64,192,235070,1,0,0:0:0:0:
320,192,235070,1,0,0:0:0:0:
192,192,235143,1,0,0:0:0:0:
64,192,235143,1,0,0:0:0:0:
320,192,235217,1,0,0:0:0:0:
448,192,235217,1,0,0:0:0:0:
64,192,235290,1,0,0:0:0:0:
192,192,235290,1,0,0:0:0:0:
320,192,235290,1,0,0:0:0:0:
448,192,235290,1,0,0:0:0:0:
192,192,235363,1,0,0:0:0:0:
64,192,235363,1,0,0:0:0:0:
64,192,235437,1,0,0:0:0:0:
448,192,235437,1,0,0:0:0:0:
320,192,235510,1,0,0:0:0:0:
448,192,235510,1,0,0:0:0:0:
64,192,235583,1,0,0:0:0:0:
192,192,235583,1,0,0:0:0:0:
320,192,235583,1,0,0:0:0:0:
448,192,235583,1,0,0:0:0:0:
320,192,235657,1,0,0:0:0:0:
192,192,235657,1,0,0:0:0:0:
64,192,235730,1,0,0:0:0:0:
448,192,235730,1,0,0:0:0:0:
192,192,235803,1,0,0:0:0:0:
64,192,235803,1,0,0:0:0:0:
64,192,235877,1,0,0:0:0:0:
192,192,235877,1,0,0:0:0:0:
320,192,235877,1,0,0:0:0:0:
448,192,235877,1,0,0:0:0:0:
320,192,235950,1,0,0:0:0:0:
448,192,235950,1,0,0:0:0:0:
192,192,236023,1,0,0:0:0:0:
64,192,236023,1,0,0:0:0:0:
192,192,236097,1,0,0:0:0:0:
320,192,236097,1,0,0:0:0:0:
64,192,236170,1,0,0:0:0:0:
192,192,236170,1,0,0:0:0:0:
320,192,236170,1,0,0:0:0:0:
448,192,236170,1,0,0:0:0:0:
64,192,236243,1,0,0:0:0:0:
448,192,236243,1,0,0:0:0:0:
192,192,236317,1,0,0:0:0:0:
448,192,236317,1,0,0:0:0:0:
320,192,236390,1,0,0:0:0:0:
192,192,236390,1,0,0:0:0:0:
448,192,236463,1,0,0:0:0:0:
320,192,236463,1,0,0:0:0:0:
192,192,236463,1,0,0:0:0:0:
64,192,236463,1,0,0:0:0:0:
64,192,236537,1,0,0:0:0:0:
320,192,236537,1,0,0:0:0:0:
192,192,236610,1,0,0:0:0:0:
448,192,236610,1,0,0:0:0:0:
320,192,236684,1,0,0:0:0:0:
448,192,236684,1,0,0:0:0:0:
448,192,236757,1,0,0:0:0:0:
320,192,236757,1,0,0:0:0:0:
192,192,236757,1,0,0:0:0:0:
64,192,236757,1,0,0:0:0:0:
192,192,236830,1,0,0:0:0:0:
64,192,236830,1,0,0:0:0:0:
448,192,236904,1,0,0:0:0:0:
64,192,236904,1,0,0:0:0:0:
192,192,236977,1,0,0:0:0:0:
320,192,236977,1,0,0:0:0:0:
64,192,237050,1,0,0:0:0:0:
192,192,237050,1,0,0:0:0:0:
320,192,237050,1,0,0:0:0:0:
448,192,237050,1,0,0:0:0:0:
64,192,237124,1,0,0:0:0:0:
448,192,237124,1,0,0:0:0:0:
320,192,237197,1,0,0:0:0:0:
448,192,237197,1,0,0:0:0:0:
192,192,237270,1,0,0:0:0:0:
320,192,237270,1,0,0:0:0:0:
448,192,237344,1,0,0:0:0:0:
320,192,237344,1,0,0:0:0:0:
192,192,237344,1,0,0:0:0:0:
64,192,237344,1,0,0:0:0:0:
64,192,237417,1,0,0:0:0:0:
192,192,237417,1,0,0:0:0:0:
64,192,237490,1,0,0:0:0:0:
448,192,237490,1,0,0:0:0:0:
448,192,237564,1,0,0:0:0:0:
320,192,237564,1,0,0:0:0:0:
192,192,237637,1,0,0:0:0:0:
64,192,237637,1,0,0:0:0:0:
320,192,237637,1,0,0:0:0:0:
448,192,237637,1,0,0:0:0:0:
192,192,237710,1,0,0:0:0:0:
64,192,237710,1,0,0:0:0:0:
448,192,237784,1,0,0:0:0:0:
64,192,237784,1,0,0:0:0:0:
320,192,237857,1,0,0:0:0:0:
448,192,237857,1,0,0:0:0:0:
64,192,237930,1,0,0:0:0:0:
320,192,237930,1,0,0:0:0:0:
192,192,237930,1,0,0:0:0:0:
448,192,237930,1,0,0:0:0:0:
192,192,238004,1,0,0:0:0:0:
64,192,238004,1,0,0:0:0:0:
320,192,238077,1,0,0:0:0:0:
192,192,238077,1,0,0:0:0:0:
64,192,238151,1,0,0:0:0:0:
448,192,238151,1,0,0:0:0:0:
64,192,238224,1,0,0:0:0:0:
192,192,238224,1,0,0:0:0:0:
320,192,238224,1,0,0:0:0:0:
448,192,238224,1,0,0:0:0:0:
320,192,238297,1,0,0:0:0:0:
448,192,238297,1,0,0:0:0:0:
64,192,238371,1,0,0:0:0:0:
192,192,238371,1,0,0:0:0:0:
64,192,238444,1,0,0:0:0:0:
320,192,238444,1,0,0:0:0:0:
64,192,238517,1,0,0:0:0:0:
192,192,238517,1,0,0:0:0:0:
320,192,238517,1,0,0:0:0:0:
448,192,238517,1,0,0:0:0:0:
192,192,238591,1,0,0:0:0:0:
448,192,238591,1,0,0:0:0:0:
320,192,238664,1,0,0:0:0:0:
448,192,238664,1,0,0:0:0:0:
64,192,238737,1,0,0:0:0:0:
320,192,238737,1,0,0:0:0:0:
64,192,238811,1,0,0:0:0:0:
192,192,238811,1,0,0:0:0:0:
320,192,238811,1,0,0:0:0:0:
448,192,238811,1,0,0:0:0:0:
192,192,238884,1,0,0:0:0:0:
320,192,238884,1,0,0:0:0:0:
448,192,238957,1,0,0:0:0:0:
64,192,238957,1,0,0:0:0:0:
192,192,239031,1,0,0:0:0:0:
64,192,239031,1,0,0:0:0:0:
320,192,239104,1,0,0:0:0:0:
192,192,239104,1,0,0:0:0:0:
448,192,239104,1,0,0:0:0:0:
64,192,239104,1,0,0:0:0:0:
448,192,239177,1,0,0:0:0:0:
192,192,239177,1,0,0:0:0:0:
320,192,239251,1,0,0:0:0:0:
448,192,239251,1,0,0:0:0:0:
192,192,239324,1,0,0:0:0:0:
64,192,239324,1,0,0:0:0:0:
64,192,239397,1,0,0:0:0:0:
192,192,239397,1,0,0:0:0:0:
320,192,239397,1,0,0:0:0:0:
448,192,239397,1,0,0:0:0:0:
64,192,239471,1,0,0:0:0:0:
448,192,239471,1,0,0:0:0:0:
320,192,239544,1,0,0:0:0:0:
192,192,239544,1,0,0:0:0:0:
64,192,239618,1,0,0:0:0:0:
320,192,239618,1,0,0:0:0:0:
64,192,239691,1,0,0:0:0:0:
320,192,239691,1,0,0:0:0:0:
448,192,239691,1,0,0:0:0:0:
192,192,239691,1,0,0:0:0:0:
192,192,239764,1,0,0:0:0:0:
448,192,239764,1,0,0:0:0:0:
320,192,239838,1,0,0:0:0:0:
448,192,239838,1,0,0:0:0:0:
320,192,239911,1,0,0:0:0:0:
192,192,239911,1,0,0:0:0:0:
64,192,239984,1,0,0:0:0:0:
320,192,239984,1,0,0:0:0:0:
448,192,239984,1,0,0:0:0:0:
192,192,239984,1,0,0:0:0:0:
64,192,240058,1,0,0:0:0:0:
448,192,240058,1,0,0:0:0:0:
192,192,240131,1,0,0:0:0:0:
64,192,240131,1,0,0:0:0:0:
320,192,240204,1,0,0:0:0:0:
192,192,240204,1,0,0:0:0:0:
192,192,240278,1,0,0:0:0:0:
64,192,240278,1,0,0:0:0:0:
320,192,240278,1,0,0:0:0:0:
448,192,240278,1,0,0:0:0:0:
64,192,240351,1,0,0:0:0:0:
320,192,240351,1,0,0:0:0:0:
192,192,240424,1,0,0:0:0:0:
448,192,240424,1,0,0:0:0:0:
320,192,240498,1,0,0:0:0:0:
448,192,240498,1,0,0:0:0:0:
64,192,240571,1,0,0:0:0:0:
192,192,240571,1,0,0:0:0:0:
320,192,240571,1,0,0:0:0:0:
448,192,240571,1,0,0:0:0:0:
192,192,240644,1,0,0:0:0:0:
64,192,240644,1,0,0:0:0:0:
448,192,240718,1,0,0:0:0:0:
320,192,240718,1,0,0:0:0:0:
64,192,240791,1,0,0:0:0:0:
320,192,240791,1,0,0:0:0:0:
64,192,240864,1,0,0:0:0:0:
320,192,240864,1,0,0:0:0:0:
448,192,240864,1,0,0:0:0:0:
192,192,240864,1,0,0:0:0:0:
192,192,240938,1,0,0:0:0:0:
448,192,240938,1,0,0:0:0:0:
320,192,241011,1,0,0:0:0:0:
448,192,241011,1,0,0:0:0:0:
192,192,241085,1,0,0:0:0:0:
64,192,241085,1,0,0:0:0:0:
64,192,241158,1,0,0:0:0:0:
192,192,241158,1,0,0:0:0:0:
320,192,241158,1,0,0:0:0:0:
448,192,241158,1,0,0:0:0:0:
64,192,241231,1,0,0:0:0:0:
320,192,241231,1,0,0:0:0:0:
192,192,241305,1,0,0:0:0:0:
448,192,241305,1,0,0:0:0:0:
320,192,241378,1,0,0:0:0:0:
448,192,241378,1,0,0:0:0:0:
64,192,241451,1,0,0:0:0:0:
320,192,241451,1,0,0:0:0:0:
448,192,241451,1,0,0:0:0:0:
192,192,241451,1,0,0:0:0:0:
192,192,241525,1,0,0:0:0:0:
64,192,241525,1,0,0:0:0:0:
64,192,241598,1,0,0:0:0:0:
320,192,241598,1,0,0:0:0:0:
320,192,241671,1,0,0:0:0:0:
192,192,241671,1,0,0:0:0:0:
64,192,241745,1,0,0:0:0:0:
320,192,241745,1,0,0:0:0:0:
448,192,241745,1,0,0:0:0:0:
192,192,241745,1,0,0:0:0:0:
64,192,241818,1,0,0:0:0:0:
448,192,241818,1,0,0:0:0:0:
192,192,241891,1,0,0:0:0:0:
320,192,241891,1,0,0:0:0:0:
64,192,241965,1,0,0:0:0:0:
320,192,241965,1,0,0:0:0:0:
64,192,242038,1,0,0:0:0:0:
192,192,242038,1,0,0:0:0:0:
320,192,242038,1,0,0:0:0:0:
448,192,242038,1,0,0:0:0:0:
448,192,242111,1,0,0:0:0:0:
192,192,242111,1,0,0:0:0:0:
320,192,242185,1,0,0:0:0:0:
448,192,242185,1,0,0:0:0:0:
192,192,242258,1,0,0:0:0:0:
64,192,242258,1,0,0:0:0:0:
64,192,242331,1,0,0:0:0:0:
192,192,242331,1,0,0:0:0:0:
448,192,242331,1,0,0:0:0:0:
320,192,242331,1,0,0:0:0:0:
320,192,242405,1,0,0:0:0:0:
448,192,242405,1,0,0:0:0:0:
64,192,242478,1,0,0:0:0:0:
448,192,242478,1,0,0:0:0:0:
320,192,242552,1,0,0:0:0:0:
64,192,242552,1,0,0:0:0:0:
192,192,242625,1,0,0:0:0:0:
64,192,242625,1,0,0:0:0:0:
320,192,242625,1,0,0:0:0:0:
448,192,242625,1,0,0:0:0:0:
192,192,242698,1,0,0:0:0:0:
448,192,242698,1,0,0:0:0:0:
320,192,242772,1,0,0:0:0:0:
448,192,242772,1,0,0:0:0:0:
192,192,242845,1,0,0:0:0:0:
64,192,242845,1,0,0:0:0:0:
192,192,242918,1,0,0:0:0:0:
64,192,242918,1,0,0:0:0:0:
320,192,242918,1,0,0:0:0:0:
448,192,242918,1,0,0:0:0:0:
192,192,242992,1,0,0:0:0:0:
320,192,242992,1,0,0:0:0:0:
64,192,243065,1,0,0:0:0:0:
448,192,243065,1,0,0:0:0:0:
320,192,243138,1,0,0:0:0:0:
448,192,243138,1,0,0:0:0:0:
64,192,243212,1,0,0:0:0:0:
192,192,243212,1,0,0:0:0:0:
320,192,243212,1,0,0:0:0:0:
448,192,243212,1,0,0:0:0:0:
192,192,243285,1,0,0:0:0:0:
64,192,243285,1,0,0:0:0:0:
64,192,243358,1,0,0:0:0:0:
320,192,243358,1,0,0:0:0:0:
192,192,243432,1,0,0:0:0:0:
448,192,243432,1,0,0:0:0:0:
448,192,243505,1,0,0:0:0:0:
192,192,243505,1,0,0:0:0:0:
320,192,243505,1,0,0:0:0:0:
64,192,243505,1,0,0:0:0:0:
320,192,243578,1,0,0:0:0:0:
448,192,243578,1,0,0:0:0:0:
192,192,243652,1,0,0:0:0:0:
64,192,243652,1,0,0:0:0:0:
64,192,243725,1,0,0:0:0:0:
320,192,243725,1,0,0:0:0:0:
448,192,243798,1,0,0:0:0:0:
320,192,243798,1,0,0:0:0:0:
192,192,243798,1,0,0:0:0:0:
64,192,243798,1,0,0:0:0:0:
192,192,243872,1,0,0:0:0:0:
448,192,243872,1,0,0:0:0:0:
320,192,243945,1,0,0:0:0:0:
192,192,243945,1,0,0:0:0:0:
64,192,244019,1,0,0:0:0:0:
448,192,244019,1,0,0:0:0:0:
64,192,244092,1,0,0:0:0:0:
192,192,244092,1,0,0:0:0:0:
320,192,244092,1,0,0:0:0:0:
448,192,244092,1,0,0:0:0:0:
320,192,244165,1,0,0:0:0:0:
192,192,244165,1,0,0:0:0:0:
64,192,244239,1,0,0:0:0:0:
448,192,244239,1,0,0:0:0:0:
320,192,244312,1,0,0:0:0:0:
64,192,244312,1,0,0:0:0:0:
64,192,244385,1,0,0:0:0:0:
448,192,244385,1,0,0:0:0:0:
320,192,244385,1,0,0:0:0:0:
192,192,244385,1,0,0:0:0:0:
192,192,244459,1,0,0:0:0:0:
448,192,244459,1,0,0:0:0:0:
320,192,244532,1,0,0:0:0:0:
448,192,244532,1,0,0:0:0:0:
192,192,244605,1,0,0:0:0:0:
64,192,244605,1,0,0:0:0:0:
64,192,244679,1,0,0:0:0:0:
192,192,244679,1,0,0:0:0:0:
320,192,244679,1,0,0:0:0:0:
448,192,244679,1,0,0:0:0:0:
320,192,244752,1,0,0:0:0:0:
192,192,244752,1,0,0:0:0:0:
64,192,244825,1,0,0:0:0:0:
448,192,244825,1,0,0:0:0:0:
320,192,244899,1,0,0:0:0:0:
448,192,244899,1,0,0:0:0:0:
64,192,244972,1,0,0:0:0:0:
192,192,244972,1,0,0:0:0:0:
320,192,244972,1,0,0:0:0:0:
448,192,244972,1,0,0:0:0:0:
192,192,245045,1,0,0:0:0:0:
64,192,245045,1,0,0:0:0:0:
64,192,245119,1,0,0:0:0:0:
320,192,245119,1,0,0:0:0:0:
192,192,245192,1,0,0:0:0:0:
448,192,245192,1,0,0:0:0:0:
64,192,245265,1,0,0:0:0:0:
192,192,245265,1,0,0:0:0:0:
320,192,245265,1,0,0:0:0:0:
448,192,245265,1,0,0:0:0:0:
320,192,245339,1,0,0:0:0:0:
448,192,245339,1,0,0:0:0:0:
192,192,245412,1,0,0:0:0:0:
64,192,245412,1,0,0:0:0:0:
320,192,245486,1,0,0:0:0:0:
64,192,245486,1,0,0:0:0:0:
64,192,245559,1,0,0:0:0:0:
192,192,245559,1,0,0:0:0:0:
320,192,245559,1,0,0:0:0:0:
448,192,245559,1,0,0:0:0:0:
192,192,245632,1,0,0:0:0:0:
320,192,245632,1,0,0:0:0:0:
64,192,245706,1,0,0:0:0:0:
448,192,245706,1,0,0:0:0:0:
192,192,245779,1,0,0:0:0:0:
320,192,245779,1,0,0:0:0:0:
448,192,245852,1,0,0:0:0:0:
320,192,245852,1,0,0:0:0:0:
192,192,245852,1,0,0:0:0:0:
64,192,245852,1,0,0:0:0:0:
320,192,245926,1,0,0:0:0:0:
448,192,245926,1,0,0:0:0:0:
64,192,245999,1,0,0:0:0:0:
192,192,245999,1,0,0:0:0:0:
64,192,246072,1,0,0:0:0:0:
448,192,246072,1,0,0:0:0:0:
192,192,246146,1,0,0:0:0:0:
64,192,246146,1,0,0:0:0:0:
320,192,246146,1,0,0:0:0:0:
448,192,246146,1,0,0:0:0:0:
192,192,246219,1,0,0:0:0:0:
320,192,246219,1,0,0:0:0:0:
448,192,246292,1,0,0:0:0:0:
320,192,246292,1,0,0:0:0:0:
64,192,246366,1,0,0:0:0:0:
192,192,246366,1,0,0:0:0:0:
192,192,246439,1,0,0:0:0:0:
320,192,246439,1,0,0:0:0:0:
448,192,246439,1,0,0:0:0:0:
64,192,246512,1,0,0:0:0:0:
448,192,246512,1,0,0:0:0:0:
320,192,246586,1,0,0:0:0:0:
192,192,246586,1,0,0:0:0:0:
64,192,246659,1,0,0:0:0:0:
320,192,246659,1,0,0:0:0:0:
64,192,246732,1,0,0:0:0:0:
192,192,246732,1,0,0:0:0:0:
448,192,246732,1,0,0:0:0:0:
320,192,246806,1,0,0:0:0:0:
448,192,246806,1,0,0:0:0:0:
192,192,246879,1,0,0:0:0:0:
320,192,246879,1,0,0:0:0:0:
64,192,246953,1,0,0:0:0:0:
448,192,246953,1,0,0:0:0:0:
64,192,247026,1,0,0:0:0:0:
192,192,247026,1,0,0:0:0:0:
320,192,247026,1,0,0:0:0:0:
192,192,247099,1,0,0:0:0:0:
448,192,247099,1,0,0:0:0:0:
320,192,247173,1,0,0:0:0:0:
448,192,247173,1,0,0:0:0:0:
192,192,247246,1,0,0:0:0:0:
64,192,247246,1,0,0:0:0:0:
64,192,247319,1,0,0:0:0:0:
320,192,247319,1,0,0:0:0:0:
192,192,247319,1,0,0:0:0:0:
448,192,247393,1,0,0:0:0:0:
320,192,247393,1,0,0:0:0:0:
64,192,247466,1,0,0:0:0:0:
320,192,247466,1,0,0:0:0:0:
192,192,247539,1,0,0:0:0:0:
448,192,247539,1,0,0:0:0:0:
320,192,247613,1,0,0:0:0:0:
448,192,247613,1,0,0:0:0:0:
64,192,247613,1,0,0:0:0:0:
192,192,247686,1,0,0:0:0:0:
320,192,247686,1,0,0:0:0:0:
192,192,247759,1,0,0:0:0:0:
64,192,247759,1,0,0:0:0:0:
64,192,247833,1,0,0:0:0:0:
320,192,247833,1,0,0:0:0:0:
320,192,247906,1,0,0:0:0:0:
448,192,247906,1,0,0:0:0:0:
192,192,247906,1,0,0:0:0:0:
64,192,247979,1,0,0:0:0:0:
448,192,247979,1,0,0:0:0:0:
192,192,248053,1,0,0:0:0:0:
64,192,248053,1,0,0:0:0:0:
192,192,248126,1,0,0:0:0:0:
320,192,248126,1,0,0:0:0:0:
320,192,248199,1,0,0:0:0:0:
448,192,248199,1,0,0:0:0:0:
64,192,248199,1,0,0:0:0:0:
192,192,248273,1,0,0:0:0:0:
448,192,248273,1,0,0:0:0:0:
320,192,248346,1,0,0:0:0:0:
64,192,248346,1,0,0:0:0:0:
192,192,248420,1,0,0:0:0:0:
320,192,248420,1,0,0:0:0:0:
64,192,248493,1,0,0:0:0:0:
192,192,248493,1,0,0:0:0:0:
448,192,248493,1,0,0:0:0:0:
320,192,248566,1,0,0:0:0:0:
448,192,248566,1,0,0:0:0:0:
192,192,248640,1,0,0:0:0:0:
64,192,248640,1,0,0:0:0:0:
64,192,248713,1,0,0:0:0:0:
320,192,248713,1,0,0:0:0:0:
64,192,248786,1,0,0:0:0:0:
448,192,248786,1,0,0:0:0:0:
320,192,248786,1,0,0:0:0:0:
192,192,248860,1,0,0:0:0:0:
320,192,248860,1,0,0:0:0:0:
64,192,248933,1,0,0:0:0:0:
448,192,248933,1,0,0:0:0:0:
192,192,249006,1,0,0:0:0:0:
320,192,249006,1,0,0:0:0:0:
192,192,249080,1,0,0:0:0:0:
320,192,249080,1,0,0:0:0:0:
448,192,249080,1,0,0:0:0:0:
64,192,249153,1,0,0:0:0:0:
448,192,249153,1,0,0:0:0:0:
320,192,249226,1,0,0:0:0:0:
64,192,249226,1,0,0:0:0:0:
192,192,249300,1,0,0:0:0:0:
448,192,249300,1,0,0:0:0:0:
192,192,249373,1,0,0:0:0:0:
320,192,249373,1,0,0:0:0:0:
64,192,249373,1,0,0:0:0:0:
448,192,249446,1,0,0:0:0:0:
320,192,249446,1,0,0:0:0:0:
64,192,249520,1,0,0:0:0:0:
448,192,249520,1,0,0:0:0:0:
192,192,249593,1,0,0:0:0:0:
320,192,249593,1,0,0:0:0:0:
192,192,249666,1,0,0:0:0:0:
448,192,249666,1,0,0:0:0:0:
64,192,249666,1,0,0:0:0:0:
320,192,249740,1,0,0:0:0:0:
448,192,249740,1,0,0:0:0:0:
64,192,249813,1,0,0:0:0:0:
320,192,249813,1,0,0:0:0:0:
192,192,249887,1,0,0:0:0:0:
448,192,249887,1,0,0:0:0:0:
64,192,249960,1,0,0:0:0:0:
192,192,249960,1,0,0:0:0:0:
320,192,249960,1,0,0:0:0:0:
448,192,250033,1,0,0:0:0:0:
320,192,250033,1,0,0:0:0:0:
64,192,250107,1,0,0:0:0:0:
448,192,250107,1,0,0:0:0:0:
192,192,250180,1,0,0:0:0:0:
64,192,250180,1,0,0:0:0:0:
192,192,250253,1,0,0:0:0:0:
320,192,250253,1,0,0:0:0:0:
448,192,250253,1,0,0:0:0:0:
64,192,250327,1,0,0:0:0:0:
448,192,250327,1,0,0:0:0:0:
192,192,250400,1,0,0:0:0:0:
320,192,250400,1,0,0:0:0:0:
64,192,250473,1,0,0:0:0:0:
320,192,250473,1,0,0:0:0:0:
448,192,250547,1,0,0:0:0:0:
320,192,250547,1,0,0:0:0:0:
192,192,250547,1,0,0:0:0:0:
64,192,250620,1,0,0:0:0:0:
448,192,250620,1,0,0:0:0:0:
320,192,250693,1,0,0:0:0:0:
64,192,250693,1,0,0:0:0:0:
192,192,250767,1,0,0:0:0:0:
448,192,250767,1,0,0:0:0:0:
192,192,250840,1,0,0:0:0:0:
320,192,250840,1,0,0:0:0:0:
64,192,250840,1,0,0:0:0:0:
64,192,250987,1,0,0:0:0:0:
192,192,250987,1,0,0:0:0:0:
448,192,250987,1,0,0:0:0:0:
192,192,251133,1,0,0:0:0:0:
448,192,251133,1,0,0:0:0:0:
320,192,251133,1,0,0:0:0:0:
64,192,251207,1,0,0:0:0:0:
192,192,251280,1,0,0:0:0:0:
448,192,251280,1,0,0:0:0:0:
320,192,251353,1,0,0:0:0:0:
192,192,251427,1,0,0:0:0:0:
64,192,251427,1,0,0:0:0:0:
448,192,251427,1,0,0:0:0:0:
320,192,251500,1,0,0:0:0:0:
192,192,251574,1,0,0:0:0:0:
64,192,251574,1,0,0:0:0:0:
448,192,251647,1,0,0:0:0:0:
320,192,251720,1,0,0:0:0:0:
192,192,251720,1,0,0:0:0:0:
64,192,251720,1,0,0:0:0:0:
448,192,251794,1,0,0:0:0:0:
64,192,251867,1,0,0:0:0:0:
320,192,251867,1,0,0:0:0:0:
192,192,251940,1,0,0:0:0:0:
64,192,252014,1,0,0:0:0:0:
448,192,252014,1,0,0:0:0:0:
320,192,252087,1,0,0:0:0:0:
448,192,252160,1,0,0:0:0:0:
192,192,252160,1,0,0:0:0:0:
64,192,252234,1,0,0:0:0:0:
192,192,252307,1,0,0:0:0:0:
320,192,252307,1,0,0:0:0:0:
448,192,252307,1,0,0:0:0:0:
64,192,252380,1,0,0:0:0:0:
320,192,252454,1,0,0:0:0:0:
448,192,252454,1,0,0:0:0:0:
192,192,252527,1,0,0:0:0:0:
64,192,252600,1,0,0:0:0:0:
320,192,252600,1,0,0:0:0:0:
448,192,252600,1,0,0:0:0:0:
192,192,252674,1,0,0:0:0:0:
448,192,252747,1,0,0:0:0:0:
64,192,252747,1,0,0:0:0:0:
320,192,252820,1,0,0:0:0:0:
192,192,252894,1,0,0:0:0:0:
64,192,252894,1,0,0:0:0:0:
448,192,252967,1,0,0:0:0:0:
320,192,253041,1,0,0:0:0:0:
192,192,253041,1,0,0:0:0:0:
64,192,253041,1,0,0:0:0:0:
448,192,253114,1,0,0:0:0:0:
320,192,253187,1,0,0:0:0:0:
192,192,253187,1,0,0:0:0:0:
64,192,253261,1,0,0:0:0:0:
192,192,253334,1,0,0:0:0:0:
448,192,253334,1,0,0:0:0:0:
320,192,253407,1,0,0:0:0:0:
64,192,253481,1,0,0:0:0:0:
192,192,253481,1,0,0:0:0:0:
448,192,253481,1,0,0:0:0:0:
320,192,253554,1,0,0:0:0:0:
64,192,253627,1,0,0:0:0:0:
448,192,253627,1,0,0:0:0:0:
192,192,253701,1,0,0:0:0:0:
320,192,253774,1,0,0:0:0:0:
448,192,253774,1,0,0:0:0:0:
64,192,253774,1,0,0:0:0:0:
192,192,253847,1,0,0:0:0:0:
320,192,253921,1,0,0:0:0:0:
448,192,253921,1,0,0:0:0:0:
64,192,253994,1,0,0:0:0:0:
192,192,254067,1,0,0:0:0:0:
320,192,254067,1,0,0:0:0:0:
448,192,254067,1,0,0:0:0:0:
64,192,254141,1,0,0:0:0:0:
192,192,254214,1,0,0:0:0:0:
448,192,254214,1,0,0:0:0:0:
320,192,254287,1,0,0:0:0:0:
192,192,254361,1,0,0:0:0:0:
64,192,254361,1,0,0:0:0:0:
448,192,254361,1,0,0:0:0:0:
320,192,254434,1,0,0:0:0:0:
192,192,254508,1,0,0:0:0:0:
64,192,254508,1,0,0:0:0:0:
448,192,254581,1,0,0:0:0:0:
64,192,254654,1,0,0:0:0:0:
192,192,254654,1,0,0:0:0:0:
320,192,254654,1,0,0:0:0:0:
448,192,254728,1,0,0:0:0:0:
320,192,254801,1,0,0:0:0:0:
192,192,254801,1,0,0:0:0:0:
64,192,254801,1,0,0:0:0:0:
448,192,254874,1,0,0:0:0:0:
320,192,254948,1,0,0:0:0:0:
192,192,254948,1,0,0:0:0:0:
64,192,254948,1,0,0:0:0:0:
448,192,255021,1,0,0:0:0:0:
64,192,255094,1,0,0:0:0:0:
320,192,255094,1,0,0:0:0:0:
192,192,255168,1,0,0:0:0:0:
320,192,255241,1,0,0:0:0:0:
448,192,255241,1,0,0:0:0:0:
64,192,255241,1,0,0:0:0:0:
192,192,255314,1,0,0:0:0:0:
448,192,255388,1,0,0:0:0:0:
320,192,255424,1,0,0:0:0:0:
192,192,255461,1,0,0:0:0:0:
64,192,255498,1,0,0:0:0:0:
448,192,255534,1,0,0:0:0:0:
320,192,255571,1,0,0:0:0:0:
64,192,255608,1,0,0:0:0:0:
192,192,255644,1,0,0:0:0:0:
320,192,255681,1,0,0:0:0:0:
448,192,255718,1,0,0:0:0:0:
64,192,255754,1,0,0:0:0:0:
192,192,255754,1,0,0:0:0:0:
320,192,255828,1,0,0:0:0:0:
448,192,255828,1,0,0:0:0:0:
64,192,255828,1,0,0:0:0:0:
192,192,255975,1,0,0:0:0:0:
192,192,256121,1,0,0:0:0:0:
320,192,256121,1,0,0:0:0:0:
448,192,256121,1,0,0:0:0:0:
64,192,256121,1,0,0:0:0:0:
448,192,256268,1,0,0:0:0:0:
320,192,256415,1,0,0:0:0:0:
192,192,256415,1,0,0:0:0:0:
64,192,256415,1,0,0:0:0:0:
192,192,256561,1,0,0:0:0:0:
64,192,256708,1,0,0:0:0:0:
192,192,256708,1,0,0:0:0:0:
320,192,256708,1,0,0:0:0:0:
448,192,256708,1,0,0:0:0:0:
448,192,256855,1,0,0:0:0:0:
320,192,257001,1,0,0:0:0:0:
448,192,257001,1,0,0:0:0:0:
64,192,257001,1,0,0:0:0:0:
192,192,257148,1,0,0:0:0:0:
64,192,257295,1,0,0:0:0:0:
192,192,257295,1,0,0:0:0:0:
448,192,257295,1,0,0:0:0:0:
320,192,257295,1,0,0:0:0:0:
320,192,257442,1,0,0:0:0:0:
192,192,257588,1,0,0:0:0:0:
448,192,257588,1,0,0:0:0:0:
64,192,257588,1,0,0:0:0:0:
192,192,257735,1,0,0:0:0:0:
192,192,257882,1,0,0:0:0:0:
320,192,257882,1,0,0:0:0:0:
448,192,257882,1,0,0:0:0:0:
64,192,257882,1,0,0:0:0:0:
448,192,258028,1,0,0:0:0:0:
320,192,258175,1,0,0:0:0:0:
448,192,258175,1,0,0:0:0:0:
192,192,258175,1,0,0:0:0:0:
64,192,258322,1,0,0:0:0:0:
64,192,258468,1,0,0:0:0:0:
320,192,258468,1,0,0:0:0:0:
192,192,258468,1,0,0:0:0:0:
448,192,258468,1,0,0:0:0:0:
320,192,258615,1,0,0:0:0:0:
64,192,258762,1,0,0:0:0:0:
192,192,258762,1,0,0:0:0:0:
448,192,258762,1,0,0:0:0:0:
192,192,258909,1,0,0:0:0:0:
64,192,259055,1,0,0:0:0:0:
192,192,259055,1,0,0:0:0:0:
320,192,259055,1,0,0:0:0:0:
448,192,259055,1,0,0:0:0:0:
320,192,259202,1,0,0:0:0:0:
64,192,259349,1,0,0:0:0:0:
192,192,259349,1,0,0:0:0:0:
448,192,259349,1,0,0:0:0:0:
64,192,259495,1,0,0:0:0:0:
64,192,259642,1,0,0:0:0:0:
192,192,259642,1,0,0:0:0:0:
448,192,259642,1,0,0:0:0:0:
320,192,259642,1,0,0:0:0:0:
448,192,259789,1,0,0:0:0:0:
64,192,259935,1,0,0:0:0:0:
320,192,259935,1,0,0:0:0:0:
448,192,259935,1,0,0:0:0:0:
192,192,260082,1,0,0:0:0:0:
64,192,260229,1,0,0:0:0:0:
192,192,260229,1,0,0:0:0:0:
320,192,260229,1,0,0:0:0:0:
448,192,260229,1,0,0:0:0:0:
64,192,260376,1,0,0:0:0:0:
448,192,260376,1,0,0:0:0:0:
320,192,260376,1,0,0:0:0:0:
448,192,260522,1,0,0:0:0:0:
320,192,260522,1,0,0:0:0:0:
192,192,260522,1,0,0:0:0:0:
64,192,260522,1,0,0:0:0:0:
192,192,260669,1,0,0:0:0:0:
320,192,260669,1,0,0:0:0:0:
64,192,260669,1,0,0:0:0:0:
64,192,260816,1,0,0:0:0:0:
192,192,260816,1,0,0:0:0:0:
320,192,260816,1,0,0:0:0:0:
448,192,260816,1,0,0:0:0:0:
192,192,260962,1,0,0:0:0:0:
64,192,260962,1,0,0:0:0:0:
448,192,260962,1,0,0:0:0:0:
64,192,261109,1,0,0:0:0:0:
192,192,261109,1,0,0:0:0:0:
320,192,261109,1,0,0:0:0:0:
448,192,261109,1,0,0:0:0:0:
320,192,261256,1,0,0:0:0:0:
448,192,261256,1,0,0:0:0:0:
64,192,261256,1,0,0:0:0:0:
64,192,261402,1,0,0:0:0:0:
192,192,261402,1,0,0:0:0:0:
320,192,261402,1,0,0:0:0:0:
448,192,261402,1,0,0:0:0:0:
64,192,261549,1,0,0:0:0:0:
320,192,261549,1,0,0:0:0:0:
192,192,261549,1,0,0:0:0:0:
64,192,261696,1,0,0:0:0:0:
192,192,261696,1,0,0:0:0:0:
320,192,261696,1,0,0:0:0:0:
448,192,261696,1,0,0:0:0:0:
192,192,261843,1,0,0:0:0:0:
64,192,261843,1,0,0:0:0:0:
448,192,261843,1,0,0:0:0:0:
64,192,261989,1,0,0:0:0:0:
192,192,261989,1,0,0:0:0:0:
320,192,261989,1,0,0:0:0:0:
448,192,261989,1,0,0:0:0:0:
320,192,262136,1,0,0:0:0:0:
448,192,262136,1,0,0:0:0:0:
192,192,262136,1,0,0:0:0:0:
64,192,262283,1,0,0:0:0:0:
192,192,262283,1,0,0:0:0:0:
320,192,262283,1,0,0:0:0:0:
448,192,262283,1,0,0:0:0:0:
448,192,262429,1,0,0:0:0:0:
320,192,262429,1,0,0:0:0:0:
64,192,262429,1,0,0:0:0:0:
64,192,262576,1,0,0:0:0:0:
192,192,262576,1,0,0:0:0:0:
320,192,262576,1,0,0:0:0:0:
448,192,262576,1,0,0:0:0:0:
192,192,262723,1,0,0:0:0:0:
64,192,262723,1,0,0:0:0:0:
320,192,262723,1,0,0:0:0:0:
320,192,262869,1,0,0:0:0:0:
448,192,262869,1,0,0:0:0:0:
192,192,262943,1,0,0:0:0:0:
64,192,262943,1,0,0:0:0:0:
320,192,263016,1,0,0:0:0:0:
448,192,263016,1,0,0:0:0:0:
192,192,263089,1,0,0:0:0:0:
64,192,263089,1,0,0:0:0:0:
320,192,263163,1,0,0:0:0:0:
448,192,263163,1,0,0:0:0:0:
192,192,263236,1,0,0:0:0:0:
64,192,263236,1,0,0:0:0:0:
320,192,263310,1,0,0:0:0:0:
448,192,263310,1,0,0:0:0:0:
192,192,263383,1,0,0:0:0:0:
64,192,263383,1,0,0:0:0:0:
320,192,263456,1,0,0:0:0:0:
448,192,263456,1,0,0:0:0:0:
192,192,263530,1,0,0:0:0:0:
64,192,263530,1,0,0:0:0:0:
320,192,263603,1,0,0:0:0:0:
448,192,263603,1,0,0:0:0:0:
192,192,263676,1,0,0:0:0:0:
64,192,263676,1,0,0:0:0:0:
320,192,263750,1,0,0:0:0:0:
448,192,263750,1,0,0:0:0:0:
192,192,263823,1,0,0:0:0:0:
64,192,263823,1,0,0:0:0:0:
320,192,263896,1,0,0:0:0:0:
448,192,263896,1,0,0:0:0:0:
192,192,263970,1,0,0:0:0:0:
64,192,263970,1,0,0:0:0:0:
448,192,264043,1,0,0:0:0:0:
320,192,264080,1,0,0:0:0:0:
192,192,264116,1,0,0:0:0:0:
64,192,264153,1,0,0:0:0:0:
448,192,264190,1,0,0:0:0:0:
320,192,264226,1,0,0:0:0:0:
192,192,264263,1,0,0:0:0:0:
64,192,264300,1,0,0:0:0:0:
448,192,264336,1,0,0:0:0:0:
320,192,264373,1,0,0:0:0:0:
64,192,264410,1,0,0:0:0:0:
192,192,264446,1,0,0:0:0:0:
448,192,264483,1,0,0:0:0:0:
320,192,264520,1,0,0:0:0:0:
64,192,264556,1,0,0:0:0:0:
192,192,264593,1,0,0:0:0:0:
448,192,264630,1,0,0:0:0:0:
320,192,264666,1,0,0:0:0:0:
192,192,264703,1,0,0:0:0:0:
64,192,264740,1,0,0:0:0:0:
320,192,264850,1,0,0:0:0:0:
192,192,264887,1,0,0:0:0:0:
64,192,264923,1,0,0:0:0:0:
448,192,264960,1,0,0:0:0:0:
192,192,265070,1,0,0:0:0:0:
64,192,265107,1,0,0:0:0:0:
448,192,265143,1,0,0:0:0:0:
320,192,265180,1,0,0:0:0:0:
192,192,265217,1,0,0:0:0:0:
64,192,265217,1,0,0:0:0:0:
