osu file format v14

[General]
AudioFilename: audio 1.100x.mp3
AudioLeadIn: 0
PreviewTime: 161754
Countdown: 0
SampleSet: None
StackLeniency: 0.7
Mode: 3
LetterboxInBreaks: 0
SpecialStyle: 0
WidescreenStoryboard: 0

[Editor]
DistanceSpacing: 0.8
BeatDivisor: 4
GridSize: 16
TimelineZoom: 1.7

[Metadata]
Title:Tactical Railroad
TitleUnicode:Tactical Railroad
Artist:DJ Sharpnel
ArtistUnicode:DJ Sharpnel
Creator:YoungBurger14
Version:1.1x !!
Source:
Tags:レール・ウォーズ -nihonkoku yuuteddou kouantai- opening 茅原実里 chihara minori remix electronic japanese ver2.0 colossalcom2016 limited srpx-0002 srpx-0004 comiket c86 コミケット86 hardcore jcore j-core bootleg -日本國有鉄道公安隊- 向かい風に打たれながら mukai kaze ni utare nagara jack chord chordjack speedjack impossible
BeatmapID:4536764
BeatmapSetID:2153117

[Difficulty]
HPDrainRate:7
CircleSize:4
OverallDifficulty:8
ApproachRate:6.3
SliderMultiplier:1.4
SliderTickRate:1

[Events]
//Background and Video events
0,0,"Tactical Railroad.jpg",0,0
//Break Periods
//Storyboard Layer 0 (Background)
//Storyboard Layer 1 (Fail)
//Storyboard Layer 2 (Pass)
//Storyboard Layer 3 (Foreground)
//Storyboard Layer 4 (Overlay)
//Storyboard Sound Samples

[TimingPoints]
1052,266.726363636364,4,1,0,30,1,0
65066,-100,4,1,0,30,0,1
109876,-100,4,1,0,30,0,0
162154,-100,4,1,0,30,0,1
206965,-100,4,1,0,30,0,0

[HitObjects]
64,192,1052,5,0,0:0:0:0:
192,192,1052,1,0,0:0:0:0:
320,192,1052,1,0,0:0:0:0:
448,192,1052,1,0,0:0:0:0:
64,192,1185,1,0,0:0:0:0:
192,192,1185,1,0,0:0:0:0:
64,192,1319,1,0,0:0:0:0:
192,192,1319,1,0,0:0:0:0:
320,192,1319,1,0,0:0:0:0:
448,192,1319,1,0,0:0:0:0:
64,192,1452,1,0,0:0:0:0:
448,192,1452,1,0,0:0:0:0:
320,192,1585,1,0,0:0:0:0:
448,192,1585,1,0,0:0:0:0:
192,192,1585,1,0,0:0:0:0:
64,192,1585,1,0,0:0:0:0:
192,192,1719,1,0,0:0:0:0:
320,192,1719,1,0,0:0:0:0:
64,192,1852,1,0,0:0:0:0:
192,192,1852,1,0,0:0:0:0:
320,192,1852,1,0,0:0:0:0:
448,192,1852,1,0,0:0:0:0:
192,192,1985,1,0,0:0:0:0:
448,192,1985,1,0,0:0:0:0:
192,192,2119,1,0,0:0:0:0:
320,192,2119,1,0,0:0:0:0:
448,192,2119,1,0,0:0:0:0:
64,192,2119,1,0,0:0:0:0:
64,192,2252,1,0,0:0:0:0:
320,192,2252,1,0,0:0:0:0:
64,192,2385,1,0,0:0:0:0:
192,192,2385,1,0,0:0:0:0:
320,192,2385,1,0,0:0:0:0:
448,192,2385,1,0,0:0:0:0:
448,192,2519,1,0,0:0:0:0:
320,192,2519,1,0,0:0:0:0:
64,192,2652,1,0,0:0:0:0:
192,192,2652,1,0,0:0:0:0:
448,192,2652,1,0,0:0:0:0:
320,192,2652,1,0,0:0:0:0:
192,192,2786,1,0,0:0:0:0:
64,192,2786,1,0,0:0:0:0:
64,192,2919,1,0,0:0:0:0:
192,192,2919,1,0,0:0:0:0:
320,192,2919,1,0,0:0:0:0:
448,192,2919,1,0,0:0:0:0:
64,192,3052,1,0,0:0:0:0:
448,192,3052,1,0,0:0:0:0:
192,192,3186,1,0,0:0:0:0:
64,192,3186,1,0,0:0:0:0:
320,192,3186,1,0,0:0:0:0:
448,192,3186,1,0,0:0:0:0:
64,192,3319,1,0,0:0:0:0:
320,192,3319,1,0,0:0:0:0:
64,192,3452,1,0,0:0:0:0:
192,192,3452,1,0,0:0:0:0:
448,192,3452,1,0,0:0:0:0:
320,192,3452,1,0,0:0:0:0:
192,192,3586,1,0,0:0:0:0:
320,192,3586,1,0,0:0:0:0:
64,192,3719,1,0,0:0:0:0:
192,192,3719,1,0,0:0:0:0:
320,192,3719,1,0,0:0:0:0:
448,192,3719,1,0,0:0:0:0:
448,192,3852,1,0,0:0:0:0:
64,192,3852,1,0,0:0:0:0:
64,192,3986,1,0,0:0:0:0:
192,192,3986,1,0,0:0:0:0:
448,192,3986,1,0,0:0:0:0:
320,192,3986,1,0,0:0:0:0:
320,192,4120,1,0,0:0:0:0:
448,192,4120,1,0,0:0:0:0:
64,192,4252,1,0,0:0:0:0:
192,192,4252,1,0,0:0:0:0:
320,192,4252,1,0,0:0:0:0:
448,192,4252,1,0,0:0:0:0:
64,192,4386,1,0,0:0:0:0:
192,192,4386,1,0,0:0:0:0:
64,192,4520,1,0,0:0:0:0:
320,192,4520,1,0,0:0:0:0:
448,192,4520,1,0,0:0:0:0:
192,192,4520,1,0,0:0:0:0:
64,192,4652,1,0,0:0:0:0:
320,192,4652,1,0,0:0:0:0:
64,192,4786,1,0,0:0:0:0:
192,192,4786,1,0,0:0:0:0:
320,192,4786,1,0,0:0:0:0:
448,192,4786,1,0,0:0:0:0:
192,192,4920,1,0,0:0:0:0:
448,192,4920,1,0,0:0:0:0:
64,192,5052,1,0,0:0:0:0:
192,192,5052,1,0,0:0:0:0:
320,192,5052,1,0,0:0:0:0:
448,192,5052,1,0,0:0:0:0:
320,192,5186,1,0,0:0:0:0:
448,192,5186,1,0,0:0:0:0:
64,192,5320,1,0,0:0:0:0:
192,192,5320,1,0,0:0:0:0:
320,192,5320,1,0,0:0:0:0:
448,192,5320,1,0,0:0:0:0:
192,192,5453,1,0,0:0:0:0:
64,192,5453,1,0,0:0:0:0:
64,192,5586,1,0,0:0:0:0:
192,192,5586,1,0,0:0:0:0:
320,192,5586,1,0,0:0:0:0:
448,192,5586,1,0,0:0:0:0:
320,192,5720,1,0,0:0:0:0:
448,192,5720,1,0,0:0:0:0:
64,192,5853,1,0,0:0:0:0:
192,192,5853,1,0,0:0:0:0:
320,192,5853,1,0,0:0:0:0:
448,192,5853,1,0,0:0:0:0:
192,192,5986,1,0,0:0:0:0:
320,192,5986,1,0,0:0:0:0:
64,192,6120,1,0,0:0:0:0:
192,192,6120,1,0,0:0:0:0:
448,192,6120,1,0,0:0:0:0:
320,192,6120,1,0,0:0:0:0:
192,192,6253,1,0,0:0:0:0:
64,192,6253,1,0,0:0:0:0:
64,192,6386,1,0,0:0:0:0:
192,192,6386,1,0,0:0:0:0:
320,192,6386,1,0,0:0:0:0:
448,192,6386,1,0,0:0:0:0:
448,192,6520,1,0,0:0:0:0:
64,192,6520,1,0,0:0:0:0:
64,192,6653,1,0,0:0:0:0:
192,192,6653,1,0,0:0:0:0:
320,192,6653,1,0,0:0:0:0:
448,192,6653,1,0,0:0:0:0:
192,192,6787,1,0,0:0:0:0:
320,192,6787,1,0,0:0:0:0:
64,192,6920,1,0,0:0:0:0:
192,192,6920,1,0,0:0:0:0:
320,192,6920,1,0,0:0:0:0:
448,192,6920,1,0,0:0:0:0:
320,192,7053,1,0,0:0:0:0:
448,192,7053,1,0,0:0:0:0:
64,192,7187,1,0,0:0:0:0:
192,192,7187,1,0,0:0:0:0:
448,192,7187,1,0,0:0:0:0:
320,192,7187,1,0,0:0:0:0:
192,192,7320,1,0,0:0:0:0:
64,192,7320,1,0,0:0:0:0:
64,192,7453,1,0,0:0:0:0:
192,192,7453,1,0,0:0:0:0:
320,192,7453,1,0,0:0:0:0:
448,192,7453,1,0,0:0:0:0:
64,192,7587,1,0,0:0:0:0:
448,192,7587,1,0,0:0:0:0:
64,192,7720,1,0,0:0:0:0:
192,192,7720,1,0,0:0:0:0:
320,192,7720,1,0,0:0:0:0:
448,192,7720,1,0,0:0:0:0:
320,192,7853,1,0,0:0:0:0:
192,192,7853,1,0,0:0:0:0:
64,192,7987,1,0,0:0:0:0:
192,192,7987,1,0,0:0:0:0:
448,192,7987,1,0,0:0:0:0:
320,192,7987,1,0,0:0:0:0:
64,192,8120,1,0,0:0:0:0:
320,192,8120,1,0,0:0:0:0:
192,192,8253,1,0,0:0:0:0:
320,192,8253,1,0,0:0:0:0:
64,192,8253,1,0,0:0:0:0:
448,192,8253,1,0,0:0:0:0:
192,192,8387,1,0,0:0:0:0:
448,192,8387,1,0,0:0:0:0:
64,192,8520,1,0,0:0:0:0:
320,192,8520,1,0,0:0:0:0:
448,192,8520,1,0,0:0:0:0:
192,192,8520,1,0,0:0:0:0:
64,192,8653,1,0,0:0:0:0:
192,192,8653,1,0,0:0:0:0:
448,192,8787,1,0,0:0:0:0:
320,192,8787,1,0,0:0:0:0:
192,192,8787,1,0,0:0:0:0:
64,192,8787,1,0,0:0:0:0:
320,192,8920,1,0,0:0:0:0:
448,192,8920,1,0,0:0:0:0:
448,192,9053,1,0,0:0:0:0:
320,192,9053,1,0,0:0:0:0:
64,192,9053,1,0,0:0:0:0:
192,192,9053,1,0,0:0:0:0:
64,192,9187,1,0,0:0:0:0:
192,192,9220,1,0,0:0:0:0:
320,192,9254,1,0,0:0:0:0:
448,192,9287,1,0,0:0:0:0:
192,192,9320,1,0,0:0:0:0:
64,192,9320,1,0,0:0:0:0:
448,192,9454,1,0,0:0:0:0:
320,192,9487,1,0,0:0:0:0:
192,192,9520,1,0,0:0:0:0:
64,192,9520,1,0,0:0:0:0:
64,192,9587,5,0,0:0:0:0:
192,192,9587,1,0,0:0:0:0:
320,192,9587,1,0,0:0:0:0:
448,192,9654,1,0,0:0:0:0:
320,192,9654,1,0,0:0:0:0:
64,192,9720,1,0,0:0:0:0:
192,192,9720,1,0,0:0:0:0:
64,192,9787,1,0,0:0:0:0:
320,192,9787,1,0,0:0:0:0:
192,192,9854,1,0,0:0:0:0:
320,192,9854,1,0,0:0:0:0:
448,192,9854,1,0,0:0:0:0:
64,192,9920,1,0,0:0:0:0:
448,192,9920,1,0,0:0:0:0:
320,192,9987,1,0,0:0:0:0:
64,192,9987,1,0,0:0:0:0:
192,192,10054,1,0,0:0:0:0:
448,192,10054,1,0,0:0:0:0:
64,192,10120,1,0,0:0:0:0:
192,192,10120,1,0,0:0:0:0:
448,192,10120,1,0,0:0:0:0:
320,192,10187,1,0,0:0:0:0:
64,192,10187,1,0,0:0:0:0:
192,192,10254,1,0,0:0:0:0:
320,192,10254,1,0,0:0:0:0:
64,192,10320,1,0,0:0:0:0:
448,192,10320,1,0,0:0:0:0:
192,192,10387,1,0,0:0:0:0:
320,192,10387,1,0,0:0:0:0:
448,192,10387,1,0,0:0:0:0:
64,192,10454,1,0,0:0:0:0:
192,192,10454,1,0,0:0:0:0:
64,192,10520,1,0,0:0:0:0:
320,192,10520,1,0,0:0:0:0:
192,192,10588,1,0,0:0:0:0:
448,192,10588,1,0,0:0:0:0:
64,192,10654,1,0,0:0:0:0:
448,192,10654,1,0,0:0:0:0:
320,192,10654,1,0,0:0:0:0:
320,192,10720,1,0,0:0:0:0:
192,192,10720,1,0,0:0:0:0:
64,192,10788,1,0,0:0:0:0:
448,192,10788,1,0,0:0:0:0:
320,192,10854,1,0,0:0:0:0:
448,192,10854,1,0,0:0:0:0:
64,192,10920,1,0,0:0:0:0:
192,192,10920,1,0,0:0:0:0:
320,192,10920,1,0,0:0:0:0:
448,192,10988,1,0,0:0:0:0:
64,192,10988,1,0,0:0:0:0:
192,192,11054,1,0,0:0:0:0:
320,192,11054,1,0,0:0:0:0:
64,192,11120,1,0,0:0:0:0:
320,192,11120,1,0,0:0:0:0:
192,192,11188,1,0,0:0:0:0:
448,192,11188,1,0,0:0:0:0:
64,192,11188,1,0,0:0:0:0:
320,192,11254,1,0,0:0:0:0:
448,192,11254,1,0,0:0:0:0:
192,192,11320,1,0,0:0:0:0:
64,192,11320,1,0,0:0:0:0:
192,192,11388,1,0,0:0:0:0:
448,192,11388,1,0,0:0:0:0:
64,192,11454,1,0,0:0:0:0:
320,192,11454,1,0,0:0:0:0:
448,192,11454,1,0,0:0:0:0:
320,192,11520,1,0,0:0:0:0:
192,192,11520,1,0,0:0:0:0:
64,192,11588,1,0,0:0:0:0:
448,192,11588,1,0,0:0:0:0:
320,192,11654,1,0,0:0:0:0:
448,192,11654,1,0,0:0:0:0:
64,192,11720,1,0,0:0:0:0:
192,192,11720,1,0,0:0:0:0:
320,192,11720,1,0,0:0:0:0:
192,192,11788,1,0,0:0:0:0:
448,192,11788,1,0,0:0:0:0:
64,192,11854,1,0,0:0:0:0:
320,192,11854,1,0,0:0:0:0:
192,192,11921,1,0,0:0:0:0:
64,192,11921,1,0,0:0:0:0:
320,192,11988,1,0,0:0:0:0:
448,192,11988,1,0,0:0:0:0:
192,192,11988,1,0,0:0:0:0:
64,192,12054,1,0,0:0:0:0:
448,192,12054,1,0,0:0:0:0:
320,192,12121,1,0,0:0:0:0:
192,192,12121,1,0,0:0:0:0:
192,192,12188,1,0,0:0:0:0:
448,192,12188,1,0,0:0:0:0:
320,192,12254,1,0,0:0:0:0:
448,192,12254,1,0,0:0:0:0:
64,192,12254,1,0,0:0:0:0:
192,192,12321,1,0,0:0:0:0:
320,192,12321,1,0,0:0:0:0:
64,192,12388,1,0,0:0:0:0:
448,192,12388,1,0,0:0:0:0:
448,192,12454,1,0,0:0:0:0:
192,192,12454,1,0,0:0:0:0:
192,192,12521,1,0,0:0:0:0:
64,192,12521,1,0,0:0:0:0:
320,192,12521,1,0,0:0:0:0:
320,192,12588,1,0,0:0:0:0:
64,192,12588,1,0,0:0:0:0:
192,192,12654,1,0,0:0:0:0:
448,192,12654,1,0,0:0:0:0:
320,192,12721,1,0,0:0:0:0:
448,192,12721,1,0,0:0:0:0:
64,192,12788,1,0,0:0:0:0:
192,192,12788,1,0,0:0:0:0:
448,192,12788,1,0,0:0:0:0:
320,192,12854,1,0,0:0:0:0:
64,192,12854,1,0,0:0:0:0:
192,192,12921,1,0,0:0:0:0:
320,192,12921,1,0,0:0:0:0:
64,192,12988,1,0,0:0:0:0:
448,192,12988,1,0,0:0:0:0:
320,192,13054,1,0,0:0:0:0:
448,192,13054,1,0,0:0:0:0:
64,192,13054,1,0,0:0:0:0:
192,192,13121,1,0,0:0:0:0:
320,192,13121,1,0,0:0:0:0:
192,192,13188,1,0,0:0:0:0:
448,192,13188,1,0,0:0:0:0:
64,192,13255,1,0,0:0:0:0:
320,192,13255,1,0,0:0:0:0:
320,192,13321,1,0,0:0:0:0:
448,192,13321,1,0,0:0:0:0:
192,192,13321,1,0,0:0:0:0:
64,192,13388,1,0,0:0:0:0:
192,192,13388,1,0,0:0:0:0:
64,192,13455,1,0,0:0:0:0:
320,192,13455,1,0,0:0:0:0:
192,192,13521,1,0,0:0:0:0:
448,192,13521,1,0,0:0:0:0:
64,192,13588,1,0,0:0:0:0:
192,192,13588,1,0,0:0:0:0:
320,192,13588,1,0,0:0:0:0:
320,192,13655,1,0,0:0:0:0:
448,192,13655,1,0,0:0:0:0:
64,192,13721,1,0,0:0:0:0:
192,192,13721,1,0,0:0:0:0:
448,192,13721,1,0,0:0:0:0:
320,192,13788,1,0,0:0:0:0:
64,192,13788,1,0,0:0:0:0:
320,192,13855,1,0,0:0:0:0:
448,192,13855,1,0,0:0:0:0:
192,192,13855,1,0,0:0:0:0:
64,192,13921,1,0,0:0:0:0:
448,192,13921,1,0,0:0:0:0:
320,192,13988,1,0,0:0:0:0:
64,192,13988,1,0,0:0:0:0:
192,192,14055,1,0,0:0:0:0:
448,192,14055,1,0,0:0:0:0:
64,192,14121,1,0,0:0:0:0:
192,192,14121,1,0,0:0:0:0:
320,192,14121,1,0,0:0:0:0:
320,192,14188,1,0,0:0:0:0:
448,192,14188,1,0,0:0:0:0:
192,192,14255,1,0,0:0:0:0:
64,192,14255,1,0,0:0:0:0:
64,192,14321,1,0,0:0:0:0:
320,192,14321,1,0,0:0:0:0:
192,192,14388,1,0,0:0:0:0:
320,192,14388,1,0,0:0:0:0:
448,192,14388,1,0,0:0:0:0:
192,192,14455,1,0,0:0:0:0:
448,192,14455,1,0,0:0:0:0:
64,192,14521,1,0,0:0:0:0:
320,192,14521,1,0,0:0:0:0:
64,192,14588,1,0,0:0:0:0:
192,192,14588,1,0,0:0:0:0:
320,192,14655,1,0,0:0:0:0:
448,192,14655,1,0,0:0:0:0:
192,192,14655,1,0,0:0:0:0:
64,192,14721,1,0,0:0:0:0:
320,192,14721,1,0,0:0:0:0:
192,192,14789,1,0,0:0:0:0:
448,192,14789,1,0,0:0:0:0:
320,192,14855,1,0,0:0:0:0:
448,192,14855,1,0,0:0:0:0:
64,192,14921,1,0,0:0:0:0:
192,192,14921,1,0,0:0:0:0:
320,192,14921,1,0,0:0:0:0:
448,192,14989,1,0,0:0:0:0:
64,192,14989,1,0,0:0:0:0:
320,192,15055,1,0,0:0:0:0:
192,192,15055,1,0,0:0:0:0:
192,192,15121,1,0,0:0:0:0:
448,192,15121,1,0,0:0:0:0:
64,192,15189,1,0,0:0:0:0:
448,192,15189,1,0,0:0:0:0:
320,192,15189,1,0,0:0:0:0:
192,192,15255,1,0,0:0:0:0:
64,192,15255,1,0,0:0:0:0:
320,192,15321,1,0,0:0:0:0:
192,192,15321,1,0,0:0:0:0:
64,192,15389,1,0,0:0:0:0:
448,192,15389,1,0,0:0:0:0:
192,192,15455,1,0,0:0:0:0:
320,192,15455,1,0,0:0:0:0:
448,192,15455,1,0,0:0:0:0:
64,192,15521,1,0,0:0:0:0:
320,192,15521,1,0,0:0:0:0:
448,192,15589,1,0,0:0:0:0:
64,192,15589,1,0,0:0:0:0:
192,192,15655,1,0,0:0:0:0:
320,192,15655,1,0,0:0:0:0:
192,192,15721,1,0,0:0:0:0:
320,192,15721,1,0,0:0:0:0:
448,192,15721,1,0,0:0:0:0:
64,192,15789,1,0,0:0:0:0:
448,192,15789,1,0,0:0:0:0:
192,192,15855,1,0,0:0:0:0:
64,192,15855,1,0,0:0:0:0:
192,192,15921,1,0,0:0:0:0:
320,192,15921,1,0,0:0:0:0:
64,192,15989,1,0,0:0:0:0:
192,192,15989,1,0,0:0:0:0:
448,192,15989,1,0,0:0:0:0:
64,192,16055,1,0,0:0:0:0:
320,192,16055,1,0,0:0:0:0:
192,192,16122,1,0,0:0:0:0:
448,192,16122,1,0,0:0:0:0:
320,192,16189,1,0,0:0:0:0:
448,192,16189,1,0,0:0:0:0:
192,192,16255,1,0,0:0:0:0:
64,192,16255,1,0,0:0:0:0:
320,192,16255,1,0,0:0:0:0:
448,192,16322,1,0,0:0:0:0:
64,192,16322,1,0,0:0:0:0:
192,192,16389,1,0,0:0:0:0:
448,192,16389,1,0,0:0:0:0:
320,192,16455,1,0,0:0:0:0:
192,192,16455,1,0,0:0:0:0:
64,192,16522,1,0,0:0:0:0:
320,192,16522,1,0,0:0:0:0:
448,192,16522,1,0,0:0:0:0:
192,192,16589,1,0,0:0:0:0:
448,192,16589,1,0,0:0:0:0:
192,192,16655,1,0,0:0:0:0:
64,192,16655,1,0,0:0:0:0:
320,192,16722,1,0,0:0:0:0:
192,192,16722,1,0,0:0:0:0:
64,192,16789,1,0,0:0:0:0:
448,192,16789,1,0,0:0:0:0:
320,192,16789,1,0,0:0:0:0:
192,192,16855,1,0,0:0:0:0:
448,192,16855,1,0,0:0:0:0:
64,192,16922,1,0,0:0:0:0:
192,192,16922,1,0,0:0:0:0:
320,192,16989,1,0,0:0:0:0:
448,192,16989,1,0,0:0:0:0:
192,192,17055,1,0,0:0:0:0:
320,192,17055,1,0,0:0:0:0:
64,192,17055,1,0,0:0:0:0:
448,192,17122,1,0,0:0:0:0:
192,192,17122,1,0,0:0:0:0:
448,192,17189,1,0,0:0:0:0:
320,192,17189,1,0,0:0:0:0:
64,192,17189,1,0,0:0:0:0:
192,192,17255,1,0,0:0:0:0:
320,192,17255,1,0,0:0:0:0:
64,192,17322,1,0,0:0:0:0:
192,192,17322,1,0,0:0:0:0:
320,192,17322,1,0,0:0:0:0:
448,192,17389,1,0,0:0:0:0:
64,192,17389,1,0,0:0:0:0:
192,192,17456,1,0,0:0:0:0:
320,192,17456,1,0,0:0:0:0:
320,192,17522,1,0,0:0:0:0:
64,192,17522,1,0,0:0:0:0:
64,192,17589,1,0,0:0:0:0:
192,192,17589,1,0,0:0:0:0:
448,192,17589,1,0,0:0:0:0:
320,192,17656,1,0,0:0:0:0:
448,192,17656,1,0,0:0:0:0:
64,192,17722,1,0,0:0:0:0:
192,192,17756,1,0,0:0:0:0:
320,192,17789,1,0,0:0:0:0:
448,192,17822,1,0,0:0:0:0:
64,192,17856,1,0,0:0:0:0:
192,192,17889,1,0,0:0:0:0:
448,192,17922,1,0,0:0:0:0:
320,192,17956,1,0,0:0:0:0:
192,192,17989,1,0,0:0:0:0:
64,192,18022,1,0,0:0:0:0:
320,192,18056,1,0,0:0:0:0:
448,192,18056,1,0,0:0:0:0:
64,192,18122,1,0,0:0:0:0:
192,192,18122,1,0,0:0:0:0:
320,192,18122,1,0,0:0:0:0:
448,192,18122,1,0,0:0:0:0:
64,192,18189,1,0,0:0:0:0:
192,192,18189,1,0,0:0:0:0:
64,192,18256,1,0,0:0:0:0:
448,192,18256,1,0,0:0:0:0:
320,192,18322,1,0,0:0:0:0:
448,192,18322,1,0,0:0:0:0:
64,192,18389,1,0,0:0:0:0:
192,192,18389,1,0,0:0:0:0:
320,192,18389,1,0,0:0:0:0:
448,192,18389,1,0,0:0:0:0:
192,192,18456,1,0,0:0:0:0:
64,192,18456,1,0,0:0:0:0:
192,192,18522,1,0,0:0:0:0:
320,192,18522,1,0,0:0:0:0:
64,192,18589,1,0,0:0:0:0:
448,192,18589,1,0,0:0:0:0:
64,192,18656,1,0,0:0:0:0:
192,192,18656,1,0,0:0:0:0:
320,192,18656,1,0,0:0:0:0:
448,192,18656,1,0,0:0:0:0:
320,192,18722,1,0,0:0:0:0:
448,192,18722,1,0,0:0:0:0:
192,192,18790,1,0,0:0:0:0:
64,192,18790,1,0,0:0:0:0:
64,192,18856,1,0,0:0:0:0:
448,192,18856,1,0,0:0:0:0:
192,192,18922,1,0,0:0:0:0:
64,192,18922,1,0,0:0:0:0:
448,192,18922,1,0,0:0:0:0:
320,192,18922,1,0,0:0:0:0:
320,192,18990,1,0,0:0:0:0:
448,192,18990,1,0,0:0:0:0:
192,192,19056,1,0,0:0:0:0:
320,192,19056,1,0,0:0:0:0:
64,192,19122,1,0,0:0:0:0:
448,192,19122,1,0,0:0:0:0:
64,192,19190,1,0,0:0:0:0:
320,192,19190,1,0,0:0:0:0:
448,192,19190,1,0,0:0:0:0:
192,192,19190,1,0,0:0:0:0:
192,192,19256,1,0,0:0:0:0:
64,192,19256,1,0,0:0:0:0:
448,192,19322,1,0,0:0:0:0:
320,192,19322,1,0,0:0:0:0:
64,192,19390,1,0,0:0:0:0:
320,192,19390,1,0,0:0:0:0:
64,192,19456,1,0,0:0:0:0:
192,192,19456,1,0,0:0:0:0:
320,192,19456,1,0,0:0:0:0:
448,192,19456,1,0,0:0:0:0:
192,192,19522,1,0,0:0:0:0:
448,192,19522,1,0,0:0:0:0:
320,192,19590,1,0,0:0:0:0:
448,192,19590,1,0,0:0:0:0:
64,192,19656,1,0,0:0:0:0:
192,192,19656,1,0,0:0:0:0:
64,192,19722,1,0,0:0:0:0:
192,192,19722,1,0,0:0:0:0:
320,192,19722,1,0,0:0:0:0:
448,192,19722,1,0,0:0:0:0:
320,192,19790,1,0,0:0:0:0:
448,192,19790,1,0,0:0:0:0:
64,192,19856,1,0,0:0:0:0:
448,192,19856,1,0,0:0:0:0:
192,192,19922,1,0,0:0:0:0:
64,192,19922,1,0,0:0:0:0:
64,192,19990,1,0,0:0:0:0:
320,192,19990,1,0,0:0:0:0:
448,192,19990,1,0,0:0:0:0:
192,192,19990,1,0,0:0:0:0:
320,192,20056,1,0,0:0:0:0:
448,192,20056,1,0,0:0:0:0:
64,192,20123,1,0,0:0:0:0:
320,192,20123,1,0,0:0:0:0:
192,192,20190,1,0,0:0:0:0:
448,192,20190,1,0,0:0:0:0:
320,192,20256,1,0,0:0:0:0:
448,192,20256,1,0,0:0:0:0:
192,192,20256,1,0,0:0:0:0:
64,192,20256,1,0,0:0:0:0:
192,192,20323,1,0,0:0:0:0:
64,192,20323,1,0,0:0:0:0:
448,192,20390,1,0,0:0:0:0:
64,192,20390,1,0,0:0:0:0:
448,192,20456,1,0,0:0:0:0:
192,192,20456,1,0,0:0:0:0:
320,192,20523,1,0,0:0:0:0:
448,192,20523,1,0,0:0:0:0:
192,192,20523,1,0,0:0:0:0:
64,192,20523,1,0,0:0:0:0:
64,192,20590,1,0,0:0:0:0:
320,192,20590,1,0,0:0:0:0:
192,192,20656,1,0,0:0:0:0:
320,192,20656,1,0,0:0:0:0:
64,192,20723,1,0,0:0:0:0:
192,192,20723,1,0,0:0:0:0:
320,192,20790,1,0,0:0:0:0:
448,192,20790,1,0,0:0:0:0:
192,192,20790,1,0,0:0:0:0:
64,192,20790,1,0,0:0:0:0:
320,192,20856,1,0,0:0:0:0:
448,192,20856,1,0,0:0:0:0:
64,192,20923,1,0,0:0:0:0:
448,192,20923,1,0,0:0:0:0:
192,192,20990,1,0,0:0:0:0:
320,192,20990,1,0,0:0:0:0:
64,192,21056,1,0,0:0:0:0:
192,192,21056,1,0,0:0:0:0:
320,192,21056,1,0,0:0:0:0:
448,192,21056,1,0,0:0:0:0:
192,192,21123,1,0,0:0:0:0:
64,192,21123,1,0,0:0:0:0:
192,192,21190,1,0,0:0:0:0:
448,192,21190,1,0,0:0:0:0:
64,192,21256,1,0,0:0:0:0:
320,192,21256,1,0,0:0:0:0:
64,192,21323,1,0,0:0:0:0:
192,192,21323,1,0,0:0:0:0:
320,192,21323,1,0,0:0:0:0:
448,192,21323,1,0,0:0:0:0:
320,192,21390,1,0,0:0:0:0:
448,192,21390,1,0,0:0:0:0:
192,192,21457,1,0,0:0:0:0:
64,192,21457,1,0,0:0:0:0:
64,192,21523,1,0,0:0:0:0:
320,192,21523,1,0,0:0:0:0:
64,192,21590,1,0,0:0:0:0:
192,192,21590,1,0,0:0:0:0:
320,192,21590,1,0,0:0:0:0:
448,192,21590,1,0,0:0:0:0:
192,192,21657,1,0,0:0:0:0:
448,192,21657,1,0,0:0:0:0:
320,192,21723,1,0,0:0:0:0:
448,192,21723,1,0,0:0:0:0:
192,192,21790,1,0,0:0:0:0:
64,192,21790,1,0,0:0:0:0:
64,192,21857,1,0,0:0:0:0:
192,192,21857,1,0,0:0:0:0:
320,192,21857,1,0,0:0:0:0:
448,192,21857,1,0,0:0:0:0:
320,192,21923,1,0,0:0:0:0:
192,192,21923,1,0,0:0:0:0:
64,192,21990,1,0,0:0:0:0:
448,192,21990,1,0,0:0:0:0:
320,192,22057,1,0,0:0:0:0:
448,192,22057,1,0,0:0:0:0:
64,192,22123,1,0,0:0:0:0:
192,192,22123,1,0,0:0:0:0:
448,192,22123,1,0,0:0:0:0:
320,192,22123,1,0,0:0:0:0:
64,192,22190,1,0,0:0:0:0:
192,192,22190,1,0,0:0:0:0:
64,192,22257,1,0,0:0:0:0:
448,192,22257,1,0,0:0:0:0:
192,192,22323,1,0,0:0:0:0:
320,192,22323,1,0,0:0:0:0:
64,192,22390,1,0,0:0:0:0:
192,192,22390,1,0,0:0:0:0:
320,192,22390,1,0,0:0:0:0:
448,192,22390,1,0,0:0:0:0:
64,192,22523,1,0,0:0:0:0:
320,192,22523,1,0,0:0:0:0:
448,192,22523,1,0,0:0:0:0:
64,192,22657,1,0,0:0:0:0:
192,192,22657,1,0,0:0:0:0:
320,192,22657,1,0,0:0:0:0:
448,192,22657,1,0,0:0:0:0:
320,192,22790,1,0,0:0:0:0:
448,192,22790,1,0,0:0:0:0:
192,192,22790,1,0,0:0:0:0:
64,192,22923,1,0,0:0:0:0:
192,192,22923,1,0,0:0:0:0:
320,192,22923,1,0,0:0:0:0:
448,192,22923,1,0,0:0:0:0:
192,192,23057,1,0,0:0:0:0:
64,192,23057,1,0,0:0:0:0:
320,192,23057,1,0,0:0:0:0:
64,192,23190,1,0,0:0:0:0:
192,192,23190,1,0,0:0:0:0:
320,192,23190,1,0,0:0:0:0:
448,192,23190,1,0,0:0:0:0:
64,192,23323,1,0,0:0:0:0:
448,192,23323,1,0,0:0:0:0:
320,192,23323,1,0,0:0:0:0:
320,192,23457,1,0,0:0:0:0:
192,192,23457,1,0,0:0:0:0:
448,192,23457,1,0,0:0:0:0:
64,192,23457,1,0,0:0:0:0:
320,192,23590,1,0,0:0:0:0:
448,192,23590,1,0,0:0:0:0:
64,192,23590,1,0,0:0:0:0:
64,192,23723,1,0,0:0:0:0:
192,192,23723,1,0,0:0:0:0:
448,192,23723,1,0,0:0:0:0:
320,192,23723,1,0,0:0:0:0:
64,192,23857,1,0,0:0:0:0:
320,192,23857,1,0,0:0:0:0:
448,192,23857,1,0,0:0:0:0:
64,192,23990,1,0,0:0:0:0:
320,192,23990,1,0,0:0:0:0:
448,192,23990,1,0,0:0:0:0:
192,192,23990,1,0,0:0:0:0:
192,192,24124,1,0,0:0:0:0:
64,192,24124,1,0,0:0:0:0:
320,192,24124,1,0,0:0:0:0:
64,192,24257,1,0,0:0:0:0:
320,192,24257,1,0,0:0:0:0:
448,192,24257,1,0,0:0:0:0:
192,192,24257,1,0,0:0:0:0:
320,192,24390,1,0,0:0:0:0:
448,192,24390,1,0,0:0:0:0:
192,192,24390,1,0,0:0:0:0:
192,192,24524,1,0,0:0:0:0:
64,192,24524,1,0,0:0:0:0:
320,192,24590,1,0,0:0:0:0:
448,192,24590,1,0,0:0:0:0:
192,192,24657,1,0,0:0:0:0:
64,192,24657,1,0,0:0:0:0:
320,192,24724,1,0,0:0:0:0:
448,192,24724,1,0,0:0:0:0:
192,192,24790,1,0,0:0:0:0:
64,192,24790,1,0,0:0:0:0:
320,192,24857,1,0,0:0:0:0:
448,192,24857,1,0,0:0:0:0:
192,192,24924,1,0,0:0:0:0:
64,192,24924,1,0,0:0:0:0:
320,192,24990,1,0,0:0:0:0:
448,192,24990,1,0,0:0:0:0:
64,192,25057,1,0,0:0:0:0:
192,192,25057,1,0,0:0:0:0:
320,192,25124,1,0,0:0:0:0:
448,192,25124,1,0,0:0:0:0:
192,192,25190,1,0,0:0:0:0:
64,192,25190,1,0,0:0:0:0:
320,192,25257,1,0,0:0:0:0:
448,192,25257,1,0,0:0:0:0:
192,192,25324,1,0,0:0:0:0:
64,192,25324,1,0,0:0:0:0:
320,192,25390,1,0,0:0:0:0:
448,192,25390,1,0,0:0:0:0:
192,192,25458,1,0,0:0:0:0:
64,192,25458,1,0,0:0:0:0:
320,192,25524,1,0,0:0:0:0:
448,192,25524,1,0,0:0:0:0:
64,192,25590,5,0,0:0:0:0:
192,192,25624,1,0,0:0:0:0:
320,192,25658,1,0,0:0:0:0:
448,192,25690,1,0,0:0:0:0:
64,192,25724,1,0,0:0:0:0:
192,192,25758,1,0,0:0:0:0:
448,192,25790,1,0,0:0:0:0:
320,192,25824,1,0,0:0:0:0:
192,192,25858,1,0,0:0:0:0:
64,192,25890,1,0,0:0:0:0:
448,192,25924,1,0,0:0:0:0:
320,192,25958,1,0,0:0:0:0:
64,192,25990,1,0,0:0:0:0:
192,192,26024,1,0,0:0:0:0:
320,192,26058,1,0,0:0:0:0:
448,192,26090,1,0,0:0:0:0:
64,192,26124,1,0,0:0:0:0:
192,192,26158,1,0,0:0:0:0:
320,192,26190,1,0,0:0:0:0:
448,192,26224,1,0,0:0:0:0:
192,192,26324,1,0,0:0:0:0:
320,192,26358,1,0,0:0:0:0:
448,192,26390,1,0,0:0:0:0:
64,192,26424,1,0,0:0:0:0:
320,192,26524,1,0,0:0:0:0:
448,192,26558,1,0,0:0:0:0:
64,192,26590,1,0,0:0:0:0:
192,192,26624,1,0,0:0:0:0:
320,192,26658,1,0,0:0:0:0:
448,192,26658,1,0,0:0:0:0:
64,192,26791,1,0,0:0:0:0:
320,192,26924,1,0,0:0:0:0:
448,192,26924,1,0,0:0:0:0:
192,192,26924,1,0,0:0:0:0:
64,192,26924,1,0,0:0:0:0:
192,192,27058,1,0,0:0:0:0:
64,192,27191,1,0,0:0:0:0:
320,192,27191,1,0,0:0:0:0:
448,192,27324,1,0,0:0:0:0:
64,192,27458,1,0,0:0:0:0:
320,192,27458,1,0,0:0:0:0:
192,192,27458,1,0,0:0:0:0:
448,192,27458,1,0,0:0:0:0:
192,192,27591,1,0,0:0:0:0:
448,192,27724,1,0,0:0:0:0:
320,192,27724,1,0,0:0:0:0:
64,192,27858,1,0,0:0:0:0:
192,192,27991,1,0,0:0:0:0:
320,192,27991,1,0,0:0:0:0:
448,192,27991,1,0,0:0:0:0:
64,192,27991,1,0,0:0:0:0:
448,192,28124,1,0,0:0:0:0:
320,192,28258,1,0,0:0:0:0:
192,192,28258,1,0,0:0:0:0:
64,192,28391,1,0,0:0:0:0:
192,192,28525,1,0,0:0:0:0:
448,192,28525,1,0,0:0:0:0:
64,192,28525,1,0,0:0:0:0:
320,192,28525,1,0,0:0:0:0:
320,192,28658,1,0,0:0:0:0:
64,192,28791,1,0,0:0:0:0:
448,192,28791,1,0,0:0:0:0:
192,192,28925,1,0,0:0:0:0:
320,192,29058,1,0,0:0:0:0:
448,192,29058,1,0,0:0:0:0:
64,192,29058,1,0,0:0:0:0:
192,192,29058,1,0,0:0:0:0:
64,192,29191,1,0,0:0:0:0:
320,192,29325,1,0,0:0:0:0:
448,192,29458,1,0,0:0:0:0:
64,192,29591,1,0,0:0:0:0:
192,192,29591,1,0,0:0:0:0:
320,192,29591,1,0,0:0:0:0:
448,192,29591,1,0,0:0:0:0:
320,192,29725,1,0,0:0:0:0:
64,192,29859,1,0,0:0:0:0:
192,192,29991,1,0,0:0:0:0:
320,192,30125,1,0,0:0:0:0:
448,192,30125,1,0,0:0:0:0:
192,192,30125,1,0,0:0:0:0:
64,192,30125,1,0,0:0:0:0:
64,192,30259,1,0,0:0:0:0:
192,192,30391,1,0,0:0:0:0:
448,192,30525,1,0,0:0:0:0:
64,192,30659,1,0,0:0:0:0:
320,192,30659,1,0,0:0:0:0:
192,192,30659,1,0,0:0:0:0:
448,192,30659,1,0,0:0:0:0:
192,192,30791,1,0,0:0:0:0:
320,192,30925,1,0,0:0:0:0:
448,192,30925,1,0,0:0:0:0:
64,192,31059,1,0,0:0:0:0:
320,192,31192,1,0,0:0:0:0:
448,192,31192,1,0,0:0:0:0:
192,192,31192,1,0,0:0:0:0:
64,192,31192,1,0,0:0:0:0:
192,192,31325,1,0,0:0:0:0:
64,192,31459,1,0,0:0:0:0:
448,192,31459,1,0,0:0:0:0:
320,192,31592,1,0,0:0:0:0:
448,192,31725,1,0,0:0:0:0:
192,192,31725,1,0,0:0:0:0:
64,192,31725,1,0,0:0:0:0:
320,192,31725,1,0,0:0:0:0:
192,192,31859,1,0,0:0:0:0:
448,192,31859,1,0,0:0:0:0:
64,192,31992,1,0,0:0:0:0:
192,192,32125,1,0,0:0:0:0:
320,192,32125,1,0,0:0:0:0:
320,192,32259,1,0,0:0:0:0:
448,192,32259,1,0,0:0:0:0:
192,192,32259,1,0,0:0:0:0:
64,192,32259,1,0,0:0:0:0:
64,192,32392,1,0,0:0:0:0:
320,192,32392,1,0,0:0:0:0:
192,192,32526,1,0,0:0:0:0:
448,192,32526,1,0,0:0:0:0:
64,192,32659,1,0,0:0:0:0:
448,192,32792,1,0,0:0:0:0:
64,192,32792,1,0,0:0:0:0:
320,192,32792,1,0,0:0:0:0:
192,192,32792,1,0,0:0:0:0:
320,192,32926,1,0,0:0:0:0:
192,192,33059,1,0,0:0:0:0:
64,192,33059,1,0,0:0:0:0:
448,192,33192,1,0,0:0:0:0:
192,192,33326,1,0,0:0:0:0:
64,192,33326,1,0,0:0:0:0:
320,192,33326,1,0,0:0:0:0:
448,192,33326,1,0,0:0:0:0:
320,192,33459,1,0,0:0:0:0:
448,192,33592,1,0,0:0:0:0:
192,192,33592,1,0,0:0:0:0:
64,192,33726,1,0,0:0:0:0:
192,192,33860,1,0,0:0:0:0:
320,192,33860,1,0,0:0:0:0:
448,192,33860,1,0,0:0:0:0:
64,192,33860,1,0,0:0:0:0:
448,192,33992,1,0,0:0:0:0:
192,192,33992,1,0,0:0:0:0:
64,192,34126,1,0,0:0:0:0:
448,192,34260,1,0,0:0:0:0:
320,192,34260,1,0,0:0:0:0:
320,192,34392,1,0,0:0:0:0:
192,192,34392,1,0,0:0:0:0:
64,192,34392,1,0,0:0:0:0:
64,192,34526,1,0,0:0:0:0:
448,192,34526,1,0,0:0:0:0:
320,192,34660,1,0,0:0:0:0:
192,192,34660,1,0,0:0:0:0:
64,192,34792,1,0,0:0:0:0:
320,192,34792,1,0,0:0:0:0:
448,192,34792,1,0,0:0:0:0:
192,192,34926,1,0,0:0:0:0:
448,192,34926,1,0,0:0:0:0:
64,192,35060,1,0,0:0:0:0:
320,192,35060,1,0,0:0:0:0:
64,192,35193,1,0,0:0:0:0:
448,192,35193,1,0,0:0:0:0:
192,192,35193,1,0,0:0:0:0:
320,192,35260,1,0,0:0:0:0:
448,192,35260,1,0,0:0:0:0:
64,192,35326,1,0,0:0:0:0:
320,192,35326,1,0,0:0:0:0:
192,192,35393,1,0,0:0:0:0:
64,192,35393,1,0,0:0:0:0:
192,192,35460,1,0,0:0:0:0:
320,192,35460,1,0,0:0:0:0:
448,192,35460,1,0,0:0:0:0:
64,192,35526,1,0,0:0:0:0:
448,192,35526,1,0,0:0:0:0:
320,192,35593,1,0,0:0:0:0:
448,192,35593,1,0,0:0:0:0:
192,192,35660,1,0,0:0:0:0:
320,192,35660,1,0,0:0:0:0:
64,192,35726,1,0,0:0:0:0:
320,192,35726,1,0,0:0:0:0:
448,192,35726,1,0,0:0:0:0:
192,192,35793,1,0,0:0:0:0:
64,192,35793,1,0,0:0:0:0:
64,192,35860,1,0,0:0:0:0:
320,192,35860,1,0,0:0:0:0:
448,192,35926,1,0,0:0:0:0:
192,192,35926,1,0,0:0:0:0:
64,192,35993,1,0,0:0:0:0:
192,192,35993,1,0,0:0:0:0:
320,192,35993,1,0,0:0:0:0:
448,192,36060,1,0,0:0:0:0:
320,192,36060,1,0,0:0:0:0:
64,192,36126,1,0,0:0:0:0:
448,192,36126,1,0,0:0:0:0:
192,192,36193,1,0,0:0:0:0:
320,192,36193,1,0,0:0:0:0:
64,192,36260,1,0,0:0:0:0:
192,192,36260,1,0,0:0:0:0:
448,192,36260,1,0,0:0:0:0:
320,192,36327,1,0,0:0:0:0:
448,192,36327,1,0,0:0:0:0:
192,192,36393,1,0,0:0:0:0:
64,192,36393,1,0,0:0:0:0:
64,192,36460,1,0,0:0:0:0:
320,192,36460,1,0,0:0:0:0:
192,192,36527,1,0,0:0:0:0:
320,192,36527,1,0,0:0:0:0:
448,192,36527,1,0,0:0:0:0:
448,192,36593,1,0,0:0:0:0:
64,192,36593,1,0,0:0:0:0:
320,192,36660,1,0,0:0:0:0:
192,192,36660,1,0,0:0:0:0:
320,192,36727,1,0,0:0:0:0:
64,192,36727,1,0,0:0:0:0:
64,192,36793,1,0,0:0:0:0:
320,192,36793,1,0,0:0:0:0:
448,192,36793,1,0,0:0:0:0:
64,192,36860,1,0,0:0:0:0:
192,192,36860,1,0,0:0:0:0:
320,192,36927,1,0,0:0:0:0:
448,192,36927,1,0,0:0:0:0:
64,192,36993,1,0,0:0:0:0:
448,192,36993,1,0,0:0:0:0:
64,192,37060,1,0,0:0:0:0:
192,192,37060,1,0,0:0:0:0:
320,192,37060,1,0,0:0:0:0:
192,192,37127,1,0,0:0:0:0:
448,192,37127,1,0,0:0:0:0:
64,192,37193,1,0,0:0:0:0:
320,192,37193,1,0,0:0:0:0:
448,192,37260,1,0,0:0:0:0:
64,192,37260,1,0,0:0:0:0:
192,192,37327,1,0,0:0:0:0:
320,192,37327,1,0,0:0:0:0:
448,192,37327,1,0,0:0:0:0:
320,192,37393,1,0,0:0:0:0:
192,192,37393,1,0,0:0:0:0:
64,192,37460,1,0,0:0:0:0:
448,192,37460,1,0,0:0:0:0:
192,192,37527,1,0,0:0:0:0:
64,192,37527,1,0,0:0:0:0:
448,192,37593,1,0,0:0:0:0:
320,192,37593,1,0,0:0:0:0:
192,192,37593,1,0,0:0:0:0:
64,192,37660,1,0,0:0:0:0:
320,192,37660,1,0,0:0:0:0:
192,192,37727,1,0,0:0:0:0:
448,192,37727,1,0,0:0:0:0:
320,192,37793,1,0,0:0:0:0:
448,192,37793,1,0,0:0:0:0:
192,192,37860,1,0,0:0:0:0:
320,192,37860,1,0,0:0:0:0:
448,192,37860,1,0,0:0:0:0:
64,192,37927,1,0,0:0:0:0:
192,192,37927,1,0,0:0:0:0:
64,192,37993,1,0,0:0:0:0:
320,192,37993,1,0,0:0:0:0:
192,192,38060,1,0,0:0:0:0:
320,192,38060,1,0,0:0:0:0:
64,192,38127,5,0,0:0:0:0:
320,192,38127,1,0,0:0:0:0:
448,192,38127,1,0,0:0:0:0:
192,192,38193,1,0,0:0:0:0:
448,192,38193,1,0,0:0:0:0:
320,192,38260,1,0,0:0:0:0:
64,192,38260,1,0,0:0:0:0:
64,192,38327,1,0,0:0:0:0:
192,192,38327,1,0,0:0:0:0:
64,192,38393,1,0,0:0:0:0:
192,192,38393,1,0,0:0:0:0:
320,192,38393,1,0,0:0:0:0:
448,192,38460,1,0,0:0:0:0:
320,192,38460,1,0,0:0:0:0:
192,192,38527,1,0,0:0:0:0:
64,192,38527,1,0,0:0:0:0:
192,192,38593,1,0,0:0:0:0:
448,192,38593,1,0,0:0:0:0:
448,192,38660,1,0,0:0:0:0:
192,192,38660,1,0,0:0:0:0:
320,192,38660,1,0,0:0:0:0:
64,192,38727,1,0,0:0:0:0:
320,192,38727,1,0,0:0:0:0:
192,192,38793,1,0,0:0:0:0:
64,192,38793,1,0,0:0:0:0:
448,192,38860,1,0,0:0:0:0:
320,192,38860,1,0,0:0:0:0:
64,192,38927,1,0,0:0:0:0:
448,192,38927,1,0,0:0:0:0:
192,192,38927,1,0,0:0:0:0:
192,192,38994,1,0,0:0:0:0:
320,192,38994,1,0,0:0:0:0:
448,192,39060,1,0,0:0:0:0:
64,192,39060,1,0,0:0:0:0:
64,192,39127,1,0,0:0:0:0:
320,192,39127,1,0,0:0:0:0:
448,192,39194,5,0,0:0:0:0:
320,192,39194,1,0,0:0:0:0:
192,192,39194,1,0,0:0:0:0:
64,192,39260,1,0,0:0:0:0:
448,192,39260,1,0,0:0:0:0:
320,192,39327,1,0,0:0:0:0:
192,192,39327,1,0,0:0:0:0:
64,192,39327,1,0,0:0:0:0:
192,192,39394,1,0,0:0:0:0:
320,192,39394,1,0,0:0:0:0:
64,192,39460,1,0,0:0:0:0:
320,192,39460,1,0,0:0:0:0:
448,192,39460,1,0,0:0:0:0:
192,192,39527,1,0,0:0:0:0:
64,192,39527,1,0,0:0:0:0:
192,192,39594,1,0,0:0:0:0:
448,192,39594,1,0,0:0:0:0:
320,192,39660,1,0,0:0:0:0:
448,192,39660,1,0,0:0:0:0:
320,192,39727,1,0,0:0:0:0:
192,192,39727,1,0,0:0:0:0:
64,192,39727,1,0,0:0:0:0:
448,192,39794,1,0,0:0:0:0:
64,192,39794,1,0,0:0:0:0:
192,192,39860,1,0,0:0:0:0:
320,192,39860,1,0,0:0:0:0:
64,192,39927,1,0,0:0:0:0:
320,192,39927,1,0,0:0:0:0:
64,192,39994,1,0,0:0:0:0:
192,192,39994,1,0,0:0:0:0:
448,192,39994,1,0,0:0:0:0:
320,192,40060,1,0,0:0:0:0:
448,192,40060,1,0,0:0:0:0:
320,192,40127,1,0,0:0:0:0:
64,192,40127,1,0,0:0:0:0:
192,192,40194,1,0,0:0:0:0:
64,192,40194,1,0,0:0:0:0:
320,192,40260,1,0,0:0:0:0:
192,192,40260,1,0,0:0:0:0:
448,192,40260,1,0,0:0:0:0:
64,192,40328,1,0,0:0:0:0:
320,192,40328,1,0,0:0:0:0:
192,192,40394,1,0,0:0:0:0:
448,192,40394,1,0,0:0:0:0:
320,192,40460,1,0,0:0:0:0:
448,192,40460,1,0,0:0:0:0:
64,192,40528,1,0,0:0:0:0:
320,192,40528,1,0,0:0:0:0:
448,192,40528,1,0,0:0:0:0:
192,192,40594,1,0,0:0:0:0:
64,192,40594,1,0,0:0:0:0:
192,192,40660,1,0,0:0:0:0:
320,192,40660,1,0,0:0:0:0:
64,192,40728,1,0,0:0:0:0:
448,192,40728,1,0,0:0:0:0:
64,192,40794,1,0,0:0:0:0:
192,192,40794,1,0,0:0:0:0:
448,192,40794,1,0,0:0:0:0:
320,192,40860,1,0,0:0:0:0:
192,192,40860,1,0,0:0:0:0:
64,192,40928,1,0,0:0:0:0:
448,192,40928,1,0,0:0:0:0:
320,192,40994,1,0,0:0:0:0:
192,192,40994,1,0,0:0:0:0:
64,192,41060,1,0,0:0:0:0:
192,192,41060,1,0,0:0:0:0:
320,192,41060,1,0,0:0:0:0:
64,192,41128,1,0,0:0:0:0:
448,192,41128,1,0,0:0:0:0:
192,192,41194,1,0,0:0:0:0:
448,192,41194,1,0,0:0:0:0:
320,192,41260,1,0,0:0:0:0:
192,192,41260,1,0,0:0:0:0:
192,192,41328,1,0,0:0:0:0:
320,192,41328,1,0,0:0:0:0:
448,192,41328,1,0,0:0:0:0:
64,192,41394,1,0,0:0:0:0:
448,192,41394,1,0,0:0:0:0:
320,192,41460,1,0,0:0:0:0:
64,192,41460,1,0,0:0:0:0:
192,192,41528,1,0,0:0:0:0:
448,192,41528,1,0,0:0:0:0:
64,192,41594,1,0,0:0:0:0:
320,192,41594,1,0,0:0:0:0:
448,192,41594,1,0,0:0:0:0:
192,192,41660,1,0,0:0:0:0:
320,192,41660,1,0,0:0:0:0:
64,192,41728,1,0,0:0:0:0:
448,192,41728,1,0,0:0:0:0:
320,192,41794,1,0,0:0:0:0:
448,192,41794,1,0,0:0:0:0:
64,192,41861,1,0,0:0:0:0:
192,192,41861,1,0,0:0:0:0:
320,192,41861,1,0,0:0:0:0:
448,192,41928,1,0,0:0:0:0:
64,192,41928,1,0,0:0:0:0:
192,192,41994,1,0,0:0:0:0:
448,192,41994,1,0,0:0:0:0:
320,192,42061,1,0,0:0:0:0:
64,192,42061,1,0,0:0:0:0:
64,192,42128,1,0,0:0:0:0:
448,192,42128,1,0,0:0:0:0:
192,192,42128,1,0,0:0:0:0:
320,192,42194,1,0,0:0:0:0:
448,192,42194,1,0,0:0:0:0:
192,192,42261,1,0,0:0:0:0:
320,192,42261,1,0,0:0:0:0:
64,192,42328,1,0,0:0:0:0:
448,192,42328,1,0,0:0:0:0:
192,192,42394,1,0,0:0:0:0:
448,192,42394,1,0,0:0:0:0:
320,192,42394,1,0,0:0:0:0:
192,192,42461,1,0,0:0:0:0:
64,192,42461,1,0,0:0:0:0:
320,192,42528,1,0,0:0:0:0:
64,192,42528,1,0,0:0:0:0:
192,192,42594,1,0,0:0:0:0:
448,192,42594,1,0,0:0:0:0:
64,192,42661,1,0,0:0:0:0:
320,192,42661,1,0,0:0:0:0:
448,192,42661,1,0,0:0:0:0:
192,192,42728,1,0,0:0:0:0:
320,192,42728,1,0,0:0:0:0:
64,192,42794,1,0,0:0:0:0:
320,192,42794,1,0,0:0:0:0:
192,192,42861,1,0,0:0:0:0:
448,192,42861,1,0,0:0:0:0:
192,192,42928,1,0,0:0:0:0:
64,192,42928,1,0,0:0:0:0:
320,192,42928,1,0,0:0:0:0:
192,192,42994,1,0,0:0:0:0:
320,192,42994,1,0,0:0:0:0:
64,192,43061,1,0,0:0:0:0:
448,192,43061,1,0,0:0:0:0:
192,192,43128,1,0,0:0:0:0:
320,192,43128,1,0,0:0:0:0:
448,192,43195,1,0,0:0:0:0:
64,192,43195,1,0,0:0:0:0:
320,192,43195,1,0,0:0:0:0:
192,192,43261,1,0,0:0:0:0:
448,192,43261,1,0,0:0:0:0:
64,192,43328,1,0,0:0:0:0:
192,192,43328,1,0,0:0:0:0:
320,192,43395,1,0,0:0:0:0:
448,192,43395,1,0,0:0:0:0:
448,192,43461,1,0,0:0:0:0:
192,192,43461,1,0,0:0:0:0:
64,192,43461,1,0,0:0:0:0:
320,192,43528,1,0,0:0:0:0:
192,192,43528,1,0,0:0:0:0:
448,192,43595,1,0,0:0:0:0:
64,192,43595,1,0,0:0:0:0:
320,192,43595,1,0,0:0:0:0:
192,192,43661,1,0,0:0:0:0:
64,192,43661,1,0,0:0:0:0:
192,192,43728,5,0,0:0:0:0:
320,192,43728,1,0,0:0:0:0:
448,192,43728,1,0,0:0:0:0:
64,192,43795,1,0,0:0:0:0:
320,192,43795,1,0,0:0:0:0:
192,192,43861,1,0,0:0:0:0:
448,192,43861,1,0,0:0:0:0:
320,192,43928,1,0,0:0:0:0:
448,192,43928,1,0,0:0:0:0:
64,192,43995,1,0,0:0:0:0:
448,192,43995,1,0,0:0:0:0:
320,192,43995,1,0,0:0:0:0:
192,192,44061,1,0,0:0:0:0:
64,192,44061,1,0,0:0:0:0:
192,192,44128,1,0,0:0:0:0:
448,192,44128,1,0,0:0:0:0:
320,192,44195,1,0,0:0:0:0:
64,192,44195,1,0,0:0:0:0:
64,192,44261,1,0,0:0:0:0:
448,192,44261,1,0,0:0:0:0:
192,192,44261,1,0,0:0:0:0:
320,192,44328,1,0,0:0:0:0:
448,192,44328,1,0,0:0:0:0:
320,192,44395,1,0,0:0:0:0:
192,192,44395,1,0,0:0:0:0:
64,192,44461,1,0,0:0:0:0:
448,192,44461,1,0,0:0:0:0:
64,192,44529,1,0,0:0:0:0:
192,192,44529,1,0,0:0:0:0:
320,192,44529,1,0,0:0:0:0:
448,192,44595,1,0,0:0:0:0:
320,192,44595,1,0,0:0:0:0:
192,192,44661,1,0,0:0:0:0:
448,192,44661,1,0,0:0:0:0:
192,192,44729,1,0,0:0:0:0:
64,192,44729,1,0,0:0:0:0:
64,192,44795,1,0,0:0:0:0:
448,192,44795,1,0,0:0:0:0:
320,192,44795,1,0,0:0:0:0:
192,192,44861,1,0,0:0:0:0:
448,192,44861,1,0,0:0:0:0:
320,192,44929,1,0,0:0:0:0:
192,192,44929,1,0,0:0:0:0:
64,192,44995,1,0,0:0:0:0:
448,192,44995,1,0,0:0:0:0:
64,192,45061,1,0,0:0:0:0:
192,192,45061,1,0,0:0:0:0:
448,192,45061,1,0,0:0:0:0:
320,192,45129,1,0,0:0:0:0:
64,192,45129,1,0,0:0:0:0:
192,192,45195,1,0,0:0:0:0:
448,192,45195,1,0,0:0:0:0:
320,192,45261,1,0,0:0:0:0:
448,192,45261,1,0,0:0:0:0:
64,192,45329,1,0,0:0:0:0:
192,192,45329,1,0,0:0:0:0:
320,192,45329,1,0,0:0:0:0:
448,192,45395,1,0,0:0:0:0:
64,192,45395,1,0,0:0:0:0:
192,192,45461,1,0,0:0:0:0:
320,192,45461,1,0,0:0:0:0:
192,192,45529,1,0,0:0:0:0:
448,192,45529,1,0,0:0:0:0:
64,192,45595,1,0,0:0:0:0:
320,192,45595,1,0,0:0:0:0:
448,192,45595,1,0,0:0:0:0:
320,192,45661,1,0,0:0:0:0:
448,192,45661,1,0,0:0:0:0:
64,192,45729,1,0,0:0:0:0:
192,192,45729,1,0,0:0:0:0:
64,192,45795,1,0,0:0:0:0:
320,192,45795,1,0,0:0:0:0:
192,192,45862,1,0,0:0:0:0:
320,192,45862,1,0,0:0:0:0:
448,192,45862,1,0,0:0:0:0:
448,192,45929,1,0,0:0:0:0:
64,192,45929,1,0,0:0:0:0:
192,192,45995,1,0,0:0:0:0:
320,192,45995,1,0,0:0:0:0:
64,192,46062,1,0,0:0:0:0:
320,192,46062,1,0,0:0:0:0:
64,192,46129,1,0,0:0:0:0:
448,192,46129,1,0,0:0:0:0:
192,192,46129,1,0,0:0:0:0:
320,192,46195,1,0,0:0:0:0:
448,192,46195,1,0,0:0:0:0:
64,192,46262,1,0,0:0:0:0:
320,192,46262,1,0,0:0:0:0:
192,192,46329,1,0,0:0:0:0:
64,192,46329,1,0,0:0:0:0:
192,192,46395,1,0,0:0:0:0:
320,192,46395,1,0,0:0:0:0:
448,192,46395,1,0,0:0:0:0:
64,192,46462,1,0,0:0:0:0:
448,192,46462,1,0,0:0:0:0:
192,192,46529,1,0,0:0:0:0:
448,192,46529,1,0,0:0:0:0:
320,192,46595,1,0,0:0:0:0:
64,192,46595,1,0,0:0:0:0:
192,192,46662,1,0,0:0:0:0:
320,192,46662,1,0,0:0:0:0:
448,192,46662,1,0,0:0:0:0:
64,192,46729,1,0,0:0:0:0:
448,192,46729,1,0,0:0:0:0:
64,192,46795,1,0,0:0:0:0:
320,192,46795,1,0,0:0:0:0:
192,192,46862,1,0,0:0:0:0:
448,192,46862,1,0,0:0:0:0:
64,192,46929,5,0,0:0:0:0:
192,192,46929,1,0,0:0:0:0:
320,192,46929,1,0,0:0:0:0:
320,192,46995,1,0,0:0:0:0:
448,192,46995,1,0,0:0:0:0:
64,192,47062,1,0,0:0:0:0:
448,192,47062,1,0,0:0:0:0:
192,192,47129,1,0,0:0:0:0:
320,192,47129,1,0,0:0:0:0:
448,192,47196,1,0,0:0:0:0:
320,192,47196,1,0,0:0:0:0:
64,192,47196,1,0,0:0:0:0:
192,192,47262,1,0,0:0:0:0:
64,192,47262,1,0,0:0:0:0:
448,192,47329,1,0,0:0:0:0:
192,192,47329,1,0,0:0:0:0:
64,192,47396,1,0,0:0:0:0:
320,192,47396,1,0,0:0:0:0:
192,192,47462,1,0,0:0:0:0:
320,192,47462,1,0,0:0:0:0:
448,192,47462,1,0,0:0:0:0:
320,192,47529,1,0,0:0:0:0:
448,192,47529,1,0,0:0:0:0:
448,192,47596,1,0,0:0:0:0:
64,192,47596,1,0,0:0:0:0:
64,192,47662,1,0,0:0:0:0:
192,192,47662,1,0,0:0:0:0:
192,192,47729,5,0,0:0:0:0:
320,192,47729,1,0,0:0:0:0:
448,192,47729,1,0,0:0:0:0:
64,192,47796,1,0,0:0:0:0:
320,192,47796,1,0,0:0:0:0:
192,192,47862,1,0,0:0:0:0:
64,192,47862,1,0,0:0:0:0:
448,192,47862,1,0,0:0:0:0:
320,192,47929,1,0,0:0:0:0:
448,192,47929,1,0,0:0:0:0:
64,192,47996,5,0,0:0:0:0:
192,192,47996,1,0,0:0:0:0:
320,192,47996,1,0,0:0:0:0:
64,192,48062,1,0,0:0:0:0:
448,192,48062,1,0,0:0:0:0:
192,192,48129,1,0,0:0:0:0:
320,192,48129,1,0,0:0:0:0:
64,192,48196,1,0,0:0:0:0:
320,192,48196,1,0,0:0:0:0:
192,192,48262,1,0,0:0:0:0:
448,192,48262,1,0,0:0:0:0:
64,192,48262,1,0,0:0:0:0:
320,192,48329,1,0,0:0:0:0:
448,192,48329,1,0,0:0:0:0:
64,192,48396,1,0,0:0:0:0:
320,192,48396,1,0,0:0:0:0:
192,192,48462,1,0,0:0:0:0:
448,192,48462,1,0,0:0:0:0:
320,192,48530,1,0,0:0:0:0:
192,192,48530,1,0,0:0:0:0:
64,192,48530,1,0,0:0:0:0:
64,192,48596,1,0,0:0:0:0:
448,192,48596,1,0,0:0:0:0:
320,192,48662,1,0,0:0:0:0:
448,192,48662,1,0,0:0:0:0:
192,192,48730,1,0,0:0:0:0:
64,192,48730,1,0,0:0:0:0:
64,192,48796,1,0,0:0:0:0:
448,192,48796,1,0,0:0:0:0:
320,192,48796,1,0,0:0:0:0:
192,192,48862,1,0,0:0:0:0:
448,192,48862,1,0,0:0:0:0:
320,192,48930,1,0,0:0:0:0:
64,192,48930,1,0,0:0:0:0:
192,192,48996,1,0,0:0:0:0:
64,192,48996,1,0,0:0:0:0:
320,192,49062,1,0,0:0:0:0:
192,192,49062,1,0,0:0:0:0:
448,192,49062,1,0,0:0:0:0:
64,192,49130,1,0,0:0:0:0:
320,192,49130,1,0,0:0:0:0:
192,192,49196,1,0,0:0:0:0:
448,192,49196,1,0,0:0:0:0:
320,192,49262,1,0,0:0:0:0:
448,192,49262,1,0,0:0:0:0:
192,192,49330,1,0,0:0:0:0:
64,192,49330,1,0,0:0:0:0:
320,192,49330,1,0,0:0:0:0:
448,192,49396,1,0,0:0:0:0:
64,192,49396,1,0,0:0:0:0:
192,192,49462,1,0,0:0:0:0:
320,192,49462,1,0,0:0:0:0:
448,192,49530,1,0,0:0:0:0:
320,192,49530,1,0,0:0:0:0:
192,192,49596,1,0,0:0:0:0:
64,192,49596,1,0,0:0:0:0:
448,192,49596,1,0,0:0:0:0:
320,192,49662,1,0,0:0:0:0:
64,192,49662,1,0,0:0:0:0:
192,192,49730,1,0,0:0:0:0:
320,192,49730,1,0,0:0:0:0:
64,192,49796,1,0,0:0:0:0:
448,192,49796,1,0,0:0:0:0:
192,192,49863,1,0,0:0:0:0:
320,192,49863,1,0,0:0:0:0:
448,192,49863,1,0,0:0:0:0:
64,192,49930,1,0,0:0:0:0:
320,192,49930,1,0,0:0:0:0:
192,192,49996,1,0,0:0:0:0:
64,192,49996,1,0,0:0:0:0:
320,192,50063,1,0,0:0:0:0:
448,192,50063,1,0,0:0:0:0:
64,192,50130,1,0,0:0:0:0:
192,192,50130,1,0,0:0:0:0:
448,192,50130,1,0,0:0:0:0:
320,192,50196,1,0,0:0:0:0:
64,192,50196,1,0,0:0:0:0:
192,192,50263,1,0,0:0:0:0:
320,192,50263,1,0,0:0:0:0:
448,192,50330,1,0,0:0:0:0:
64,192,50330,1,0,0:0:0:0:
192,192,50396,1,0,0:0:0:0:
320,192,50396,1,0,0:0:0:0:
448,192,50396,1,0,0:0:0:0:
64,192,50463,1,0,0:0:0:0:
320,192,50463,1,0,0:0:0:0:
192,192,50530,1,0,0:0:0:0:
64,192,50530,1,0,0:0:0:0:
448,192,50596,1,0,0:0:0:0:
192,192,50596,1,0,0:0:0:0:
64,192,50663,1,0,0:0:0:0:
320,192,50663,1,0,0:0:0:0:
448,192,50663,1,0,0:0:0:0:
192,192,50730,1,0,0:0:0:0:
64,192,50730,1,0,0:0:0:0:
448,192,50796,1,0,0:0:0:0:
320,192,50796,1,0,0:0:0:0:
192,192,50863,1,0,0:0:0:0:
448,192,50863,1,0,0:0:0:0:
320,192,50930,1,0,0:0:0:0:
192,192,50930,1,0,0:0:0:0:
64,192,50930,1,0,0:0:0:0:
448,192,50996,1,0,0:0:0:0:
320,192,50996,1,0,0:0:0:0:
64,192,51063,1,0,0:0:0:0:
192,192,51063,1,0,0:0:0:0:
64,192,51130,1,0,0:0:0:0:
320,192,51130,1,0,0:0:0:0:
192,192,51197,1,0,0:0:0:0:
320,192,51197,1,0,0:0:0:0:
448,192,51197,1,0,0:0:0:0:
64,192,51263,1,0,0:0:0:0:
448,192,51263,1,0,0:0:0:0:
64,192,51330,1,0,0:0:0:0:
320,192,51330,1,0,0:0:0:0:
192,192,51397,1,0,0:0:0:0:
320,192,51397,1,0,0:0:0:0:
64,192,51463,1,0,0:0:0:0:
192,192,51463,1,0,0:0:0:0:
448,192,51463,1,0,0:0:0:0:
320,192,51530,1,0,0:0:0:0:
448,192,51530,1,0,0:0:0:0:
192,192,51597,1,0,0:0:0:0:
64,192,51597,1,0,0:0:0:0:
64,192,51663,1,0,0:0:0:0:
320,192,51663,1,0,0:0:0:0:
192,192,51730,1,0,0:0:0:0:
64,192,51730,1,0,0:0:0:0:
448,192,51730,1,0,0:0:0:0:
448,192,51863,1,0,0:0:0:0:
320,192,51897,1,0,0:0:0:0:
192,192,51930,1,0,0:0:0:0:
64,192,51963,1,0,0:0:0:0:
320,192,51997,1,0,0:0:0:0:
448,192,51997,1,0,0:0:0:0:
64,192,52130,1,0,0:0:0:0:
192,192,52163,1,0,0:0:0:0:
320,192,52197,1,0,0:0:0:0:
448,192,52230,1,0,0:0:0:0:
64,192,52263,5,0,0:0:0:0:
192,192,52263,1,0,0:0:0:0:
320,192,52330,1,0,0:0:0:0:
192,192,52397,1,0,0:0:0:0:
448,192,52463,1,0,0:0:0:0:
320,192,52530,1,0,0:0:0:0:
64,192,52530,1,0,0:0:0:0:
192,192,52597,1,0,0:0:0:0:
320,192,52663,1,0,0:0:0:0:
448,192,52663,1,0,0:0:0:0:
64,192,52730,1,0,0:0:0:0:
448,192,52797,1,0,0:0:0:0:
64,192,52863,1,0,0:0:0:0:
192,192,52930,1,0,0:0:0:0:
448,192,52930,1,0,0:0:0:0:
320,192,52997,1,0,0:0:0:0:
192,192,53063,1,0,0:0:0:0:
64,192,53063,1,0,0:0:0:0:
448,192,53130,1,0,0:0:0:0:
192,192,53197,1,0,0:0:0:0:
448,192,53263,1,0,0:0:0:0:
320,192,53330,1,0,0:0:0:0:
64,192,53330,1,0,0:0:0:0:
192,192,53397,1,0,0:0:0:0:
448,192,53463,1,0,0:0:0:0:
320,192,53530,1,0,0:0:0:0:
192,192,53597,1,0,0:0:0:0:
64,192,53597,1,0,0:0:0:0:
448,192,53663,1,0,0:0:0:0:
320,192,53730,1,0,0:0:0:0:
192,192,53797,1,0,0:0:0:0:
64,192,53864,1,0,0:0:0:0:
448,192,53864,1,0,0:0:0:0:
448,192,53930,1,0,0:0:0:0:
320,192,53997,1,0,0:0:0:0:
64,192,53997,1,0,0:0:0:0:
64,192,54064,1,0,0:0:0:0:
320,192,54130,1,0,0:0:0:0:
448,192,54130,1,0,0:0:0:0:
192,192,54130,1,0,0:0:0:0:
448,192,54197,1,0,0:0:0:0:
192,192,54264,1,0,0:0:0:0:
64,192,54264,1,0,0:0:0:0:
64,192,54330,1,0,0:0:0:0:
320,192,54330,1,0,0:0:0:0:
192,192,54397,1,0,0:0:0:0:
320,192,54397,1,0,0:0:0:0:
448,192,54397,1,0,0:0:0:0:
64,192,54464,1,0,0:0:0:0:
448,192,54464,1,0,0:0:0:0:
192,192,54530,1,0,0:0:0:0:
64,192,54530,1,0,0:0:0:0:
320,192,54597,1,0,0:0:0:0:
448,192,54597,1,0,0:0:0:0:
192,192,54664,1,0,0:0:0:0:
64,192,54664,1,0,0:0:0:0:
448,192,54664,1,0,0:0:0:0:
320,192,54730,1,0,0:0:0:0:
192,192,54730,1,0,0:0:0:0:
64,192,54797,1,0,0:0:0:0:
448,192,54797,1,0,0:0:0:0:
320,192,54864,1,0,0:0:0:0:
64,192,54864,1,0,0:0:0:0:
192,192,54930,1,0,0:0:0:0:
320,192,54930,1,0,0:0:0:0:
448,192,54930,1,0,0:0:0:0:
192,192,54997,1,0,0:0:0:0:
448,192,54997,1,0,0:0:0:0:
320,192,55064,1,0,0:0:0:0:
448,192,55064,1,0,0:0:0:0:
192,192,55130,1,0,0:0:0:0:
64,192,55130,1,0,0:0:0:0:
64,192,55197,1,0,0:0:0:0:
192,192,55197,1,0,0:0:0:0:
320,192,55197,1,0,0:0:0:0:
448,192,55264,1,0,0:0:0:0:
320,192,55264,1,0,0:0:0:0:
64,192,55330,1,0,0:0:0:0:
448,192,55330,1,0,0:0:0:0:
320,192,55398,1,0,0:0:0:0:
192,192,55398,1,0,0:0:0:0:
192,192,55464,1,0,0:0:0:0:
320,192,55464,1,0,0:0:0:0:
448,192,55464,1,0,0:0:0:0:
64,192,55530,1,0,0:0:0:0:
448,192,55530,1,0,0:0:0:0:
192,192,55598,1,0,0:0:0:0:
64,192,55598,1,0,0:0:0:0:
320,192,55664,1,0,0:0:0:0:
448,192,55664,1,0,0:0:0:0:
64,192,55730,1,0,0:0:0:0:
320,192,55730,1,0,0:0:0:0:
448,192,55730,1,0,0:0:0:0:
192,192,55798,1,0,0:0:0:0:
64,192,55798,1,0,0:0:0:0:
64,192,55864,1,0,0:0:0:0:
320,192,55864,1,0,0:0:0:0:
448,192,55930,1,0,0:0:0:0:
192,192,55930,1,0,0:0:0:0:
64,192,55998,1,0,0:0:0:0:
192,192,55998,1,0,0:0:0:0:
320,192,55998,1,0,0:0:0:0:
320,192,56064,1,0,0:0:0:0:
448,192,56064,1,0,0:0:0:0:
192,192,56130,1,0,0:0:0:0:
64,192,56130,1,0,0:0:0:0:
320,192,56198,1,0,0:0:0:0:
448,192,56198,1,0,0:0:0:0:
64,192,56264,1,0,0:0:0:0:
192,192,56264,1,0,0:0:0:0:
448,192,56264,1,0,0:0:0:0:
64,192,56330,1,0,0:0:0:0:
320,192,56330,1,0,0:0:0:0:
64,192,56398,1,0,0:0:0:0:
192,192,56398,1,0,0:0:0:0:
320,192,56398,1,0,0:0:0:0:
192,192,56464,1,0,0:0:0:0:
448,192,56464,1,0,0:0:0:0:
64,192,56530,1,0,0:0:0:0:
192,192,56530,1,0,0:0:0:0:
448,192,56530,1,0,0:0:0:0:
320,192,56598,1,0,0:0:0:0:
448,192,56598,1,0,0:0:0:0:
192,192,56664,1,0,0:0:0:0:
64,192,56664,1,0,0:0:0:0:
448,192,56731,1,0,0:0:0:0:
192,192,56731,1,0,0:0:0:0:
64,192,56798,1,0,0:0:0:0:
320,192,56798,1,0,0:0:0:0:
448,192,56798,1,0,0:0:0:0:
192,192,56864,1,0,0:0:0:0:
64,192,56864,1,0,0:0:0:0:
320,192,56931,1,0,0:0:0:0:
448,192,56931,1,0,0:0:0:0:
64,192,56998,1,0,0:0:0:0:
320,192,56998,1,0,0:0:0:0:
192,192,57064,1,0,0:0:0:0:
320,192,57064,1,0,0:0:0:0:
448,192,57064,1,0,0:0:0:0:
192,192,57131,1,0,0:0:0:0:
448,192,57131,1,0,0:0:0:0:
320,192,57198,1,0,0:0:0:0:
64,192,57198,1,0,0:0:0:0:
192,192,57264,1,0,0:0:0:0:
64,192,57264,1,0,0:0:0:0:
64,192,57331,1,0,0:0:0:0:
192,192,57331,1,0,0:0:0:0:
448,192,57331,1,0,0:0:0:0:
320,192,57398,1,0,0:0:0:0:
448,192,57398,1,0,0:0:0:0:
64,192,57464,1,0,0:0:0:0:
320,192,57464,1,0,0:0:0:0:
192,192,57531,1,0,0:0:0:0:
64,192,57531,1,0,0:0:0:0:
64,192,57598,1,0,0:0:0:0:
320,192,57598,1,0,0:0:0:0:
448,192,57598,1,0,0:0:0:0:
192,192,57664,1,0,0:0:0:0:
320,192,57664,1,0,0:0:0:0:
64,192,57731,1,0,0:0:0:0:
448,192,57731,1,0,0:0:0:0:
320,192,57798,1,0,0:0:0:0:
448,192,57798,1,0,0:0:0:0:
192,192,57864,1,0,0:0:0:0:
448,192,57864,1,0,0:0:0:0:
320,192,57864,1,0,0:0:0:0:
192,192,57931,1,0,0:0:0:0:
64,192,57931,1,0,0:0:0:0:
64,192,57998,1,0,0:0:0:0:
320,192,57998,1,0,0:0:0:0:
448,192,58065,1,0,0:0:0:0:
192,192,58065,1,0,0:0:0:0:
192,192,58131,1,0,0:0:0:0:
64,192,58131,1,0,0:0:0:0:
320,192,58131,1,0,0:0:0:0:
320,192,58198,1,0,0:0:0:0:
448,192,58198,1,0,0:0:0:0:
192,192,58265,1,0,0:0:0:0:
64,192,58265,1,0,0:0:0:0:
320,192,58331,1,0,0:0:0:0:
64,192,58331,1,0,0:0:0:0:
64,192,58398,1,0,0:0:0:0:
192,192,58398,1,0,0:0:0:0:
448,192,58398,1,0,0:0:0:0:
192,192,58465,1,0,0:0:0:0:
320,192,58465,1,0,0:0:0:0:
64,192,58531,1,0,0:0:0:0:
448,192,58531,1,0,0:0:0:0:
320,192,58598,1,0,0:0:0:0:
192,192,58598,1,0,0:0:0:0:
192,192,58665,1,0,0:0:0:0:
320,192,58665,1,0,0:0:0:0:
448,192,58665,1,0,0:0:0:0:
64,192,58731,1,0,0:0:0:0:
448,192,58731,1,0,0:0:0:0:
320,192,58798,1,0,0:0:0:0:
64,192,58798,1,0,0:0:0:0:
192,192,58865,1,0,0:0:0:0:
448,192,58865,1,0,0:0:0:0:
64,192,58931,1,0,0:0:0:0:
192,192,58931,1,0,0:0:0:0:
320,192,58931,1,0,0:0:0:0:
320,192,58998,1,0,0:0:0:0:
448,192,58998,1,0,0:0:0:0:
192,192,59065,1,0,0:0:0:0:
64,192,59065,1,0,0:0:0:0:
192,192,59131,1,0,0:0:0:0:
320,192,59131,1,0,0:0:0:0:
64,192,59198,1,0,0:0:0:0:
320,192,59198,1,0,0:0:0:0:
448,192,59198,1,0,0:0:0:0:
64,192,59265,1,0,0:0:0:0:
448,192,59265,1,0,0:0:0:0:
192,192,59331,1,0,0:0:0:0:
320,192,59331,1,0,0:0:0:0:
192,192,59399,1,0,0:0:0:0:
64,192,59399,1,0,0:0:0:0:
64,192,59465,1,0,0:0:0:0:
320,192,59465,1,0,0:0:0:0:
448,192,59465,1,0,0:0:0:0:
320,192,59531,1,0,0:0:0:0:
448,192,59531,1,0,0:0:0:0:
64,192,59599,1,0,0:0:0:0:
320,192,59599,1,0,0:0:0:0:
192,192,59665,1,0,0:0:0:0:
448,192,59665,1,0,0:0:0:0:
64,192,59731,1,0,0:0:0:0:
192,192,59731,1,0,0:0:0:0:
320,192,59731,1,0,0:0:0:0:
448,192,59799,1,0,0:0:0:0:
320,192,59799,1,0,0:0:0:0:
192,192,59865,1,0,0:0:0:0:
64,192,59865,1,0,0:0:0:0:
320,192,59931,1,0,0:0:0:0:
192,192,59931,1,0,0:0:0:0:
64,192,59999,1,0,0:0:0:0:
192,192,59999,1,0,0:0:0:0:
448,192,59999,1,0,0:0:0:0:
64,192,60065,1,0,0:0:0:0:
448,192,60065,1,0,0:0:0:0:
192,192,60131,1,0,0:0:0:0:
320,192,60131,1,0,0:0:0:0:
64,192,60199,1,0,0:0:0:0:
320,192,60199,1,0,0:0:0:0:
64,192,60265,1,0,0:0:0:0:
320,192,60265,1,0,0:0:0:0:
448,192,60265,1,0,0:0:0:0:
192,192,60331,1,0,0:0:0:0:
448,192,60331,1,0,0:0:0:0:
320,192,60399,1,0,0:0:0:0:
64,192,60399,1,0,0:0:0:0:
192,192,60465,1,0,0:0:0:0:
64,192,60465,1,0,0:0:0:0:
192,192,60531,1,0,0:0:0:0:
320,192,60531,1,0,0:0:0:0:
448,192,60531,1,0,0:0:0:0:
320,192,60599,1,0,0:0:0:0:
448,192,60599,1,0,0:0:0:0:
64,192,60665,1,0,0:0:0:0:
448,192,60665,1,0,0:0:0:0:
320,192,60732,1,0,0:0:0:0:
192,192,60732,1,0,0:0:0:0:
64,192,60799,1,0,0:0:0:0:
192,192,60799,1,0,0:0:0:0:
448,192,60799,1,0,0:0:0:0:
320,192,60865,1,0,0:0:0:0:
64,192,60865,1,0,0:0:0:0:
448,192,60932,1,0,0:0:0:0:
320,192,60932,1,0,0:0:0:0:
192,192,60999,1,0,0:0:0:0:
64,192,60999,1,0,0:0:0:0:
192,192,61065,1,0,0:0:0:0:
320,192,61065,1,0,0:0:0:0:
448,192,61065,1,0,0:0:0:0:
64,192,61132,1,0,0:0:0:0:
448,192,61132,1,0,0:0:0:0:
192,192,61199,1,0,0:0:0:0:
448,192,61199,1,0,0:0:0:0:
320,192,61265,1,0,0:0:0:0:
64,192,61265,1,0,0:0:0:0:
64,192,61332,1,0,0:0:0:0:
448,192,61332,1,0,0:0:0:0:
192,192,61332,1,0,0:0:0:0:
320,192,61399,1,0,0:0:0:0:
448,192,61399,1,0,0:0:0:0:
64,192,61465,1,0,0:0:0:0:
320,192,61465,1,0,0:0:0:0:
192,192,61532,1,0,0:0:0:0:
64,192,61532,1,0,0:0:0:0:
64,192,61599,1,0,0:0:0:0:
192,192,61599,1,0,0:0:0:0:
320,192,61599,1,0,0:0:0:0:
448,192,61665,1,0,0:0:0:0:
320,192,61665,1,0,0:0:0:0:
64,192,61732,1,0,0:0:0:0:
448,192,61732,1,0,0:0:0:0:
320,192,61799,1,0,0:0:0:0:
192,192,61799,1,0,0:0:0:0:
64,192,61865,1,0,0:0:0:0:
192,192,61865,1,0,0:0:0:0:
448,192,61865,1,0,0:0:0:0:
320,192,61932,1,0,0:0:0:0:
448,192,61932,1,0,0:0:0:0:
192,192,61999,1,0,0:0:0:0:
64,192,61999,1,0,0:0:0:0:
64,192,62066,1,0,0:0:0:0:
320,192,62066,1,0,0:0:0:0:
64,192,62132,1,0,0:0:0:0:
320,192,62132,1,0,0:0:0:0:
448,192,62132,1,0,0:0:0:0:
192,192,62199,1,0,0:0:0:0:
448,192,62199,1,0,0:0:0:0:
320,192,62266,1,0,0:0:0:0:
448,192,62266,1,0,0:0:0:0:
192,192,62332,1,0,0:0:0:0:
64,192,62332,1,0,0:0:0:0:
192,192,62399,1,0,0:0:0:0:
320,192,62399,1,0,0:0:0:0:
448,192,62399,1,0,0:0:0:0:
448,192,62466,1,0,0:0:0:0:
320,192,62466,1,0,0:0:0:0:
192,192,62532,1,0,0:0:0:0:
320,192,62532,1,0,0:0:0:0:
64,192,62599,1,0,0:0:0:0:
448,192,62599,1,0,0:0:0:0:
64,192,62666,1,0,0:0:0:0:
320,192,62666,1,0,0:0:0:0:
448,192,62666,1,0,0:0:0:0:
192,192,62732,1,0,0:0:0:0:
320,192,62732,1,0,0:0:0:0:
192,192,62799,1,0,0:0:0:0:
64,192,62799,1,0,0:0:0:0:
320,192,62866,1,0,0:0:0:0:
448,192,62866,1,0,0:0:0:0:
192,192,62932,5,0,0:0:0:0:
64,192,62932,1,0,0:0:0:0:
320,192,62932,1,0,0:0:0:0:
192,192,62999,1,0,0:0:0:0:
64,192,62999,1,0,0:0:0:0:
64,192,63066,1,0,0:0:0:0:
448,192,63066,1,0,0:0:0:0:
320,192,63132,1,0,0:0:0:0:
448,192,63132,1,0,0:0:0:0:
64,192,63199,1,0,0:0:0:0:
192,192,63199,1,0,0:0:0:0:
448,192,63199,1,0,0:0:0:0:
320,192,63266,1,0,0:0:0:0:
192,192,63266,1,0,0:0:0:0:
64,192,63332,1,0,0:0:0:0:
448,192,63332,1,0,0:0:0:0:
320,192,63400,1,0,0:0:0:0:
192,192,63400,1,0,0:0:0:0:
64,192,63466,1,0,0:0:0:0:
192,192,63466,1,0,0:0:0:0:
320,192,63466,1,0,0:0:0:0:
448,192,63532,1,0,0:0:0:0:
320,192,63532,1,0,0:0:0:0:
64,192,63600,1,0,0:0:0:0:
448,192,63600,1,0,0:0:0:0:
192,192,63666,1,0,0:0:0:0:
64,192,63666,1,0,0:0:0:0:
64,192,63732,1,0,0:0:0:0:
320,192,63732,1,0,0:0:0:0:
448,192,63732,1,0,0:0:0:0:
192,192,63800,1,0,0:0:0:0:
448,192,63800,1,0,0:0:0:0:
320,192,63866,1,0,0:0:0:0:
192,192,63866,1,0,0:0:0:0:
64,192,63932,1,0,0:0:0:0:
320,192,63932,1,0,0:0:0:0:
448,192,64000,128,0,64132:0:0:0:0:
192,192,64132,128,0,64266:0:0:0:0:
320,192,64266,128,0,64400:0:0:0:0:
64,192,64400,128,0,64666:0:0:0:0:
320,192,64666,1,0,0:0:0:0:
448,192,64666,1,0,0:0:0:0:
192,192,64800,1,0,0:0:0:0:
320,192,64800,1,0,0:0:0:0:
448,192,64800,1,0,0:0:0:0:
64,192,64933,1,0,0:0:0:0:
192,192,64933,1,0,0:0:0:0:
448,192,64933,1,0,0:0:0:0:
320,192,64933,1,0,0:0:0:0:
192,192,65066,1,0,0:0:0:0:
64,192,65066,1,0,0:0:0:0:
320,192,65066,1,0,0:0:0:0:
448,192,65066,1,0,0:0:0:0:
64,192,65133,1,0,0:0:0:0:
192,192,65133,1,0,0:0:0:0:
64,192,65200,1,0,0:0:0:0:
448,192,65200,1,0,0:0:0:0:
320,192,65266,1,0,0:0:0:0:
448,192,65266,1,0,0:0:0:0:
64,192,65333,1,0,0:0:0:0:
192,192,65333,1,0,0:0:0:0:
448,192,65333,1,0,0:0:0:0:
320,192,65333,1,0,0:0:0:0:
192,192,65400,1,0,0:0:0:0:
64,192,65400,1,0,0:0:0:0:
448,192,65466,1,0,0:0:0:0:
192,192,65466,1,0,0:0:0:0:
64,192,65533,1,0,0:0:0:0:
320,192,65533,1,0,0:0:0:0:
64,192,65600,1,0,0:0:0:0:
192,192,65600,1,0,0:0:0:0:
320,192,65600,1,0,0:0:0:0:
448,192,65600,1,0,0:0:0:0:
448,192,65666,1,0,0:0:0:0:
192,192,65666,1,0,0:0:0:0:
320,192,65733,1,0,0:0:0:0:
448,192,65733,1,0,0:0:0:0:
192,192,65800,1,0,0:0:0:0:
64,192,65800,1,0,0:0:0:0:
64,192,65866,1,0,0:0:0:0:
192,192,65866,1,0,0:0:0:0:
320,192,65866,1,0,0:0:0:0:
448,192,65866,1,0,0:0:0:0:
320,192,65933,1,0,0:0:0:0:
448,192,65933,1,0,0:0:0:0:
192,192,66000,1,0,0:0:0:0:
320,192,66000,1,0,0:0:0:0:
64,192,66067,1,0,0:0:0:0:
448,192,66067,1,0,0:0:0:0:
192,192,66133,1,0,0:0:0:0:
320,192,66133,1,0,0:0:0:0:
448,192,66133,1,0,0:0:0:0:
64,192,66133,1,0,0:0:0:0:
320,192,66200,1,0,0:0:0:0:
192,192,66200,1,0,0:0:0:0:
320,192,66267,1,0,0:0:0:0:
448,192,66267,1,0,0:0:0:0:
192,192,66333,1,0,0:0:0:0:
64,192,66333,1,0,0:0:0:0:
64,192,66400,1,0,0:0:0:0:
192,192,66400,1,0,0:0:0:0:
320,192,66400,1,0,0:0:0:0:
448,192,66400,1,0,0:0:0:0:
320,192,66467,1,0,0:0:0:0:
448,192,66467,1,0,0:0:0:0:
64,192,66533,1,0,0:0:0:0:
448,192,66533,1,0,0:0:0:0:
320,192,66600,1,0,0:0:0:0:
64,192,66600,1,0,0:0:0:0:
64,192,66667,1,0,0:0:0:0:
192,192,66667,1,0,0:0:0:0:
320,192,66667,1,0,0:0:0:0:
448,192,66667,1,0,0:0:0:0:
192,192,66733,1,0,0:0:0:0:
448,192,66733,1,0,0:0:0:0:
320,192,66800,1,0,0:0:0:0:
448,192,66800,1,0,0:0:0:0:
192,192,66867,1,0,0:0:0:0:
64,192,66867,1,0,0:0:0:0:
64,192,66933,1,0,0:0:0:0:
192,192,66933,1,0,0:0:0:0:
320,192,66933,1,0,0:0:0:0:
448,192,66933,1,0,0:0:0:0:
448,192,67000,1,0,0:0:0:0:
320,192,67000,1,0,0:0:0:0:
64,192,67067,1,0,0:0:0:0:
192,192,67067,1,0,0:0:0:0:
64,192,67133,1,0,0:0:0:0:
448,192,67133,1,0,0:0:0:0:
64,192,67200,1,0,0:0:0:0:
192,192,67200,1,0,0:0:0:0:
320,192,67200,1,0,0:0:0:0:
448,192,67200,1,0,0:0:0:0:
192,192,67267,1,0,0:0:0:0:
320,192,67267,1,0,0:0:0:0:
64,192,67333,1,0,0:0:0:0:
448,192,67333,1,0,0:0:0:0:
192,192,67400,1,0,0:0:0:0:
448,192,67400,1,0,0:0:0:0:
64,192,67467,1,0,0:0:0:0:
192,192,67467,1,0,0:0:0:0:
320,192,67467,1,0,0:0:0:0:
448,192,67467,1,0,0:0:0:0:
320,192,67533,1,0,0:0:0:0:
64,192,67533,1,0,0:0:0:0:
192,192,67600,1,0,0:0:0:0:
64,192,67600,1,0,0:0:0:0:
320,192,67667,1,0,0:0:0:0:
448,192,67667,1,0,0:0:0:0:
64,192,67733,1,0,0:0:0:0:
192,192,67733,1,0,0:0:0:0:
320,192,67733,1,0,0:0:0:0:
448,192,67733,1,0,0:0:0:0:
192,192,67800,1,0,0:0:0:0:
64,192,67800,1,0,0:0:0:0:
64,192,67867,1,0,0:0:0:0:
448,192,67867,1,0,0:0:0:0:
320,192,67933,1,0,0:0:0:0:
192,192,67933,1,0,0:0:0:0:
64,192,68000,1,0,0:0:0:0:
192,192,68000,1,0,0:0:0:0:
320,192,68000,1,0,0:0:0:0:
448,192,68000,1,0,0:0:0:0:
64,192,68067,1,0,0:0:0:0:
448,192,68067,1,0,0:0:0:0:
320,192,68133,1,0,0:0:0:0:
448,192,68133,1,0,0:0:0:0:
192,192,68200,1,0,0:0:0:0:
64,192,68200,1,0,0:0:0:0:
192,192,68267,1,0,0:0:0:0:
64,192,68267,1,0,0:0:0:0:
320,192,68267,1,0,0:0:0:0:
448,192,68267,1,0,0:0:0:0:
320,192,68333,1,0,0:0:0:0:
448,192,68333,1,0,0:0:0:0:
64,192,68400,1,0,0:0:0:0:
320,192,68400,1,0,0:0:0:0:
64,192,68467,1,0,0:0:0:0:
448,192,68467,1,0,0:0:0:0:
64,192,68533,1,0,0:0:0:0:
192,192,68533,1,0,0:0:0:0:
320,192,68533,1,0,0:0:0:0:
448,192,68533,1,0,0:0:0:0:
192,192,68600,1,0,0:0:0:0:
320,192,68600,1,0,0:0:0:0:
448,192,68667,1,0,0:0:0:0:
64,192,68667,1,0,0:0:0:0:
192,192,68733,1,0,0:0:0:0:
448,192,68733,1,0,0:0:0:0:
64,192,68800,1,0,0:0:0:0:
192,192,68800,1,0,0:0:0:0:
320,192,68800,1,0,0:0:0:0:
448,192,68800,1,0,0:0:0:0:
320,192,68867,1,0,0:0:0:0:
64,192,68867,1,0,0:0:0:0:
192,192,68934,1,0,0:0:0:0:
64,192,68934,1,0,0:0:0:0:
320,192,69000,1,0,0:0:0:0:
448,192,69000,1,0,0:0:0:0:
64,192,69067,1,0,0:0:0:0:
192,192,69067,1,0,0:0:0:0:
320,192,69067,1,0,0:0:0:0:
448,192,69067,1,0,0:0:0:0:
192,192,69134,1,0,0:0:0:0:
64,192,69134,1,0,0:0:0:0:
448,192,69200,1,0,0:0:0:0:
320,192,69200,1,0,0:0:0:0:
64,192,69200,1,0,0:0:0:0:
192,192,69200,1,0,0:0:0:0:
320,192,69267,1,0,0:0:0:0:
448,192,69267,1,0,0:0:0:0:
64,192,69334,1,0,0:0:0:0:
192,192,69334,1,0,0:0:0:0:
320,192,69334,1,0,0:0:0:0:
448,192,69334,1,0,0:0:0:0:
192,192,69400,1,0,0:0:0:0:
64,192,69400,1,0,0:0:0:0:
448,192,69467,1,0,0:0:0:0:
64,192,69467,1,0,0:0:0:0:
192,192,69534,1,0,0:0:0:0:
320,192,69534,1,0,0:0:0:0:
64,192,69600,1,0,0:0:0:0:
192,192,69600,1,0,0:0:0:0:
320,192,69600,1,0,0:0:0:0:
448,192,69600,1,0,0:0:0:0:
64,192,69667,1,0,0:0:0:0:
448,192,69667,1,0,0:0:0:0:
320,192,69734,1,0,0:0:0:0:
448,192,69734,1,0,0:0:0:0:
192,192,69800,1,0,0:0:0:0:
64,192,69800,1,0,0:0:0:0:
64,192,69867,1,0,0:0:0:0:
192,192,69867,1,0,0:0:0:0:
320,192,69867,1,0,0:0:0:0:
448,192,69867,1,0,0:0:0:0:
320,192,69934,1,0,0:0:0:0:
448,192,69934,1,0,0:0:0:0:
64,192,70000,1,0,0:0:0:0:
320,192,70000,1,0,0:0:0:0:
64,192,70067,1,0,0:0:0:0:
192,192,70067,1,0,0:0:0:0:
64,192,70134,1,0,0:0:0:0:
192,192,70134,1,0,0:0:0:0:
320,192,70134,1,0,0:0:0:0:
448,192,70134,1,0,0:0:0:0:
320,192,70200,1,0,0:0:0:0:
448,192,70200,1,0,0:0:0:0:
64,192,70268,1,0,0:0:0:0:
320,192,70268,1,0,0:0:0:0:
192,192,70334,1,0,0:0:0:0:
448,192,70334,1,0,0:0:0:0:
64,192,70400,1,0,0:0:0:0:
192,192,70400,1,0,0:0:0:0:
320,192,70400,1,0,0:0:0:0:
448,192,70400,1,0,0:0:0:0:
320,192,70468,1,0,0:0:0:0:
64,192,70468,1,0,0:0:0:0:
192,192,70534,1,0,0:0:0:0:
64,192,70534,1,0,0:0:0:0:
320,192,70600,1,0,0:0:0:0:
448,192,70600,1,0,0:0:0:0:
192,192,70668,1,0,0:0:0:0:
320,192,70668,1,0,0:0:0:0:
448,192,70668,1,0,0:0:0:0:
64,192,70668,1,0,0:0:0:0:
192,192,70734,1,0,0:0:0:0:
64,192,70734,1,0,0:0:0:0:
448,192,70800,1,0,0:0:0:0:
64,192,70800,1,0,0:0:0:0:
320,192,70868,1,0,0:0:0:0:
448,192,70868,1,0,0:0:0:0:
448,192,70934,1,0,0:0:0:0:
320,192,70934,1,0,0:0:0:0:
192,192,70934,1,0,0:0:0:0:
64,192,70934,1,0,0:0:0:0:
64,192,71000,1,0,0:0:0:0:
192,192,71000,1,0,0:0:0:0:
320,192,71068,1,0,0:0:0:0:
64,192,71068,1,0,0:0:0:0:
320,192,71134,1,0,0:0:0:0:
448,192,71134,1,0,0:0:0:0:
64,192,71200,1,0,0:0:0:0:
320,192,71200,1,0,0:0:0:0:
448,192,71200,1,0,0:0:0:0:
192,192,71200,1,0,0:0:0:0:
64,192,71268,1,0,0:0:0:0:
192,192,71268,1,0,0:0:0:0:
64,192,71334,1,0,0:0:0:0:
448,192,71334,1,0,0:0:0:0:
320,192,71400,1,0,0:0:0:0:
448,192,71400,1,0,0:0:0:0:
192,192,71468,1,0,0:0:0:0:
320,192,71468,1,0,0:0:0:0:
64,192,71468,1,0,0:0:0:0:
448,192,71468,1,0,0:0:0:0:
192,192,71534,1,0,0:0:0:0:
64,192,71534,1,0,0:0:0:0:
448,192,71601,1,0,0:0:0:0:
64,192,71601,1,0,0:0:0:0:
192,192,71668,1,0,0:0:0:0:
320,192,71668,1,0,0:0:0:0:
192,192,71734,1,0,0:0:0:0:
320,192,71734,1,0,0:0:0:0:
448,192,71734,1,0,0:0:0:0:
64,192,71734,1,0,0:0:0:0:
64,192,71801,1,0,0:0:0:0:
448,192,71801,1,0,0:0:0:0:
320,192,71868,1,0,0:0:0:0:
448,192,71868,1,0,0:0:0:0:
192,192,71934,1,0,0:0:0:0:
64,192,71934,1,0,0:0:0:0:
192,192,72001,1,0,0:0:0:0:
320,192,72001,1,0,0:0:0:0:
448,192,72001,1,0,0:0:0:0:
64,192,72001,1,0,0:0:0:0:
320,192,72068,1,0,0:0:0:0:
448,192,72068,1,0,0:0:0:0:
64,192,72134,1,0,0:0:0:0:
320,192,72134,1,0,0:0:0:0:
192,192,72201,1,0,0:0:0:0:
64,192,72201,1,0,0:0:0:0:
64,192,72268,1,0,0:0:0:0:
192,192,72268,1,0,0:0:0:0:
320,192,72268,1,0,0:0:0:0:
448,192,72268,1,0,0:0:0:0:
320,192,72334,1,0,0:0:0:0:
448,192,72334,1,0,0:0:0:0:
64,192,72401,1,0,0:0:0:0:
448,192,72401,1,0,0:0:0:0:
320,192,72468,1,0,0:0:0:0:
192,192,72468,1,0,0:0:0:0:
64,192,72534,1,0,0:0:0:0:
192,192,72534,1,0,0:0:0:0:
320,192,72534,1,0,0:0:0:0:
448,192,72534,1,0,0:0:0:0:
64,192,72601,1,0,0:0:0:0:
448,192,72601,1,0,0:0:0:0:
320,192,72668,1,0,0:0:0:0:
192,192,72668,1,0,0:0:0:0:
192,192,72734,1,0,0:0:0:0:
448,192,72734,1,0,0:0:0:0:
64,192,72801,1,0,0:0:0:0:
192,192,72801,1,0,0:0:0:0:
320,192,72801,1,0,0:0:0:0:
448,192,72801,1,0,0:0:0:0:
320,192,72868,1,0,0:0:0:0:
64,192,72868,1,0,0:0:0:0:
320,192,72935,1,0,0:0:0:0:
448,192,72935,1,0,0:0:0:0:
192,192,73001,1,0,0:0:0:0:
64,192,73001,1,0,0:0:0:0:
64,192,73068,1,0,0:0:0:0:
192,192,73068,1,0,0:0:0:0:
448,192,73068,1,0,0:0:0:0:
320,192,73068,1,0,0:0:0:0:
448,192,73201,1,0,0:0:0:0:
320,192,73235,1,0,0:0:0:0:
192,192,73268,1,0,0:0:0:0:
64,192,73301,1,0,0:0:0:0:
320,192,73335,1,0,0:0:0:0:
448,192,73335,1,0,0:0:0:0:
64,192,73468,1,0,0:0:0:0:
192,192,73501,1,0,0:0:0:0:
320,192,73535,1,0,0:0:0:0:
448,192,73535,1,0,0:0:0:0:
192,192,73601,1,0,0:0:0:0:
64,192,73601,1,0,0:0:0:0:
448,192,73601,1,0,0:0:0:0:
320,192,73601,1,0,0:0:0:0:
320,192,73668,1,0,0:0:0:0:
64,192,73668,1,0,0:0:0:0:
192,192,73735,1,0,0:0:0:0:
448,192,73735,1,0,0:0:0:0:
320,192,73801,1,0,0:0:0:0:
448,192,73801,1,0,0:0:0:0:
448,192,73868,1,0,0:0:0:0:
320,192,73868,1,0,0:0:0:0:
192,192,73868,1,0,0:0:0:0:
64,192,73868,1,0,0:0:0:0:
192,192,73935,1,0,0:0:0:0:
64,192,73935,1,0,0:0:0:0:
64,192,74001,1,0,0:0:0:0:
448,192,74001,1,0,0:0:0:0:
448,192,74068,1,0,0:0:0:0:
320,192,74068,1,0,0:0:0:0:
192,192,74135,1,0,0:0:0:0:
64,192,74135,1,0,0:0:0:0:
320,192,74135,1,0,0:0:0:0:
448,192,74135,1,0,0:0:0:0:
192,192,74201,1,0,0:0:0:0:
64,192,74201,1,0,0:0:0:0:
64,192,74269,1,0,0:0:0:0:
320,192,74269,1,0,0:0:0:0:
192,192,74335,1,0,0:0:0:0:
448,192,74335,1,0,0:0:0:0:
320,192,74401,1,0,0:0:0:0:
192,192,74401,1,0,0:0:0:0:
64,192,74401,1,0,0:0:0:0:
448,192,74401,1,0,0:0:0:0:
320,192,74469,1,0,0:0:0:0:
64,192,74469,1,0,0:0:0:0:
320,192,74535,1,0,0:0:0:0:
448,192,74535,1,0,0:0:0:0:
64,192,74601,1,0,0:0:0:0:
448,192,74601,1,0,0:0:0:0:
448,192,74669,1,0,0:0:0:0:
320,192,74669,1,0,0:0:0:0:
192,192,74669,1,0,0:0:0:0:
64,192,74669,1,0,0:0:0:0:
192,192,74735,1,0,0:0:0:0:
320,192,74735,1,0,0:0:0:0:
64,192,74801,1,0,0:0:0:0:
448,192,74801,1,0,0:0:0:0:
192,192,74869,1,0,0:0:0:0:
64,192,74869,1,0,0:0:0:0:
320,192,74935,1,0,0:0:0:0:
448,192,74935,1,0,0:0:0:0:
192,192,74935,1,0,0:0:0:0:
64,192,74935,1,0,0:0:0:0:
320,192,75001,1,0,0:0:0:0:
448,192,75001,1,0,0:0:0:0:
64,192,75069,1,0,0:0:0:0:
448,192,75069,1,0,0:0:0:0:
320,192,75135,1,0,0:0:0:0:
64,192,75135,1,0,0:0:0:0:
192,192,75201,1,0,0:0:0:0:
320,192,75201,1,0,0:0:0:0:
448,192,75201,1,0,0:0:0:0:
64,192,75201,1,0,0:0:0:0:
192,192,75269,1,0,0:0:0:0:
448,192,75269,1,0,0:0:0:0:
320,192,75335,1,0,0:0:0:0:
448,192,75335,1,0,0:0:0:0:
64,192,75401,1,0,0:0:0:0:
192,192,75401,1,0,0:0:0:0:
192,192,75469,1,0,0:0:0:0:
64,192,75469,1,0,0:0:0:0:
320,192,75469,1,0,0:0:0:0:
448,192,75469,1,0,0:0:0:0:
448,192,75535,1,0,0:0:0:0:
320,192,75535,1,0,0:0:0:0:
192,192,75602,1,0,0:0:0:0:
64,192,75602,1,0,0:0:0:0:
64,192,75669,1,0,0:0:0:0:
320,192,75669,1,0,0:0:0:0:
64,192,75735,1,0,0:0:0:0:
192,192,75735,1,0,0:0:0:0:
320,192,75735,1,0,0:0:0:0:
448,192,75735,1,0,0:0:0:0:
192,192,75802,1,0,0:0:0:0:
448,192,75802,1,0,0:0:0:0:
320,192,75869,1,0,0:0:0:0:
448,192,75869,1,0,0:0:0:0:
192,192,75935,1,0,0:0:0:0:
64,192,75935,1,0,0:0:0:0:
320,192,76002,1,0,0:0:0:0:
448,192,76002,1,0,0:0:0:0:
192,192,76002,1,0,0:0:0:0:
64,192,76002,1,0,0:0:0:0:
320,192,76069,1,0,0:0:0:0:
448,192,76069,1,0,0:0:0:0:
64,192,76135,1,0,0:0:0:0:
448,192,76135,1,0,0:0:0:0:
320,192,76202,1,0,0:0:0:0:
192,192,76202,1,0,0:0:0:0:
64,192,76269,1,0,0:0:0:0:
192,192,76269,1,0,0:0:0:0:
320,192,76269,1,0,0:0:0:0:
448,192,76269,1,0,0:0:0:0:
64,192,76335,1,0,0:0:0:0:
448,192,76335,1,0,0:0:0:0:
192,192,76402,1,0,0:0:0:0:
64,192,76402,1,0,0:0:0:0:
320,192,76469,1,0,0:0:0:0:
448,192,76469,1,0,0:0:0:0:
448,192,76535,1,0,0:0:0:0:
320,192,76535,1,0,0:0:0:0:
192,192,76535,1,0,0:0:0:0:
64,192,76535,1,0,0:0:0:0:
64,192,76602,1,0,0:0:0:0:
192,192,76602,1,0,0:0:0:0:
320,192,76669,1,0,0:0:0:0:
64,192,76669,1,0,0:0:0:0:
192,192,76735,1,0,0:0:0:0:
448,192,76735,1,0,0:0:0:0:
64,192,76802,1,0,0:0:0:0:
192,192,76802,1,0,0:0:0:0:
448,192,76802,1,0,0:0:0:0:
320,192,76802,1,0,0:0:0:0:
320,192,76869,1,0,0:0:0:0:
64,192,76869,1,0,0:0:0:0:
192,192,76936,1,0,0:0:0:0:
64,192,76936,1,0,0:0:0:0:
320,192,77002,1,0,0:0:0:0:
448,192,77002,1,0,0:0:0:0:
64,192,77069,1,0,0:0:0:0:
192,192,77069,1,0,0:0:0:0:
448,192,77069,1,0,0:0:0:0:
320,192,77069,1,0,0:0:0:0:
192,192,77136,1,0,0:0:0:0:
64,192,77136,1,0,0:0:0:0:
448,192,77202,1,0,0:0:0:0:
192,192,77202,1,0,0:0:0:0:
64,192,77269,1,0,0:0:0:0:
320,192,77269,1,0,0:0:0:0:
64,192,77336,1,0,0:0:0:0:
320,192,77336,1,0,0:0:0:0:
448,192,77336,1,0,0:0:0:0:
192,192,77336,1,0,0:0:0:0:
192,192,77402,1,0,0:0:0:0:
448,192,77402,1,0,0:0:0:0:
64,192,77469,1,0,0:0:0:0:
448,192,77469,1,0,0:0:0:0:
320,192,77536,1,0,0:0:0:0:
64,192,77536,1,0,0:0:0:0:
64,192,77602,1,0,0:0:0:0:
320,192,77602,1,0,0:0:0:0:
448,192,77602,1,0,0:0:0:0:
192,192,77602,1,0,0:0:0:0:
192,192,77669,1,0,0:0:0:0:
448,192,77669,1,0,0:0:0:0:
320,192,77736,1,0,0:0:0:0:
448,192,77736,1,0,0:0:0:0:
192,192,77802,1,0,0:0:0:0:
64,192,77802,1,0,0:0:0:0:
64,192,77869,1,0,0:0:0:0:
192,192,77869,1,0,0:0:0:0:
320,192,77869,1,0,0:0:0:0:
448,192,77869,1,0,0:0:0:0:
320,192,77936,1,0,0:0:0:0:
448,192,77936,1,0,0:0:0:0:
64,192,78002,1,0,0:0:0:0:
448,192,78002,1,0,0:0:0:0:
192,192,78069,1,0,0:0:0:0:
64,192,78069,1,0,0:0:0:0:
64,192,78136,1,0,0:0:0:0:
192,192,78136,1,0,0:0:0:0:
320,192,78136,1,0,0:0:0:0:
448,192,78136,1,0,0:0:0:0:
320,192,78202,1,0,0:0:0:0:
448,192,78202,1,0,0:0:0:0:
192,192,78270,1,0,0:0:0:0:
64,192,78270,1,0,0:0:0:0:
64,192,78336,1,0,0:0:0:0:
320,192,78336,1,0,0:0:0:0:
320,192,78402,1,0,0:0:0:0:
448,192,78402,1,0,0:0:0:0:
64,192,78402,1,0,0:0:0:0:
192,192,78402,1,0,0:0:0:0:
192,192,78470,1,0,0:0:0:0:
448,192,78470,1,0,0:0:0:0:
320,192,78536,1,0,0:0:0:0:
448,192,78536,1,0,0:0:0:0:
192,192,78602,1,0,0:0:0:0:
64,192,78602,1,0,0:0:0:0:
64,192,78670,1,0,0:0:0:0:
192,192,78670,1,0,0:0:0:0:
320,192,78670,1,0,0:0:0:0:
448,192,78670,1,0,0:0:0:0:
320,192,78736,1,0,0:0:0:0:
448,192,78736,1,0,0:0:0:0:
64,192,78802,1,0,0:0:0:0:
448,192,78802,1,0,0:0:0:0:
320,192,78870,1,0,0:0:0:0:
192,192,78870,1,0,0:0:0:0:
64,192,78936,1,0,0:0:0:0:
192,192,78936,1,0,0:0:0:0:
320,192,78936,1,0,0:0:0:0:
448,192,78936,1,0,0:0:0:0:
448,192,79002,1,0,0:0:0:0:
64,192,79002,1,0,0:0:0:0:
192,192,79070,1,0,0:0:0:0:
64,192,79070,1,0,0:0:0:0:
320,192,79136,1,0,0:0:0:0:
448,192,79136,1,0,0:0:0:0:
64,192,79202,1,0,0:0:0:0:
192,192,79202,1,0,0:0:0:0:
320,192,79202,1,0,0:0:0:0:
448,192,79202,1,0,0:0:0:0:
192,192,79270,1,0,0:0:0:0:
64,192,79270,1,0,0:0:0:0:
64,192,79336,1,0,0:0:0:0:
320,192,79336,1,0,0:0:0:0:
192,192,79402,1,0,0:0:0:0:
448,192,79402,1,0,0:0:0:0:
64,192,79470,1,0,0:0:0:0:
320,192,79470,1,0,0:0:0:0:
448,192,79470,1,0,0:0:0:0:
192,192,79470,1,0,0:0:0:0:
320,192,79536,1,0,0:0:0:0:
64,192,79536,1,0,0:0:0:0:
192,192,79603,1,0,0:0:0:0:
64,192,79603,1,0,0:0:0:0:
320,192,79670,1,0,0:0:0:0:
448,192,79670,1,0,0:0:0:0:
64,192,79736,1,0,0:0:0:0:
192,192,79736,1,0,0:0:0:0:
320,192,79736,1,0,0:0:0:0:
448,192,79736,1,0,0:0:0:0:
64,192,79803,1,0,0:0:0:0:
192,192,79803,1,0,0:0:0:0:
448,192,79870,1,0,0:0:0:0:
64,192,79870,1,0,0:0:0:0:
192,192,79936,1,0,0:0:0:0:
448,192,79936,1,0,0:0:0:0:
64,192,80003,1,0,0:0:0:0:
192,192,80003,1,0,0:0:0:0:
320,192,80003,1,0,0:0:0:0:
448,192,80003,1,0,0:0:0:0:
320,192,80070,1,0,0:0:0:0:
64,192,80070,1,0,0:0:0:0:
192,192,80136,1,0,0:0:0:0:
64,192,80136,1,0,0:0:0:0:
192,192,80203,1,0,0:0:0:0:
320,192,80203,1,0,0:0:0:0:
64,192,80270,1,0,0:0:0:0:
192,192,80270,1,0,0:0:0:0:
320,192,80270,1,0,0:0:0:0:
448,192,80270,1,0,0:0:0:0:
64,192,80336,1,0,0:0:0:0:
448,192,80336,1,0,0:0:0:0:
192,192,80403,1,0,0:0:0:0:
64,192,80403,1,0,0:0:0:0:
320,192,80470,1,0,0:0:0:0:
448,192,80470,1,0,0:0:0:0:
64,192,80536,1,0,0:0:0:0:
448,192,80536,1,0,0:0:0:0:
320,192,80536,1,0,0:0:0:0:
192,192,80536,1,0,0:0:0:0:
192,192,80603,1,0,0:0:0:0:
64,192,80603,1,0,0:0:0:0:
320,192,80670,1,0,0:0:0:0:
192,192,80670,1,0,0:0:0:0:
448,192,80736,1,0,0:0:0:0:
64,192,80736,1,0,0:0:0:0:
448,192,80803,1,0,0:0:0:0:
320,192,80803,1,0,0:0:0:0:
64,192,80803,1,0,0:0:0:0:
192,192,80803,1,0,0:0:0:0:
192,192,80870,1,0,0:0:0:0:
320,192,80870,1,0,0:0:0:0:
64,192,80937,1,0,0:0:0:0:
192,192,80937,1,0,0:0:0:0:
320,192,80937,1,0,0:0:0:0:
448,192,80937,1,0,0:0:0:0:
64,192,81003,1,0,0:0:0:0:
448,192,81003,1,0,0:0:0:0:
64,192,81070,1,0,0:0:0:0:
192,192,81070,1,0,0:0:0:0:
448,192,81070,1,0,0:0:0:0:
320,192,81070,1,0,0:0:0:0:
192,192,81137,1,0,0:0:0:0:
320,192,81203,1,0,0:0:0:0:
448,192,81203,1,0,0:0:0:0:
192,192,81270,1,0,0:0:0:0:
64,192,81270,1,0,0:0:0:0:
320,192,81337,1,0,0:0:0:0:
448,192,81337,1,0,0:0:0:0:
64,192,81403,1,0,0:0:0:0:
192,192,81403,1,0,0:0:0:0:
64,192,81470,1,0,0:0:0:0:
192,192,81470,1,0,0:0:0:0:
320,192,81470,1,0,0:0:0:0:
448,192,81470,1,0,0:0:0:0:
320,192,81537,1,0,0:0:0:0:
448,192,81537,1,0,0:0:0:0:
64,192,81603,1,0,0:0:0:0:
192,192,81603,1,0,0:0:0:0:
448,192,81603,1,0,0:0:0:0:
320,192,81603,1,0,0:0:0:0:
192,192,81670,1,0,0:0:0:0:
64,192,81670,1,0,0:0:0:0:
64,192,81737,1,0,0:0:0:0:
448,192,81737,1,0,0:0:0:0:
320,192,81803,1,0,0:0:0:0:
192,192,81803,1,0,0:0:0:0:
64,192,81870,1,0,0:0:0:0:
192,192,81870,1,0,0:0:0:0:
320,192,81870,1,0,0:0:0:0:
448,192,81870,1,0,0:0:0:0:
64,192,81937,1,0,0:0:0:0:
448,192,81937,1,0,0:0:0:0:
320,192,82003,1,0,0:0:0:0:
448,192,82003,1,0,0:0:0:0:
192,192,82070,1,0,0:0:0:0:
64,192,82070,1,0,0:0:0:0:
64,192,82137,1,0,0:0:0:0:
192,192,82137,1,0,0:0:0:0:
320,192,82137,1,0,0:0:0:0:
448,192,82137,1,0,0:0:0:0:
448,192,82203,1,0,0:0:0:0:
320,192,82203,1,0,0:0:0:0:
192,192,82270,1,0,0:0:0:0:
320,192,82270,1,0,0:0:0:0:
64,192,82337,1,0,0:0:0:0:
448,192,82337,1,0,0:0:0:0:
320,192,82403,1,0,0:0:0:0:
64,192,82403,1,0,0:0:0:0:
192,192,82403,1,0,0:0:0:0:
448,192,82403,1,0,0:0:0:0:
320,192,82470,1,0,0:0:0:0:
192,192,82470,1,0,0:0:0:0:
64,192,82537,1,0,0:0:0:0:
448,192,82537,1,0,0:0:0:0:
192,192,82603,1,0,0:0:0:0:
64,192,82603,1,0,0:0:0:0:
448,192,82670,1,0,0:0:0:0:
192,192,82670,1,0,0:0:0:0:
64,192,82670,1,0,0:0:0:0:
320,192,82670,1,0,0:0:0:0:
320,192,82737,1,0,0:0:0:0:
448,192,82737,1,0,0:0:0:0:
64,192,82803,1,0,0:0:0:0:
192,192,82803,1,0,0:0:0:0:
448,192,82870,1,0,0:0:0:0:
320,192,82870,1,0,0:0:0:0:
64,192,82937,1,0,0:0:0:0:
192,192,82937,1,0,0:0:0:0:
448,192,82937,1,0,0:0:0:0:
320,192,82937,1,0,0:0:0:0:
192,192,83003,1,0,0:0:0:0:
64,192,83003,1,0,0:0:0:0:
64,192,83070,1,0,0:0:0:0:
448,192,83070,1,0,0:0:0:0:
320,192,83137,1,0,0:0:0:0:
192,192,83137,1,0,0:0:0:0:
64,192,83203,1,0,0:0:0:0:
192,192,83203,1,0,0:0:0:0:
448,192,83203,1,0,0:0:0:0:
320,192,83203,1,0,0:0:0:0:
64,192,83270,1,0,0:0:0:0:
448,192,83270,1,0,0:0:0:0:
320,192,83337,1,0,0:0:0:0:
64,192,83337,1,0,0:0:0:0:
320,192,83403,1,0,0:0:0:0:
448,192,83403,1,0,0:0:0:0:
64,192,83470,1,0,0:0:0:0:
192,192,83470,1,0,0:0:0:0:
320,192,83470,1,0,0:0:0:0:
448,192,83470,1,0,0:0:0:0:
192,192,83537,1,0,0:0:0:0:
64,192,83537,1,0,0:0:0:0:
64,192,83603,1,0,0:0:0:0:
448,192,83603,1,0,0:0:0:0:
320,192,83670,1,0,0:0:0:0:
448,192,83670,1,0,0:0:0:0:
320,192,83737,1,0,0:0:0:0:
64,192,83737,1,0,0:0:0:0:
192,192,83737,1,0,0:0:0:0:
448,192,83737,1,0,0:0:0:0:
192,192,83804,1,0,0:0:0:0:
64,192,83804,1,0,0:0:0:0:
64,192,83870,1,0,0:0:0:0:
448,192,83870,1,0,0:0:0:0:
320,192,83937,1,0,0:0:0:0:
192,192,83937,1,0,0:0:0:0:
64,192,84004,1,0,0:0:0:0:
192,192,84004,1,0,0:0:0:0:
320,192,84004,1,0,0:0:0:0:
448,192,84004,1,0,0:0:0:0:
64,192,84070,1,0,0:0:0:0:
448,192,84070,1,0,0:0:0:0:
320,192,84137,1,0,0:0:0:0:
448,192,84137,1,0,0:0:0:0:
192,192,84204,1,0,0:0:0:0:
64,192,84204,1,0,0:0:0:0:
64,192,84270,1,0,0:0:0:0:
192,192,84270,1,0,0:0:0:0:
320,192,84270,1,0,0:0:0:0:
448,192,84270,1,0,0:0:0:0:
320,192,84337,1,0,0:0:0:0:
448,192,84337,1,0,0:0:0:0:
64,192,84404,1,0,0:0:0:0:
448,192,84404,1,0,0:0:0:0:
320,192,84470,1,0,0:0:0:0:
64,192,84470,1,0,0:0:0:0:
192,192,84537,1,0,0:0:0:0:
320,192,84537,1,0,0:0:0:0:
448,192,84537,1,0,0:0:0:0:
64,192,84537,1,0,0:0:0:0:
192,192,84604,1,0,0:0:0:0:
448,192,84604,1,0,0:0:0:0:
320,192,84670,1,0,0:0:0:0:
448,192,84670,1,0,0:0:0:0:
64,192,84737,1,0,0:0:0:0:
192,192,84737,1,0,0:0:0:0:
64,192,84804,1,0,0:0:0:0:
192,192,84804,1,0,0:0:0:0:
320,192,84804,1,0,0:0:0:0:
448,192,84804,1,0,0:0:0:0:
320,192,84870,1,0,0:0:0:0:
448,192,84870,1,0,0:0:0:0:
192,192,84937,1,0,0:0:0:0:
64,192,84937,1,0,0:0:0:0:
64,192,85004,1,0,0:0:0:0:
448,192,85004,1,0,0:0:0:0:
320,192,85070,1,0,0:0:0:0:
64,192,85070,1,0,0:0:0:0:
192,192,85070,1,0,0:0:0:0:
448,192,85070,1,0,0:0:0:0:
192,192,85138,1,0,0:0:0:0:
320,192,85138,1,0,0:0:0:0:
64,192,85204,1,0,0:0:0:0:
448,192,85204,1,0,0:0:0:0:
320,192,85270,1,0,0:0:0:0:
448,192,85270,1,0,0:0:0:0:
64,192,85338,1,0,0:0:0:0:
192,192,85338,1,0,0:0:0:0:
320,192,85338,1,0,0:0:0:0:
448,192,85338,1,0,0:0:0:0:
192,192,85404,1,0,0:0:0:0:
64,192,85404,1,0,0:0:0:0:
320,192,85470,1,0,0:0:0:0:
448,192,85470,1,0,0:0:0:0:
64,192,85538,1,0,0:0:0:0:
448,192,85538,1,0,0:0:0:0:
448,192,85604,1,0,0:0:0:0:
320,192,85604,1,0,0:0:0:0:
192,192,85604,1,0,0:0:0:0:
64,192,85604,1,0,0:0:0:0:
192,192,85670,1,0,0:0:0:0:
320,192,85670,1,0,0:0:0:0:
448,192,85738,1,0,0:0:0:0:
64,192,85738,1,0,0:0:0:0:
192,192,85804,1,0,0:0:0:0:
448,192,85804,1,0,0:0:0:0:
320,192,85870,1,0,0:0:0:0:
448,192,85870,1,0,0:0:0:0:
192,192,85870,1,0,0:0:0:0:
64,192,85870,1,0,0:0:0:0:
64,192,85938,1,0,0:0:0:0:
320,192,85938,1,0,0:0:0:0:
192,192,86004,1,0,0:0:0:0:
64,192,86004,1,0,0:0:0:0:
320,192,86070,1,0,0:0:0:0:
448,192,86070,1,0,0:0:0:0:
64,192,86138,1,0,0:0:0:0:
192,192,86138,1,0,0:0:0:0:
320,192,86138,1,0,0:0:0:0:
448,192,86138,1,0,0:0:0:0:
64,192,86204,1,0,0:0:0:0:
192,192,86204,1,0,0:0:0:0:
64,192,86270,1,0,0:0:0:0:
192,192,86270,1,0,0:0:0:0:
320,192,86270,1,0,0:0:0:0:
448,192,86270,1,0,0:0:0:0:
320,192,86338,1,0,0:0:0:0:
448,192,86338,1,0,0:0:0:0:
64,192,86404,1,0,0:0:0:0:
192,192,86404,1,0,0:0:0:0:
320,192,86404,1,0,0:0:0:0:
448,192,86404,1,0,0:0:0:0:
64,192,86471,1,0,0:0:0:0:
192,192,86471,1,0,0:0:0:0:
448,192,86538,1,0,0:0:0:0:
320,192,86538,1,0,0:0:0:0:
64,192,86604,1,0,0:0:0:0:
448,192,86604,1,0,0:0:0:0:
448,192,86671,1,0,0:0:0:0:
320,192,86671,1,0,0:0:0:0:
192,192,86671,1,0,0:0:0:0:
64,192,86671,1,0,0:0:0:0:
192,192,86738,1,0,0:0:0:0:
320,192,86738,1,0,0:0:0:0:
448,192,86804,1,0,0:0:0:0:
64,192,86804,1,0,0:0:0:0:
192,192,86871,1,0,0:0:0:0:
64,192,86871,1,0,0:0:0:0:
64,192,86938,1,0,0:0:0:0:
192,192,86938,1,0,0:0:0:0:
320,192,86938,1,0,0:0:0:0:
448,192,86938,1,0,0:0:0:0:
320,192,87004,1,0,0:0:0:0:
448,192,87004,1,0,0:0:0:0:
192,192,87071,1,0,0:0:0:0:
320,192,87071,1,0,0:0:0:0:
64,192,87138,1,0,0:0:0:0:
192,192,87138,1,0,0:0:0:0:
64,192,87204,1,0,0:0:0:0:
192,192,87204,1,0,0:0:0:0:
320,192,87204,1,0,0:0:0:0:
448,192,87204,1,0,0:0:0:0:
320,192,87271,1,0,0:0:0:0:
448,192,87271,1,0,0:0:0:0:
64,192,87338,1,0,0:0:0:0:
448,192,87338,1,0,0:0:0:0:
64,192,87404,1,0,0:0:0:0:
192,192,87404,1,0,0:0:0:0:
320,192,87471,1,0,0:0:0:0:
448,192,87471,1,0,0:0:0:0:
192,192,87471,1,0,0:0:0:0:
64,192,87471,1,0,0:0:0:0:
320,192,87538,1,0,0:0:0:0:
448,192,87538,1,0,0:0:0:0:
64,192,87604,1,0,0:0:0:0:
448,192,87604,1,0,0:0:0:0:
320,192,87671,1,0,0:0:0:0:
192,192,87671,1,0,0:0:0:0:
448,192,87738,1,0,0:0:0:0:
320,192,87738,1,0,0:0:0:0:
192,192,87738,1,0,0:0:0:0:
64,192,87738,1,0,0:0:0:0:
64,192,87805,1,0,0:0:0:0:
448,192,87805,1,0,0:0:0:0:
320,192,87871,1,0,0:0:0:0:
448,192,87871,1,0,0:0:0:0:
192,192,87938,1,0,0:0:0:0:
64,192,87938,1,0,0:0:0:0:
64,192,88005,1,0,0:0:0:0:
192,192,88005,1,0,0:0:0:0:
320,192,88005,1,0,0:0:0:0:
448,192,88005,1,0,0:0:0:0:
320,192,88071,1,0,0:0:0:0:
448,192,88071,1,0,0:0:0:0:
192,192,88138,1,0,0:0:0:0:
64,192,88138,1,0,0:0:0:0:
64,192,88205,1,0,0:0:0:0:
448,192,88205,1,0,0:0:0:0:
64,192,88271,1,0,0:0:0:0:
192,192,88271,1,0,0:0:0:0:
448,192,88271,1,0,0:0:0:0:
320,192,88271,1,0,0:0:0:0:
192,192,88338,1,0,0:0:0:0:
320,192,88338,1,0,0:0:0:0:
64,192,88405,1,0,0:0:0:0:
448,192,88405,1,0,0:0:0:0:
320,192,88471,1,0,0:0:0:0:
448,192,88471,1,0,0:0:0:0:
64,192,88538,1,0,0:0:0:0:
192,192,88538,1,0,0:0:0:0:
320,192,88538,1,0,0:0:0:0:
448,192,88538,1,0,0:0:0:0:
192,192,88605,1,0,0:0:0:0:
64,192,88605,1,0,0:0:0:0:
320,192,88671,1,0,0:0:0:0:
64,192,88671,1,0,0:0:0:0:
192,192,88738,1,0,0:0:0:0:
448,192,88738,1,0,0:0:0:0:
64,192,88805,1,0,0:0:0:0:
192,192,88805,1,0,0:0:0:0:
320,192,88805,1,0,0:0:0:0:
448,192,88805,1,0,0:0:0:0:
320,192,88871,1,0,0:0:0:0:
64,192,88871,1,0,0:0:0:0:
320,192,88938,1,0,0:0:0:0:
448,192,88938,1,0,0:0:0:0:
192,192,89005,1,0,0:0:0:0:
64,192,89005,1,0,0:0:0:0:
192,192,89071,1,0,0:0:0:0:
64,192,89071,1,0,0:0:0:0:
320,192,89071,1,0,0:0:0:0:
448,192,89071,1,0,0:0:0:0:
448,192,89139,1,0,0:0:0:0:
320,192,89139,1,0,0:0:0:0:
64,192,89205,1,0,0:0:0:0:
448,192,89205,1,0,0:0:0:0:
192,192,89271,1,0,0:0:0:0:
64,192,89271,1,0,0:0:0:0:
64,192,89339,1,0,0:0:0:0:
192,192,89339,1,0,0:0:0:0:
320,192,89339,1,0,0:0:0:0:
448,192,89339,1,0,0:0:0:0:
320,192,89405,1,0,0:0:0:0:
448,192,89405,1,0,0:0:0:0:
192,192,89471,1,0,0:0:0:0:
320,192,89471,1,0,0:0:0:0:
64,192,89539,1,0,0:0:0:0:
448,192,89539,1,0,0:0:0:0:
192,192,89605,1,0,0:0:0:0:
64,192,89605,1,0,0:0:0:0:
320,192,89605,1,0,0:0:0:0:
448,192,89605,1,0,0:0:0:0:
320,192,89671,1,0,0:0:0:0:
192,192,89671,1,0,0:0:0:0:
64,192,89739,1,0,0:0:0:0:
448,192,89739,1,0,0:0:0:0:
320,192,89805,1,0,0:0:0:0:
64,192,89805,1,0,0:0:0:0:
64,192,89871,1,0,0:0:0:0:
192,192,89871,1,0,0:0:0:0:
320,192,89871,1,0,0:0:0:0:
448,192,89871,1,0,0:0:0:0:
192,192,89939,1,0,0:0:0:0:
448,192,89939,1,0,0:0:0:0:
320,192,90005,1,0,0:0:0:0:
448,192,90005,1,0,0:0:0:0:
192,192,90071,1,0,0:0:0:0:
64,192,90071,1,0,0:0:0:0:
64,192,90139,1,0,0:0:0:0:
192,192,90139,1,0,0:0:0:0:
448,192,90139,1,0,0:0:0:0:
320,192,90139,1,0,0:0:0:0:
192,192,90271,1,0,0:0:0:0:
64,192,90271,1,0,0:0:0:0:
320,192,90339,1,0,0:0:0:0:
448,192,90339,1,0,0:0:0:0:
192,192,90405,1,0,0:0:0:0:
64,192,90405,1,0,0:0:0:0:
320,192,90405,1,0,0:0:0:0:
448,192,90405,1,0,0:0:0:0:
320,192,90539,1,0,0:0:0:0:
448,192,90539,1,0,0:0:0:0:
192,192,90605,1,0,0:0:0:0:
64,192,90605,1,0,0:0:0:0:
64,192,90672,1,0,0:0:0:0:
192,192,90672,1,0,0:0:0:0:
320,192,90672,1,0,0:0:0:0:
448,192,90672,1,0,0:0:0:0:
320,192,90739,1,0,0:0:0:0:
448,192,90739,1,0,0:0:0:0:
64,192,90805,1,0,0:0:0:0:
448,192,90805,1,0,0:0:0:0:
192,192,90872,1,0,0:0:0:0:
64,192,90872,1,0,0:0:0:0:
192,192,90939,1,0,0:0:0:0:
320,192,90939,1,0,0:0:0:0:
448,192,90939,1,0,0:0:0:0:
64,192,90939,1,0,0:0:0:0:
320,192,91005,1,0,0:0:0:0:
448,192,91005,1,0,0:0:0:0:
192,192,91072,1,0,0:0:0:0:
320,192,91072,1,0,0:0:0:0:
64,192,91139,1,0,0:0:0:0:
448,192,91139,1,0,0:0:0:0:
448,192,91205,1,0,0:0:0:0:
320,192,91205,1,0,0:0:0:0:
192,192,91205,1,0,0:0:0:0:
64,192,91205,1,0,0:0:0:0:
192,192,91272,1,0,0:0:0:0:
320,192,91272,1,0,0:0:0:0:
64,192,91339,1,0,0:0:0:0:
320,192,91339,1,0,0:0:0:0:
192,192,91405,1,0,0:0:0:0:
448,192,91405,1,0,0:0:0:0:
320,192,91472,1,0,0:0:0:0:
448,192,91472,1,0,0:0:0:0:
192,192,91472,1,0,0:0:0:0:
64,192,91472,1,0,0:0:0:0:
64,192,91539,1,0,0:0:0:0:
320,192,91539,1,0,0:0:0:0:
192,192,91605,1,0,0:0:0:0:
64,192,91605,1,0,0:0:0:0:
192,192,91672,1,0,0:0:0:0:
320,192,91672,1,0,0:0:0:0:
64,192,91739,1,0,0:0:0:0:
192,192,91739,1,0,0:0:0:0:
320,192,91739,1,0,0:0:0:0:
448,192,91739,1,0,0:0:0:0:
64,192,91806,1,0,0:0:0:0:
448,192,91806,1,0,0:0:0:0:
320,192,91872,1,0,0:0:0:0:
448,192,91872,1,0,0:0:0:0:
192,192,91939,1,0,0:0:0:0:
64,192,91939,1,0,0:0:0:0:
64,192,92006,1,0,0:0:0:0:
192,192,92006,1,0,0:0:0:0:
448,192,92006,1,0,0:0:0:0:
320,192,92006,1,0,0:0:0:0:
320,192,92072,1,0,0:0:0:0:
448,192,92072,1,0,0:0:0:0:
64,192,92139,1,0,0:0:0:0:
320,192,92139,1,0,0:0:0:0:
64,192,92206,1,0,0:0:0:0:
448,192,92206,1,0,0:0:0:0:
320,192,92272,1,0,0:0:0:0:
448,192,92272,1,0,0:0:0:0:
192,192,92272,1,0,0:0:0:0:
64,192,92272,1,0,0:0:0:0:
192,192,92339,1,0,0:0:0:0:
320,192,92339,1,0,0:0:0:0:
64,192,92406,1,0,0:0:0:0:
448,192,92406,1,0,0:0:0:0:
320,192,92472,1,0,0:0:0:0:
448,192,92472,1,0,0:0:0:0:
192,192,92539,1,0,0:0:0:0:
64,192,92539,1,0,0:0:0:0:
320,192,92539,1,0,0:0:0:0:
448,192,92539,1,0,0:0:0:0:
192,192,92606,1,0,0:0:0:0:
64,192,92606,1,0,0:0:0:0:
320,192,92672,1,0,0:0:0:0:
448,192,92672,1,0,0:0:0:0:
320,192,92739,1,0,0:0:0:0:
192,192,92739,1,0,0:0:0:0:
448,192,92806,1,0,0:0:0:0:
320,192,92806,1,0,0:0:0:0:
64,192,92806,1,0,0:0:0:0:
192,192,92806,1,0,0:0:0:0:
64,192,92872,1,0,0:0:0:0:
448,192,92872,1,0,0:0:0:0:
192,192,92939,1,0,0:0:0:0:
64,192,92939,1,0,0:0:0:0:
320,192,93006,1,0,0:0:0:0:
448,192,93006,1,0,0:0:0:0:
64,192,93072,1,0,0:0:0:0:
192,192,93072,1,0,0:0:0:0:
320,192,93072,1,0,0:0:0:0:
448,192,93072,1,0,0:0:0:0:
192,192,93140,1,0,0:0:0:0:
64,192,93140,1,0,0:0:0:0:
64,192,93206,1,0,0:0:0:0:
320,192,93206,1,0,0:0:0:0:
192,192,93272,1,0,0:0:0:0:
448,192,93272,1,0,0:0:0:0:
64,192,93340,1,0,0:0:0:0:
192,192,93340,1,0,0:0:0:0:
448,192,93340,1,0,0:0:0:0:
320,192,93340,1,0,0:0:0:0:
320,192,93406,1,0,0:0:0:0:
64,192,93406,1,0,0:0:0:0:
192,192,93472,1,0,0:0:0:0:
64,192,93472,1,0,0:0:0:0:
192,192,93540,1,0,0:0:0:0:
320,192,93540,1,0,0:0:0:0:
64,192,93606,1,0,0:0:0:0:
192,192,93606,1,0,0:0:0:0:
320,192,93606,1,0,0:0:0:0:
448,192,93606,1,0,0:0:0:0:
64,192,93672,1,0,0:0:0:0:
448,192,93672,1,0,0:0:0:0:
192,192,93740,1,0,0:0:0:0:
320,192,93740,1,0,0:0:0:0:
320,192,93806,1,0,0:0:0:0:
448,192,93806,1,0,0:0:0:0:
64,192,93872,1,0,0:0:0:0:
192,192,93872,1,0,0:0:0:0:
320,192,93872,1,0,0:0:0:0:
448,192,93872,1,0,0:0:0:0:
192,192,93940,1,0,0:0:0:0:
64,192,93940,1,0,0:0:0:0:
64,192,94006,1,0,0:0:0:0:
320,192,94006,1,0,0:0:0:0:
448,192,94072,1,0,0:0:0:0:
320,192,94072,1,0,0:0:0:0:
64,192,94140,1,0,0:0:0:0:
192,192,94140,1,0,0:0:0:0:
320,192,94140,1,0,0:0:0:0:
448,192,94140,1,0,0:0:0:0:
192,192,94206,1,0,0:0:0:0:
64,192,94206,1,0,0:0:0:0:
448,192,94272,1,0,0:0:0:0:
320,192,94272,1,0,0:0:0:0:
64,192,94340,1,0,0:0:0:0:
448,192,94340,1,0,0:0:0:0:
64,192,94406,1,0,0:0:0:0:
192,192,94406,1,0,0:0:0:0:
320,192,94406,1,0,0:0:0:0:
448,192,94406,1,0,0:0:0:0:
320,192,94472,1,0,0:0:0:0:
192,192,94472,1,0,0:0:0:0:
192,192,94540,1,0,0:0:0:0:
448,192,94540,1,0,0:0:0:0:
320,192,94606,1,0,0:0:0:0:
64,192,94606,1,0,0:0:0:0:
64,192,94673,1,0,0:0:0:0:
192,192,94673,1,0,0:0:0:0:
320,192,94673,1,0,0:0:0:0:
448,192,94673,1,0,0:0:0:0:
192,192,94740,1,0,0:0:0:0:
448,192,94740,1,0,0:0:0:0:
448,192,94806,1,0,0:0:0:0:
64,192,94806,1,0,0:0:0:0:
64,192,94873,1,0,0:0:0:0:
192,192,94873,1,0,0:0:0:0:
64,192,94940,1,0,0:0:0:0:
192,192,94940,1,0,0:0:0:0:
320,192,94940,1,0,0:0:0:0:
448,192,94940,1,0,0:0:0:0:
320,192,95006,1,0,0:0:0:0:
448,192,95006,1,0,0:0:0:0:
192,192,95073,1,0,0:0:0:0:
320,192,95073,1,0,0:0:0:0:
64,192,95140,1,0,0:0:0:0:
192,192,95140,1,0,0:0:0:0:
64,192,95206,1,0,0:0:0:0:
192,192,95206,1,0,0:0:0:0:
448,192,95206,1,0,0:0:0:0:
320,192,95206,1,0,0:0:0:0:
320,192,95273,1,0,0:0:0:0:
448,192,95273,1,0,0:0:0:0:
64,192,95340,1,0,0:0:0:0:
320,192,95340,1,0,0:0:0:0:
192,192,95406,1,0,0:0:0:0:
448,192,95406,1,0,0:0:0:0:
64,192,95473,1,0,0:0:0:0:
192,192,95473,1,0,0:0:0:0:
320,192,95473,1,0,0:0:0:0:
448,192,95473,1,0,0:0:0:0:
320,192,95540,1,0,0:0:0:0:
64,192,95540,1,0,0:0:0:0:
192,192,95606,1,0,0:0:0:0:
64,192,95606,1,0,0:0:0:0:
320,192,95673,1,0,0:0:0:0:
448,192,95673,1,0,0:0:0:0:
64,192,95740,1,0,0:0:0:0:
192,192,95740,1,0,0:0:0:0:
320,192,95740,1,0,0:0:0:0:
448,192,95740,1,0,0:0:0:0:
192,192,95806,1,0,0:0:0:0:
64,192,95806,1,0,0:0:0:0:
448,192,95873,1,0,0:0:0:0:
64,192,95873,1,0,0:0:0:0:
320,192,95940,1,0,0:0:0:0:
448,192,95940,1,0,0:0:0:0:
64,192,96007,5,0,0:0:0:0:
320,192,96007,1,0,0:0:0:0:
448,192,96007,1,0,0:0:0:0:
192,192,96007,1,0,0:0:0:0:
192,192,96073,1,0,0:0:0:0:
64,192,96073,1,0,0:0:0:0:
320,192,96140,1,0,0:0:0:0:
64,192,96140,1,0,0:0:0:0:
320,192,96207,1,0,0:0:0:0:
448,192,96207,1,0,0:0:0:0:
64,192,96273,5,0,0:0:0:0:
192,192,96273,1,0,0:0:0:0:
320,192,96273,1,0,0:0:0:0:
448,192,96273,1,0,0:0:0:0:
192,192,96340,1,0,0:0:0:0:
64,192,96340,1,0,0:0:0:0:
64,192,96407,1,0,0:0:0:0:
448,192,96407,1,0,0:0:0:0:
192,192,96473,1,0,0:0:0:0:
320,192,96473,1,0,0:0:0:0:
64,192,96540,5,0,0:0:0:0:
192,192,96540,1,0,0:0:0:0:
320,192,96540,1,0,0:0:0:0:
448,192,96540,1,0,0:0:0:0:
64,192,96607,1,0,0:0:0:0:
448,192,96607,1,0,0:0:0:0:
64,192,96673,1,0,0:0:0:0:
320,192,96673,1,0,0:0:0:0:
192,192,96740,1,0,0:0:0:0:
320,192,96740,1,0,0:0:0:0:
64,192,96807,5,0,0:0:0:0:
320,192,96807,1,0,0:0:0:0:
448,192,96807,1,0,0:0:0:0:
192,192,96807,1,0,0:0:0:0:
448,192,96873,1,0,0:0:0:0:
64,192,96873,1,0,0:0:0:0:
320,192,96940,1,0,0:0:0:0:
448,192,96940,1,0,0:0:0:0:
192,192,97007,1,0,0:0:0:0:
64,192,97007,1,0,0:0:0:0:
64,192,97073,5,0,0:0:0:0:
192,192,97073,1,0,0:0:0:0:
448,192,97073,1,0,0:0:0:0:
320,192,97073,1,0,0:0:0:0:
64,192,97207,1,0,0:0:0:0:
448,192,97340,1,0,0:0:0:0:
320,192,97473,1,0,0:0:0:0:
448,192,97607,1,0,0:0:0:0:
192,192,97740,1,0,0:0:0:0:
448,192,97873,1,0,0:0:0:0:
64,192,98007,1,0,0:0:0:0:
64,192,98140,1,0,0:0:0:0:
192,192,98140,1,0,0:0:0:0:
320,192,98140,1,0,0:0:0:0:
448,192,98140,1,0,0:0:0:0:
320,192,98273,1,0,0:0:0:0:
448,192,98273,1,0,0:0:0:0:
64,192,98407,1,0,0:0:0:0:
192,192,98407,1,0,0:0:0:0:
320,192,98407,1,0,0:0:0:0:
448,192,98407,1,0,0:0:0:0:
192,192,98540,1,0,0:0:0:0:
64,192,98540,1,0,0:0:0:0:
64,192,98674,1,0,0:0:0:0:
192,192,98674,1,0,0:0:0:0:
320,192,98674,1,0,0:0:0:0:
448,192,98674,1,0,0:0:0:0:
448,192,98807,1,0,0:0:0:0:
320,192,98840,1,0,0:0:0:0:
192,192,98874,1,0,0:0:0:0:
64,192,98907,1,0,0:0:0:0:
320,192,98940,1,0,0:0:0:0:
448,192,98940,1,0,0:0:0:0:
64,192,99074,1,0,0:0:0:0:
192,192,99107,1,0,0:0:0:0:
320,192,99140,1,0,0:0:0:0:
448,192,99174,1,0,0:0:0:0:
64,192,99207,1,0,0:0:0:0:
192,192,99207,1,0,0:0:0:0:
320,192,99274,1,0,0:0:0:0:
64,192,99274,1,0,0:0:0:0:
192,192,99340,1,0,0:0:0:0:
448,192,99340,1,0,0:0:0:0:
320,192,99407,1,0,0:0:0:0:
448,192,99407,1,0,0:0:0:0:
64,192,99474,1,0,0:0:0:0:
192,192,99474,1,0,0:0:0:0:
320,192,99474,1,0,0:0:0:0:
448,192,99540,1,0,0:0:0:0:
64,192,99540,1,0,0:0:0:0:
192,192,99607,1,0,0:0:0:0:
448,192,99607,1,0,0:0:0:0:
320,192,99674,1,0,0:0:0:0:
192,192,99674,1,0,0:0:0:0:
64,192,99740,1,0,0:0:0:0:
320,192,99740,1,0,0:0:0:0:
448,192,99740,1,0,0:0:0:0:
192,192,99807,1,0,0:0:0:0:
448,192,99807,1,0,0:0:0:0:
192,192,99874,1,0,0:0:0:0:
64,192,99874,1,0,0:0:0:0:
320,192,99940,1,0,0:0:0:0:
448,192,99940,1,0,0:0:0:0:
192,192,100008,1,0,0:0:0:0:
64,192,100008,1,0,0:0:0:0:
448,192,100008,1,0,0:0:0:0:
320,192,100074,1,0,0:0:0:0:
192,192,100074,1,0,0:0:0:0:
64,192,100140,1,0,0:0:0:0:
448,192,100140,1,0,0:0:0:0:
320,192,100208,1,0,0:0:0:0:
448,192,100208,1,0,0:0:0:0:
192,192,100274,1,0,0:0:0:0:
64,192,100274,1,0,0:0:0:0:
320,192,100274,1,0,0:0:0:0:
448,192,100340,1,0,0:0:0:0:
192,192,100340,1,0,0:0:0:0:
64,192,100408,1,0,0:0:0:0:
320,192,100408,1,0,0:0:0:0:
192,192,100474,1,0,0:0:0:0:
64,192,100474,1,0,0:0:0:0:
192,192,100540,1,0,0:0:0:0:
320,192,100540,1,0,0:0:0:0:
448,192,100540,1,0,0:0:0:0:
64,192,100608,1,0,0:0:0:0:
448,192,100608,1,0,0:0:0:0:
320,192,100674,1,0,0:0:0:0:
448,192,100674,1,0,0:0:0:0:
192,192,100740,1,0,0:0:0:0:
320,192,100740,1,0,0:0:0:0:
64,192,100808,1,0,0:0:0:0:
320,192,100808,1,0,0:0:0:0:
448,192,100808,1,0,0:0:0:0:
64,192,100874,1,0,0:0:0:0:
448,192,100874,1,0,0:0:0:0:
320,192,100940,1,0,0:0:0:0:
192,192,100940,1,0,0:0:0:0:
64,192,101008,1,0,0:0:0:0:
192,192,101008,1,0,0:0:0:0:
320,192,101074,1,0,0:0:0:0:
448,192,101074,1,0,0:0:0:0:
192,192,101074,1,0,0:0:0:0:
64,192,101140,1,0,0:0:0:0:
448,192,101140,1,0,0:0:0:0:
192,192,101208,1,0,0:0:0:0:
64,192,101208,1,0,0:0:0:0:
192,192,101274,1,0,0:0:0:0:
448,192,101274,1,0,0:0:0:0:
64,192,101341,1,0,0:0:0:0:
448,192,101341,1,0,0:0:0:0:
320,192,101341,1,0,0:0:0:0:
192,192,101408,1,0,0:0:0:0:
320,192,101408,1,0,0:0:0:0:
64,192,101474,1,0,0:0:0:0:
192,192,101474,1,0,0:0:0:0:
64,192,101541,1,0,0:0:0:0:
448,192,101541,1,0,0:0:0:0:
192,192,101608,1,0,0:0:0:0:
320,192,101608,1,0,0:0:0:0:
448,192,101608,1,0,0:0:0:0:
320,192,101674,1,0,0:0:0:0:
64,192,101674,1,0,0:0:0:0:
192,192,101741,1,0,0:0:0:0:
448,192,101741,1,0,0:0:0:0:
320,192,101808,1,0,0:0:0:0:
448,192,101808,1,0,0:0:0:0:
64,192,101874,1,0,0:0:0:0:
192,192,101874,1,0,0:0:0:0:
320,192,101874,1,0,0:0:0:0:
448,192,101941,1,0,0:0:0:0:
64,192,101941,1,0,0:0:0:0:
192,192,102008,1,0,0:0:0:0:
320,192,102008,1,0,0:0:0:0:
448,192,102074,1,0,0:0:0:0:
192,192,102074,1,0,0:0:0:0:
64,192,102141,1,0,0:0:0:0:
448,192,102141,1,0,0:0:0:0:
320,192,102141,1,0,0:0:0:0:
192,192,102208,1,0,0:0:0:0:
64,192,102208,1,0,0:0:0:0:
192,192,102274,1,0,0:0:0:0:
448,192,102274,1,0,0:0:0:0:
320,192,102341,1,0,0:0:0:0:
448,192,102341,1,0,0:0:0:0:
192,192,102408,1,0,0:0:0:0:
320,192,102408,1,0,0:0:0:0:
448,192,102408,1,0,0:0:0:0:
64,192,102474,1,0,0:0:0:0:
192,192,102474,1,0,0:0:0:0:
448,192,102541,1,0,0:0:0:0:
64,192,102541,1,0,0:0:0:0:
192,192,102608,1,0,0:0:0:0:
320,192,102608,1,0,0:0:0:0:
64,192,102675,1,0,0:0:0:0:
192,192,102675,1,0,0:0:0:0:
448,192,102675,1,0,0:0:0:0:
64,192,102741,1,0,0:0:0:0:
192,192,102741,1,0,0:0:0:0:
448,192,102808,1,0,0:0:0:0:
320,192,102808,1,0,0:0:0:0:
192,192,102875,1,0,0:0:0:0:
448,192,102875,1,0,0:0:0:0:
64,192,102941,1,0,0:0:0:0:
192,192,102941,1,0,0:0:0:0:
320,192,102941,1,0,0:0:0:0:
448,192,103008,1,0,0:0:0:0:
64,192,103008,1,0,0:0:0:0:
320,192,103075,1,0,0:0:0:0:
192,192,103075,1,0,0:0:0:0:
320,192,103141,1,0,0:0:0:0:
448,192,103141,1,0,0:0:0:0:
64,192,103208,1,0,0:0:0:0:
192,192,103208,1,0,0:0:0:0:
448,192,103208,1,0,0:0:0:0:
320,192,103275,1,0,0:0:0:0:
64,192,103275,1,0,0:0:0:0:
448,192,103341,1,0,0:0:0:0:
320,192,103341,1,0,0:0:0:0:
192,192,103408,1,0,0:0:0:0:
64,192,103408,1,0,0:0:0:0:
64,192,103475,1,0,0:0:0:0:
320,192,103475,1,0,0:0:0:0:
448,192,103475,1,0,0:0:0:0:
320,192,103608,1,0,0:0:0:0:
192,192,103741,1,0,0:0:0:0:
64,192,103741,1,0,0:0:0:0:
448,192,103875,1,0,0:0:0:0:
192,192,104009,1,0,0:0:0:0:
64,192,104009,1,0,0:0:0:0:
320,192,104141,1,0,0:0:0:0:
192,192,104275,1,0,0:0:0:0:
64,192,104275,1,0,0:0:0:0:
448,192,104409,1,0,0:0:0:0:
320,192,104541,1,0,0:0:0:0:
192,192,104541,1,0,0:0:0:0:
64,192,104675,1,0,0:0:0:0:
320,192,104809,1,0,0:0:0:0:
448,192,104809,1,0,0:0:0:0:
192,192,104941,1,0,0:0:0:0:
320,192,105075,1,0,0:0:0:0:
448,192,105075,1,0,0:0:0:0:
64,192,105209,1,0,0:0:0:0:
320,192,105342,1,0,0:0:0:0:
448,192,105342,1,0,0:0:0:0:
192,192,105475,1,0,0:0:0:0:
64,192,105609,1,0,0:0:0:0:
448,192,105609,1,0,0:0:0:0:
320,192,105742,1,0,0:0:0:0:
64,192,105875,1,0,0:0:0:0:
448,192,105875,1,0,0:0:0:0:
192,192,106009,1,0,0:0:0:0:
448,192,106142,1,0,0:0:0:0:
64,192,106142,1,0,0:0:0:0:
320,192,106275,1,0,0:0:0:0:
64,192,106409,1,0,0:0:0:0:
448,192,106409,1,0,0:0:0:0:
192,192,106542,1,0,0:0:0:0:
320,192,106676,1,0,0:0:0:0:
448,192,106676,1,0,0:0:0:0:
64,192,106809,1,0,0:0:0:0:
192,192,106942,1,0,0:0:0:0:
448,192,106942,1,0,0:0:0:0:
320,192,107076,1,0,0:0:0:0:
192,192,107209,1,0,0:0:0:0:
448,192,107209,1,0,0:0:0:0:
64,192,107342,1,0,0:0:0:0:
192,192,107476,1,0,0:0:0:0:
448,192,107476,1,0,0:0:0:0:
320,192,107609,1,0,0:0:0:0:
64,192,107742,1,0,0:0:0:0:
192,192,107742,1,0,0:0:0:0:
320,192,107742,1,0,0:0:0:0:
448,192,107742,1,0,0:0:0:0:
192,192,107809,1,0,0:0:0:0:
64,192,107809,1,0,0:0:0:0:
64,192,107876,1,0,0:0:0:0:
448,192,107876,1,0,0:0:0:0:
320,192,107942,1,0,0:0:0:0:
448,192,107942,1,0,0:0:0:0:
192,192,108009,1,0,0:0:0:0:
64,192,108009,1,0,0:0:0:0:
320,192,108009,1,0,0:0:0:0:
448,192,108009,1,0,0:0:0:0:
192,192,108076,1,0,0:0:0:0:
64,192,108076,1,0,0:0:0:0:
64,192,108142,1,0,0:0:0:0:
320,192,108142,1,0,0:0:0:0:
448,192,108210,1,0,0:0:0:0:
192,192,108210,1,0,0:0:0:0:
64,192,108276,1,0,0:0:0:0:
192,192,108276,1,0,0:0:0:0:
320,192,108276,1,0,0:0:0:0:
448,192,108276,1,0,0:0:0:0:
320,192,108342,1,0,0:0:0:0:
64,192,108342,1,0,0:0:0:0:
192,192,108410,1,0,0:0:0:0:
64,192,108410,1,0,0:0:0:0:
320,192,108476,1,0,0:0:0:0:
448,192,108476,1,0,0:0:0:0:
64,192,108542,1,0,0:0:0:0:
192,192,108542,1,0,0:0:0:0:
320,192,108542,1,0,0:0:0:0:
448,192,108542,1,0,0:0:0:0:
192,192,108610,1,0,0:0:0:0:
64,192,108610,1,0,0:0:0:0:
64,192,108676,1,0,0:0:0:0:
448,192,108676,1,0,0:0:0:0:
320,192,108742,1,0,0:0:0:0:
192,192,108742,1,0,0:0:0:0:
64,192,108810,1,0,0:0:0:0:
192,192,108810,1,0,0:0:0:0:
320,192,108810,1,0,0:0:0:0:
448,192,108810,1,0,0:0:0:0:
64,192,108876,1,0,0:0:0:0:
448,192,108876,1,0,0:0:0:0:
320,192,108942,1,0,0:0:0:0:
448,192,108942,1,0,0:0:0:0:
192,192,109010,1,0,0:0:0:0:
64,192,109010,1,0,0:0:0:0:
64,192,109076,1,0,0:0:0:0:
192,192,109076,1,0,0:0:0:0:
448,192,109076,1,0,0:0:0:0:
320,192,109076,1,0,0:0:0:0:
320,192,109142,1,0,0:0:0:0:
448,192,109142,1,0,0:0:0:0:
192,192,109210,1,0,0:0:0:0:
320,192,109210,1,0,0:0:0:0:
64,192,109276,1,0,0:0:0:0:
448,192,109276,1,0,0:0:0:0:
64,192,109342,1,0,0:0:0:0:
320,192,109342,1,0,0:0:0:0:
448,192,109342,1,0,0:0:0:0:
192,192,109342,1,0,0:0:0:0:
320,192,109410,1,0,0:0:0:0:
192,192,109410,1,0,0:0:0:0:
64,192,109476,1,0,0:0:0:0:
448,192,109476,1,0,0:0:0:0:
192,192,109543,1,0,0:0:0:0:
448,192,109543,1,0,0:0:0:0:
64,192,109610,1,0,0:0:0:0:
192,192,109610,1,0,0:0:0:0:
320,192,109610,1,0,0:0:0:0:
448,192,109610,1,0,0:0:0:0:
320,192,109676,1,0,0:0:0:0:
64,192,109676,1,0,0:0:0:0:
192,192,109743,1,0,0:0:0:0:
64,192,109743,1,0,0:0:0:0:
320,192,109810,1,0,0:0:0:0:
448,192,109810,1,0,0:0:0:0:
320,192,109876,1,0,0:0:0:0:
192,192,109876,1,0,0:0:0:0:
448,192,109876,1,0,0:0:0:0:
64,192,109876,1,0,0:0:0:0:
192,192,109943,1,0,0:0:0:0:
64,192,109943,1,0,0:0:0:0:
64,192,110010,1,0,0:0:0:0:
448,192,110010,1,0,0:0:0:0:
320,192,110076,1,0,0:0:0:0:
448,192,110076,1,0,0:0:0:0:
64,192,110143,1,0,0:0:0:0:
192,192,110143,1,0,0:0:0:0:
320,192,110143,1,0,0:0:0:0:
192,192,110210,1,0,0:0:0:0:
64,192,110210,1,0,0:0:0:0:
448,192,110276,1,0,0:0:0:0:
320,192,110276,1,0,0:0:0:0:
64,192,110343,1,0,0:0:0:0:
448,192,110343,1,0,0:0:0:0:
64,192,110410,1,0,0:0:0:0:
192,192,110410,1,0,0:0:0:0:
448,192,110410,1,0,0:0:0:0:
320,192,110476,1,0,0:0:0:0:
64,192,110476,1,0,0:0:0:0:
192,192,110543,1,0,0:0:0:0:
448,192,110543,1,0,0:0:0:0:
320,192,110610,1,0,0:0:0:0:
448,192,110610,1,0,0:0:0:0:
64,192,110676,1,0,0:0:0:0:
320,192,110676,1,0,0:0:0:0:
448,192,110676,1,0,0:0:0:0:
64,192,110743,1,0,0:0:0:0:
192,192,110743,1,0,0:0:0:0:
320,192,110810,1,0,0:0:0:0:
192,192,110810,1,0,0:0:0:0:
64,192,110877,1,0,0:0:0:0:
448,192,110877,1,0,0:0:0:0:
64,192,110943,1,0,0:0:0:0:
192,192,110943,1,0,0:0:0:0:
448,192,110943,1,0,0:0:0:0:
192,192,111010,1,0,0:0:0:0:
320,192,111010,1,0,0:0:0:0:
64,192,111077,1,0,0:0:0:0:
320,192,111077,1,0,0:0:0:0:
192,192,111143,1,0,0:0:0:0:
64,192,111143,1,0,0:0:0:0:
320,192,111210,1,0,0:0:0:0:
192,192,111210,1,0,0:0:0:0:
448,192,111210,1,0,0:0:0:0:
320,192,111277,1,0,0:0:0:0:
64,192,111277,1,0,0:0:0:0:
192,192,111343,1,0,0:0:0:0:
448,192,111343,1,0,0:0:0:0:
320,192,111410,1,0,0:0:0:0:
448,192,111410,1,0,0:0:0:0:
64,192,111477,1,0,0:0:0:0:
320,192,111477,1,0,0:0:0:0:
448,192,111477,1,0,0:0:0:0:
192,192,111543,1,0,0:0:0:0:
64,192,111543,1,0,0:0:0:0:
192,192,111610,1,0,0:0:0:0:
448,192,111610,1,0,0:0:0:0:
64,192,111677,1,0,0:0:0:0:
320,192,111677,1,0,0:0:0:0:
192,192,111743,1,0,0:0:0:0:
64,192,111743,1,0,0:0:0:0:
448,192,111743,1,0,0:0:0:0:
320,192,111810,1,0,0:0:0:0:
192,192,111810,1,0,0:0:0:0:
64,192,111877,1,0,0:0:0:0:
448,192,111877,1,0,0:0:0:0:
448,192,111943,1,0,0:0:0:0:
320,192,111943,1,0,0:0:0:0:
192,192,112010,1,0,0:0:0:0:
320,192,112010,1,0,0:0:0:0:
64,192,112010,1,0,0:0:0:0:
192,192,112077,1,0,0:0:0:0:
64,192,112077,1,0,0:0:0:0:
448,192,112143,1,0,0:0:0:0:
320,192,112143,1,0,0:0:0:0:
64,192,112210,1,0,0:0:0:0:
448,192,112210,1,0,0:0:0:0:
64,192,112277,1,0,0:0:0:0:
320,192,112277,1,0,0:0:0:0:
192,192,112277,1,0,0:0:0:0:
192,192,112343,1,0,0:0:0:0:
448,192,112343,1,0,0:0:0:0:
320,192,112410,1,0,0:0:0:0:
448,192,112410,1,0,0:0:0:0:
192,192,112477,1,0,0:0:0:0:
64,192,112477,1,0,0:0:0:0:
64,192,112543,1,0,0:0:0:0:
448,192,112543,1,0,0:0:0:0:
320,192,112543,1,0,0:0:0:0:
192,192,112610,1,0,0:0:0:0:
448,192,112610,1,0,0:0:0:0:
320,192,112677,1,0,0:0:0:0:
64,192,112677,1,0,0:0:0:0:
192,192,112743,1,0,0:0:0:0:
64,192,112743,1,0,0:0:0:0:
64,192,112810,1,0,0:0:0:0:
192,192,112810,1,0,0:0:0:0:
448,192,112810,1,0,0:0:0:0:
320,192,112877,1,0,0:0:0:0:
448,192,112877,1,0,0:0:0:0:
64,192,112943,1,0,0:0:0:0:
320,192,112943,1,0,0:0:0:0:
192,192,113010,1,0,0:0:0:0:
64,192,113010,1,0,0:0:0:0:
192,192,113077,1,0,0:0:0:0:
320,192,113077,1,0,0:0:0:0:
448,192,113077,1,0,0:0:0:0:
320,192,113143,1,0,0:0:0:0:
448,192,113143,1,0,0:0:0:0:
64,192,113210,1,0,0:0:0:0:
448,192,113210,1,0,0:0:0:0:
192,192,113277,1,0,0:0:0:0:
64,192,113277,1,0,0:0:0:0:
64,192,113343,1,0,0:0:0:0:
192,192,113343,1,0,0:0:0:0:
320,192,113343,1,0,0:0:0:0:
448,192,113410,1,0,0:0:0:0:
320,192,113410,1,0,0:0:0:0:
64,192,113477,1,0,0:0:0:0:
448,192,113477,1,0,0:0:0:0:
320,192,113544,1,0,0:0:0:0:
192,192,113544,1,0,0:0:0:0:
64,192,113610,1,0,0:0:0:0:
320,192,113610,1,0,0:0:0:0:
448,192,113610,1,0,0:0:0:0:
192,192,113677,1,0,0:0:0:0:
448,192,113677,1,0,0:0:0:0:
64,192,113744,1,0,0:0:0:0:
320,192,113744,1,0,0:0:0:0:
192,192,113810,1,0,0:0:0:0:
64,192,113810,1,0,0:0:0:0:
192,192,113877,1,0,0:0:0:0:
320,192,113877,1,0,0:0:0:0:
448,192,113877,1,0,0:0:0:0:
320,192,113944,1,0,0:0:0:0:
448,192,113944,1,0,0:0:0:0:
64,192,114010,1,0,0:0:0:0:
192,192,114010,1,0,0:0:0:0:
448,192,114077,1,0,0:0:0:0:
192,192,114077,1,0,0:0:0:0:
192,192,114144,1,0,0:0:0:0:
320,192,114144,1,0,0:0:0:0:
448,192,114144,1,0,0:0:0:0:
64,192,114210,1,0,0:0:0:0:
320,192,114210,1,0,0:0:0:0:
192,192,114277,1,0,0:0:0:0:
64,192,114277,1,0,0:0:0:0:
320,192,114344,1,0,0:0:0:0:
448,192,114344,1,0,0:0:0:0:
64,192,114410,1,0,0:0:0:0:
192,192,114410,1,0,0:0:0:0:
448,192,114410,1,0,0:0:0:0:
320,192,114477,1,0,0:0:0:0:
64,192,114477,1,0,0:0:0:0:
192,192,114544,1,0,0:0:0:0:
448,192,114544,1,0,0:0:0:0:
64,192,114610,1,0,0:0:0:0:
320,192,114610,1,0,0:0:0:0:
64,192,114677,1,0,0:0:0:0:
192,192,114677,1,0,0:0:0:0:
448,192,114677,1,0,0:0:0:0:
320,192,114744,1,0,0:0:0:0:
448,192,114744,1,0,0:0:0:0:
192,192,114810,1,0,0:0:0:0:
64,192,114810,1,0,0:0:0:0:
64,192,114878,1,0,0:0:0:0:
320,192,114878,1,0,0:0:0:0:
192,192,114944,1,0,0:0:0:0:
320,192,114944,1,0,0:0:0:0:
448,192,114944,1,0,0:0:0:0:
64,192,115010,1,0,0:0:0:0:
448,192,115010,1,0,0:0:0:0:
320,192,115078,1,0,0:0:0:0:
448,192,115078,1,0,0:0:0:0:
192,192,115144,1,0,0:0:0:0:
64,192,115144,1,0,0:0:0:0:
64,192,115210,1,0,0:0:0:0:
192,192,115210,1,0,0:0:0:0:
320,192,115210,1,0,0:0:0:0:
448,192,115278,1,0,0:0:0:0:
320,192,115278,1,0,0:0:0:0:
192,192,115344,1,0,0:0:0:0:
448,192,115344,1,0,0:0:0:0:
64,192,115410,1,0,0:0:0:0:
320,192,115410,1,0,0:0:0:0:
64,192,115478,1,0,0:0:0:0:
192,192,115478,1,0,0:0:0:0:
448,192,115478,1,0,0:0:0:0:
320,192,115544,1,0,0:0:0:0:
192,192,115544,1,0,0:0:0:0:
448,192,115610,1,0,0:0:0:0:
64,192,115610,1,0,0:0:0:0:
192,192,115678,1,0,0:0:0:0:
64,192,115678,1,0,0:0:0:0:
192,192,115744,1,0,0:0:0:0:
320,192,115744,1,0,0:0:0:0:
448,192,115744,1,0,0:0:0:0:
320,192,115810,1,0,0:0:0:0:
448,192,115810,1,0,0:0:0:0:
64,192,115878,1,0,0:0:0:0:
192,192,115878,1,0,0:0:0:0:
320,192,115944,1,0,0:0:0:0:
192,192,115944,1,0,0:0:0:0:
64,192,116010,1,0,0:0:0:0:
320,192,116010,1,0,0:0:0:0:
448,192,116010,1,0,0:0:0:0:
192,192,116078,1,0,0:0:0:0:
448,192,116078,1,0,0:0:0:0:
320,192,116144,1,0,0:0:0:0:
64,192,116144,1,0,0:0:0:0:
448,192,116211,1,0,0:0:0:0:
192,192,116211,1,0,0:0:0:0:
192,192,116278,1,0,0:0:0:0:
64,192,116278,1,0,0:0:0:0:
320,192,116278,1,0,0:0:0:0:
320,192,116344,1,0,0:0:0:0:
448,192,116344,1,0,0:0:0:0:
64,192,116411,1,0,0:0:0:0:
192,192,116411,1,0,0:0:0:0:
320,192,116478,1,0,0:0:0:0:
448,192,116478,1,0,0:0:0:0:
64,192,116544,1,0,0:0:0:0:
448,192,116544,1,0,0:0:0:0:
192,192,116544,1,0,0:0:0:0:
320,192,116611,1,0,0:0:0:0:
192,192,116611,1,0,0:0:0:0:
64,192,116678,1,0,0:0:0:0:
448,192,116678,1,0,0:0:0:0:
192,192,116744,1,0,0:0:0:0:
64,192,116744,1,0,0:0:0:0:
64,192,116811,1,0,0:0:0:0:
320,192,116811,1,0,0:0:0:0:
448,192,116811,1,0,0:0:0:0:
192,192,116878,1,0,0:0:0:0:
448,192,116878,1,0,0:0:0:0:
320,192,116944,1,0,0:0:0:0:
448,192,116944,1,0,0:0:0:0:
192,192,117011,1,0,0:0:0:0:
64,192,117011,1,0,0:0:0:0:
192,192,117078,1,0,0:0:0:0:
448,192,117078,1,0,0:0:0:0:
320,192,117078,1,0,0:0:0:0:
64,192,117144,1,0,0:0:0:0:
448,192,117144,1,0,0:0:0:0:
320,192,117211,1,0,0:0:0:0:
192,192,117211,1,0,0:0:0:0:
448,192,117278,1,0,0:0:0:0:
192,192,117278,1,0,0:0:0:0:
64,192,117344,1,0,0:0:0:0:
320,192,117344,1,0,0:0:0:0:
448,192,117344,1,0,0:0:0:0:
320,192,117411,1,0,0:0:0:0:
448,192,117411,1,0,0:0:0:0:
192,192,117478,1,0,0:0:0:0:
64,192,117478,1,0,0:0:0:0:
64,192,117545,1,0,0:0:0:0:
320,192,117545,1,0,0:0:0:0:
64,192,117611,1,0,0:0:0:0:
192,192,117611,1,0,0:0:0:0:
448,192,117611,1,0,0:0:0:0:
192,192,117678,1,0,0:0:0:0:
320,192,117678,1,0,0:0:0:0:
64,192,117745,1,0,0:0:0:0:
448,192,117745,1,0,0:0:0:0:
320,192,117811,1,0,0:0:0:0:
448,192,117811,1,0,0:0:0:0:
64,192,117878,1,0,0:0:0:0:
192,192,117878,1,0,0:0:0:0:
320,192,117878,1,0,0:0:0:0:
448,192,117945,1,0,0:0:0:0:
192,192,117945,1,0,0:0:0:0:
64,192,118011,1,0,0:0:0:0:
192,192,118011,1,0,0:0:0:0:
320,192,118078,1,0,0:0:0:0:
448,192,118078,1,0,0:0:0:0:
64,192,118145,1,0,0:0:0:0:
192,192,118145,1,0,0:0:0:0:
448,192,118145,1,0,0:0:0:0:
64,192,118211,1,0,0:0:0:0:
448,192,118211,1,0,0:0:0:0:
320,192,118278,1,0,0:0:0:0:
192,192,118278,1,0,0:0:0:0:
64,192,118345,1,0,0:0:0:0:
448,192,118345,1,0,0:0:0:0:
192,192,118411,1,0,0:0:0:0:
320,192,118411,1,0,0:0:0:0:
448,192,118411,1,0,0:0:0:0:
64,192,118411,1,0,0:0:0:0:
192,192,118478,1,0,0:0:0:0:
320,192,118478,1,0,0:0:0:0:
64,192,118545,1,0,0:0:0:0:
448,192,118545,1,0,0:0:0:0:
192,192,118611,1,0,0:0:0:0:
64,192,118611,1,0,0:0:0:0:
192,192,118678,1,0,0:0:0:0:
320,192,118678,1,0,0:0:0:0:
448,192,118678,1,0,0:0:0:0:
320,192,118745,1,0,0:0:0:0:
448,192,118745,1,0,0:0:0:0:
64,192,118811,1,0,0:0:0:0:
192,192,118811,1,0,0:0:0:0:
64,192,118879,1,0,0:0:0:0:
320,192,118879,1,0,0:0:0:0:
192,192,118945,1,0,0:0:0:0:
448,192,118945,1,0,0:0:0:0:
320,192,118945,1,0,0:0:0:0:
192,192,119011,1,0,0:0:0:0:
320,192,119011,1,0,0:0:0:0:
64,192,119079,1,0,0:0:0:0:
448,192,119079,1,0,0:0:0:0:
320,192,119145,1,0,0:0:0:0:
448,192,119145,1,0,0:0:0:0:
192,192,119211,1,0,0:0:0:0:
64,192,119211,1,0,0:0:0:0:
320,192,119211,1,0,0:0:0:0:
192,192,119279,1,0,0:0:0:0:
64,192,119279,1,0,0:0:0:0:
448,192,119345,1,0,0:0:0:0:
64,192,119345,1,0,0:0:0:0:
192,192,119411,1,0,0:0:0:0:
320,192,119411,1,0,0:0:0:0:
320,192,119479,1,0,0:0:0:0:
448,192,119479,1,0,0:0:0:0:
64,192,119479,1,0,0:0:0:0:
192,192,119545,1,0,0:0:0:0:
64,192,119545,1,0,0:0:0:0:
192,192,119611,1,0,0:0:0:0:
448,192,119611,1,0,0:0:0:0:
320,192,119679,1,0,0:0:0:0:
448,192,119679,1,0,0:0:0:0:
320,192,119745,1,0,0:0:0:0:
64,192,119745,1,0,0:0:0:0:
192,192,119745,1,0,0:0:0:0:
448,192,119811,1,0,0:0:0:0:
192,192,119811,1,0,0:0:0:0:
64,192,119879,1,0,0:0:0:0:
320,192,119879,1,0,0:0:0:0:
320,192,119945,1,0,0:0:0:0:
448,192,119945,1,0,0:0:0:0:
192,192,120011,1,0,0:0:0:0:
64,192,120011,1,0,0:0:0:0:
448,192,120011,1,0,0:0:0:0:
320,192,120079,1,0,0:0:0:0:
64,192,120079,1,0,0:0:0:0:
320,192,120145,1,0,0:0:0:0:
448,192,120145,1,0,0:0:0:0:
192,192,120212,1,0,0:0:0:0:
64,192,120212,1,0,0:0:0:0:
192,192,120279,1,0,0:0:0:0:
320,192,120279,1,0,0:0:0:0:
448,192,120279,1,0,0:0:0:0:
64,192,120345,1,0,0:0:0:0:
320,192,120345,1,0,0:0:0:0:
448,192,120412,1,0,0:0:0:0:
192,192,120412,1,0,0:0:0:0:
320,192,120479,1,0,0:0:0:0:
448,192,120479,1,0,0:0:0:0:
64,192,120545,1,0,0:0:0:0:
320,192,120545,1,0,0:0:0:0:
448,192,120545,1,0,0:0:0:0:
192,192,120612,1,0,0:0:0:0:
64,192,120612,1,0,0:0:0:0:
320,192,120679,1,0,0:0:0:0:
192,192,120679,1,0,0:0:0:0:
64,192,120745,1,0,0:0:0:0:
448,192,120745,1,0,0:0:0:0:
192,192,120812,1,0,0:0:0:0:
320,192,120812,1,0,0:0:0:0:
64,192,120812,1,0,0:0:0:0:
448,192,120879,1,0,0:0:0:0:
320,192,120879,1,0,0:0:0:0:
192,192,120945,1,0,0:0:0:0:
448,192,120945,1,0,0:0:0:0:
320,192,121012,1,0,0:0:0:0:
64,192,121012,1,0,0:0:0:0:
192,192,121079,1,0,0:0:0:0:
320,192,121079,1,0,0:0:0:0:
448,192,121079,1,0,0:0:0:0:
64,192,121145,1,0,0:0:0:0:
192,192,121145,1,0,0:0:0:0:
320,192,121212,1,0,0:0:0:0:
448,192,121212,1,0,0:0:0:0:
64,192,121279,1,0,0:0:0:0:
320,192,121279,1,0,0:0:0:0:
64,192,121345,1,0,0:0:0:0:
192,192,121345,1,0,0:0:0:0:
448,192,121345,1,0,0:0:0:0:
320,192,121412,1,0,0:0:0:0:
448,192,121412,1,0,0:0:0:0:
64,192,121479,1,0,0:0:0:0:
320,192,121479,1,0,0:0:0:0:
192,192,121545,1,0,0:0:0:0:
448,192,121545,1,0,0:0:0:0:
64,192,121612,1,0,0:0:0:0:
192,192,121612,1,0,0:0:0:0:
320,192,121612,1,0,0:0:0:0:
320,192,121679,1,0,0:0:0:0:
448,192,121679,1,0,0:0:0:0:
64,192,121746,1,0,0:0:0:0:
448,192,121746,1,0,0:0:0:0:
320,192,121812,1,0,0:0:0:0:
64,192,121812,1,0,0:0:0:0:
64,192,121879,1,0,0:0:0:0:
320,192,121879,1,0,0:0:0:0:
448,192,121879,1,0,0:0:0:0:
192,192,121946,1,0,0:0:0:0:
448,192,121946,1,0,0:0:0:0:
320,192,122012,1,0,0:0:0:0:
448,192,122012,1,0,0:0:0:0:
192,192,122079,1,0,0:0:0:0:
64,192,122079,1,0,0:0:0:0:
192,192,122146,1,0,0:0:0:0:
320,192,122146,1,0,0:0:0:0:
448,192,122146,1,0,0:0:0:0:
320,192,122212,1,0,0:0:0:0:
64,192,122212,1,0,0:0:0:0:
192,192,122279,1,0,0:0:0:0:
64,192,122279,1,0,0:0:0:0:
320,192,122346,1,0,0:0:0:0:
448,192,122346,1,0,0:0:0:0:
320,192,122412,1,0,0:0:0:0:
192,192,122412,1,0,0:0:0:0:
64,192,122412,1,0,0:0:0:0:
192,192,122479,1,0,0:0:0:0:
448,192,122479,1,0,0:0:0:0:
64,192,122546,1,0,0:0:0:0:
320,192,122546,1,0,0:0:0:0:
192,192,122612,1,0,0:0:0:0:
64,192,122612,1,0,0:0:0:0:
448,192,122679,1,0,0:0:0:0:
320,192,122679,1,0,0:0:0:0:
192,192,122679,1,0,0:0:0:0:
64,192,122746,1,0,0:0:0:0:
448,192,122746,1,0,0:0:0:0:
320,192,122812,1,0,0:0:0:0:
448,192,122812,1,0,0:0:0:0:
192,192,122879,1,0,0:0:0:0:
320,192,122879,1,0,0:0:0:0:
192,192,122946,1,0,0:0:0:0:
64,192,122946,1,0,0:0:0:0:
320,192,122946,1,0,0:0:0:0:
64,192,123012,1,0,0:0:0:0:
448,192,123012,1,0,0:0:0:0:
192,192,123080,1,0,0:0:0:0:
448,192,123080,1,0,0:0:0:0:
320,192,123146,1,0,0:0:0:0:
192,192,123146,1,0,0:0:0:0:
64,192,123212,1,0,0:0:0:0:
192,192,123212,1,0,0:0:0:0:
448,192,123212,1,0,0:0:0:0:
64,192,123280,1,0,0:0:0:0:
320,192,123280,1,0,0:0:0:0:
448,192,123346,1,0,0:0:0:0:
320,192,123346,1,0,0:0:0:0:
192,192,123412,1,0,0:0:0:0:
64,192,123412,1,0,0:0:0:0:
192,192,123480,1,0,0:0:0:0:
320,192,123480,1,0,0:0:0:0:
448,192,123480,1,0,0:0:0:0:
64,192,123546,1,0,0:0:0:0:
448,192,123546,1,0,0:0:0:0:
192,192,123612,1,0,0:0:0:0:
64,192,123612,1,0,0:0:0:0:
192,192,123680,1,0,0:0:0:0:
320,192,123680,1,0,0:0:0:0:
64,192,123746,5,0,0:0:0:0:
448,192,123746,1,0,0:0:0:0:
192,192,123746,1,0,0:0:0:0:
320,192,123812,1,0,0:0:0:0:
448,192,123812,1,0,0:0:0:0:
64,192,123880,1,0,0:0:0:0:
320,192,123880,1,0,0:0:0:0:
192,192,123946,1,0,0:0:0:0:
64,192,123946,1,0,0:0:0:0:
192,192,124012,1,0,0:0:0:0:
320,192,124012,1,0,0:0:0:0:
448,192,124012,1,0,0:0:0:0:
64,192,124080,1,0,0:0:0:0:
448,192,124080,1,0,0:0:0:0:
192,192,124146,1,0,0:0:0:0:
320,192,124146,1,0,0:0:0:0:
448,192,124212,1,0,0:0:0:0:
320,192,124280,1,0,0:0:0:0:
192,192,124280,1,0,0:0:0:0:
64,192,124280,1,0,0:0:0:0:
448,192,124346,1,0,0:0:0:0:
64,192,124413,1,0,0:0:0:0:
192,192,124413,1,0,0:0:0:0:
448,192,124480,1,0,0:0:0:0:
64,192,124546,1,0,0:0:0:0:
320,192,124546,1,0,0:0:0:0:
192,192,124546,1,0,0:0:0:0:
448,192,124613,1,0,0:0:0:0:
320,192,124680,1,0,0:0:0:0:
64,192,124680,1,0,0:0:0:0:
192,192,124746,1,0,0:0:0:0:
448,192,124813,5,0,0:0:0:0:
320,192,124813,1,0,0:0:0:0:
64,192,124880,1,0,0:0:0:0:
192,192,124946,1,0,0:0:0:0:
448,192,124946,1,0,0:0:0:0:
320,192,125013,1,0,0:0:0:0:
192,192,125080,1,0,0:0:0:0:
64,192,125080,1,0,0:0:0:0:
448,192,125146,1,0,0:0:0:0:
320,192,125213,1,0,0:0:0:0:
192,192,125213,1,0,0:0:0:0:
64,192,125280,1,0,0:0:0:0:
320,192,125346,1,0,0:0:0:0:
448,192,125346,1,0,0:0:0:0:
192,192,125413,1,0,0:0:0:0:
448,192,125480,1,0,0:0:0:0:
64,192,125480,1,0,0:0:0:0:
320,192,125546,1,0,0:0:0:0:
192,192,125613,1,0,0:0:0:0:
64,192,125613,1,0,0:0:0:0:
448,192,125680,1,0,0:0:0:0:
320,192,125747,1,0,0:0:0:0:
64,192,125747,1,0,0:0:0:0:
192,192,125813,1,0,0:0:0:0:
320,192,125880,1,0,0:0:0:0:
448,192,125880,1,0,0:0:0:0:
64,192,125947,1,0,0:0:0:0:
192,192,126013,1,0,0:0:0:0:
448,192,126013,1,0,0:0:0:0:
320,192,126080,1,0,0:0:0:0:
192,192,126147,1,0,0:0:0:0:
64,192,126147,1,0,0:0:0:0:
448,192,126213,1,0,0:0:0:0:
320,192,126280,1,0,0:0:0:0:
192,192,126280,1,0,0:0:0:0:
64,192,126347,1,0,0:0:0:0:
320,192,126413,1,0,0:0:0:0:
448,192,126413,1,0,0:0:0:0:
192,192,126480,1,0,0:0:0:0:
448,192,126547,1,0,0:0:0:0:
64,192,126547,1,0,0:0:0:0:
192,192,126613,1,0,0:0:0:0:
320,192,126680,1,0,0:0:0:0:
448,192,126680,1,0,0:0:0:0:
192,192,126747,1,0,0:0:0:0:
64,192,126747,1,0,0:0:0:0:
320,192,126813,1,0,0:0:0:0:
448,192,126813,1,0,0:0:0:0:
192,192,126880,1,0,0:0:0:0:
64,192,126880,1,0,0:0:0:0:
320,192,126947,1,0,0:0:0:0:
448,192,126947,1,0,0:0:0:0:
64,192,127080,1,0,0:0:0:0:
192,192,127213,1,0,0:0:0:0:
448,192,127480,1,0,0:0:0:0:
192,192,127613,1,0,0:0:0:0:
320,192,127747,1,0,0:0:0:0:
64,192,127880,1,0,0:0:0:0:
64,192,128147,1,0,0:0:0:0:
192,192,128280,1,0,0:0:0:0:
448,192,128547,1,0,0:0:0:0:
64,192,128814,1,0,0:0:0:0:
64,192,129080,1,0,0:0:0:0:
320,192,129080,1,0,0:0:0:0:
448,192,129347,1,0,0:0:0:0:
64,192,129614,1,0,0:0:0:0:
192,192,129748,1,0,0:0:0:0:
320,192,130014,1,0,0:0:0:0:
192,192,130280,1,0,0:0:0:0:
64,192,130414,1,0,0:0:0:0:
448,192,130680,1,0,0:0:0:0:
320,192,130948,1,0,0:0:0:0:
64,192,131214,1,0,0:0:0:0:
192,192,131481,1,0,0:0:0:0:
448,192,131748,1,0,0:0:0:0:
320,192,131881,1,0,0:0:0:0:
192,192,132148,1,0,0:0:0:0:
320,192,132415,1,0,0:0:0:0:
192,192,132548,1,0,0:0:0:0:
64,192,132815,1,0,0:0:0:0:
320,192,133081,1,0,0:0:0:0:
192,192,133348,1,0,0:0:0:0:
320,192,133615,1,0,0:0:0:0:
448,192,133881,1,0,0:0:0:0:
192,192,134015,1,0,0:0:0:0:
320,192,134281,1,0,0:0:0:0:
64,192,134549,1,0,0:0:0:0:
192,192,134681,1,0,0:0:0:0:
448,192,134815,1,0,0:0:0:0:
64,192,134949,1,0,0:0:0:0:
320,192,135215,1,0,0:0:0:0:
192,192,135482,1,0,0:0:0:0:
448,192,135482,1,0,0:0:0:0:
64,192,135749,1,0,0:0:0:0:
320,192,135749,1,0,0:0:0:0:
448,192,136015,1,0,0:0:0:0:
320,192,136015,1,0,0:0:0:0:
192,192,136149,1,0,0:0:0:0:
320,192,136149,1,0,0:0:0:0:
192,192,136282,1,0,0:0:0:0:
64,192,136282,1,0,0:0:0:0:
64,192,136415,1,0,0:0:0:0:
320,192,136415,1,0,0:0:0:0:
192,192,136682,1,0,0:0:0:0:
448,192,136682,1,0,0:0:0:0:
320,192,136816,1,0,0:0:0:0:
448,192,136816,1,0,0:0:0:0:
320,192,137082,1,0,0:0:0:0:
192,192,137082,1,0,0:0:0:0:
64,192,137216,1,0,0:0:0:0:
448,192,137216,1,0,0:0:0:0:
192,192,137349,1,0,0:0:0:0:
64,192,137349,1,0,0:0:0:0:
320,192,137482,1,0,0:0:0:0:
448,192,137482,1,0,0:0:0:0:
192,192,137616,1,0,0:0:0:0:
448,192,137616,1,0,0:0:0:0:
64,192,137616,1,0,0:0:0:0:
320,192,137882,1,0,0:0:0:0:
448,192,137882,1,0,0:0:0:0:
192,192,138150,1,0,0:0:0:0:
320,192,138150,1,0,0:0:0:0:
64,192,138282,1,0,0:0:0:0:
448,192,138282,1,0,0:0:0:0:
192,192,138550,1,0,0:0:0:0:
320,192,138550,1,0,0:0:0:0:
320,192,138816,1,0,0:0:0:0:
448,192,138816,1,0,0:0:0:0:
64,192,138950,1,0,0:0:0:0:
320,192,138950,1,0,0:0:0:0:
192,192,139216,1,0,0:0:0:0:
64,192,139216,1,0,0:0:0:0:
192,192,139483,1,0,0:0:0:0:
448,192,139483,1,0,0:0:0:0:
192,192,139750,1,0,0:0:0:0:
64,192,139750,1,0,0:0:0:0:
320,192,139750,1,0,0:0:0:0:
320,192,140016,1,0,0:0:0:0:
448,192,140016,1,0,0:0:0:0:
192,192,140283,1,0,0:0:0:0:
64,192,140283,1,0,0:0:0:0:
64,192,140416,1,0,0:0:0:0:
320,192,140416,1,0,0:0:0:0:
192,192,140550,1,0,0:0:0:0:
448,192,140550,1,0,0:0:0:0:
320,192,140683,1,0,0:0:0:0:
448,192,140683,1,0,0:0:0:0:
192,192,140950,5,0,0:0:0:0:
320,192,140950,1,0,0:0:0:0:
64,192,141083,1,0,0:0:0:0:
320,192,141083,1,0,0:0:0:0:
192,192,141350,1,0,0:0:0:0:
64,192,141350,1,0,0:0:0:0:
64,192,141617,1,0,0:0:0:0:
320,192,141617,1,0,0:0:0:0:
64,192,141883,5,0,0:0:0:0:
192,192,141950,1,0,0:0:0:0:
320,192,142017,1,0,0:0:0:0:
448,192,142083,1,0,0:0:0:0:
64,192,142150,1,0,0:0:0:0:
192,192,142217,1,0,0:0:0:0:
448,192,142283,1,0,0:0:0:0:
320,192,142350,1,0,0:0:0:0:
192,192,142417,1,0,0:0:0:0:
64,192,142483,1,0,0:0:0:0:
448,192,142550,1,0,0:0:0:0:
320,192,142550,1,0,0:0:0:0:
192,192,142617,1,0,0:0:0:0:
64,192,142617,1,0,0:0:0:0:
320,192,142683,1,0,0:0:0:0:
448,192,142683,1,0,0:0:0:0:
192,192,142750,1,0,0:0:0:0:
64,192,142750,1,0,0:0:0:0:
320,192,142817,1,0,0:0:0:0:
448,192,142817,1,0,0:0:0:0:
192,192,142883,1,0,0:0:0:0:
64,192,142883,1,0,0:0:0:0:
320,192,142950,1,0,0:0:0:0:
448,192,142950,1,0,0:0:0:0:
192,192,143017,1,0,0:0:0:0:
64,192,143017,1,0,0:0:0:0:
320,192,143083,1,0,0:0:0:0:
448,192,143083,1,0,0:0:0:0:
192,192,143150,1,0,0:0:0:0:
64,192,143150,1,0,0:0:0:0:
320,192,143217,1,0,0:0:0:0:
448,192,143217,1,0,0:0:0:0:
192,192,143284,1,0,0:0:0:0:
64,192,143284,1,0,0:0:0:0:
320,192,143350,1,0,0:0:0:0:
448,192,143350,1,0,0:0:0:0:
192,192,143417,1,0,0:0:0:0:
64,192,143417,1,0,0:0:0:0:
448,192,143484,1,0,0:0:0:0:
320,192,143484,1,0,0:0:0:0:
192,192,143550,1,0,0:0:0:0:
448,192,143617,1,0,0:0:0:0:
320,192,143617,1,0,0:0:0:0:
64,192,143617,1,0,0:0:0:0:
192,192,143684,1,0,0:0:0:0:
448,192,143750,1,0,0:0:0:0:
192,192,143750,1,0,0:0:0:0:
64,192,143750,1,0,0:0:0:0:
320,192,143817,1,0,0:0:0:0:
320,192,143884,1,0,0:0:0:0:
192,192,143884,1,0,0:0:0:0:
64,192,143884,1,0,0:0:0:0:
64,192,143950,1,0,0:0:0:0:
448,192,144017,1,0,0:0:0:0:
320,192,144017,1,0,0:0:0:0:
192,192,144017,1,0,0:0:0:0:
64,192,144017,1,0,0:0:0:0:
448,192,144284,1,0,0:0:0:0:
320,192,144284,1,0,0:0:0:0:
192,192,144284,1,0,0:0:0:0:
64,192,144417,1,0,0:0:0:0:
192,192,144550,1,0,0:0:0:0:
320,192,144550,1,0,0:0:0:0:
64,192,144550,1,0,0:0:0:0:
192,192,144818,1,0,0:0:0:0:
64,192,144818,1,0,0:0:0:0:
448,192,144818,1,0,0:0:0:0:
320,192,144950,1,0,0:0:0:0:
192,192,145084,1,0,0:0:0:0:
320,192,145084,1,0,0:0:0:0:
448,192,145084,1,0,0:0:0:0:
64,192,145218,1,0,0:0:0:0:
448,192,145218,1,0,0:0:0:0:
192,192,145350,1,0,0:0:0:0:
320,192,145350,1,0,0:0:0:0:
448,192,145350,1,0,0:0:0:0:
64,192,145484,1,0,0:0:0:0:
192,192,145484,1,0,0:0:0:0:
64,192,145618,1,0,0:0:0:0:
192,192,145618,1,0,0:0:0:0:
320,192,145618,1,0,0:0:0:0:
448,192,145750,1,0,0:0:0:0:
320,192,145750,1,0,0:0:0:0:
64,192,145884,1,0,0:0:0:0:
320,192,145884,1,0,0:0:0:0:
448,192,145884,1,0,0:0:0:0:
192,192,146018,1,0,0:0:0:0:
64,192,146018,1,0,0:0:0:0:
192,192,146151,1,0,0:0:0:0:
320,192,146151,1,0,0:0:0:0:
448,192,146151,1,0,0:0:0:0:
64,192,146418,1,0,0:0:0:0:
192,192,146418,1,0,0:0:0:0:
320,192,146418,1,0,0:0:0:0:
320,192,146551,1,0,0:0:0:0:
192,192,146684,1,0,0:0:0:0:
64,192,146684,1,0,0:0:0:0:
448,192,146684,1,0,0:0:0:0:
192,192,146951,1,0,0:0:0:0:
320,192,146951,1,0,0:0:0:0:
448,192,146951,1,0,0:0:0:0:
64,192,147084,1,0,0:0:0:0:
192,192,147218,1,0,0:0:0:0:
320,192,147218,1,0,0:0:0:0:
448,192,147218,1,0,0:0:0:0:
448,192,147351,1,0,0:0:0:0:
64,192,147351,1,0,0:0:0:0:
320,192,147485,1,0,0:0:0:0:
192,192,147485,1,0,0:0:0:0:
64,192,147485,1,0,0:0:0:0:
192,192,147618,1,0,0:0:0:0:
448,192,147618,1,0,0:0:0:0:
64,192,147751,1,0,0:0:0:0:
320,192,147751,1,0,0:0:0:0:
448,192,147751,1,0,0:0:0:0:
64,192,148018,1,0,0:0:0:0:
192,192,148018,1,0,0:0:0:0:
320,192,148018,1,0,0:0:0:0:
192,192,148285,1,0,0:0:0:0:
64,192,148285,1,0,0:0:0:0:
448,192,148285,1,0,0:0:0:0:
320,192,148285,1,0,0:0:0:0:
192,192,148551,1,0,0:0:0:0:
320,192,148551,1,0,0:0:0:0:
448,192,148551,1,0,0:0:0:0:
192,192,148819,1,0,0:0:0:0:
64,192,148819,1,0,0:0:0:0:
320,192,148819,1,0,0:0:0:0:
448,192,148819,1,0,0:0:0:0:
64,192,149085,1,0,0:0:0:0:
320,192,149085,1,0,0:0:0:0:
448,192,149085,1,0,0:0:0:0:
192,192,149351,1,0,0:0:0:0:
320,192,149351,1,0,0:0:0:0:
448,192,149351,1,0,0:0:0:0:
64,192,149351,1,0,0:0:0:0:
64,192,149619,1,0,0:0:0:0:
192,192,149619,1,0,0:0:0:0:
320,192,149619,1,0,0:0:0:0:
192,192,149885,1,0,0:0:0:0:
320,192,149885,1,0,0:0:0:0:
448,192,149885,1,0,0:0:0:0:
64,192,150152,1,0,0:0:0:0:
192,192,150152,1,0,0:0:0:0:
448,192,150152,1,0,0:0:0:0:
192,192,150419,1,0,0:0:0:0:
320,192,150419,1,0,0:0:0:0:
448,192,150419,1,0,0:0:0:0:
448,192,150619,1,0,0:0:0:0:
64,192,150685,1,0,0:0:0:0:
192,192,150685,1,0,0:0:0:0:
320,192,150685,1,0,0:0:0:0:
192,192,150819,1,0,0:0:0:0:
320,192,150819,1,0,0:0:0:0:
64,192,150952,1,0,0:0:0:0:
320,192,150952,1,0,0:0:0:0:
448,192,150952,1,0,0:0:0:0:
64,192,151152,5,0,0:0:0:0:
320,192,151219,1,0,0:0:0:0:
192,192,151219,1,0,0:0:0:0:
448,192,151219,1,0,0:0:0:0:
64,192,151352,1,0,0:0:0:0:
448,192,151352,1,0,0:0:0:0:
320,192,151486,1,0,0:0:0:0:
192,192,151486,1,0,0:0:0:0:
64,192,151486,1,0,0:0:0:0:
64,192,151752,1,0,0:0:0:0:
320,192,151752,1,0,0:0:0:0:
448,192,151752,1,0,0:0:0:0:
192,192,152019,1,0,0:0:0:0:
64,192,152019,1,0,0:0:0:0:
320,192,152019,1,0,0:0:0:0:
448,192,152152,5,0,0:0:0:0:
320,192,152152,1,0,0:0:0:0:
64,192,152286,1,0,0:0:0:0:
448,192,152286,1,0,0:0:0:0:
192,192,152419,1,0,0:0:0:0:
64,192,152419,1,0,0:0:0:0:
192,192,152552,1,0,0:0:0:0:
320,192,152552,1,0,0:0:0:0:
448,192,152552,1,0,0:0:0:0:
64,192,152820,1,0,0:0:0:0:
192,192,152820,1,0,0:0:0:0:
320,192,152820,1,0,0:0:0:0:
448,192,152952,1,0,0:0:0:0:
64,192,153086,1,0,0:0:0:0:
320,192,153086,1,0,0:0:0:0:
448,192,153086,1,0,0:0:0:0:
64,192,153352,1,0,0:0:0:0:
192,192,153352,1,0,0:0:0:0:
320,192,153352,1,0,0:0:0:0:
448,192,153486,1,0,0:0:0:0:
192,192,153486,1,0,0:0:0:0:
64,192,153620,1,0,0:0:0:0:
320,192,153620,1,0,0:0:0:0:
448,192,153620,1,0,0:0:0:0:
192,192,153752,1,0,0:0:0:0:
320,192,153752,1,0,0:0:0:0:
192,192,153886,1,0,0:0:0:0:
320,192,153886,1,0,0:0:0:0:
448,192,153886,1,0,0:0:0:0:
64,192,154020,1,0,0:0:0:0:
448,192,154020,1,0,0:0:0:0:
64,192,154153,1,0,0:0:0:0:
192,192,154153,1,0,0:0:0:0:
320,192,154153,1,0,0:0:0:0:
320,192,154286,1,0,0:0:0:0:
448,192,154286,1,0,0:0:0:0:
64,192,154420,1,0,0:0:0:0:
192,192,154420,1,0,0:0:0:0:
448,192,154420,1,0,0:0:0:0:
64,192,154553,1,0,0:0:0:0:
320,192,154553,1,0,0:0:0:0:
192,192,154686,1,0,0:0:0:0:
320,192,154686,1,0,0:0:0:0:
448,192,154686,1,0,0:0:0:0:
192,192,154820,1,0,0:0:0:0:
64,192,154820,1,0,0:0:0:0:
320,192,154953,1,0,0:0:0:0:
448,192,154953,1,0,0:0:0:0:
64,192,154953,1,0,0:0:0:0:
320,192,155086,1,0,0:0:0:0:
448,192,155086,1,0,0:0:0:0:
64,192,155220,1,0,0:0:0:0:
192,192,155220,1,0,0:0:0:0:
320,192,155220,1,0,0:0:0:0:
64,192,155353,1,0,0:0:0:0:
448,192,155353,1,0,0:0:0:0:
64,192,155487,1,0,0:0:0:0:
192,192,155487,1,0,0:0:0:0:
448,192,155487,1,0,0:0:0:0:
320,192,155620,1,0,0:0:0:0:
448,192,155620,1,0,0:0:0:0:
64,192,155753,1,0,0:0:0:0:
192,192,155753,1,0,0:0:0:0:
320,192,155753,1,0,0:0:0:0:
320,192,155887,1,0,0:0:0:0:
64,192,155887,1,0,0:0:0:0:
192,192,156020,1,0,0:0:0:0:
320,192,156020,1,0,0:0:0:0:
448,192,156020,1,0,0:0:0:0:
192,192,156153,1,0,0:0:0:0:
64,192,156153,1,0,0:0:0:0:
64,192,156287,1,0,0:0:0:0:
320,192,156287,1,0,0:0:0:0:
448,192,156287,1,0,0:0:0:0:
320,192,156420,1,0,0:0:0:0:
448,192,156420,1,0,0:0:0:0:
64,192,156553,1,0,0:0:0:0:
192,192,156553,1,0,0:0:0:0:
320,192,156553,1,0,0:0:0:0:
192,192,156687,1,0,0:0:0:0:
448,192,156687,1,0,0:0:0:0:
64,192,156820,1,0,0:0:0:0:
192,192,156820,1,0,0:0:0:0:
320,192,156820,1,0,0:0:0:0:
448,192,156820,1,0,0:0:0:0:
320,192,156953,1,0,0:0:0:0:
192,192,156953,1,0,0:0:0:0:
64,192,156953,1,0,0:0:0:0:
64,192,157087,1,0,0:0:0:0:
192,192,157087,1,0,0:0:0:0:
320,192,157087,1,0,0:0:0:0:
448,192,157087,1,0,0:0:0:0:
64,192,157220,1,0,0:0:0:0:
320,192,157220,1,0,0:0:0:0:
448,192,157220,1,0,0:0:0:0:
192,192,157353,1,0,0:0:0:0:
64,192,157353,1,0,0:0:0:0:
320,192,157353,1,0,0:0:0:0:
448,192,157353,1,0,0:0:0:0:
192,192,157487,1,0,0:0:0:0:
320,192,157487,1,0,0:0:0:0:
448,192,157487,1,0,0:0:0:0:
64,192,157620,1,0,0:0:0:0:
192,192,157620,1,0,0:0:0:0:
320,192,157620,1,0,0:0:0:0:
448,192,157620,1,0,0:0:0:0:
192,192,157753,1,0,0:0:0:0:
64,192,157753,1,0,0:0:0:0:
448,192,157753,1,0,0:0:0:0:
64,192,157887,1,0,0:0:0:0:
192,192,157887,1,0,0:0:0:0:
320,192,157887,1,0,0:0:0:0:
448,192,157887,1,0,0:0:0:0:
320,192,158020,1,0,0:0:0:0:
64,192,158020,1,0,0:0:0:0:
192,192,158020,1,0,0:0:0:0:
64,192,158154,1,0,0:0:0:0:
192,192,158154,1,0,0:0:0:0:
448,192,158154,1,0,0:0:0:0:
320,192,158154,1,0,0:0:0:0:
64,192,158287,1,0,0:0:0:0:
320,192,158287,1,0,0:0:0:0:
448,192,158287,1,0,0:0:0:0:
64,192,158420,1,0,0:0:0:0:
192,192,158420,1,0,0:0:0:0:
320,192,158420,1,0,0:0:0:0:
448,192,158420,1,0,0:0:0:0:
192,192,158554,1,0,0:0:0:0:
320,192,158554,1,0,0:0:0:0:
448,192,158554,1,0,0:0:0:0:
64,192,158687,1,0,0:0:0:0:
192,192,158687,1,0,0:0:0:0:
320,192,158687,1,0,0:0:0:0:
448,192,158687,1,0,0:0:0:0:
64,192,158820,1,0,0:0:0:0:
320,192,158820,1,0,0:0:0:0:
448,192,158820,1,0,0:0:0:0:
64,192,158954,1,0,0:0:0:0:
192,192,158954,1,0,0:0:0:0:
448,192,158954,1,0,0:0:0:0:
320,192,158954,1,0,0:0:0:0:
192,192,159087,1,0,0:0:0:0:
64,192,159087,1,0,0:0:0:0:
448,192,159087,1,0,0:0:0:0:
64,192,159220,1,0,0:0:0:0:
192,192,159220,1,0,0:0:0:0:
320,192,159220,1,0,0:0:0:0:
448,192,159220,1,0,0:0:0:0:
64,192,159354,1,0,0:0:0:0:
192,192,159354,1,0,0:0:0:0:
320,192,159354,1,0,0:0:0:0:
448,192,159354,1,0,0:0:0:0:
64,192,159488,1,0,0:0:0:0:
192,192,159488,1,0,0:0:0:0:
320,192,159488,1,0,0:0:0:0:
448,192,159488,1,0,0:0:0:0:
192,192,159620,1,0,0:0:0:0:
64,192,159620,1,0,0:0:0:0:
320,192,159620,1,0,0:0:0:0:
64,192,159754,1,0,0:0:0:0:
192,192,159754,1,0,0:0:0:0:
320,192,159754,1,0,0:0:0:0:
448,192,159754,1,0,0:0:0:0:
64,192,159888,1,0,0:0:0:0:
192,192,159888,1,0,0:0:0:0:
448,192,159888,1,0,0:0:0:0:
64,192,160020,1,0,0:0:0:0:
192,192,160020,1,0,0:0:0:0:
320,192,160020,1,0,0:0:0:0:
448,192,160020,1,0,0:0:0:0:
448,192,160154,1,0,0:0:0:0:
320,192,160154,1,0,0:0:0:0:
192,192,160154,1,0,0:0:0:0:
64,192,160288,1,0,0:0:0:0:
192,192,160288,1,0,0:0:0:0:
320,192,160288,1,0,0:0:0:0:
448,192,160288,1,0,0:0:0:0:
64,192,160354,1,0,0:0:0:0:
192,192,160420,1,0,0:0:0:0:
320,192,160420,1,0,0:0:0:0:
448,192,160420,1,0,0:0:0:0:
64,192,160488,1,0,0:0:0:0:
64,192,160554,1,0,0:0:0:0:
192,192,160554,1,0,0:0:0:0:
320,192,160554,1,0,0:0:0:0:
448,192,160554,1,0,0:0:0:0:
320,192,160620,1,0,0:0:0:0:
448,192,160688,1,0,0:0:0:0:
192,192,160688,1,0,0:0:0:0:
64,192,160688,1,0,0:0:0:0:
320,192,160754,1,0,0:0:0:0:
64,192,160821,1,0,0:0:0:0:
192,192,160821,1,0,0:0:0:0:
448,192,160821,1,0,0:0:0:0:
320,192,160821,1,0,0:0:0:0:
64,192,160888,1,0,0:0:0:0:
192,192,160954,1,0,0:0:0:0:
320,192,160954,1,0,0:0:0:0:
448,192,160954,1,0,0:0:0:0:
320,192,161021,1,0,0:0:0:0:
64,192,161088,128,0,161221:0:0:0:0:
320,192,161221,128,0,161354:0:0:0:0:
192,192,161354,128,0,161488:0:0:0:0:
448,192,161488,128,0,161754:0:0:0:0:
64,192,161754,1,0,0:0:0:0:
192,192,161754,1,0,0:0:0:0:
64,192,161888,1,0,0:0:0:0:
192,192,161888,1,0,0:0:0:0:
320,192,161888,1,0,0:0:0:0:
64,192,162021,1,0,0:0:0:0:
192,192,162021,1,0,0:0:0:0:
320,192,162021,1,0,0:0:0:0:
448,192,162021,1,0,0:0:0:0:
64,192,162154,1,0,0:0:0:0:
320,192,162154,1,0,0:0:0:0:
448,192,162154,1,0,0:0:0:0:
192,192,162154,1,0,0:0:0:0:
448,192,162221,1,0,0:0:0:0:
320,192,162221,1,0,0:0:0:0:
64,192,162288,1,0,0:0:0:0:
448,192,162288,1,0,0:0:0:0:
192,192,162288,1,0,0:0:0:0:
320,192,162355,1,0,0:0:0:0:
64,192,162355,1,0,0:0:0:0:
64,192,162421,1,0,0:0:0:0:
192,192,162421,1,0,0:0:0:0:
448,192,162421,1,0,0:0:0:0:
320,192,162421,1,0,0:0:0:0:
192,192,162488,1,0,0:0:0:0:
320,192,162488,1,0,0:0:0:0:
448,192,162555,1,0,0:0:0:0:
64,192,162555,1,0,0:0:0:0:
192,192,162555,1,0,0:0:0:0:
320,192,162621,1,0,0:0:0:0:
448,192,162621,1,0,0:0:0:0:
448,192,162688,1,0,0:0:0:0:
320,192,162688,1,0,0:0:0:0:
192,192,162688,1,0,0:0:0:0:
64,192,162688,1,0,0:0:0:0:
192,192,162755,1,0,0:0:0:0:
64,192,162755,1,0,0:0:0:0:
64,192,162821,1,0,0:0:0:0:
320,192,162821,1,0,0:0:0:0:
448,192,162821,1,0,0:0:0:0:
192,192,162888,1,0,0:0:0:0:
320,192,162888,1,0,0:0:0:0:
64,192,162955,1,0,0:0:0:0:
192,192,162955,1,0,0:0:0:0:
320,192,162955,1,0,0:0:0:0:
448,192,162955,1,0,0:0:0:0:
64,192,163021,1,0,0:0:0:0:
448,192,163021,1,0,0:0:0:0:
320,192,163088,1,0,0:0:0:0:
192,192,163088,1,0,0:0:0:0:
64,192,163088,1,0,0:0:0:0:
192,192,163155,1,0,0:0:0:0:
448,192,163155,1,0,0:0:0:0:
64,192,163221,1,0,0:0:0:0:
192,192,163221,1,0,0:0:0:0:
320,192,163221,1,0,0:0:0:0:
448,192,163221,1,0,0:0:0:0:
448,192,163288,1,0,0:0:0:0:
320,192,163288,1,0,0:0:0:0:
192,192,163355,1,0,0:0:0:0:
64,192,163355,1,0,0:0:0:0:
320,192,163355,1,0,0:0:0:0:
64,192,163421,1,0,0:0:0:0:
448,192,163421,1,0,0:0:0:0:
64,192,163488,1,0,0:0:0:0:
192,192,163488,1,0,0:0:0:0:
448,192,163488,1,0,0:0:0:0:
320,192,163488,1,0,0:0:0:0:
320,192,163555,1,0,0:0:0:0:
192,192,163555,1,0,0:0:0:0:
320,192,163621,1,0,0:0:0:0:
448,192,163621,1,0,0:0:0:0:
64,192,163621,1,0,0:0:0:0:
192,192,163689,1,0,0:0:0:0:
64,192,163689,1,0,0:0:0:0:
64,192,163755,1,0,0:0:0:0:
192,192,163755,1,0,0:0:0:0:
320,192,163755,1,0,0:0:0:0:
448,192,163755,1,0,0:0:0:0:
448,192,163821,1,0,0:0:0:0:
320,192,163821,1,0,0:0:0:0:
192,192,163889,1,0,0:0:0:0:
320,192,163889,1,0,0:0:0:0:
448,192,163889,1,0,0:0:0:0:
192,192,163955,1,0,0:0:0:0:
64,192,163955,1,0,0:0:0:0:
64,192,164021,1,0,0:0:0:0:
320,192,164021,1,0,0:0:0:0:
192,192,164021,1,0,0:0:0:0:
448,192,164021,1,0,0:0:0:0:
448,192,164089,1,0,0:0:0:0:
64,192,164089,1,0,0:0:0:0:
320,192,164155,1,0,0:0:0:0:
448,192,164155,1,0,0:0:0:0:
192,192,164155,1,0,0:0:0:0:
64,192,164221,1,0,0:0:0:0:
320,192,164221,1,0,0:0:0:0:
64,192,164289,1,0,0:0:0:0:
192,192,164289,1,0,0:0:0:0:
448,192,164289,1,0,0:0:0:0:
320,192,164289,1,0,0:0:0:0:
192,192,164355,1,0,0:0:0:0:
448,192,164355,1,0,0:0:0:0:
320,192,164421,1,0,0:0:0:0:
64,192,164421,1,0,0:0:0:0:
192,192,164421,1,0,0:0:0:0:
448,192,164489,1,0,0:0:0:0:
64,192,164489,1,0,0:0:0:0:
64,192,164555,1,0,0:0:0:0:
320,192,164555,1,0,0:0:0:0:
192,192,164555,1,0,0:0:0:0:
448,192,164555,1,0,0:0:0:0:
192,192,164621,1,0,0:0:0:0:
320,192,164621,1,0,0:0:0:0:
64,192,164689,1,0,0:0:0:0:
192,192,164689,1,0,0:0:0:0:
448,192,164689,1,0,0:0:0:0:
448,192,164755,1,0,0:0:0:0:
320,192,164755,1,0,0:0:0:0:
64,192,164821,1,0,0:0:0:0:
192,192,164821,1,0,0:0:0:0:
320,192,164821,1,0,0:0:0:0:
448,192,164821,1,0,0:0:0:0:
64,192,164889,1,0,0:0:0:0:
192,192,164889,1,0,0:0:0:0:
64,192,164955,1,0,0:0:0:0:
320,192,164955,1,0,0:0:0:0:
448,192,164955,1,0,0:0:0:0:
192,192,165022,1,0,0:0:0:0:
448,192,165022,1,0,0:0:0:0:
64,192,165089,1,0,0:0:0:0:
320,192,165089,1,0,0:0:0:0:
448,192,165089,1,0,0:0:0:0:
192,192,165089,1,0,0:0:0:0:
320,192,165155,1,0,0:0:0:0:
64,192,165155,1,0,0:0:0:0:
192,192,165222,1,0,0:0:0:0:
448,192,165222,1,0,0:0:0:0:
320,192,165222,1,0,0:0:0:0:
192,192,165289,1,0,0:0:0:0:
64,192,165289,1,0,0:0:0:0:
64,192,165355,1,0,0:0:0:0:
320,192,165355,1,0,0:0:0:0:
448,192,165355,1,0,0:0:0:0:
192,192,165355,1,0,0:0:0:0:
320,192,165422,1,0,0:0:0:0:
448,192,165422,1,0,0:0:0:0:
64,192,165489,1,0,0:0:0:0:
192,192,165489,1,0,0:0:0:0:
448,192,165489,1,0,0:0:0:0:
320,192,165555,1,0,0:0:0:0:
64,192,165555,1,0,0:0:0:0:
64,192,165622,1,0,0:0:0:0:
192,192,165622,1,0,0:0:0:0:
320,192,165622,1,0,0:0:0:0:
448,192,165622,1,0,0:0:0:0:
192,192,165689,1,0,0:0:0:0:
448,192,165689,1,0,0:0:0:0:
320,192,165755,1,0,0:0:0:0:
448,192,165755,1,0,0:0:0:0:
64,192,165755,1,0,0:0:0:0:
192,192,165822,1,0,0:0:0:0:
64,192,165822,1,0,0:0:0:0:
64,192,165889,1,0,0:0:0:0:
320,192,165889,1,0,0:0:0:0:
192,192,165889,1,0,0:0:0:0:
448,192,165889,1,0,0:0:0:0:
320,192,165955,1,0,0:0:0:0:
448,192,165955,1,0,0:0:0:0:
320,192,166022,1,0,0:0:0:0:
192,192,166022,1,0,0:0:0:0:
64,192,166022,1,0,0:0:0:0:
64,192,166089,1,0,0:0:0:0:
448,192,166089,1,0,0:0:0:0:
64,192,166155,1,0,0:0:0:0:
192,192,166155,1,0,0:0:0:0:
448,192,166155,1,0,0:0:0:0:
320,192,166155,1,0,0:0:0:0:
320,192,166222,1,0,0:0:0:0:
192,192,166222,1,0,0:0:0:0:
64,192,166289,1,0,0:0:0:0:
192,192,166289,1,0,0:0:0:0:
320,192,166289,1,0,0:0:0:0:
448,192,166289,1,0,0:0:0:0:
64,192,166356,1,0,0:0:0:0:
448,192,166356,1,0,0:0:0:0:
64,192,166422,1,0,0:0:0:0:
192,192,166422,1,0,0:0:0:0:
320,192,166422,1,0,0:0:0:0:
448,192,166422,1,0,0:0:0:0:
320,192,166489,1,0,0:0:0:0:
192,192,166489,1,0,0:0:0:0:
64,192,166556,1,0,0:0:0:0:
192,192,166556,1,0,0:0:0:0:
320,192,166556,1,0,0:0:0:0:
448,192,166622,1,0,0:0:0:0:
64,192,166622,1,0,0:0:0:0:
192,192,166689,1,0,0:0:0:0:
320,192,166689,1,0,0:0:0:0:
448,192,166689,1,0,0:0:0:0:
64,192,166689,1,0,0:0:0:0:
192,192,166756,1,0,0:0:0:0:
320,192,166756,1,0,0:0:0:0:
64,192,166822,1,0,0:0:0:0:
320,192,166822,1,0,0:0:0:0:
448,192,166822,1,0,0:0:0:0:
192,192,166889,1,0,0:0:0:0:
64,192,166889,1,0,0:0:0:0:
192,192,166956,1,0,0:0:0:0:
320,192,166956,1,0,0:0:0:0:
448,192,166956,1,0,0:0:0:0:
64,192,166956,1,0,0:0:0:0:
448,192,167022,1,0,0:0:0:0:
320,192,167022,1,0,0:0:0:0:
192,192,167089,1,0,0:0:0:0:
320,192,167089,1,0,0:0:0:0:
448,192,167089,1,0,0:0:0:0:
64,192,167156,1,0,0:0:0:0:
192,192,167156,1,0,0:0:0:0:
64,192,167222,1,0,0:0:0:0:
192,192,167222,1,0,0:0:0:0:
320,192,167222,1,0,0:0:0:0:
448,192,167222,1,0,0:0:0:0:
320,192,167289,1,0,0:0:0:0:
448,192,167289,1,0,0:0:0:0:
64,192,167356,1,0,0:0:0:0:
192,192,167356,1,0,0:0:0:0:
448,192,167356,1,0,0:0:0:0:
320,192,167422,1,0,0:0:0:0:
64,192,167422,1,0,0:0:0:0:
64,192,167489,1,0,0:0:0:0:
192,192,167489,1,0,0:0:0:0:
320,192,167489,1,0,0:0:0:0:
448,192,167489,1,0,0:0:0:0:
192,192,167556,1,0,0:0:0:0:
448,192,167556,1,0,0:0:0:0:
320,192,167622,1,0,0:0:0:0:
192,192,167622,1,0,0:0:0:0:
64,192,167622,1,0,0:0:0:0:
320,192,167690,1,0,0:0:0:0:
448,192,167690,1,0,0:0:0:0:
64,192,167756,1,0,0:0:0:0:
192,192,167756,1,0,0:0:0:0:
448,192,167756,1,0,0:0:0:0:
320,192,167756,1,0,0:0:0:0:
192,192,167822,1,0,0:0:0:0:
64,192,167822,1,0,0:0:0:0:
192,192,167890,1,0,0:0:0:0:
320,192,167890,1,0,0:0:0:0:
448,192,167890,1,0,0:0:0:0:
64,192,167956,1,0,0:0:0:0:
320,192,167956,1,0,0:0:0:0:
192,192,168022,1,0,0:0:0:0:
64,192,168022,1,0,0:0:0:0:
448,192,168022,1,0,0:0:0:0:
320,192,168022,1,0,0:0:0:0:
192,192,168090,1,0,0:0:0:0:
448,192,168090,1,0,0:0:0:0:
64,192,168156,1,0,0:0:0:0:
320,192,168156,1,0,0:0:0:0:
448,192,168156,1,0,0:0:0:0:
192,192,168222,1,0,0:0:0:0:
64,192,168222,1,0,0:0:0:0:
320,192,168290,1,0,0:0:0:0:
448,192,168290,1,0,0:0:0:0:
192,192,168290,1,0,0:0:0:0:
64,192,168290,1,0,0:0:0:0:
320,192,168356,1,0,0:0:0:0:
448,192,168356,1,0,0:0:0:0:
64,192,168422,1,0,0:0:0:0:
320,192,168422,1,0,0:0:0:0:
448,192,168422,1,0,0:0:0:0:
192,192,168490,1,0,0:0:0:0:
64,192,168490,1,0,0:0:0:0:
64,192,168556,1,0,0:0:0:0:
320,192,168556,1,0,0:0:0:0:
448,192,168556,1,0,0:0:0:0:
192,192,168556,1,0,0:0:0:0:
192,192,168622,1,0,0:0:0:0:
320,192,168622,1,0,0:0:0:0:
64,192,168690,1,0,0:0:0:0:
320,192,168690,1,0,0:0:0:0:
448,192,168690,1,0,0:0:0:0:
448,192,168756,1,0,0:0:0:0:
192,192,168756,1,0,0:0:0:0:
64,192,168822,1,0,0:0:0:0:
192,192,168822,1,0,0:0:0:0:
320,192,168822,1,0,0:0:0:0:
448,192,168822,1,0,0:0:0:0:
320,192,168890,1,0,0:0:0:0:
64,192,168890,1,0,0:0:0:0:
192,192,168956,1,0,0:0:0:0:
64,192,168956,1,0,0:0:0:0:
448,192,168956,1,0,0:0:0:0:
320,192,169023,1,0,0:0:0:0:
448,192,169023,1,0,0:0:0:0:
64,192,169090,1,0,0:0:0:0:
192,192,169090,1,0,0:0:0:0:
448,192,169090,1,0,0:0:0:0:
320,192,169090,1,0,0:0:0:0:
192,192,169156,1,0,0:0:0:0:
64,192,169156,1,0,0:0:0:0:
64,192,169223,1,0,0:0:0:0:
448,192,169223,1,0,0:0:0:0:
192,192,169223,1,0,0:0:0:0:
448,192,169290,1,0,0:0:0:0:
320,192,169290,1,0,0:0:0:0:
448,192,169356,1,0,0:0:0:0:
320,192,169356,1,0,0:0:0:0:
192,192,169356,1,0,0:0:0:0:
64,192,169356,1,0,0:0:0:0:
192,192,169423,1,0,0:0:0:0:
64,192,169423,1,0,0:0:0:0:
448,192,169490,1,0,0:0:0:0:
192,192,169490,1,0,0:0:0:0:
320,192,169490,1,0,0:0:0:0:
64,192,169556,1,0,0:0:0:0:
320,192,169556,1,0,0:0:0:0:
448,192,169623,1,0,0:0:0:0:
320,192,169623,1,0,0:0:0:0:
192,192,169623,1,0,0:0:0:0:
64,192,169623,1,0,0:0:0:0:
192,192,169690,1,0,0:0:0:0:
448,192,169690,1,0,0:0:0:0:
320,192,169756,1,0,0:0:0:0:
192,192,169756,1,0,0:0:0:0:
64,192,169756,1,0,0:0:0:0:
448,192,169823,1,0,0:0:0:0:
64,192,169823,1,0,0:0:0:0:
64,192,169890,1,0,0:0:0:0:
192,192,169890,1,0,0:0:0:0:
320,192,169890,1,0,0:0:0:0:
448,192,169890,1,0,0:0:0:0:
192,192,169956,1,0,0:0:0:0:
320,192,169956,1,0,0:0:0:0:
448,192,170023,1,0,0:0:0:0:
192,192,170023,1,0,0:0:0:0:
64,192,170023,1,0,0:0:0:0:
320,192,170090,1,0,0:0:0:0:
448,192,170090,1,0,0:0:0:0:
64,192,170156,1,0,0:0:0:0:
192,192,170156,1,0,0:0:0:0:
320,192,170156,1,0,0:0:0:0:
448,192,170156,1,0,0:0:0:0:
64,192,170223,1,0,0:0:0:0:
192,192,170223,1,0,0:0:0:0:
448,192,170290,1,0,0:0:0:0:
320,192,170323,1,0,0:0:0:0:
64,192,170357,1,0,0:0:0:0:
192,192,170390,1,0,0:0:0:0:
320,192,170423,1,0,0:0:0:0:
448,192,170423,1,0,0:0:0:0:
64,192,170490,1,0,0:0:0:0:
448,192,170490,1,0,0:0:0:0:
192,192,170557,1,0,0:0:0:0:
320,192,170590,1,0,0:0:0:0:
64,192,170623,1,0,0:0:0:0:
448,192,170623,1,0,0:0:0:0:
192,192,170690,1,0,0:0:0:0:
320,192,170690,1,0,0:0:0:0:
448,192,170690,1,0,0:0:0:0:
64,192,170690,1,0,0:0:0:0:
192,192,170757,1,0,0:0:0:0:
320,192,170757,1,0,0:0:0:0:
64,192,170823,1,0,0:0:0:0:
192,192,170823,1,0,0:0:0:0:
448,192,170823,1,0,0:0:0:0:
320,192,170890,1,0,0:0:0:0:
448,192,170890,1,0,0:0:0:0:
448,192,170957,1,0,0:0:0:0:
320,192,170957,1,0,0:0:0:0:
192,192,170957,1,0,0:0:0:0:
64,192,170957,1,0,0:0:0:0:
192,192,171023,1,0,0:0:0:0:
64,192,171023,1,0,0:0:0:0:
320,192,171090,1,0,0:0:0:0:
448,192,171090,1,0,0:0:0:0:
192,192,171090,1,0,0:0:0:0:
64,192,171157,1,0,0:0:0:0:
448,192,171157,1,0,0:0:0:0:
64,192,171223,1,0,0:0:0:0:
192,192,171223,1,0,0:0:0:0:
320,192,171223,1,0,0:0:0:0:
448,192,171223,1,0,0:0:0:0:
320,192,171290,1,0,0:0:0:0:
192,192,171290,1,0,0:0:0:0:
64,192,171357,1,0,0:0:0:0:
192,192,171357,1,0,0:0:0:0:
448,192,171357,1,0,0:0:0:0:
320,192,171423,1,0,0:0:0:0:
448,192,171423,1,0,0:0:0:0:
64,192,171490,1,0,0:0:0:0:
192,192,171490,1,0,0:0:0:0:
320,192,171490,1,0,0:0:0:0:
448,192,171490,1,0,0:0:0:0:
192,192,171557,1,0,0:0:0:0:
64,192,171557,1,0,0:0:0:0:
64,192,171623,1,0,0:0:0:0:
448,192,171623,1,0,0:0:0:0:
320,192,171623,1,0,0:0:0:0:
192,192,171690,1,0,0:0:0:0:
448,192,171690,1,0,0:0:0:0:
64,192,171757,1,0,0:0:0:0:
192,192,171757,1,0,0:0:0:0:
448,192,171757,1,0,0:0:0:0:
320,192,171757,1,0,0:0:0:0:
320,192,171823,1,0,0:0:0:0:
64,192,171823,1,0,0:0:0:0:
192,192,171890,1,0,0:0:0:0:
64,192,171890,1,0,0:0:0:0:
448,192,171890,1,0,0:0:0:0:
320,192,171957,1,0,0:0:0:0:
192,192,171957,1,0,0:0:0:0:
64,192,172023,1,0,0:0:0:0:
192,192,172023,1,0,0:0:0:0:
320,192,172023,1,0,0:0:0:0:
448,192,172023,1,0,0:0:0:0:
64,192,172090,1,0,0:0:0:0:
448,192,172090,1,0,0:0:0:0:
192,192,172157,1,0,0:0:0:0:
320,192,172157,1,0,0:0:0:0:
448,192,172157,1,0,0:0:0:0:
64,192,172223,1,0,0:0:0:0:
320,192,172223,1,0,0:0:0:0:
64,192,172290,1,0,0:0:0:0:
320,192,172290,1,0,0:0:0:0:
192,192,172290,1,0,0:0:0:0:
448,192,172290,1,0,0:0:0:0:
192,192,172357,1,0,0:0:0:0:
448,192,172357,1,0,0:0:0:0:
320,192,172423,1,0,0:0:0:0:
448,192,172423,1,0,0:0:0:0:
64,192,172423,1,0,0:0:0:0:
192,192,172490,1,0,0:0:0:0:
64,192,172490,1,0,0:0:0:0:
64,192,172557,1,0,0:0:0:0:
192,192,172557,1,0,0:0:0:0:
320,192,172557,1,0,0:0:0:0:
448,192,172557,1,0,0:0:0:0:
320,192,172623,1,0,0:0:0:0:
448,192,172623,1,0,0:0:0:0:
64,192,172690,1,0,0:0:0:0:
192,192,172690,1,0,0:0:0:0:
448,192,172690,1,0,0:0:0:0:
320,192,172757,1,0,0:0:0:0:
192,192,172757,1,0,0:0:0:0:
64,192,172823,1,0,0:0:0:0:
192,192,172823,1,0,0:0:0:0:
320,192,172823,1,0,0:0:0:0:
448,192,172823,1,0,0:0:0:0:
64,192,172890,1,0,0:0:0:0:
448,192,172890,1,0,0:0:0:0:
192,192,172957,1,0,0:0:0:0:
320,192,172957,1,0,0:0:0:0:
448,192,172957,1,0,0:0:0:0:
320,192,173024,1,0,0:0:0:0:
64,192,173024,1,0,0:0:0:0:
64,192,173090,1,0,0:0:0:0:
192,192,173090,1,0,0:0:0:0:
448,192,173090,1,0,0:0:0:0:
320,192,173090,1,0,0:0:0:0:
192,192,173157,1,0,0:0:0:0:
448,192,173157,1,0,0:0:0:0:
320,192,173224,1,0,0:0:0:0:
192,192,173224,1,0,0:0:0:0:
64,192,173224,1,0,0:0:0:0:
448,192,173290,1,0,0:0:0:0:
64,192,173290,1,0,0:0:0:0:
64,192,173357,1,0,0:0:0:0:
192,192,173357,1,0,0:0:0:0:
448,192,173357,1,0,0:0:0:0:
320,192,173357,1,0,0:0:0:0:
192,192,173424,1,0,0:0:0:0:
320,192,173424,1,0,0:0:0:0:
320,192,173490,1,0,0:0:0:0:
448,192,173490,1,0,0:0:0:0:
64,192,173490,1,0,0:0:0:0:
192,192,173557,1,0,0:0:0:0:
64,192,173557,1,0,0:0:0:0:
64,192,173624,1,0,0:0:0:0:
192,192,173624,1,0,0:0:0:0:
320,192,173624,1,0,0:0:0:0:
448,192,173624,1,0,0:0:0:0:
320,192,173690,1,0,0:0:0:0:
448,192,173690,1,0,0:0:0:0:
64,192,173757,1,0,0:0:0:0:
192,192,173757,1,0,0:0:0:0:
320,192,173757,1,0,0:0:0:0:
448,192,173824,1,0,0:0:0:0:
64,192,173824,1,0,0:0:0:0:
64,192,173890,1,0,0:0:0:0:
192,192,173890,1,0,0:0:0:0:
448,192,173890,1,0,0:0:0:0:
320,192,173890,1,0,0:0:0:0:
192,192,173957,1,0,0:0:0:0:
320,192,173957,1,0,0:0:0:0:
320,192,174024,1,0,0:0:0:0:
64,192,174024,1,0,0:0:0:0:
448,192,174024,1,0,0:0:0:0:
64,192,174090,1,0,0:0:0:0:
192,192,174090,1,0,0:0:0:0:
64,192,174157,1,0,0:0:0:0:
192,192,174157,1,0,0:0:0:0:
448,192,174157,1,0,0:0:0:0:
320,192,174157,1,0,0:0:0:0:
320,192,174224,1,0,0:0:0:0:
448,192,174224,1,0,0:0:0:0:
192,192,174290,1,0,0:0:0:0:
64,192,174290,1,0,0:0:0:0:
320,192,174290,1,0,0:0:0:0:
448,192,174358,1,0,0:0:0:0:
64,192,174358,1,0,0:0:0:0:
448,192,174424,1,0,0:0:0:0:
320,192,174424,1,0,0:0:0:0:
64,192,174424,1,0,0:0:0:0:
192,192,174424,1,0,0:0:0:0:
320,192,174490,1,0,0:0:0:0:
192,192,174490,1,0,0:0:0:0:
64,192,174558,1,0,0:0:0:0:
192,192,174558,1,0,0:0:0:0:
448,192,174558,1,0,0:0:0:0:
320,192,174624,1,0,0:0:0:0:
448,192,174624,1,0,0:0:0:0:
64,192,174690,1,0,0:0:0:0:
192,192,174690,1,0,0:0:0:0:
320,192,174690,1,0,0:0:0:0:
448,192,174690,1,0,0:0:0:0:
64,192,174758,1,0,0:0:0:0:
192,192,174758,1,0,0:0:0:0:
64,192,174824,1,0,0:0:0:0:
320,192,174824,1,0,0:0:0:0:
448,192,174824,1,0,0:0:0:0:
192,192,174890,1,0,0:0:0:0:
448,192,174890,1,0,0:0:0:0:
64,192,174958,1,0,0:0:0:0:
192,192,174958,1,0,0:0:0:0:
320,192,174958,1,0,0:0:0:0:
448,192,174958,1,0,0:0:0:0:
320,192,175024,1,0,0:0:0:0:
64,192,175024,1,0,0:0:0:0:
192,192,175090,1,0,0:0:0:0:
64,192,175090,1,0,0:0:0:0:
448,192,175090,1,0,0:0:0:0:
320,192,175158,1,0,0:0:0:0:
448,192,175158,1,0,0:0:0:0:
448,192,175224,1,0,0:0:0:0:
320,192,175224,1,0,0:0:0:0:
64,192,175224,1,0,0:0:0:0:
192,192,175224,1,0,0:0:0:0:
64,192,175290,1,0,0:0:0:0:
192,192,175290,1,0,0:0:0:0:
192,192,175358,1,0,0:0:0:0:
320,192,175358,1,0,0:0:0:0:
448,192,175358,1,0,0:0:0:0:
64,192,175424,1,0,0:0:0:0:
448,192,175424,1,0,0:0:0:0:
64,192,175490,1,0,0:0:0:0:
192,192,175490,1,0,0:0:0:0:
320,192,175490,1,0,0:0:0:0:
448,192,175490,1,0,0:0:0:0:
320,192,175558,1,0,0:0:0:0:
192,192,175558,1,0,0:0:0:0:
64,192,175624,1,0,0:0:0:0:
192,192,175624,1,0,0:0:0:0:
448,192,175624,1,0,0:0:0:0:
320,192,175690,1,0,0:0:0:0:
448,192,175690,1,0,0:0:0:0:
64,192,175758,1,0,0:0:0:0:
192,192,175758,1,0,0:0:0:0:
320,192,175758,1,0,0:0:0:0:
448,192,175758,1,0,0:0:0:0:
192,192,175824,1,0,0:0:0:0:
64,192,175824,1,0,0:0:0:0:
64,192,175891,1,0,0:0:0:0:
320,192,175891,1,0,0:0:0:0:
448,192,175891,1,0,0:0:0:0:
192,192,175958,1,0,0:0:0:0:
320,192,175958,1,0,0:0:0:0:
64,192,176024,1,0,0:0:0:0:
192,192,176024,1,0,0:0:0:0:
320,192,176024,1,0,0:0:0:0:
448,192,176024,1,0,0:0:0:0:
64,192,176091,1,0,0:0:0:0:
448,192,176091,1,0,0:0:0:0:
320,192,176158,1,0,0:0:0:0:
192,192,176158,1,0,0:0:0:0:
64,192,176158,1,0,0:0:0:0:
320,192,176224,1,0,0:0:0:0:
448,192,176224,1,0,0:0:0:0:
64,192,176291,1,0,0:0:0:0:
192,192,176291,1,0,0:0:0:0:
320,192,176291,1,0,0:0:0:0:
448,192,176291,1,0,0:0:0:0:
192,192,176358,1,0,0:0:0:0:
64,192,176358,1,0,0:0:0:0:
64,192,176424,1,0,0:0:0:0:
448,192,176424,1,0,0:0:0:0:
320,192,176424,1,0,0:0:0:0:
448,192,176491,1,0,0:0:0:0:
192,192,176491,1,0,0:0:0:0:
64,192,176558,1,0,0:0:0:0:
192,192,176558,1,0,0:0:0:0:
448,192,176558,1,0,0:0:0:0:
320,192,176558,1,0,0:0:0:0:
320,192,176624,1,0,0:0:0:0:
64,192,176624,1,0,0:0:0:0:
192,192,176691,1,0,0:0:0:0:
320,192,176691,1,0,0:0:0:0:
448,192,176691,1,0,0:0:0:0:
192,192,176758,1,0,0:0:0:0:
64,192,176758,1,0,0:0:0:0:
448,192,176824,1,0,0:0:0:0:
320,192,176824,1,0,0:0:0:0:
192,192,176824,1,0,0:0:0:0:
64,192,176824,1,0,0:0:0:0:
320,192,176891,1,0,0:0:0:0:
448,192,176891,1,0,0:0:0:0:
192,192,176958,1,0,0:0:0:0:
64,192,176958,1,0,0:0:0:0:
448,192,176958,1,0,0:0:0:0:
320,192,177024,1,0,0:0:0:0:
64,192,177024,1,0,0:0:0:0:
64,192,177091,1,0,0:0:0:0:
192,192,177091,1,0,0:0:0:0:
448,192,177091,1,0,0:0:0:0:
320,192,177158,1,0,0:0:0:0:
448,192,177225,1,0,0:0:0:0:
64,192,177291,1,0,0:0:0:0:
192,192,177358,1,0,0:0:0:0:
448,192,177425,1,0,0:0:0:0:
64,192,177491,1,0,0:0:0:0:
320,192,177558,1,0,0:0:0:0:
192,192,177625,1,0,0:0:0:0:
64,192,177691,1,0,0:0:0:0:
448,192,177758,1,0,0:0:0:0:
320,192,177825,1,0,0:0:0:0:
192,192,177891,1,0,0:0:0:0:
64,192,177958,1,0,0:0:0:0:
192,192,178025,1,0,0:0:0:0:
320,192,178091,1,0,0:0:0:0:
448,192,178158,1,0,0:0:0:0:
64,192,178158,1,0,0:0:0:0:
192,192,178158,1,0,0:0:0:0:
320,192,178225,1,0,0:0:0:0:
192,192,178291,1,0,0:0:0:0:
64,192,178291,1,0,0:0:0:0:
448,192,178358,1,0,0:0:0:0:
320,192,178425,1,0,0:0:0:0:
64,192,178425,1,0,0:0:0:0:
192,192,178425,1,0,0:0:0:0:
448,192,178491,1,0,0:0:0:0:
64,192,178559,1,0,0:0:0:0:
320,192,178559,1,0,0:0:0:0:
192,192,178625,1,0,0:0:0:0:
320,192,178691,1,0,0:0:0:0:
448,192,178691,1,0,0:0:0:0:
64,192,178759,1,0,0:0:0:0:
448,192,178825,1,0,0:0:0:0:
320,192,178859,1,0,0:0:0:0:
64,192,178891,1,0,0:0:0:0:
192,192,178925,1,0,0:0:0:0:
320,192,178959,1,0,0:0:0:0:
448,192,178959,1,0,0:0:0:0:
448,192,179025,1,0,0:0:0:0:
64,192,179025,1,0,0:0:0:0:
64,192,179091,1,0,0:0:0:0:
192,192,179125,1,0,0:0:0:0:
448,192,179159,1,0,0:0:0:0:
320,192,179159,1,0,0:0:0:0:
64,192,179225,1,0,0:0:0:0:
192,192,179225,1,0,0:0:0:0:
448,192,179225,1,0,0:0:0:0:
320,192,179225,1,0,0:0:0:0:
192,192,179291,1,0,0:0:0:0:
448,192,179291,1,0,0:0:0:0:
64,192,179359,1,0,0:0:0:0:
448,192,179359,1,0,0:0:0:0:
320,192,179359,1,0,0:0:0:0:
192,192,179425,1,0,0:0:0:0:
448,192,179425,1,0,0:0:0:0:
320,192,179491,1,0,0:0:0:0:
448,192,179491,1,0,0:0:0:0:
192,192,179491,1,0,0:0:0:0:
64,192,179491,1,0,0:0:0:0:
64,192,179559,1,0,0:0:0:0:
320,192,179559,1,0,0:0:0:0:
192,192,179625,1,0,0:0:0:0:
64,192,179625,1,0,0:0:0:0:
448,192,179625,1,0,0:0:0:0:
320,192,179691,1,0,0:0:0:0:
448,192,179691,1,0,0:0:0:0:
448,192,179759,1,0,0:0:0:0:
320,192,179759,1,0,0:0:0:0:
192,192,179759,1,0,0:0:0:0:
64,192,179759,1,0,0:0:0:0:
64,192,179825,1,0,0:0:0:0:
192,192,179825,1,0,0:0:0:0:
448,192,179892,1,0,0:0:0:0:
320,192,179892,1,0,0:0:0:0:
64,192,179892,1,0,0:0:0:0:
192,192,179959,1,0,0:0:0:0:
448,192,179959,1,0,0:0:0:0:
448,192,180025,1,0,0:0:0:0:
320,192,180025,1,0,0:0:0:0:
192,192,180025,1,0,0:0:0:0:
64,192,180025,1,0,0:0:0:0:
64,192,180092,1,0,0:0:0:0:
320,192,180092,1,0,0:0:0:0:
192,192,180159,1,0,0:0:0:0:
64,192,180159,1,0,0:0:0:0:
448,192,180159,1,0,0:0:0:0:
320,192,180225,1,0,0:0:0:0:
192,192,180225,1,0,0:0:0:0:
64,192,180292,1,0,0:0:0:0:
320,192,180292,1,0,0:0:0:0:
448,192,180292,1,0,0:0:0:0:
192,192,180292,1,0,0:0:0:0:
64,192,180359,1,0,0:0:0:0:
448,192,180359,1,0,0:0:0:0:
320,192,180425,1,0,0:0:0:0:
64,192,180425,1,0,0:0:0:0:
192,192,180425,1,0,0:0:0:0:
448,192,180492,1,0,0:0:0:0:
320,192,180492,1,0,0:0:0:0:
64,192,180559,1,0,0:0:0:0:
192,192,180559,1,0,0:0:0:0:
320,192,180559,1,0,0:0:0:0:
448,192,180559,1,0,0:0:0:0:
192,192,180625,1,0,0:0:0:0:
64,192,180625,1,0,0:0:0:0:
64,192,180692,1,0,0:0:0:0:
192,192,180692,1,0,0:0:0:0:
448,192,180692,1,0,0:0:0:0:
192,192,180759,1,0,0:0:0:0:
448,192,180759,1,0,0:0:0:0:
64,192,180825,1,0,0:0:0:0:
192,192,180825,1,0,0:0:0:0:
320,192,180825,1,0,0:0:0:0:
448,192,180825,1,0,0:0:0:0:
320,192,180892,1,0,0:0:0:0:
64,192,180892,1,0,0:0:0:0:
192,192,180959,1,0,0:0:0:0:
320,192,180959,1,0,0:0:0:0:
448,192,180959,1,0,0:0:0:0:
64,192,181025,1,0,0:0:0:0:
448,192,181025,1,0,0:0:0:0:
64,192,181092,1,0,0:0:0:0:
192,192,181092,1,0,0:0:0:0:
320,192,181092,1,0,0:0:0:0:
448,192,181092,1,0,0:0:0:0:
320,192,181159,1,0,0:0:0:0:
192,192,181159,1,0,0:0:0:0:
64,192,181226,1,0,0:0:0:0:
320,192,181226,1,0,0:0:0:0:
448,192,181226,1,0,0:0:0:0:
192,192,181292,1,0,0:0:0:0:
64,192,181292,1,0,0:0:0:0:
64,192,181359,1,0,0:0:0:0:
320,192,181359,1,0,0:0:0:0:
192,192,181359,1,0,0:0:0:0:
448,192,181359,1,0,0:0:0:0:
320,192,181426,1,0,0:0:0:0:
448,192,181426,1,0,0:0:0:0:
64,192,181492,1,0,0:0:0:0:
192,192,181492,1,0,0:0:0:0:
448,192,181492,1,0,0:0:0:0:
320,192,181559,1,0,0:0:0:0:
192,192,181559,1,0,0:0:0:0:
64,192,181626,1,0,0:0:0:0:
192,192,181626,1,0,0:0:0:0:
448,192,181626,1,0,0:0:0:0:
320,192,181626,1,0,0:0:0:0:
192,192,181692,1,0,0:0:0:0:
448,192,181692,1,0,0:0:0:0:
192,192,181759,1,0,0:0:0:0:
320,192,181759,1,0,0:0:0:0:
448,192,181759,1,0,0:0:0:0:
64,192,181826,1,0,0:0:0:0:
320,192,181826,1,0,0:0:0:0:
64,192,181892,1,0,0:0:0:0:
192,192,181892,1,0,0:0:0:0:
320,192,181892,1,0,0:0:0:0:
448,192,181892,1,0,0:0:0:0:
320,192,181959,1,0,0:0:0:0:
448,192,181959,1,0,0:0:0:0:
64,192,182026,1,0,0:0:0:0:
192,192,182026,1,0,0:0:0:0:
448,192,182026,1,0,0:0:0:0:
320,192,182092,1,0,0:0:0:0:
64,192,182092,1,0,0:0:0:0:
64,192,182159,1,0,0:0:0:0:
192,192,182159,1,0,0:0:0:0:
320,192,182159,1,0,0:0:0:0:
448,192,182159,1,0,0:0:0:0:
192,192,182226,1,0,0:0:0:0:
320,192,182226,1,0,0:0:0:0:
320,192,182292,1,0,0:0:0:0:
192,192,182292,1,0,0:0:0:0:
64,192,182292,1,0,0:0:0:0:
448,192,182359,1,0,0:0:0:0:
64,192,182359,1,0,0:0:0:0:
192,192,182426,1,0,0:0:0:0:
320,192,182426,1,0,0:0:0:0:
64,192,182426,1,0,0:0:0:0:
448,192,182426,1,0,0:0:0:0:
192,192,182492,1,0,0:0:0:0:
320,192,182492,1,0,0:0:0:0:
448,192,182560,1,0,0:0:0:0:
320,192,182560,1,0,0:0:0:0:
64,192,182560,1,0,0:0:0:0:
192,192,182626,1,0,0:0:0:0:
448,192,182626,1,0,0:0:0:0:
64,192,182692,1,0,0:0:0:0:
192,192,182692,1,0,0:0:0:0:
320,192,182692,1,0,0:0:0:0:
448,192,182692,1,0,0:0:0:0:
320,192,182760,1,0,0:0:0:0:
64,192,182760,1,0,0:0:0:0:
192,192,182826,1,0,0:0:0:0:
64,192,182826,1,0,0:0:0:0:
448,192,182826,1,0,0:0:0:0:
448,192,182892,1,0,0:0:0:0:
64,192,182892,1,0,0:0:0:0:
448,192,182960,1,0,0:0:0:0:
320,192,182960,1,0,0:0:0:0:
64,192,182960,1,0,0:0:0:0:
192,192,182960,1,0,0:0:0:0:
320,192,183026,1,0,0:0:0:0:
64,192,183026,1,0,0:0:0:0:
192,192,183092,1,0,0:0:0:0:
448,192,183092,1,0,0:0:0:0:
64,192,183092,1,0,0:0:0:0:
448,192,183160,1,0,0:0:0:0:
320,192,183160,1,0,0:0:0:0:
64,192,183226,1,0,0:0:0:0:
192,192,183226,1,0,0:0:0:0:
320,192,183226,1,0,0:0:0:0:
448,192,183226,1,0,0:0:0:0:
192,192,183292,1,0,0:0:0:0:
64,192,183292,1,0,0:0:0:0:
448,192,183360,1,0,0:0:0:0:
320,192,183360,1,0,0:0:0:0:
192,192,183360,1,0,0:0:0:0:
64,192,183360,1,0,0:0:0:0:
448,192,183426,1,0,0:0:0:0:
320,192,183426,1,0,0:0:0:0:
192,192,183492,1,0,0:0:0:0:
320,192,183492,1,0,0:0:0:0:
448,192,183492,1,0,0:0:0:0:
64,192,183492,1,0,0:0:0:0:
64,192,183560,1,0,0:0:0:0:
192,192,183560,1,0,0:0:0:0:
320,192,183626,1,0,0:0:0:0:
448,192,183626,1,0,0:0:0:0:
64,192,183626,1,0,0:0:0:0:
192,192,183692,1,0,0:0:0:0:
320,192,183692,1,0,0:0:0:0:
64,192,183760,1,0,0:0:0:0:
192,192,183760,1,0,0:0:0:0:
448,192,183760,1,0,0:0:0:0:
320,192,183760,1,0,0:0:0:0:
64,192,183826,1,0,0:0:0:0:
448,192,183826,1,0,0:0:0:0:
320,192,183893,1,0,0:0:0:0:
192,192,183893,1,0,0:0:0:0:
64,192,183893,1,0,0:0:0:0:
192,192,183960,1,0,0:0:0:0:
448,192,183960,1,0,0:0:0:0:
64,192,184026,1,0,0:0:0:0:
192,192,184026,1,0,0:0:0:0:
320,192,184026,1,0,0:0:0:0:
448,192,184026,1,0,0:0:0:0:
320,192,184093,1,0,0:0:0:0:
448,192,184093,1,0,0:0:0:0:
192,192,184160,1,0,0:0:0:0:
64,192,184160,1,0,0:0:0:0:
448,192,184160,1,0,0:0:0:0:
64,192,184226,1,0,0:0:0:0:
448,192,184226,1,0,0:0:0:0:
64,192,184293,1,0,0:0:0:0:
320,192,184293,1,0,0:0:0:0:
448,192,184293,1,0,0:0:0:0:
192,192,184293,1,0,0:0:0:0:
192,192,184360,1,0,0:0:0:0:
320,192,184360,1,0,0:0:0:0:
64,192,184426,1,0,0:0:0:0:
320,192,184426,1,0,0:0:0:0:
448,192,184426,1,0,0:0:0:0:
64,192,184493,1,0,0:0:0:0:
192,192,184493,1,0,0:0:0:0:
64,192,184560,1,0,0:0:0:0:
192,192,184560,1,0,0:0:0:0:
320,192,184560,1,0,0:0:0:0:
448,192,184560,1,0,0:0:0:0:
448,192,184626,1,0,0:0:0:0:
320,192,184626,1,0,0:0:0:0:
64,192,184693,1,0,0:0:0:0:
192,192,184693,1,0,0:0:0:0:
448,192,184693,1,0,0:0:0:0:
320,192,184760,1,0,0:0:0:0:
192,192,184760,1,0,0:0:0:0:
64,192,184826,1,0,0:0:0:0:
192,192,184826,1,0,0:0:0:0:
320,192,184826,1,0,0:0:0:0:
448,192,184826,1,0,0:0:0:0:
320,192,184893,1,0,0:0:0:0:
64,192,184893,1,0,0:0:0:0:
192,192,184960,1,0,0:0:0:0:
448,192,184960,1,0,0:0:0:0:
64,192,184960,1,0,0:0:0:0:
320,192,185026,1,0,0:0:0:0:
448,192,185026,1,0,0:0:0:0:
448,192,185093,1,0,0:0:0:0:
320,192,185093,1,0,0:0:0:0:
192,192,185093,1,0,0:0:0:0:
64,192,185093,1,0,0:0:0:0:
192,192,185160,1,0,0:0:0:0:
64,192,185160,1,0,0:0:0:0:
64,192,185227,1,0,0:0:0:0:
320,192,185227,1,0,0:0:0:0:
448,192,185227,1,0,0:0:0:0:
192,192,185293,1,0,0:0:0:0:
448,192,185293,1,0,0:0:0:0:
64,192,185360,1,0,0:0:0:0:
192,192,185360,1,0,0:0:0:0:
448,192,185360,1,0,0:0:0:0:
320,192,185360,1,0,0:0:0:0:
320,192,185427,1,0,0:0:0:0:
64,192,185427,1,0,0:0:0:0:
192,192,185493,1,0,0:0:0:0:
64,192,185493,1,0,0:0:0:0:
448,192,185493,1,0,0:0:0:0:
320,192,185560,1,0,0:0:0:0:
448,192,185560,1,0,0:0:0:0:
320,192,185627,1,0,0:0:0:0:
64,192,185627,1,0,0:0:0:0:
192,192,185627,1,0,0:0:0:0:
448,192,185627,1,0,0:0:0:0:
192,192,185693,1,0,0:0:0:0:
64,192,185693,1,0,0:0:0:0:
320,192,185760,1,0,0:0:0:0:
64,192,185760,1,0,0:0:0:0:
448,192,185760,1,0,0:0:0:0:
192,192,185827,1,0,0:0:0:0:
320,192,185827,1,0,0:0:0:0:
64,192,185893,1,0,0:0:0:0:
192,192,185893,1,0,0:0:0:0:
448,192,185893,1,0,0:0:0:0:
320,192,185893,1,0,0:0:0:0:
64,192,185960,1,0,0:0:0:0:
320,192,185960,1,0,0:0:0:0:
320,192,186027,1,0,0:0:0:0:
64,192,186027,1,0,0:0:0:0:
448,192,186027,1,0,0:0:0:0:
320,192,186093,1,0,0:0:0:0:
448,192,186093,1,0,0:0:0:0:
320,192,186160,1,0,0:0:0:0:
64,192,186160,1,0,0:0:0:0:
192,192,186160,1,0,0:0:0:0:
448,192,186160,1,0,0:0:0:0:
192,192,186227,1,0,0:0:0:0:
64,192,186227,1,0,0:0:0:0:
192,192,186293,1,0,0:0:0:0:
448,192,186293,1,0,0:0:0:0:
320,192,186293,1,0,0:0:0:0:
64,192,186360,1,0,0:0:0:0:
448,192,186360,1,0,0:0:0:0:
192,192,186427,1,0,0:0:0:0:
64,192,186427,1,0,0:0:0:0:
320,192,186427,1,0,0:0:0:0:
448,192,186427,1,0,0:0:0:0:
320,192,186493,1,0,0:0:0:0:
192,192,186493,1,0,0:0:0:0:
320,192,186560,1,0,0:0:0:0:
64,192,186560,1,0,0:0:0:0:
448,192,186560,1,0,0:0:0:0:
192,192,186627,1,0,0:0:0:0:
64,192,186627,1,0,0:0:0:0:
64,192,186693,1,0,0:0:0:0:
192,192,186693,1,0,0:0:0:0:
320,192,186693,1,0,0:0:0:0:
448,192,186693,1,0,0:0:0:0:
320,192,186760,1,0,0:0:0:0:
448,192,186760,1,0,0:0:0:0:
192,192,186827,1,0,0:0:0:0:
64,192,186827,1,0,0:0:0:0:
448,192,186827,1,0,0:0:0:0:
320,192,186893,1,0,0:0:0:0:
192,192,186893,1,0,0:0:0:0:
448,192,186960,1,0,0:0:0:0:
320,192,186960,1,0,0:0:0:0:
192,192,186960,1,0,0:0:0:0:
64,192,186960,1,0,0:0:0:0:
64,192,187027,1,0,0:0:0:0:
448,192,187027,1,0,0:0:0:0:
192,192,187093,1,0,0:0:0:0:
64,192,187093,1,0,0:0:0:0:
320,192,187093,1,0,0:0:0:0:
320,192,187160,1,0,0:0:0:0:
448,192,187160,1,0,0:0:0:0:
448,192,187227,1,0,0:0:0:0:
320,192,187227,1,0,0:0:0:0:
192,192,187227,1,0,0:0:0:0:
64,192,187227,1,0,0:0:0:0:
64,192,187293,1,0,0:0:0:0:
192,192,187293,1,0,0:0:0:0:
448,192,187360,1,0,0:0:0:0:
320,192,187393,1,0,0:0:0:0:
64,192,187427,1,0,0:0:0:0:
192,192,187460,1,0,0:0:0:0:
320,192,187493,1,0,0:0:0:0:
448,192,187493,1,0,0:0:0:0:
192,192,187560,1,0,0:0:0:0:
64,192,187560,1,0,0:0:0:0:
448,192,187627,1,0,0:0:0:0:
320,192,187660,1,0,0:0:0:0:
192,192,187693,1,0,0:0:0:0:
64,192,187693,1,0,0:0:0:0:
64,192,187760,1,0,0:0:0:0:
192,192,187760,1,0,0:0:0:0:
320,192,187760,1,0,0:0:0:0:
448,192,187760,1,0,0:0:0:0:
320,192,187827,1,0,0:0:0:0:
448,192,187827,1,0,0:0:0:0:
64,192,187893,1,0,0:0:0:0:
192,192,187893,1,0,0:0:0:0:
448,192,187893,1,0,0:0:0:0:
320,192,187960,1,0,0:0:0:0:
192,192,187960,1,0,0:0:0:0:
64,192,188027,1,0,0:0:0:0:
192,192,188027,1,0,0:0:0:0:
320,192,188027,1,0,0:0:0:0:
448,192,188027,1,0,0:0:0:0:
64,192,188094,1,0,0:0:0:0:
448,192,188094,1,0,0:0:0:0:
320,192,188160,1,0,0:0:0:0:
192,192,188160,1,0,0:0:0:0:
448,192,188160,1,0,0:0:0:0:
64,192,188227,1,0,0:0:0:0:
320,192,188227,1,0,0:0:0:0:
64,192,188294,1,0,0:0:0:0:
192,192,188294,1,0,0:0:0:0:
320,192,188294,1,0,0:0:0:0:
448,192,188294,1,0,0:0:0:0:
192,192,188360,1,0,0:0:0:0:
448,192,188360,1,0,0:0:0:0:
320,192,188427,1,0,0:0:0:0:
448,192,188427,1,0,0:0:0:0:
64,192,188427,1,0,0:0:0:0:
192,192,188494,1,0,0:0:0:0:
64,192,188494,1,0,0:0:0:0:
64,192,188560,1,0,0:0:0:0:
192,192,188560,1,0,0:0:0:0:
320,192,188560,1,0,0:0:0:0:
448,192,188560,1,0,0:0:0:0:
192,192,188627,1,0,0:0:0:0:
448,192,188627,1,0,0:0:0:0:
192,192,188694,1,0,0:0:0:0:
64,192,188694,1,0,0:0:0:0:
320,192,188694,1,0,0:0:0:0:
64,192,188760,1,0,0:0:0:0:
448,192,188760,1,0,0:0:0:0:
64,192,188827,1,0,0:0:0:0:
192,192,188827,1,0,0:0:0:0:
320,192,188827,1,0,0:0:0:0:
448,192,188827,1,0,0:0:0:0:
192,192,188894,1,0,0:0:0:0:
320,192,188894,1,0,0:0:0:0:
64,192,188960,1,0,0:0:0:0:
320,192,188960,1,0,0:0:0:0:
448,192,188960,1,0,0:0:0:0:
448,192,189027,1,0,0:0:0:0:
192,192,189027,1,0,0:0:0:0:
64,192,189094,1,0,0:0:0:0:
320,192,189094,1,0,0:0:0:0:
448,192,189094,1,0,0:0:0:0:
192,192,189094,1,0,0:0:0:0:
320,192,189160,1,0,0:0:0:0:
448,192,189160,1,0,0:0:0:0:
448,192,189227,1,0,0:0:0:0:
64,192,189227,1,0,0:0:0:0:
192,192,189227,1,0,0:0:0:0:
192,192,189294,1,0,0:0:0:0:
320,192,189294,1,0,0:0:0:0:
64,192,189360,1,0,0:0:0:0:
192,192,189360,1,0,0:0:0:0:
448,192,189360,1,0,0:0:0:0:
320,192,189360,1,0,0:0:0:0:
64,192,189428,1,0,0:0:0:0:
448,192,189428,1,0,0:0:0:0:
448,192,189494,1,0,0:0:0:0:
320,192,189494,1,0,0:0:0:0:
192,192,189494,1,0,0:0:0:0:
64,192,189560,1,0,0:0:0:0:
320,192,189560,1,0,0:0:0:0:
64,192,189628,1,0,0:0:0:0:
192,192,189628,1,0,0:0:0:0:
448,192,189628,1,0,0:0:0:0:
320,192,189628,1,0,0:0:0:0:
192,192,189694,1,0,0:0:0:0:
448,192,189694,1,0,0:0:0:0:
192,192,189760,1,0,0:0:0:0:
64,192,189760,1,0,0:0:0:0:
320,192,189760,1,0,0:0:0:0:
448,192,189828,1,0,0:0:0:0:
320,192,189828,1,0,0:0:0:0:
64,192,189894,1,0,0:0:0:0:
192,192,189894,1,0,0:0:0:0:
320,192,189894,1,0,0:0:0:0:
448,192,189894,1,0,0:0:0:0:
192,192,189960,1,0,0:0:0:0:
64,192,189960,1,0,0:0:0:0:
448,192,190028,1,0,0:0:0:0:
320,192,190028,1,0,0:0:0:0:
64,192,190028,1,0,0:0:0:0:
192,192,190094,1,0,0:0:0:0:
320,192,190094,1,0,0:0:0:0:
64,192,190160,1,0,0:0:0:0:
192,192,190160,1,0,0:0:0:0:
320,192,190160,1,0,0:0:0:0:
448,192,190160,1,0,0:0:0:0:
64,192,190228,1,0,0:0:0:0:
448,192,190228,1,0,0:0:0:0:
448,192,190294,1,0,0:0:0:0:
192,192,190294,1,0,0:0:0:0:
320,192,190294,1,0,0:0:0:0:
192,192,190360,1,0,0:0:0:0:
64,192,190360,1,0,0:0:0:0:
320,192,190428,1,0,0:0:0:0:
448,192,190428,1,0,0:0:0:0:
64,192,190428,1,0,0:0:0:0:
192,192,190428,1,0,0:0:0:0:
192,192,190494,1,0,0:0:0:0:
448,192,190494,1,0,0:0:0:0:
64,192,190560,1,0,0:0:0:0:
192,192,190560,1,0,0:0:0:0:
320,192,190560,1,0,0:0:0:0:
448,192,190628,1,0,0:0:0:0:
64,192,190628,1,0,0:0:0:0:
64,192,190694,1,0,0:0:0:0:
192,192,190694,1,0,0:0:0:0:
320,192,190694,1,0,0:0:0:0:
448,192,190694,1,0,0:0:0:0:
192,192,190761,1,0,0:0:0:0:
320,192,190761,1,0,0:0:0:0:
320,192,190828,1,0,0:0:0:0:
448,192,190828,1,0,0:0:0:0:
64,192,190828,1,0,0:0:0:0:
192,192,190894,1,0,0:0:0:0:
64,192,190894,1,0,0:0:0:0:
64,192,190961,1,0,0:0:0:0:
192,192,190961,1,0,0:0:0:0:
320,192,190961,1,0,0:0:0:0:
448,192,190961,1,0,0:0:0:0:
320,192,191028,1,0,0:0:0:0:
448,192,191028,1,0,0:0:0:0:
192,192,191094,1,0,0:0:0:0:
64,192,191094,1,0,0:0:0:0:
448,192,191094,1,0,0:0:0:0:
320,192,191161,1,0,0:0:0:0:
192,192,191161,1,0,0:0:0:0:
448,192,191228,1,0,0:0:0:0:
320,192,191228,1,0,0:0:0:0:
64,192,191228,1,0,0:0:0:0:
192,192,191228,1,0,0:0:0:0:
64,192,191294,1,0,0:0:0:0:
448,192,191294,1,0,0:0:0:0:
192,192,191361,1,0,0:0:0:0:
320,192,191361,1,0,0:0:0:0:
448,192,191361,1,0,0:0:0:0:
64,192,191428,1,0,0:0:0:0:
320,192,191428,1,0,0:0:0:0:
64,192,191494,1,0,0:0:0:0:
320,192,191494,1,0,0:0:0:0:
448,192,191494,1,0,0:0:0:0:
192,192,191494,1,0,0:0:0:0:
192,192,191561,1,0,0:0:0:0:
448,192,191561,1,0,0:0:0:0:
64,192,191628,1,0,0:0:0:0:
192,192,191628,1,0,0:0:0:0:
320,192,191628,1,0,0:0:0:0:
64,192,191694,1,0,0:0:0:0:
448,192,191694,1,0,0:0:0:0:
64,192,191761,1,0,0:0:0:0:
320,192,191761,1,0,0:0:0:0:
192,192,191761,1,0,0:0:0:0:
448,192,191761,1,0,0:0:0:0:
64,192,191828,1,0,0:0:0:0:
192,192,191828,1,0,0:0:0:0:
320,192,191894,1,0,0:0:0:0:
192,192,191894,1,0,0:0:0:0:
448,192,191894,1,0,0:0:0:0:
64,192,191961,1,0,0:0:0:0:
448,192,191961,1,0,0:0:0:0:
448,192,192028,1,0,0:0:0:0:
192,192,192028,1,0,0:0:0:0:
64,192,192028,1,0,0:0:0:0:
320,192,192028,1,0,0:0:0:0:
192,192,192095,1,0,0:0:0:0:
320,192,192095,1,0,0:0:0:0:
448,192,192161,1,0,0:0:0:0:
320,192,192161,1,0,0:0:0:0:
64,192,192161,1,0,0:0:0:0:
64,192,192228,1,0,0:0:0:0:
192,192,192228,1,0,0:0:0:0:
64,192,192295,1,0,0:0:0:0:
192,192,192295,1,0,0:0:0:0:
320,192,192295,1,0,0:0:0:0:
448,192,192295,1,0,0:0:0:0:
320,192,192361,1,0,0:0:0:0:
448,192,192361,1,0,0:0:0:0:
192,192,192428,1,0,0:0:0:0:
64,192,192428,1,0,0:0:0:0:
320,192,192428,1,0,0:0:0:0:
64,192,192495,1,0,0:0:0:0:
448,192,192495,1,0,0:0:0:0:
64,192,192561,1,0,0:0:0:0:
192,192,192561,1,0,0:0:0:0:
448,192,192561,1,0,0:0:0:0:
320,192,192561,1,0,0:0:0:0:
192,192,192628,1,0,0:0:0:0:
320,192,192628,1,0,0:0:0:0:
64,192,192695,1,0,0:0:0:0:
320,192,192695,1,0,0:0:0:0:
448,192,192695,1,0,0:0:0:0:
192,192,192761,1,0,0:0:0:0:
448,192,192761,1,0,0:0:0:0:
64,192,192828,1,0,0:0:0:0:
192,192,192828,1,0,0:0:0:0:
320,192,192828,1,0,0:0:0:0:
448,192,192828,1,0,0:0:0:0:
320,192,192895,1,0,0:0:0:0:
64,192,192895,1,0,0:0:0:0:
320,192,192961,1,0,0:0:0:0:
64,192,192961,1,0,0:0:0:0:
448,192,192961,1,0,0:0:0:0:
192,192,193028,1,0,0:0:0:0:
448,192,193028,1,0,0:0:0:0:
64,192,193095,1,0,0:0:0:0:
192,192,193095,1,0,0:0:0:0:
320,192,193095,1,0,0:0:0:0:
448,192,193095,1,0,0:0:0:0:
192,192,193161,1,0,0:0:0:0:
64,192,193161,1,0,0:0:0:0:
448,192,193228,1,0,0:0:0:0:
192,192,193228,1,0,0:0:0:0:
320,192,193228,1,0,0:0:0:0:
64,192,193295,1,0,0:0:0:0:
320,192,193295,1,0,0:0:0:0:
192,192,193361,1,0,0:0:0:0:
448,192,193361,1,0,0:0:0:0:
320,192,193361,1,0,0:0:0:0:
64,192,193361,1,0,0:0:0:0:
192,192,193429,1,0,0:0:0:0:
448,192,193429,1,0,0:0:0:0:
320,192,193495,1,0,0:0:0:0:
192,192,193495,1,0,0:0:0:0:
64,192,193495,1,0,0:0:0:0:
64,192,193561,1,0,0:0:0:0:
448,192,193561,1,0,0:0:0:0:
192,192,193629,1,0,0:0:0:0:
320,192,193629,1,0,0:0:0:0:
64,192,193629,1,0,0:0:0:0:
448,192,193629,1,0,0:0:0:0:
192,192,193695,1,0,0:0:0:0:
320,192,193695,1,0,0:0:0:0:
64,192,193761,1,0,0:0:0:0:
320,192,193761,1,0,0:0:0:0:
448,192,193761,1,0,0:0:0:0:
320,192,193829,1,0,0:0:0:0:
448,192,193829,1,0,0:0:0:0:
64,192,193895,1,0,0:0:0:0:
192,192,193895,1,0,0:0:0:0:
448,192,193895,1,0,0:0:0:0:
320,192,193895,1,0,0:0:0:0:
192,192,193961,1,0,0:0:0:0:
64,192,193961,1,0,0:0:0:0:
64,192,194029,1,0,0:0:0:0:
320,192,194029,1,0,0:0:0:0:
448,192,194029,1,0,0:0:0:0:
192,192,194095,1,0,0:0:0:0:
320,192,194095,1,0,0:0:0:0:
64,192,194161,1,0,0:0:0:0:
192,192,194161,1,0,0:0:0:0:
320,192,194161,1,0,0:0:0:0:
448,192,194161,1,0,0:0:0:0:
64,192,194229,1,0,0:0:0:0:
192,192,194295,1,0,0:0:0:0:
320,192,194361,1,0,0:0:0:0:
448,192,194429,1,0,0:0:0:0:
64,192,194429,1,0,0:0:0:0:
192,192,194495,1,0,0:0:0:0:
448,192,194561,1,0,0:0:0:0:
320,192,194629,1,0,0:0:0:0:
192,192,194695,1,0,0:0:0:0:
64,192,194695,1,0,0:0:0:0:
448,192,194762,1,0,0:0:0:0:
320,192,194829,1,0,0:0:0:0:
192,192,194895,1,0,0:0:0:0:
64,192,194962,1,0,0:0:0:0:
320,192,194962,1,0,0:0:0:0:
448,192,195029,1,0,0:0:0:0:
64,192,195095,1,0,0:0:0:0:
192,192,195162,1,0,0:0:0:0:
448,192,195229,1,0,0:0:0:0:
64,192,195229,1,0,0:0:0:0:
320,192,195229,1,0,0:0:0:0:
192,192,195295,1,0,0:0:0:0:
448,192,195295,1,0,0:0:0:0:
64,192,195362,1,0,0:0:0:0:
192,192,195362,1,0,0:0:0:0:
448,192,195429,1,0,0:0:0:0:
64,192,195429,1,0,0:0:0:0:
192,192,195495,1,0,0:0:0:0:
320,192,195495,1,0,0:0:0:0:
448,192,195495,1,0,0:0:0:0:
192,192,195562,1,0,0:0:0:0:
320,192,195562,1,0,0:0:0:0:
64,192,195629,1,0,0:0:0:0:
448,192,195629,1,0,0:0:0:0:
192,192,195695,1,0,0:0:0:0:
64,192,195695,1,0,0:0:0:0:
320,192,195762,1,0,0:0:0:0:
448,192,195762,1,0,0:0:0:0:
64,192,195762,1,0,0:0:0:0:
448,192,195829,1,0,0:0:0:0:
320,192,195829,1,0,0:0:0:0:
64,192,195895,1,0,0:0:0:0:
192,192,195929,1,0,0:0:0:0:
320,192,195962,1,0,0:0:0:0:
448,192,195995,1,0,0:0:0:0:
192,192,196029,1,0,0:0:0:0:
64,192,196029,1,0,0:0:0:0:
448,192,196096,1,0,0:0:0:0:
192,192,196096,1,0,0:0:0:0:
64,192,196162,1,0,0:0:0:0:
320,192,196196,1,0,0:0:0:0:
448,192,196229,1,0,0:0:0:0:
192,192,196262,1,0,0:0:0:0:
64,192,196296,1,0,0:0:0:0:
320,192,196296,1,0,0:0:0:0:
448,192,196362,1,0,0:0:0:0:
192,192,196362,1,0,0:0:0:0:
320,192,196429,1,0,0:0:0:0:
448,192,196429,1,0,0:0:0:0:
192,192,196496,1,0,0:0:0:0:
64,192,196496,1,0,0:0:0:0:
64,192,196562,1,0,0:0:0:0:
320,192,196562,1,0,0:0:0:0:
448,192,196562,1,0,0:0:0:0:
192,192,196629,1,0,0:0:0:0:
448,192,196629,1,0,0:0:0:0:
320,192,196696,1,0,0:0:0:0:
64,192,196696,1,0,0:0:0:0:
192,192,196762,1,0,0:0:0:0:
320,192,196762,1,0,0:0:0:0:
64,192,196829,1,0,0:0:0:0:
320,192,196829,1,0,0:0:0:0:
448,192,196829,1,0,0:0:0:0:
192,192,196896,1,0,0:0:0:0:
64,192,196896,1,0,0:0:0:0:
192,192,196962,1,0,0:0:0:0:
448,192,196962,1,0,0:0:0:0:
320,192,197029,1,0,0:0:0:0:
64,192,197029,1,0,0:0:0:0:
64,192,197096,1,0,0:0:0:0:
192,192,197096,1,0,0:0:0:0:
448,192,197096,1,0,0:0:0:0:
320,192,197162,1,0,0:0:0:0:
448,192,197162,1,0,0:0:0:0:
192,192,197229,1,0,0:0:0:0:
448,192,197229,1,0,0:0:0:0:
64,192,197296,1,0,0:0:0:0:
192,192,197296,1,0,0:0:0:0:
64,192,197362,1,0,0:0:0:0:
192,192,197362,1,0,0:0:0:0:
448,192,197362,1,0,0:0:0:0:
320,192,197430,1,0,0:0:0:0:
448,192,197430,1,0,0:0:0:0:
64,192,197496,1,0,0:0:0:0:
192,192,197496,1,0,0:0:0:0:
64,192,197562,1,0,0:0:0:0:
448,192,197562,1,0,0:0:0:0:
64,192,197630,1,0,0:0:0:0:
320,192,197630,1,0,0:0:0:0:
448,192,197630,1,0,0:0:0:0:
192,192,197696,1,0,0:0:0:0:
320,192,197696,1,0,0:0:0:0:
64,192,197762,1,0,0:0:0:0:
448,192,197762,1,0,0:0:0:0:
448,192,197830,1,0,0:0:0:0:
192,192,197830,1,0,0:0:0:0:
320,192,197896,1,0,0:0:0:0:
64,192,197896,1,0,0:0:0:0:
192,192,197896,1,0,0:0:0:0:
320,192,197962,1,0,0:0:0:0:
448,192,197962,1,0,0:0:0:0:
64,192,198030,1,0,0:0:0:0:
448,192,198030,1,0,0:0:0:0:
64,192,198096,1,0,0:0:0:0:
320,192,198096,1,0,0:0:0:0:
192,192,198162,1,0,0:0:0:0:
320,192,198162,1,0,0:0:0:0:
448,192,198162,1,0,0:0:0:0:
64,192,198230,1,0,0:0:0:0:
448,192,198230,1,0,0:0:0:0:
320,192,198296,1,0,0:0:0:0:
64,192,198296,1,0,0:0:0:0:
192,192,198362,1,0,0:0:0:0:
448,192,198362,1,0,0:0:0:0:
320,192,198430,1,0,0:0:0:0:
448,192,198430,1,0,0:0:0:0:
64,192,198430,1,0,0:0:0:0:
192,192,198496,1,0,0:0:0:0:
320,192,198496,1,0,0:0:0:0:
64,192,198562,1,0,0:0:0:0:
448,192,198562,1,0,0:0:0:0:
192,192,198630,1,0,0:0:0:0:
448,192,198630,1,0,0:0:0:0:
320,192,198696,1,0,0:0:0:0:
448,192,198696,1,0,0:0:0:0:
64,192,198696,1,0,0:0:0:0:
320,192,198763,1,0,0:0:0:0:
192,192,198763,1,0,0:0:0:0:
64,192,198830,1,0,0:0:0:0:
448,192,198830,1,0,0:0:0:0:
320,192,198896,1,0,0:0:0:0:
64,192,198896,1,0,0:0:0:0:
192,192,198963,1,0,0:0:0:0:
320,192,198963,1,0,0:0:0:0:
448,192,198963,1,0,0:0:0:0:
64,192,199030,1,0,0:0:0:0:
192,192,199030,1,0,0:0:0:0:
64,192,199096,1,0,0:0:0:0:
448,192,199096,1,0,0:0:0:0:
320,192,199163,1,0,0:0:0:0:
448,192,199163,1,0,0:0:0:0:
192,192,199230,1,0,0:0:0:0:
320,192,199230,1,0,0:0:0:0:
64,192,199230,1,0,0:0:0:0:
448,192,199296,1,0,0:0:0:0:
192,192,199296,1,0,0:0:0:0:
64,192,199363,1,0,0:0:0:0:
320,192,199363,1,0,0:0:0:0:
64,192,199430,1,0,0:0:0:0:
192,192,199430,1,0,0:0:0:0:
192,192,199496,1,0,0:0:0:0:
448,192,199496,1,0,0:0:0:0:
64,192,199496,1,0,0:0:0:0:
320,192,199563,1,0,0:0:0:0:
448,192,199563,1,0,0:0:0:0:
64,192,199630,1,0,0:0:0:0:
320,192,199630,1,0,0:0:0:0:
192,192,199696,1,0,0:0:0:0:
448,192,199696,1,0,0:0:0:0:
320,192,199763,1,0,0:0:0:0:
64,192,199763,1,0,0:0:0:0:
448,192,199763,1,0,0:0:0:0:
192,192,199830,1,0,0:0:0:0:
64,192,199830,1,0,0:0:0:0:
192,192,199896,1,0,0:0:0:0:
448,192,199896,1,0,0:0:0:0:
320,192,199963,1,0,0:0:0:0:
64,192,199963,1,0,0:0:0:0:
64,192,200030,1,0,0:0:0:0:
448,192,200030,1,0,0:0:0:0:
192,192,200030,1,0,0:0:0:0:
320,192,200097,1,0,0:0:0:0:
448,192,200097,1,0,0:0:0:0:
320,192,200163,1,0,0:0:0:0:
192,192,200163,1,0,0:0:0:0:
64,192,200230,1,0,0:0:0:0:
448,192,200230,1,0,0:0:0:0:
320,192,200297,1,0,0:0:0:0:
192,192,200297,1,0,0:0:0:0:
64,192,200297,1,0,0:0:0:0:
448,192,200363,1,0,0:0:0:0:
192,192,200363,1,0,0:0:0:0:
320,192,200430,1,0,0:0:0:0:
448,192,200430,1,0,0:0:0:0:
64,192,200497,1,0,0:0:0:0:
192,192,200497,1,0,0:0:0:0:
64,192,200563,1,0,0:0:0:0:
192,192,200563,1,0,0:0:0:0:
448,192,200563,1,0,0:0:0:0:
192,192,200697,1,0,0:0:0:0:
320,192,200830,1,0,0:0:0:0:
448,192,200830,1,0,0:0:0:0:
192,192,200963,1,0,0:0:0:0:
320,192,201097,1,0,0:0:0:0:
448,192,201097,1,0,0:0:0:0:
64,192,201230,1,0,0:0:0:0:
320,192,201363,1,0,0:0:0:0:
448,192,201363,1,0,0:0:0:0:
64,192,201497,1,0,0:0:0:0:
192,192,201630,1,0,0:0:0:0:
448,192,201630,1,0,0:0:0:0:
320,192,201763,1,0,0:0:0:0:
192,192,201897,1,0,0:0:0:0:
64,192,201897,1,0,0:0:0:0:
448,192,202030,1,0,0:0:0:0:
320,192,202163,1,0,0:0:0:0:
64,192,202163,1,0,0:0:0:0:
192,192,202297,1,0,0:0:0:0:
448,192,202430,1,0,0:0:0:0:
320,192,202430,1,0,0:0:0:0:
64,192,202563,1,0,0:0:0:0:
192,192,202697,1,0,0:0:0:0:
448,192,202697,1,0,0:0:0:0:
320,192,202830,1,0,0:0:0:0:
192,192,202964,1,0,0:0:0:0:
64,192,202964,1,0,0:0:0:0:
448,192,203097,1,0,0:0:0:0:
320,192,203230,1,0,0:0:0:0:
192,192,203230,1,0,0:0:0:0:
64,192,203364,1,0,0:0:0:0:
320,192,203497,1,0,0:0:0:0:
448,192,203497,1,0,0:0:0:0:
192,192,203630,1,0,0:0:0:0:
64,192,203764,1,0,0:0:0:0:
320,192,203764,1,0,0:0:0:0:
192,192,203897,1,0,0:0:0:0:
448,192,204030,1,0,0:0:0:0:
64,192,204030,1,0,0:0:0:0:
320,192,204164,1,0,0:0:0:0:
192,192,204298,1,0,0:0:0:0:
64,192,204298,1,0,0:0:0:0:
448,192,204430,1,0,0:0:0:0:
320,192,204564,1,0,0:0:0:0:
192,192,204564,1,0,0:0:0:0:
64,192,204698,1,0,0:0:0:0:
64,192,204830,1,0,0:0:0:0:
192,192,204830,1,0,0:0:0:0:
320,192,204830,1,0,0:0:0:0:
448,192,204830,1,0,0:0:0:0:
320,192,204898,1,0,0:0:0:0:
448,192,204898,1,0,0:0:0:0:
64,192,204964,1,0,0:0:0:0:
192,192,204964,1,0,0:0:0:0:
448,192,204964,1,0,0:0:0:0:
320,192,205030,1,0,0:0:0:0:
64,192,205030,1,0,0:0:0:0:
192,192,205098,1,0,0:0:0:0:
64,192,205098,1,0,0:0:0:0:
320,192,205098,1,0,0:0:0:0:
448,192,205098,1,0,0:0:0:0:
192,192,205164,1,0,0:0:0:0:
448,192,205164,1,0,0:0:0:0:
448,192,205230,1,0,0:0:0:0:
320,192,205230,1,0,0:0:0:0:
64,192,205230,1,0,0:0:0:0:
192,192,205298,1,0,0:0:0:0:
320,192,205298,1,0,0:0:0:0:
64,192,205364,1,0,0:0:0:0:
320,192,205364,1,0,0:0:0:0:
448,192,205364,1,0,0:0:0:0:
192,192,205364,1,0,0:0:0:0:
192,192,205430,1,0,0:0:0:0:
448,192,205430,1,0,0:0:0:0:
320,192,205498,1,0,0:0:0:0:
448,192,205498,1,0,0:0:0:0:
64,192,205498,1,0,0:0:0:0:
192,192,205564,1,0,0:0:0:0:
64,192,205564,1,0,0:0:0:0:
64,192,205631,1,0,0:0:0:0:
192,192,205631,1,0,0:0:0:0:
320,192,205631,1,0,0:0:0:0:
448,192,205631,1,0,0:0:0:0:
192,192,205698,1,0,0:0:0:0:
448,192,205698,1,0,0:0:0:0:
320,192,205764,1,0,0:0:0:0:
192,192,205764,1,0,0:0:0:0:
64,192,205764,1,0,0:0:0:0:
64,192,205831,1,0,0:0:0:0:
448,192,205831,1,0,0:0:0:0:
64,192,205898,1,0,0:0:0:0:
192,192,205898,1,0,0:0:0:0:
320,192,205898,1,0,0:0:0:0:
448,192,205898,1,0,0:0:0:0:
192,192,205964,1,0,0:0:0:0:
320,192,205964,1,0,0:0:0:0:
64,192,206031,1,0,0:0:0:0:
448,192,206031,1,0,0:0:0:0:
320,192,206031,1,0,0:0:0:0:
192,192,206098,1,0,0:0:0:0:
64,192,206098,1,0,0:0:0:0:
64,192,206164,1,0,0:0:0:0:
192,192,206164,1,0,0:0:0:0:
320,192,206164,1,0,0:0:0:0:
448,192,206164,1,0,0:0:0:0:
320,192,206231,1,0,0:0:0:0:
448,192,206231,1,0,0:0:0:0:
64,192,206298,1,0,0:0:0:0:
448,192,206298,1,0,0:0:0:0:
192,192,206298,1,0,0:0:0:0:
320,192,206364,1,0,0:0:0:0:
64,192,206364,1,0,0:0:0:0:
64,192,206431,1,0,0:0:0:0:
192,192,206431,1,0,0:0:0:0:
320,192,206431,1,0,0:0:0:0:
448,192,206431,1,0,0:0:0:0:
64,192,206498,1,0,0:0:0:0:
192,192,206498,1,0,0:0:0:0:
64,192,206564,1,0,0:0:0:0:
448,192,206564,1,0,0:0:0:0:
320,192,206564,1,0,0:0:0:0:
320,192,206631,1,0,0:0:0:0:
448,192,206631,1,0,0:0:0:0:
64,192,206698,1,0,0:0:0:0:
192,192,206698,1,0,0:0:0:0:
320,192,206698,1,0,0:0:0:0:
448,192,206698,1,0,0:0:0:0:
448,192,206764,1,0,0:0:0:0:
64,192,206764,1,0,0:0:0:0:
448,192,206831,1,0,0:0:0:0:
192,192,206831,1,0,0:0:0:0:
320,192,206831,1,0,0:0:0:0:
320,192,206898,1,0,0:0:0:0:
64,192,206898,1,0,0:0:0:0:
64,192,206965,1,0,0:0:0:0:
192,192,206965,1,0,0:0:0:0:
448,192,206965,1,0,0:0:0:0:
320,192,206965,1,0,0:0:0:0:
192,192,207031,1,0,0:0:0:0:
64,192,207031,1,0,0:0:0:0:
64,192,207098,1,0,0:0:0:0:
448,192,207098,1,0,0:0:0:0:
192,192,207165,1,0,0:0:0:0:
320,192,207165,1,0,0:0:0:0:
320,192,207231,1,0,0:0:0:0:
448,192,207231,1,0,0:0:0:0:
192,192,207231,1,0,0:0:0:0:
64,192,207231,1,0,0:0:0:0:
64,192,207298,1,0,0:0:0:0:
448,192,207298,1,0,0:0:0:0:
320,192,207365,1,0,0:0:0:0:
448,192,207365,1,0,0:0:0:0:
192,192,207431,1,0,0:0:0:0:
320,192,207431,1,0,0:0:0:0:
64,192,207498,1,0,0:0:0:0:
192,192,207498,1,0,0:0:0:0:
320,192,207498,1,0,0:0:0:0:
448,192,207498,1,0,0:0:0:0:
192,192,207565,1,0,0:0:0:0:
64,192,207565,1,0,0:0:0:0:
448,192,207631,1,0,0:0:0:0:
320,192,207631,1,0,0:0:0:0:
192,192,207698,1,0,0:0:0:0:
448,192,207698,1,0,0:0:0:0:
320,192,207765,1,0,0:0:0:0:
192,192,207765,1,0,0:0:0:0:
64,192,207765,1,0,0:0:0:0:
448,192,207765,1,0,0:0:0:0:
320,192,207831,1,0,0:0:0:0:
64,192,207831,1,0,0:0:0:0:
192,192,207898,1,0,0:0:0:0:
448,192,207898,1,0,0:0:0:0:
448,192,207965,1,0,0:0:0:0:
320,192,207965,1,0,0:0:0:0:
64,192,208031,1,0,0:0:0:0:
192,192,208031,1,0,0:0:0:0:
320,192,208031,1,0,0:0:0:0:
448,192,208031,1,0,0:0:0:0:
192,192,208098,1,0,0:0:0:0:
64,192,208098,1,0,0:0:0:0:
64,192,208165,1,0,0:0:0:0:
320,192,208165,1,0,0:0:0:0:
192,192,208231,1,0,0:0:0:0:
320,192,208231,1,0,0:0:0:0:
192,192,208299,1,0,0:0:0:0:
320,192,208299,1,0,0:0:0:0:
448,192,208299,1,0,0:0:0:0:
64,192,208299,1,0,0:0:0:0:
64,192,208365,1,0,0:0:0:0:
448,192,208365,1,0,0:0:0:0:
192,192,208431,1,0,0:0:0:0:
448,192,208431,1,0,0:0:0:0:
192,192,208499,1,0,0:0:0:0:
64,192,208499,1,0,0:0:0:0:
64,192,208565,1,0,0:0:0:0:
192,192,208565,1,0,0:0:0:0:
320,192,208565,1,0,0:0:0:0:
448,192,208565,1,0,0:0:0:0:
320,192,208631,1,0,0:0:0:0:
448,192,208631,1,0,0:0:0:0:
64,192,208699,1,0,0:0:0:0:
192,192,208699,1,0,0:0:0:0:
64,192,208765,1,0,0:0:0:0:
448,192,208765,1,0,0:0:0:0:
64,192,208831,1,0,0:0:0:0:
192,192,208831,1,0,0:0:0:0:
448,192,208831,1,0,0:0:0:0:
320,192,208831,1,0,0:0:0:0:
320,192,208899,1,0,0:0:0:0:
448,192,208899,1,0,0:0:0:0:
192,192,208965,1,0,0:0:0:0:
64,192,208965,1,0,0:0:0:0:
64,192,209031,1,0,0:0:0:0:
320,192,209031,1,0,0:0:0:0:
64,192,209099,1,0,0:0:0:0:
192,192,209099,1,0,0:0:0:0:
320,192,209099,1,0,0:0:0:0:
448,192,209099,1,0,0:0:0:0:
192,192,209165,1,0,0:0:0:0:
448,192,209165,1,0,0:0:0:0:
320,192,209231,1,0,0:0:0:0:
448,192,209231,1,0,0:0:0:0:
192,192,209299,1,0,0:0:0:0:
320,192,209299,1,0,0:0:0:0:
64,192,209365,1,0,0:0:0:0:
192,192,209365,1,0,0:0:0:0:
320,192,209365,1,0,0:0:0:0:
448,192,209365,1,0,0:0:0:0:
64,192,209431,1,0,0:0:0:0:
448,192,209431,1,0,0:0:0:0:
192,192,209499,1,0,0:0:0:0:
64,192,209499,1,0,0:0:0:0:
320,192,209565,1,0,0:0:0:0:
448,192,209565,1,0,0:0:0:0:
64,192,209632,1,0,0:0:0:0:
192,192,209632,1,0,0:0:0:0:
320,192,209632,1,0,0:0:0:0:
448,192,209632,1,0,0:0:0:0:
192,192,209699,1,0,0:0:0:0:
448,192,209699,1,0,0:0:0:0:
320,192,209765,1,0,0:0:0:0:
64,192,209765,1,0,0:0:0:0:
192,192,209832,1,0,0:0:0:0:
64,192,209832,1,0,0:0:0:0:
64,192,209899,1,0,0:0:0:0:
320,192,209899,1,0,0:0:0:0:
192,192,209899,1,0,0:0:0:0:
448,192,209899,1,0,0:0:0:0:
192,192,209965,1,0,0:0:0:0:
320,192,209965,1,0,0:0:0:0:
64,192,210032,1,0,0:0:0:0:
448,192,210032,1,0,0:0:0:0:
192,192,210099,1,0,0:0:0:0:
320,192,210099,1,0,0:0:0:0:
64,192,210165,1,0,0:0:0:0:
192,192,210165,1,0,0:0:0:0:
320,192,210165,1,0,0:0:0:0:
448,192,210165,1,0,0:0:0:0:
64,192,210232,1,0,0:0:0:0:
448,192,210232,1,0,0:0:0:0:
320,192,210299,1,0,0:0:0:0:
448,192,210299,1,0,0:0:0:0:
192,192,210365,1,0,0:0:0:0:
64,192,210365,1,0,0:0:0:0:
64,192,210432,1,0,0:0:0:0:
192,192,210432,1,0,0:0:0:0:
448,192,210432,1,0,0:0:0:0:
320,192,210432,1,0,0:0:0:0:
320,192,210499,1,0,0:0:0:0:
448,192,210499,1,0,0:0:0:0:
192,192,210565,1,0,0:0:0:0:
448,192,210565,1,0,0:0:0:0:
320,192,210632,1,0,0:0:0:0:
192,192,210632,1,0,0:0:0:0:
64,192,210699,1,0,0:0:0:0:
192,192,210699,1,0,0:0:0:0:
448,192,210699,1,0,0:0:0:0:
320,192,210699,1,0,0:0:0:0:
64,192,210765,1,0,0:0:0:0:
448,192,210765,1,0,0:0:0:0:
192,192,210832,1,0,0:0:0:0:
64,192,210832,1,0,0:0:0:0:
320,192,210899,1,0,0:0:0:0:
448,192,210899,1,0,0:0:0:0:
64,192,210966,1,0,0:0:0:0:
448,192,210966,1,0,0:0:0:0:
320,192,210966,1,0,0:0:0:0:
192,192,210966,1,0,0:0:0:0:
192,192,211032,1,0,0:0:0:0:
64,192,211032,1,0,0:0:0:0:
64,192,211099,1,0,0:0:0:0:
320,192,211099,1,0,0:0:0:0:
192,192,211166,1,0,0:0:0:0:
448,192,211166,1,0,0:0:0:0:
320,192,211232,1,0,0:0:0:0:
448,192,211232,1,0,0:0:0:0:
192,192,211232,1,0,0:0:0:0:
64,192,211232,1,0,0:0:0:0:
192,192,211299,1,0,0:0:0:0:
64,192,211299,1,0,0:0:0:0:
320,192,211366,1,0,0:0:0:0:
448,192,211366,1,0,0:0:0:0:
64,192,211432,1,0,0:0:0:0:
448,192,211432,1,0,0:0:0:0:
448,192,211499,1,0,0:0:0:0:
320,192,211499,1,0,0:0:0:0:
192,192,211499,1,0,0:0:0:0:
64,192,211499,1,0,0:0:0:0:
64,192,211566,1,0,0:0:0:0:
192,192,211566,1,0,0:0:0:0:
320,192,211632,1,0,0:0:0:0:
192,192,211632,1,0,0:0:0:0:
64,192,211699,1,0,0:0:0:0:
448,192,211699,1,0,0:0:0:0:
64,192,211766,1,0,0:0:0:0:
192,192,211766,1,0,0:0:0:0:
320,192,211766,1,0,0:0:0:0:
448,192,211766,1,0,0:0:0:0:
320,192,211832,1,0,0:0:0:0:
448,192,211832,1,0,0:0:0:0:
192,192,211899,1,0,0:0:0:0:
320,192,211899,1,0,0:0:0:0:
64,192,211966,1,0,0:0:0:0:
448,192,211966,1,0,0:0:0:0:
192,192,212032,1,0,0:0:0:0:
320,192,212032,1,0,0:0:0:0:
448,192,212032,1,0,0:0:0:0:
64,192,212032,1,0,0:0:0:0:
192,192,212099,1,0,0:0:0:0:
64,192,212099,1,0,0:0:0:0:
448,192,212166,1,0,0:0:0:0:
192,192,212166,1,0,0:0:0:0:
320,192,212232,1,0,0:0:0:0:
448,192,212232,1,0,0:0:0:0:
64,192,212300,1,0,0:0:0:0:
192,192,212300,1,0,0:0:0:0:
320,192,212300,1,0,0:0:0:0:
448,192,212300,1,0,0:0:0:0:
64,192,212366,1,0,0:0:0:0:
192,192,212366,1,0,0:0:0:0:
64,192,212432,1,0,0:0:0:0:
448,192,212432,1,0,0:0:0:0:
192,192,212500,1,0,0:0:0:0:
320,192,212500,1,0,0:0:0:0:
192,192,212566,1,0,0:0:0:0:
320,192,212566,1,0,0:0:0:0:
448,192,212566,1,0,0:0:0:0:
64,192,212566,1,0,0:0:0:0:
192,192,212632,1,0,0:0:0:0:
448,192,212632,1,0,0:0:0:0:
320,192,212700,1,0,0:0:0:0:
448,192,212700,1,0,0:0:0:0:
192,192,212766,1,0,0:0:0:0:
64,192,212766,1,0,0:0:0:0:
448,192,212832,1,0,0:0:0:0:
320,192,212832,1,0,0:0:0:0:
192,192,212832,1,0,0:0:0:0:
64,192,212832,1,0,0:0:0:0:
320,192,212900,1,0,0:0:0:0:
64,192,212900,1,0,0:0:0:0:
192,192,212966,1,0,0:0:0:0:
64,192,212966,1,0,0:0:0:0:
320,192,213032,1,0,0:0:0:0:
448,192,213032,1,0,0:0:0:0:
64,192,213100,1,0,0:0:0:0:
320,192,213100,1,0,0:0:0:0:
448,192,213100,1,0,0:0:0:0:
192,192,213100,1,0,0:0:0:0:
192,192,213166,1,0,0:0:0:0:
64,192,213166,1,0,0:0:0:0:
320,192,213232,1,0,0:0:0:0:
448,192,213232,1,0,0:0:0:0:
192,192,213300,1,0,0:0:0:0:
64,192,213300,1,0,0:0:0:0:
64,192,213366,1,0,0:0:0:0:
192,192,213366,1,0,0:0:0:0:
320,192,213366,1,0,0:0:0:0:
448,192,213366,1,0,0:0:0:0:
320,192,213432,1,0,0:0:0:0:
448,192,213432,1,0,0:0:0:0:
64,192,213500,1,0,0:0:0:0:
448,192,213500,1,0,0:0:0:0:
192,192,213566,1,0,0:0:0:0:
320,192,213566,1,0,0:0:0:0:
64,192,213633,1,0,0:0:0:0:
192,192,213633,1,0,0:0:0:0:
448,192,213633,1,0,0:0:0:0:
320,192,213633,1,0,0:0:0:0:
64,192,213700,1,0,0:0:0:0:
320,192,213700,1,0,0:0:0:0:
192,192,213766,1,0,0:0:0:0:
64,192,213766,1,0,0:0:0:0:
320,192,213833,1,0,0:0:0:0:
448,192,213833,1,0,0:0:0:0:
64,192,213900,1,0,0:0:0:0:
192,192,213900,1,0,0:0:0:0:
320,192,213900,1,0,0:0:0:0:
448,192,213900,1,0,0:0:0:0:
192,192,213966,1,0,0:0:0:0:
64,192,213966,1,0,0:0:0:0:
64,192,214033,1,0,0:0:0:0:
448,192,214033,1,0,0:0:0:0:
320,192,214100,1,0,0:0:0:0:
448,192,214100,1,0,0:0:0:0:
64,192,214166,1,0,0:0:0:0:
192,192,214166,1,0,0:0:0:0:
320,192,214166,1,0,0:0:0:0:
448,192,214166,1,0,0:0:0:0:
320,192,214233,1,0,0:0:0:0:
192,192,214233,1,0,0:0:0:0:
64,192,214300,1,0,0:0:0:0:
448,192,214300,1,0,0:0:0:0:
192,192,214366,1,0,0:0:0:0:
64,192,214366,1,0,0:0:0:0:
64,192,214433,1,0,0:0:0:0:
192,192,214433,1,0,0:0:0:0:
320,192,214433,1,0,0:0:0:0:
448,192,214433,1,0,0:0:0:0:
320,192,214500,1,0,0:0:0:0:
448,192,214500,1,0,0:0:0:0:
192,192,214566,1,0,0:0:0:0:
64,192,214566,1,0,0:0:0:0:
192,192,214633,1,0,0:0:0:0:
320,192,214633,1,0,0:0:0:0:
64,192,214700,1,0,0:0:0:0:
192,192,214700,1,0,0:0:0:0:
320,192,214700,1,0,0:0:0:0:
448,192,214700,1,0,0:0:0:0:
64,192,214766,1,0,0:0:0:0:
448,192,214766,1,0,0:0:0:0:
192,192,214833,1,0,0:0:0:0:
448,192,214833,1,0,0:0:0:0:
320,192,214900,1,0,0:0:0:0:
192,192,214900,1,0,0:0:0:0:
448,192,214966,1,0,0:0:0:0:
320,192,214966,1,0,0:0:0:0:
192,192,214966,1,0,0:0:0:0:
64,192,214966,1,0,0:0:0:0:
64,192,215033,1,0,0:0:0:0:
320,192,215033,1,0,0:0:0:0:
192,192,215100,1,0,0:0:0:0:
448,192,215100,1,0,0:0:0:0:
320,192,215167,1,0,0:0:0:0:
448,192,215167,1,0,0:0:0:0:
448,192,215233,1,0,0:0:0:0:
320,192,215233,1,0,0:0:0:0:
192,192,215233,1,0,0:0:0:0:
64,192,215233,1,0,0:0:0:0:
192,192,215300,1,0,0:0:0:0:
64,192,215300,1,0,0:0:0:0:
448,192,215367,1,0,0:0:0:0:
64,192,215367,1,0,0:0:0:0:
192,192,215433,1,0,0:0:0:0:
320,192,215433,1,0,0:0:0:0:
64,192,215500,1,0,0:0:0:0:
192,192,215500,1,0,0:0:0:0:
320,192,215500,1,0,0:0:0:0:
448,192,215500,1,0,0:0:0:0:
64,192,215567,1,0,0:0:0:0:
448,192,215567,1,0,0:0:0:0:
320,192,215633,1,0,0:0:0:0:
448,192,215633,1,0,0:0:0:0:
192,192,215700,1,0,0:0:0:0:
320,192,215700,1,0,0:0:0:0:
448,192,215767,1,0,0:0:0:0:
320,192,215767,1,0,0:0:0:0:
192,192,215767,1,0,0:0:0:0:
64,192,215767,1,0,0:0:0:0:
64,192,215833,1,0,0:0:0:0:
192,192,215833,1,0,0:0:0:0:
64,192,215900,1,0,0:0:0:0:
448,192,215900,1,0,0:0:0:0:
448,192,215967,1,0,0:0:0:0:
320,192,215967,1,0,0:0:0:0:
192,192,216033,1,0,0:0:0:0:
64,192,216033,1,0,0:0:0:0:
320,192,216033,1,0,0:0:0:0:
448,192,216033,1,0,0:0:0:0:
192,192,216100,1,0,0:0:0:0:
64,192,216100,1,0,0:0:0:0:
448,192,216167,1,0,0:0:0:0:
64,192,216167,1,0,0:0:0:0:
320,192,216233,1,0,0:0:0:0:
448,192,216233,1,0,0:0:0:0:
64,192,216300,1,0,0:0:0:0:
320,192,216300,1,0,0:0:0:0:
192,192,216300,1,0,0:0:0:0:
448,192,216300,1,0,0:0:0:0:
192,192,216367,1,0,0:0:0:0:
64,192,216367,1,0,0:0:0:0:
320,192,216433,1,0,0:0:0:0:
192,192,216433,1,0,0:0:0:0:
64,192,216500,1,0,0:0:0:0:
448,192,216500,1,0,0:0:0:0:
64,192,216567,1,0,0:0:0:0:
192,192,216567,1,0,0:0:0:0:
320,192,216567,1,0,0:0:0:0:
448,192,216567,1,0,0:0:0:0:
320,192,216633,1,0,0:0:0:0:
448,192,216633,1,0,0:0:0:0:
64,192,216700,1,0,0:0:0:0:
192,192,216700,1,0,0:0:0:0:
64,192,216767,1,0,0:0:0:0:
320,192,216767,1,0,0:0:0:0:
64,192,216833,1,0,0:0:0:0:
192,192,216833,1,0,0:0:0:0:
320,192,216833,1,0,0:0:0:0:
448,192,216833,1,0,0:0:0:0:
192,192,216900,1,0,0:0:0:0:
448,192,216900,1,0,0:0:0:0:
320,192,216967,1,0,0:0:0:0:
448,192,216967,1,0,0:0:0:0:
64,192,217033,1,0,0:0:0:0:
320,192,217033,1,0,0:0:0:0:
64,192,217100,1,0,0:0:0:0:
192,192,217100,1,0,0:0:0:0:
320,192,217100,1,0,0:0:0:0:
448,192,217100,1,0,0:0:0:0:
192,192,217167,1,0,0:0:0:0:
320,192,217167,1,0,0:0:0:0:
448,192,217233,1,0,0:0:0:0:
64,192,217233,1,0,0:0:0:0:
192,192,217300,1,0,0:0:0:0:
64,192,217300,1,0,0:0:0:0:
320,192,217367,1,0,0:0:0:0:
192,192,217367,1,0,0:0:0:0:
448,192,217367,1,0,0:0:0:0:
64,192,217367,1,0,0:0:0:0:
448,192,217433,1,0,0:0:0:0:
192,192,217433,1,0,0:0:0:0:
320,192,217500,1,0,0:0:0:0:
448,192,217500,1,0,0:0:0:0:
192,192,217567,1,0,0:0:0:0:
64,192,217567,1,0,0:0:0:0:
64,192,217633,1,0,0:0:0:0:
192,192,217633,1,0,0:0:0:0:
320,192,217633,1,0,0:0:0:0:
448,192,217633,1,0,0:0:0:0:
64,192,217700,1,0,0:0:0:0:
448,192,217700,1,0,0:0:0:0:
320,192,217767,1,0,0:0:0:0:
192,192,217767,1,0,0:0:0:0:
64,192,217834,1,0,0:0:0:0:
320,192,217834,1,0,0:0:0:0:
64,192,217900,1,0,0:0:0:0:
320,192,217900,1,0,0:0:0:0:
448,192,217900,1,0,0:0:0:0:
192,192,217900,1,0,0:0:0:0:
192,192,217967,1,0,0:0:0:0:
448,192,217967,1,0,0:0:0:0:
320,192,218034,1,0,0:0:0:0:
448,192,218034,1,0,0:0:0:0:
320,192,218100,1,0,0:0:0:0:
192,192,218100,1,0,0:0:0:0:
64,192,218167,1,0,0:0:0:0:
320,192,218167,1,0,0:0:0:0:
448,192,218167,1,0,0:0:0:0:
192,192,218167,1,0,0:0:0:0:
64,192,218234,1,0,0:0:0:0:
448,192,218234,1,0,0:0:0:0:
192,192,218300,1,0,0:0:0:0:
64,192,218300,1,0,0:0:0:0:
320,192,218367,1,0,0:0:0:0:
192,192,218367,1,0,0:0:0:0:
192,192,218434,1,0,0:0:0:0:
64,192,218434,1,0,0:0:0:0:
320,192,218434,1,0,0:0:0:0:
448,192,218434,1,0,0:0:0:0:
64,192,218500,1,0,0:0:0:0:
320,192,218500,1,0,0:0:0:0:
192,192,218567,1,0,0:0:0:0:
448,192,218567,1,0,0:0:0:0:
320,192,218634,1,0,0:0:0:0:
448,192,218634,1,0,0:0:0:0:
64,192,218700,1,0,0:0:0:0:
192,192,218700,1,0,0:0:0:0:
320,192,218700,1,0,0:0:0:0:
448,192,218700,1,0,0:0:0:0:
192,192,218767,1,0,0:0:0:0:
64,192,218767,1,0,0:0:0:0:
448,192,218834,1,0,0:0:0:0:
320,192,218834,1,0,0:0:0:0:
64,192,218900,1,0,0:0:0:0:
320,192,218900,1,0,0:0:0:0:
64,192,218967,1,0,0:0:0:0:
320,192,218967,1,0,0:0:0:0:
448,192,218967,1,0,0:0:0:0:
192,192,218967,1,0,0:0:0:0:
192,192,219034,1,0,0:0:0:0:
448,192,219034,1,0,0:0:0:0:
320,192,219100,1,0,0:0:0:0:
448,192,219100,1,0,0:0:0:0:
192,192,219168,1,0,0:0:0:0:
64,192,219168,1,0,0:0:0:0:
64,192,219234,1,0,0:0:0:0:
192,192,219234,1,0,0:0:0:0:
320,192,219234,1,0,0:0:0:0:
448,192,219234,1,0,0:0:0:0:
64,192,219300,1,0,0:0:0:0:
320,192,219300,1,0,0:0:0:0:
192,192,219368,1,0,0:0:0:0:
448,192,219368,1,0,0:0:0:0:
320,192,219434,1,0,0:0:0:0:
448,192,219434,1,0,0:0:0:0:
64,192,219500,1,0,0:0:0:0:
320,192,219500,1,0,0:0:0:0:
448,192,219500,1,0,0:0:0:0:
192,192,219500,1,0,0:0:0:0:
192,192,219568,1,0,0:0:0:0:
64,192,219568,1,0,0:0:0:0:
64,192,219634,1,0,0:0:0:0:
320,192,219634,1,0,0:0:0:0:
320,192,219700,1,0,0:0:0:0:
192,192,219700,1,0,0:0:0:0:
64,192,219768,1,0,0:0:0:0:
320,192,219768,1,0,0:0:0:0:
448,192,219768,1,0,0:0:0:0:
192,192,219768,1,0,0:0:0:0:
64,192,219834,1,0,0:0:0:0:
448,192,219834,1,0,0:0:0:0:
192,192,219900,1,0,0:0:0:0:
320,192,219900,1,0,0:0:0:0:
64,192,219968,1,0,0:0:0:0:
320,192,219968,1,0,0:0:0:0:
64,192,220034,1,0,0:0:0:0:
192,192,220034,1,0,0:0:0:0:
320,192,220034,1,0,0:0:0:0:
448,192,220034,1,0,0:0:0:0:
448,192,220100,1,0,0:0:0:0:
192,192,220100,1,0,0:0:0:0:
320,192,220168,1,0,0:0:0:0:
448,192,220168,1,0,0:0:0:0:
192,192,220234,1,0,0:0:0:0:
64,192,220234,1,0,0:0:0:0:
64,192,220300,1,0,0:0:0:0:
192,192,220300,1,0,0:0:0:0:
448,192,220300,1,0,0:0:0:0:
320,192,220300,1,0,0:0:0:0:
320,192,220368,1,0,0:0:0:0:
448,192,220368,1,0,0:0:0:0:
64,192,220434,1,0,0:0:0:0:
448,192,220434,1,0,0:0:0:0:
320,192,220501,1,0,0:0:0:0:
64,192,220501,1,0,0:0:0:0:
192,192,220568,1,0,0:0:0:0:
64,192,220568,1,0,0:0:0:0:
320,192,220568,1,0,0:0:0:0:
448,192,220568,1,0,0:0:0:0:
192,192,220634,1,0,0:0:0:0:
448,192,220634,1,0,0:0:0:0:
320,192,220701,1,0,0:0:0:0:
448,192,220701,1,0,0:0:0:0:
192,192,220768,1,0,0:0:0:0:
64,192,220768,1,0,0:0:0:0:
192,192,220834,1,0,0:0:0:0:
64,192,220834,1,0,0:0:0:0:
320,192,220834,1,0,0:0:0:0:
448,192,220834,1,0,0:0:0:0:
192,192,220901,1,0,0:0:0:0:
320,192,220901,1,0,0:0:0:0:
64,192,220968,1,0,0:0:0:0:
448,192,220968,1,0,0:0:0:0:
320,192,221034,1,0,0:0:0:0:
448,192,221034,1,0,0:0:0:0:
64,192,221101,1,0,0:0:0:0:
192,192,221101,1,0,0:0:0:0:
320,192,221101,1,0,0:0:0:0:
448,192,221101,1,0,0:0:0:0:
192,192,221168,1,0,0:0:0:0:
64,192,221168,1,0,0:0:0:0:
64,192,221234,1,0,0:0:0:0:
320,192,221234,1,0,0:0:0:0:
192,192,221301,1,0,0:0:0:0:
448,192,221301,1,0,0:0:0:0:
448,192,221368,1,0,0:0:0:0:
192,192,221368,1,0,0:0:0:0:
320,192,221368,1,0,0:0:0:0:
64,192,221368,1,0,0:0:0:0:
320,192,221434,1,0,0:0:0:0:
448,192,221434,1,0,0:0:0:0:
192,192,221501,1,0,0:0:0:0:
64,192,221501,1,0,0:0:0:0:
64,192,221568,1,0,0:0:0:0:
320,192,221568,1,0,0:0:0:0:
448,192,221634,1,0,0:0:0:0:
320,192,221634,1,0,0:0:0:0:
192,192,221634,1,0,0:0:0:0:
64,192,221634,1,0,0:0:0:0:
192,192,221701,1,0,0:0:0:0:
448,192,221701,1,0,0:0:0:0:
320,192,221768,1,0,0:0:0:0:
192,192,221768,1,0,0:0:0:0:
64,192,221835,1,0,0:0:0:0:
448,192,221835,1,0,0:0:0:0:
64,192,221901,1,0,0:0:0:0:
192,192,221901,1,0,0:0:0:0:
320,192,221901,1,0,0:0:0:0:
448,192,221901,1,0,0:0:0:0:
320,192,221968,1,0,0:0:0:0:
192,192,221968,1,0,0:0:0:0:
64,192,222035,1,0,0:0:0:0:
448,192,222035,1,0,0:0:0:0:
320,192,222101,1,0,0:0:0:0:
64,192,222101,1,0,0:0:0:0:
64,192,222168,1,0,0:0:0:0:
448,192,222168,1,0,0:0:0:0:
320,192,222168,1,0,0:0:0:0:
192,192,222168,1,0,0:0:0:0:
192,192,222235,1,0,0:0:0:0:
448,192,222235,1,0,0:0:0:0:
320,192,222301,1,0,0:0:0:0:
448,192,222301,1,0,0:0:0:0:
192,192,222368,1,0,0:0:0:0:
64,192,222368,1,0,0:0:0:0:
64,192,222435,1,0,0:0:0:0:
192,192,222435,1,0,0:0:0:0:
320,192,222435,1,0,0:0:0:0:
448,192,222435,1,0,0:0:0:0:
320,192,222501,1,0,0:0:0:0:
192,192,222501,1,0,0:0:0:0:
64,192,222568,1,0,0:0:0:0:
448,192,222568,1,0,0:0:0:0:
320,192,222635,1,0,0:0:0:0:
448,192,222635,1,0,0:0:0:0:
64,192,222701,1,0,0:0:0:0:
192,192,222701,1,0,0:0:0:0:
320,192,222701,1,0,0:0:0:0:
448,192,222701,1,0,0:0:0:0:
192,192,222768,1,0,0:0:0:0:
64,192,222768,1,0,0:0:0:0:
64,192,222835,1,0,0:0:0:0:
320,192,222835,1,0,0:0:0:0:
192,192,222901,1,0,0:0:0:0:
448,192,222901,1,0,0:0:0:0:
64,192,222968,1,0,0:0:0:0:
192,192,222968,1,0,0:0:0:0:
320,192,222968,1,0,0:0:0:0:
448,192,222968,1,0,0:0:0:0:
320,192,223035,1,0,0:0:0:0:
448,192,223035,1,0,0:0:0:0:
192,192,223101,1,0,0:0:0:0:
64,192,223101,1,0,0:0:0:0:
320,192,223169,1,0,0:0:0:0:
64,192,223169,1,0,0:0:0:0:
64,192,223235,1,0,0:0:0:0:
192,192,223235,1,0,0:0:0:0:
320,192,223235,1,0,0:0:0:0:
448,192,223235,1,0,0:0:0:0:
192,192,223301,1,0,0:0:0:0:
320,192,223301,1,0,0:0:0:0:
64,192,223369,1,0,0:0:0:0:
448,192,223369,1,0,0:0:0:0:
192,192,223435,1,0,0:0:0:0:
320,192,223435,1,0,0:0:0:0:
448,192,223501,1,0,0:0:0:0:
320,192,223501,1,0,0:0:0:0:
192,192,223501,1,0,0:0:0:0:
64,192,223501,1,0,0:0:0:0:
320,192,223569,1,0,0:0:0:0:
448,192,223569,1,0,0:0:0:0:
64,192,223635,1,0,0:0:0:0:
192,192,223635,1,0,0:0:0:0:
64,192,223701,1,0,0:0:0:0:
448,192,223701,1,0,0:0:0:0:
192,192,223769,1,0,0:0:0:0:
64,192,223769,1,0,0:0:0:0:
320,192,223769,1,0,0:0:0:0:
448,192,223769,1,0,0:0:0:0:
192,192,223835,1,0,0:0:0:0:
320,192,223835,1,0,0:0:0:0:
448,192,223901,1,0,0:0:0:0:
320,192,223901,1,0,0:0:0:0:
64,192,223969,1,0,0:0:0:0:
192,192,223969,1,0,0:0:0:0:
192,192,224035,1,0,0:0:0:0:
320,192,224035,1,0,0:0:0:0:
448,192,224035,1,0,0:0:0:0:
64,192,224101,1,0,0:0:0:0:
448,192,224101,1,0,0:0:0:0:
320,192,224169,1,0,0:0:0:0:
192,192,224169,1,0,0:0:0:0:
64,192,224235,1,0,0:0:0:0:
320,192,224235,1,0,0:0:0:0:
64,192,224301,1,0,0:0:0:0:
192,192,224301,1,0,0:0:0:0:
448,192,224301,1,0,0:0:0:0:
320,192,224369,1,0,0:0:0:0:
448,192,224369,1,0,0:0:0:0:
192,192,224435,1,0,0:0:0:0:
320,192,224435,1,0,0:0:0:0:
64,192,224502,1,0,0:0:0:0:
448,192,224502,1,0,0:0:0:0:
64,192,224569,1,0,0:0:0:0:
192,192,224569,1,0,0:0:0:0:
320,192,224569,1,0,0:0:0:0:
192,192,224635,1,0,0:0:0:0:
448,192,224635,1,0,0:0:0:0:
320,192,224702,1,0,0:0:0:0:
448,192,224702,1,0,0:0:0:0:
192,192,224769,1,0,0:0:0:0:
64,192,224769,1,0,0:0:0:0:
64,192,224835,1,0,0:0:0:0:
320,192,224835,1,0,0:0:0:0:
192,192,224835,1,0,0:0:0:0:
448,192,224902,1,0,0:0:0:0:
320,192,224902,1,0,0:0:0:0:
64,192,224969,1,0,0:0:0:0:
320,192,224969,1,0,0:0:0:0:
192,192,225035,1,0,0:0:0:0:
448,192,225035,1,0,0:0:0:0:
320,192,225102,1,0,0:0:0:0:
448,192,225102,1,0,0:0:0:0:
64,192,225102,1,0,0:0:0:0:
192,192,225169,1,0,0:0:0:0:
320,192,225169,1,0,0:0:0:0:
192,192,225235,1,0,0:0:0:0:
64,192,225235,1,0,0:0:0:0:
64,192,225302,1,0,0:0:0:0:
320,192,225302,1,0,0:0:0:0:
320,192,225369,1,0,0:0:0:0:
448,192,225369,1,0,0:0:0:0:
192,192,225369,1,0,0:0:0:0:
64,192,225435,1,0,0:0:0:0:
448,192,225435,1,0,0:0:0:0:
192,192,225502,1,0,0:0:0:0:
64,192,225502,1,0,0:0:0:0:
192,192,225569,1,0,0:0:0:0:
320,192,225569,1,0,0:0:0:0:
320,192,225635,1,0,0:0:0:0:
448,192,225635,1,0,0:0:0:0:
64,192,225635,1,0,0:0:0:0:
192,192,225702,1,0,0:0:0:0:
448,192,225702,1,0,0:0:0:0:
320,192,225769,1,0,0:0:0:0:
64,192,225769,1,0,0:0:0:0:
192,192,225836,1,0,0:0:0:0:
320,192,225836,1,0,0:0:0:0:
64,192,225902,1,0,0:0:0:0:
192,192,225902,1,0,0:0:0:0:
448,192,225902,1,0,0:0:0:0:
320,192,225969,1,0,0:0:0:0:
448,192,225969,1,0,0:0:0:0:
192,192,226036,1,0,0:0:0:0:
64,192,226036,1,0,0:0:0:0:
64,192,226102,1,0,0:0:0:0:
320,192,226102,1,0,0:0:0:0:
64,192,226169,1,0,0:0:0:0:
448,192,226169,1,0,0:0:0:0:
320,192,226169,1,0,0:0:0:0:
192,192,226236,1,0,0:0:0:0:
320,192,226236,1,0,0:0:0:0:
64,192,226302,1,0,0:0:0:0:
448,192,226302,1,0,0:0:0:0:
192,192,226369,1,0,0:0:0:0:
320,192,226369,1,0,0:0:0:0:
192,192,226436,1,0,0:0:0:0:
320,192,226436,1,0,0:0:0:0:
448,192,226436,1,0,0:0:0:0:
64,192,226502,1,0,0:0:0:0:
448,192,226502,1,0,0:0:0:0:
320,192,226569,1,0,0:0:0:0:
64,192,226569,1,0,0:0:0:0:
192,192,226636,1,0,0:0:0:0:
448,192,226636,1,0,0:0:0:0:
192,192,226702,1,0,0:0:0:0:
320,192,226702,1,0,0:0:0:0:
64,192,226702,1,0,0:0:0:0:
448,192,226769,1,0,0:0:0:0:
320,192,226769,1,0,0:0:0:0:
64,192,226836,1,0,0:0:0:0:
448,192,226836,1,0,0:0:0:0:
192,192,226902,1,0,0:0:0:0:
320,192,226902,1,0,0:0:0:0:
192,192,226969,1,0,0:0:0:0:
448,192,226969,1,0,0:0:0:0:
64,192,226969,1,0,0:0:0:0:
320,192,227036,1,0,0:0:0:0:
448,192,227036,1,0,0:0:0:0:
64,192,227102,1,0,0:0:0:0:
320,192,227102,1,0,0:0:0:0:
192,192,227170,1,0,0:0:0:0:
448,192,227170,1,0,0:0:0:0:
64,192,227236,1,0,0:0:0:0:
192,192,227236,1,0,0:0:0:0:
320,192,227236,1,0,0:0:0:0:
448,192,227302,1,0,0:0:0:0:
320,192,227302,1,0,0:0:0:0:
64,192,227370,1,0,0:0:0:0:
448,192,227370,1,0,0:0:0:0:
192,192,227436,1,0,0:0:0:0:
64,192,227436,1,0,0:0:0:0:
192,192,227502,1,0,0:0:0:0:
320,192,227502,1,0,0:0:0:0:
448,192,227502,1,0,0:0:0:0:
64,192,227570,1,0,0:0:0:0:
448,192,227570,1,0,0:0:0:0:
192,192,227636,1,0,0:0:0:0:
320,192,227636,1,0,0:0:0:0:
64,192,227702,1,0,0:0:0:0:
320,192,227702,1,0,0:0:0:0:
448,192,227770,1,0,0:0:0:0:
320,192,227770,1,0,0:0:0:0:
192,192,227770,1,0,0:0:0:0:
64,192,227836,1,0,0:0:0:0:
448,192,227836,1,0,0:0:0:0:
320,192,227902,1,0,0:0:0:0:
64,192,227902,1,0,0:0:0:0:
192,192,227970,1,0,0:0:0:0:
448,192,227970,1,0,0:0:0:0:
192,192,228036,1,0,0:0:0:0:
320,192,228036,1,0,0:0:0:0:
64,192,228036,1,0,0:0:0:0:
64,192,228170,1,0,0:0:0:0:
192,192,228170,1,0,0:0:0:0:
448,192,228170,1,0,0:0:0:0:
192,192,228302,1,0,0:0:0:0:
448,192,228302,1,0,0:0:0:0:
320,192,228302,1,0,0:0:0:0:
64,192,228370,1,0,0:0:0:0:
192,192,228436,1,0,0:0:0:0:
448,192,228436,1,0,0:0:0:0:
320,192,228502,1,0,0:0:0:0:
192,192,228570,1,0,0:0:0:0:
64,192,228570,1,0,0:0:0:0:
448,192,228570,1,0,0:0:0:0:
320,192,228636,1,0,0:0:0:0:
192,192,228703,1,0,0:0:0:0:
64,192,228703,1,0,0:0:0:0:
448,192,228770,1,0,0:0:0:0:
320,192,228836,1,0,0:0:0:0:
192,192,228836,1,0,0:0:0:0:
64,192,228836,1,0,0:0:0:0:
448,192,228903,1,0,0:0:0:0:
64,192,228970,1,0,0:0:0:0:
320,192,228970,1,0,0:0:0:0:
192,192,229036,1,0,0:0:0:0:
64,192,229103,1,0,0:0:0:0:
448,192,229103,1,0,0:0:0:0:
320,192,229170,1,0,0:0:0:0:
448,192,229236,1,0,0:0:0:0:
192,192,229236,1,0,0:0:0:0:
64,192,229303,1,0,0:0:0:0:
192,192,229370,1,0,0:0:0:0:
320,192,229370,1,0,0:0:0:0:
448,192,229370,1,0,0:0:0:0:
64,192,229436,1,0,0:0:0:0:
320,192,229503,1,0,0:0:0:0:
448,192,229503,1,0,0:0:0:0:
192,192,229570,1,0,0:0:0:0:
64,192,229636,1,0,0:0:0:0:
320,192,229636,1,0,0:0:0:0:
448,192,229636,1,0,0:0:0:0:
192,192,229703,1,0,0:0:0:0:
448,192,229770,1,0,0:0:0:0:
64,192,229770,1,0,0:0:0:0:
320,192,229836,1,0,0:0:0:0:
192,192,229903,1,0,0:0:0:0:
64,192,229903,1,0,0:0:0:0:
448,192,229970,1,0,0:0:0:0:
320,192,230037,1,0,0:0:0:0:
192,192,230037,1,0,0:0:0:0:
64,192,230037,1,0,0:0:0:0:
448,192,230103,1,0,0:0:0:0:
320,192,230170,1,0,0:0:0:0:
192,192,230170,1,0,0:0:0:0:
64,192,230237,1,0,0:0:0:0:
192,192,230303,1,0,0:0:0:0:
448,192,230303,1,0,0:0:0:0:
320,192,230370,1,0,0:0:0:0:
64,192,230437,1,0,0:0:0:0:
192,192,230437,1,0,0:0:0:0:
448,192,230437,1,0,0:0:0:0:
320,192,230503,1,0,0:0:0:0:
64,192,230570,1,0,0:0:0:0:
448,192,230570,1,0,0:0:0:0:
192,192,230637,1,0,0:0:0:0:
320,192,230703,1,0,0:0:0:0:
448,192,230703,1,0,0:0:0:0:
64,192,230703,1,0,0:0:0:0:
192,192,230770,1,0,0:0:0:0:
320,192,230837,1,0,0:0:0:0:
448,192,230837,1,0,0:0:0:0:
64,192,230903,1,0,0:0:0:0:
192,192,230970,1,0,0:0:0:0:
320,192,230970,1,0,0:0:0:0:
448,192,230970,1,0,0:0:0:0:
64,192,231037,1,0,0:0:0:0:
192,192,231103,1,0,0:0:0:0:
448,192,231103,1,0,0:0:0:0:
320,192,231170,1,0,0:0:0:0:
192,192,231237,1,0,0:0:0:0:
64,192,231237,1,0,0:0:0:0:
448,192,231237,1,0,0:0:0:0:
320,192,231303,1,0,0:0:0:0:
192,192,231370,1,0,0:0:0:0:
64,192,231370,1,0,0:0:0:0:
448,192,231437,1,0,0:0:0:0:
64,192,231503,1,0,0:0:0:0:
192,192,231503,1,0,0:0:0:0:
320,192,231503,1,0,0:0:0:0:
448,192,231570,1,0,0:0:0:0:
320,192,231637,1,0,0:0:0:0:
192,192,231637,1,0,0:0:0:0:
64,192,231637,1,0,0:0:0:0:
448,192,231703,1,0,0:0:0:0:
320,192,231770,1,0,0:0:0:0:
192,192,231770,1,0,0:0:0:0:
64,192,231770,1,0,0:0:0:0:
448,192,231837,1,0,0:0:0:0:
64,192,231903,1,0,0:0:0:0:
320,192,231903,1,0,0:0:0:0:
192,192,231970,1,0,0:0:0:0:
320,192,232037,1,0,0:0:0:0:
448,192,232037,1,0,0:0:0:0:
64,192,232037,1,0,0:0:0:0:
192,192,232103,1,0,0:0:0:0:
448,192,232170,1,0,0:0:0:0:
320,192,232203,1,0,0:0:0:0:
192,192,232237,1,0,0:0:0:0:
64,192,232270,1,0,0:0:0:0:
448,192,232303,1,0,0:0:0:0:
320,192,232337,1,0,0:0:0:0:
64,192,232370,1,0,0:0:0:0:
192,192,232403,1,0,0:0:0:0:
320,192,232437,1,0,0:0:0:0:
448,192,232470,1,0,0:0:0:0:
64,192,232503,1,0,0:0:0:0:
192,192,232503,1,0,0:0:0:0:
320,192,232570,1,0,0:0:0:0:
448,192,232570,1,0,0:0:0:0:
64,192,232570,1,0,0:0:0:0:
192,192,232704,1,0,0:0:0:0:
192,192,232837,1,0,0:0:0:0:
320,192,232837,1,0,0:0:0:0:
448,192,232837,1,0,0:0:0:0:
64,192,232837,1,0,0:0:0:0:
448,192,232970,1,0,0:0:0:0:
320,192,233104,1,0,0:0:0:0:
192,192,233104,1,0,0:0:0:0:
64,192,233104,1,0,0:0:0:0:
192,192,233237,1,0,0:0:0:0:
64,192,233370,1,0,0:0:0:0:
192,192,233370,1,0,0:0:0:0:
320,192,233370,1,0,0:0:0:0:
448,192,233370,1,0,0:0:0:0:
448,192,233504,1,0,0:0:0:0:
320,192,233637,1,0,0:0:0:0:
448,192,233637,1,0,0:0:0:0:
64,192,233637,1,0,0:0:0:0:
192,192,233770,1,0,0:0:0:0:
64,192,233904,1,0,0:0:0:0:
192,192,233904,1,0,0:0:0:0:
448,192,233904,1,0,0:0:0:0:
320,192,233904,1,0,0:0:0:0:
320,192,234038,1,0,0:0:0:0:
192,192,234170,1,0,0:0:0:0:
448,192,234170,1,0,0:0:0:0:
64,192,234170,1,0,0:0:0:0:
192,192,234304,1,0,0:0:0:0:
192,192,234438,1,0,0:0:0:0:
320,192,234438,1,0,0:0:0:0:
448,192,234438,1,0,0:0:0:0:
64,192,234438,1,0,0:0:0:0:
448,192,234570,1,0,0:0:0:0:
320,192,234704,1,0,0:0:0:0:
448,192,234704,1,0,0:0:0:0:
192,192,234704,1,0,0:0:0:0:
64,192,234838,1,0,0:0:0:0:
64,192,234970,1,0,0:0:0:0:
320,192,234970,1,0,0:0:0:0:
192,192,234970,1,0,0:0:0:0:
448,192,234970,1,0,0:0:0:0:
320,192,235104,1,0,0:0:0:0:
64,192,235238,1,0,0:0:0:0:
192,192,235238,1,0,0:0:0:0:
448,192,235238,1,0,0:0:0:0:
192,192,235371,1,0,0:0:0:0:
64,192,235504,1,0,0:0:0:0:
192,192,235504,1,0,0:0:0:0:
320,192,235504,1,0,0:0:0:0:
448,192,235504,1,0,0:0:0:0:
320,192,235638,1,0,0:0:0:0:
64,192,235771,1,0,0:0:0:0:
192,192,235771,1,0,0:0:0:0:
448,192,235771,1,0,0:0:0:0:
64,192,235904,1,0,0:0:0:0:
64,192,236038,1,0,0:0:0:0:
192,192,236038,1,0,0:0:0:0:
448,192,236038,1,0,0:0:0:0:
320,192,236038,1,0,0:0:0:0:
448,192,236171,1,0,0:0:0:0:
64,192,236304,1,0,0:0:0:0:
320,192,236304,1,0,0:0:0:0:
448,192,236304,1,0,0:0:0:0:
192,192,236438,1,0,0:0:0:0:
64,192,236571,1,0,0:0:0:0:
192,192,236571,1,0,0:0:0:0:
320,192,236571,1,0,0:0:0:0:
448,192,236571,1,0,0:0:0:0:
64,192,236705,1,0,0:0:0:0:
448,192,236705,1,0,0:0:0:0:
320,192,236705,1,0,0:0:0:0:
448,192,236838,1,0,0:0:0:0:
320,192,236838,1,0,0:0:0:0:
192,192,236838,1,0,0:0:0:0:
64,192,236838,1,0,0:0:0:0:
192,192,236971,1,0,0:0:0:0:
320,192,236971,1,0,0:0:0:0:
64,192,236971,1,0,0:0:0:0:
64,192,237105,1,0,0:0:0:0:
192,192,237105,1,0,0:0:0:0:
320,192,237105,1,0,0:0:0:0:
448,192,237105,1,0,0:0:0:0:
192,192,237238,1,0,0:0:0:0:
64,192,237238,1,0,0:0:0:0:
448,192,237238,1,0,0:0:0:0:
64,192,237371,1,0,0:0:0:0:
192,192,237371,1,0,0:0:0:0:
320,192,237371,1,0,0:0:0:0:
448,192,237371,1,0,0:0:0:0:
320,192,237505,1,0,0:0:0:0:
448,192,237505,1,0,0:0:0:0:
64,192,237505,1,0,0:0:0:0:
64,192,237638,1,0,0:0:0:0:
192,192,237638,1,0,0:0:0:0:
320,192,237638,1,0,0:0:0:0:
448,192,237638,1,0,0:0:0:0:
64,192,237771,1,0,0:0:0:0:
320,192,237771,1,0,0:0:0:0:
192,192,237771,1,0,0:0:0:0:
64,192,237905,1,0,0:0:0:0:
192,192,237905,1,0,0:0:0:0:
320,192,237905,1,0,0:0:0:0:
448,192,237905,1,0,0:0:0:0:
192,192,238039,1,0,0:0:0:0:
64,192,238039,1,0,0:0:0:0:
448,192,238039,1,0,0:0:0:0:
64,192,238171,1,0,0:0:0:0:
192,192,238171,1,0,0:0:0:0:
320,192,238171,1,0,0:0:0:0:
448,192,238171,1,0,0:0:0:0:
320,192,238305,1,0,0:0:0:0:
448,192,238305,1,0,0:0:0:0:
192,192,238305,1,0,0:0:0:0:
64,192,238439,1,0,0:0:0:0:
192,192,238439,1,0,0:0:0:0:
320,192,238439,1,0,0:0:0:0:
448,192,238439,1,0,0:0:0:0:
448,192,238571,1,0,0:0:0:0:
320,192,238571,1,0,0:0:0:0:
64,192,238571,1,0,0:0:0:0:
64,192,238705,1,0,0:0:0:0:
192,192,238705,1,0,0:0:0:0:
320,192,238705,1,0,0:0:0:0:
448,192,238705,1,0,0:0:0:0:
192,192,238839,1,0,0:0:0:0:
64,192,238839,1,0,0:0:0:0:
320,192,238839,1,0,0:0:0:0:
320,192,238971,1,0,0:0:0:0:
448,192,238971,1,0,0:0:0:0:
192,192,239039,1,0,0:0:0:0:
64,192,239039,1,0,0:0:0:0:
320,192,239105,1,0,0:0:0:0:
448,192,239105,1,0,0:0:0:0:
192,192,239171,1,0,0:0:0:0:
64,192,239171,1,0,0:0:0:0:
320,192,239239,1,0,0:0:0:0:
448,192,239239,1,0,0:0:0:0:
192,192,239305,1,0,0:0:0:0:
64,192,239305,1,0,0:0:0:0:
320,192,239372,1,0,0:0:0:0:
448,192,239372,1,0,0:0:0:0:
192,192,239439,1,0,0:0:0:0:
64,192,239439,1,0,0:0:0:0:
320,192,239505,1,0,0:0:0:0:
448,192,239505,1,0,0:0:0:0:
192,192,239572,1,0,0:0:0:0:
64,192,239572,1,0,0:0:0:0:
320,192,239639,1,0,0:0:0:0:
448,192,239639,1,0,0:0:0:0:
192,192,239705,1,0,0:0:0:0:
64,192,239705,1,0,0:0:0:0:
320,192,239772,1,0,0:0:0:0:
448,192,239772,1,0,0:0:0:0:
192,192,239839,1,0,0:0:0:0:
64,192,239839,1,0,0:0:0:0:
320,192,239905,1,0,0:0:0:0:
448,192,239905,1,0,0:0:0:0:
192,192,239972,1,0,0:0:0:0:
64,192,239972,1,0,0:0:0:0:
448,192,240039,1,0,0:0:0:0:
320,192,240072,1,0,0:0:0:0:
192,192,240105,1,0,0:0:0:0:
64,192,240139,1,0,0:0:0:0:
448,192,240172,1,0,0:0:0:0:
320,192,240205,1,0,0:0:0:0:
192,192,240239,1,0,0:0:0:0:
64,192,240272,1,0,0:0:0:0:
448,192,240305,1,0,0:0:0:0:
320,192,240339,1,0,0:0:0:0:
64,192,240372,1,0,0:0:0:0:
192,192,240405,1,0,0:0:0:0:
448,192,240439,1,0,0:0:0:0:
320,192,240472,1,0,0:0:0:0:
64,192,240505,1,0,0:0:0:0:
192,192,240539,1,0,0:0:0:0:
448,192,240572,1,0,0:0:0:0:
320,192,240605,1,0,0:0:0:0:
192,192,240639,1,0,0:0:0:0:
64,192,240672,1,0,0:0:0:0:
320,192,240772,1,0,0:0:0:0:
192,192,240806,1,0,0:0:0:0:
64,192,240839,1,0,0:0:0:0:
448,192,240872,1,0,0:0:0:0:
192,192,240972,1,0,0:0:0:0:
64,192,241006,1,0,0:0:0:0:
448,192,241039,1,0,0:0:0:0:
320,192,241072,1,0,0:0:0:0:
192,192,241106,1,0,0:0:0:0:
64,192,241106,1,0,0:0:0:0:
