osu file format v14

[General]
AudioFilename: audio 0.900x.mp3
AudioLeadIn: 0
PreviewTime: 197700
Countdown: 0
SampleSet: Normal
StackLeniency: 0.7
Mode: 3
LetterboxInBreaks: 0
SpecialStyle: 0
WidescreenStoryboard: 0

[Editor]
DistanceSpacing: 0.8
BeatDivisor: 4
GridSize: 16
TimelineZoom: 1.7

[Metadata]
Title:Tactical Railroad
TitleUnicode:Tactical Railroad
Artist:DJ Sharpnel
ArtistUnicode:DJ Sharpnel
Creator:YoungBurger14
Version:0.9x
Source:
Tags:レール・ウォーズ -nihonkoku yuuteddou kouantai- opening 茅原実里 chihara minori remix electronic japanese ver2.0 colossalcom2016 limited srpx-0002 srpx-0004 comiket c86 コミケット86 hardcore jcore j-core bootleg -日本國有鉄道公安隊- 向かい風に打たれながら mukai kaze ni utare nagara jack chord chordjack speedjack
BeatmapID:4536763
BeatmapSetID:2153117

[Difficulty]
HPDrainRate:7
CircleSize:4
OverallDifficulty:8
ApproachRate:0.7
SliderMultiplier:1.4
SliderTickRate:1

[Events]
//Background and Video events
0,0,"Tactical Railroad.jpg",0,0
//Break Periods
//Storyboard Layer 0 (Background)
//Storyboard Layer 1 (Fail)
//Storyboard Layer 2 (Pass)
//Storyboard Layer 3 (Foreground)
//Storyboard Layer 4 (Overlay)
//Storyboard Sound Samples

[TimingPoints]
1286,325.998888888889,4,1,0,30,1,0
79525,-100,4,1,0,30,0,1
134293,-100,4,1,0,30,0,0
198188,-100,4,1,0,30,0,1
252957,-100,4,1,0,30,0,0

[HitObjects]
64,192,1286,5,0,0:0:0:0:
192,192,1286,1,0,0:0:0:0:
320,192,1286,1,0,0:0:0:0:
448,192,1286,1,0,0:0:0:0:
64,192,1448,1,0,0:0:0:0:
192,192,1448,1,0,0:0:0:0:
64,192,1612,1,0,0:0:0:0:
192,192,1612,1,0,0:0:0:0:
320,192,1612,1,0,0:0:0:0:
448,192,1612,1,0,0:0:0:0:
64,192,1775,1,0,0:0:0:0:
448,192,1775,1,0,0:0:0:0:
320,192,1937,1,0,0:0:0:0:
448,192,1937,1,0,0:0:0:0:
192,192,1937,1,0,0:0:0:0:
64,192,1937,1,0,0:0:0:0:
192,192,2101,1,0,0:0:0:0:
320,192,2101,1,0,0:0:0:0:
64,192,2264,1,0,0:0:0:0:
192,192,2264,1,0,0:0:0:0:
320,192,2264,1,0,0:0:0:0:
448,192,2264,1,0,0:0:0:0:
192,192,2426,1,0,0:0:0:0:
448,192,2426,1,0,0:0:0:0:
192,192,2590,1,0,0:0:0:0:
320,192,2590,1,0,0:0:0:0:
448,192,2590,1,0,0:0:0:0:
64,192,2590,1,0,0:0:0:0:
64,192,2753,1,0,0:0:0:0:
320,192,2753,1,0,0:0:0:0:
64,192,2915,1,0,0:0:0:0:
192,192,2915,1,0,0:0:0:0:
320,192,2915,1,0,0:0:0:0:
448,192,2915,1,0,0:0:0:0:
448,192,3078,1,0,0:0:0:0:
320,192,3078,1,0,0:0:0:0:
64,192,3242,1,0,0:0:0:0:
192,192,3242,1,0,0:0:0:0:
448,192,3242,1,0,0:0:0:0:
320,192,3242,1,0,0:0:0:0:
192,192,3405,1,0,0:0:0:0:
64,192,3405,1,0,0:0:0:0:
64,192,3567,1,0,0:0:0:0:
192,192,3567,1,0,0:0:0:0:
320,192,3567,1,0,0:0:0:0:
448,192,3567,1,0,0:0:0:0:
64,192,3731,1,0,0:0:0:0:
448,192,3731,1,0,0:0:0:0:
192,192,3894,1,0,0:0:0:0:
64,192,3894,1,0,0:0:0:0:
320,192,3894,1,0,0:0:0:0:
448,192,3894,1,0,0:0:0:0:
64,192,4056,1,0,0:0:0:0:
320,192,4056,1,0,0:0:0:0:
64,192,4220,1,0,0:0:0:0:
192,192,4220,1,0,0:0:0:0:
448,192,4220,1,0,0:0:0:0:
320,192,4220,1,0,0:0:0:0:
192,192,4383,1,0,0:0:0:0:
320,192,4383,1,0,0:0:0:0:
64,192,4545,1,0,0:0:0:0:
192,192,4545,1,0,0:0:0:0:
320,192,4545,1,0,0:0:0:0:
448,192,4545,1,0,0:0:0:0:
448,192,4708,1,0,0:0:0:0:
64,192,4708,1,0,0:0:0:0:
64,192,4872,1,0,0:0:0:0:
192,192,4872,1,0,0:0:0:0:
448,192,4872,1,0,0:0:0:0:
320,192,4872,1,0,0:0:0:0:
320,192,5035,1,0,0:0:0:0:
448,192,5035,1,0,0:0:0:0:
64,192,5197,1,0,0:0:0:0:
192,192,5197,1,0,0:0:0:0:
320,192,5197,1,0,0:0:0:0:
448,192,5197,1,0,0:0:0:0:
64,192,5361,1,0,0:0:0:0:
192,192,5361,1,0,0:0:0:0:
64,192,5524,1,0,0:0:0:0:
320,192,5524,1,0,0:0:0:0:
448,192,5524,1,0,0:0:0:0:
192,192,5524,1,0,0:0:0:0:
64,192,5686,1,0,0:0:0:0:
320,192,5686,1,0,0:0:0:0:
64,192,5850,1,0,0:0:0:0:
192,192,5850,1,0,0:0:0:0:
320,192,5850,1,0,0:0:0:0:
448,192,5850,1,0,0:0:0:0:
192,192,6013,1,0,0:0:0:0:
448,192,6013,1,0,0:0:0:0:
64,192,6175,1,0,0:0:0:0:
192,192,6175,1,0,0:0:0:0:
320,192,6175,1,0,0:0:0:0:
448,192,6175,1,0,0:0:0:0:
320,192,6338,1,0,0:0:0:0:
448,192,6338,1,0,0:0:0:0:
64,192,6502,1,0,0:0:0:0:
192,192,6502,1,0,0:0:0:0:
320,192,6502,1,0,0:0:0:0:
448,192,6502,1,0,0:0:0:0:
192,192,6665,1,0,0:0:0:0:
64,192,6665,1,0,0:0:0:0:
64,192,6827,1,0,0:0:0:0:
192,192,6827,1,0,0:0:0:0:
320,192,6827,1,0,0:0:0:0:
448,192,6827,1,0,0:0:0:0:
320,192,6991,1,0,0:0:0:0:
448,192,6991,1,0,0:0:0:0:
64,192,7154,1,0,0:0:0:0:
192,192,7154,1,0,0:0:0:0:
320,192,7154,1,0,0:0:0:0:
448,192,7154,1,0,0:0:0:0:
192,192,7316,1,0,0:0:0:0:
320,192,7316,1,0,0:0:0:0:
64,192,7480,1,0,0:0:0:0:
192,192,7480,1,0,0:0:0:0:
448,192,7480,1,0,0:0:0:0:
320,192,7480,1,0,0:0:0:0:
192,192,7643,1,0,0:0:0:0:
64,192,7643,1,0,0:0:0:0:
64,192,7805,1,0,0:0:0:0:
192,192,7805,1,0,0:0:0:0:
320,192,7805,1,0,0:0:0:0:
448,192,7805,1,0,0:0:0:0:
448,192,7968,1,0,0:0:0:0:
64,192,7968,1,0,0:0:0:0:
64,192,8132,1,0,0:0:0:0:
192,192,8132,1,0,0:0:0:0:
320,192,8132,1,0,0:0:0:0:
448,192,8132,1,0,0:0:0:0:
192,192,8295,1,0,0:0:0:0:
320,192,8295,1,0,0:0:0:0:
64,192,8457,1,0,0:0:0:0:
192,192,8457,1,0,0:0:0:0:
320,192,8457,1,0,0:0:0:0:
448,192,8457,1,0,0:0:0:0:
320,192,8621,1,0,0:0:0:0:
448,192,8621,1,0,0:0:0:0:
64,192,8784,1,0,0:0:0:0:
192,192,8784,1,0,0:0:0:0:
448,192,8784,1,0,0:0:0:0:
320,192,8784,1,0,0:0:0:0:
192,192,8946,1,0,0:0:0:0:
64,192,8946,1,0,0:0:0:0:
64,192,9110,1,0,0:0:0:0:
192,192,9110,1,0,0:0:0:0:
320,192,9110,1,0,0:0:0:0:
448,192,9110,1,0,0:0:0:0:
64,192,9273,1,0,0:0:0:0:
448,192,9273,1,0,0:0:0:0:
64,192,9435,1,0,0:0:0:0:
192,192,9435,1,0,0:0:0:0:
320,192,9435,1,0,0:0:0:0:
448,192,9435,1,0,0:0:0:0:
320,192,9598,1,0,0:0:0:0:
192,192,9598,1,0,0:0:0:0:
64,192,9762,1,0,0:0:0:0:
192,192,9762,1,0,0:0:0:0:
448,192,9762,1,0,0:0:0:0:
320,192,9762,1,0,0:0:0:0:
64,192,9925,1,0,0:0:0:0:
320,192,9925,1,0,0:0:0:0:
192,192,10087,1,0,0:0:0:0:
320,192,10087,1,0,0:0:0:0:
64,192,10087,1,0,0:0:0:0:
448,192,10087,1,0,0:0:0:0:
192,192,10251,1,0,0:0:0:0:
448,192,10251,1,0,0:0:0:0:
64,192,10414,1,0,0:0:0:0:
320,192,10414,1,0,0:0:0:0:
448,192,10414,1,0,0:0:0:0:
192,192,10414,1,0,0:0:0:0:
64,192,10576,1,0,0:0:0:0:
192,192,10576,1,0,0:0:0:0:
448,192,10740,1,0,0:0:0:0:
320,192,10740,1,0,0:0:0:0:
192,192,10740,1,0,0:0:0:0:
64,192,10740,1,0,0:0:0:0:
320,192,10903,1,0,0:0:0:0:
448,192,10903,1,0,0:0:0:0:
448,192,11065,1,0,0:0:0:0:
320,192,11065,1,0,0:0:0:0:
64,192,11065,1,0,0:0:0:0:
192,192,11065,1,0,0:0:0:0:
64,192,11228,1,0,0:0:0:0:
192,192,11270,1,0,0:0:0:0:
320,192,11311,1,0,0:0:0:0:
448,192,11351,1,0,0:0:0:0:
192,192,11392,1,0,0:0:0:0:
64,192,11392,1,0,0:0:0:0:
448,192,11555,1,0,0:0:0:0:
320,192,11595,1,0,0:0:0:0:
192,192,11636,1,0,0:0:0:0:
64,192,11636,1,0,0:0:0:0:
64,192,11717,5,0,0:0:0:0:
192,192,11717,1,0,0:0:0:0:
320,192,11717,1,0,0:0:0:0:
448,192,11800,1,0,0:0:0:0:
320,192,11800,1,0,0:0:0:0:
64,192,11881,1,0,0:0:0:0:
192,192,11881,1,0,0:0:0:0:
64,192,11962,1,0,0:0:0:0:
320,192,11962,1,0,0:0:0:0:
192,192,12044,1,0,0:0:0:0:
320,192,12044,1,0,0:0:0:0:
448,192,12044,1,0,0:0:0:0:
64,192,12125,1,0,0:0:0:0:
448,192,12125,1,0,0:0:0:0:
320,192,12206,1,0,0:0:0:0:
64,192,12206,1,0,0:0:0:0:
192,192,12288,1,0,0:0:0:0:
448,192,12288,1,0,0:0:0:0:
64,192,12370,1,0,0:0:0:0:
192,192,12370,1,0,0:0:0:0:
448,192,12370,1,0,0:0:0:0:
320,192,12451,1,0,0:0:0:0:
64,192,12451,1,0,0:0:0:0:
192,192,12533,1,0,0:0:0:0:
320,192,12533,1,0,0:0:0:0:
64,192,12614,1,0,0:0:0:0:
448,192,12614,1,0,0:0:0:0:
192,192,12695,1,0,0:0:0:0:
320,192,12695,1,0,0:0:0:0:
448,192,12695,1,0,0:0:0:0:
64,192,12777,1,0,0:0:0:0:
192,192,12777,1,0,0:0:0:0:
64,192,12858,1,0,0:0:0:0:
320,192,12858,1,0,0:0:0:0:
192,192,12941,1,0,0:0:0:0:
448,192,12941,1,0,0:0:0:0:
64,192,13022,1,0,0:0:0:0:
448,192,13022,1,0,0:0:0:0:
320,192,13022,1,0,0:0:0:0:
320,192,13103,1,0,0:0:0:0:
192,192,13103,1,0,0:0:0:0:
64,192,13185,1,0,0:0:0:0:
448,192,13185,1,0,0:0:0:0:
320,192,13266,1,0,0:0:0:0:
448,192,13266,1,0,0:0:0:0:
64,192,13347,1,0,0:0:0:0:
192,192,13347,1,0,0:0:0:0:
320,192,13347,1,0,0:0:0:0:
448,192,13430,1,0,0:0:0:0:
64,192,13430,1,0,0:0:0:0:
192,192,13511,1,0,0:0:0:0:
320,192,13511,1,0,0:0:0:0:
64,192,13592,1,0,0:0:0:0:
320,192,13592,1,0,0:0:0:0:
192,192,13674,1,0,0:0:0:0:
448,192,13674,1,0,0:0:0:0:
64,192,13674,1,0,0:0:0:0:
320,192,13755,1,0,0:0:0:0:
448,192,13755,1,0,0:0:0:0:
192,192,13836,1,0,0:0:0:0:
64,192,13836,1,0,0:0:0:0:
192,192,13918,1,0,0:0:0:0:
448,192,13918,1,0,0:0:0:0:
64,192,14000,1,0,0:0:0:0:
320,192,14000,1,0,0:0:0:0:
448,192,14000,1,0,0:0:0:0:
320,192,14081,1,0,0:0:0:0:
192,192,14081,1,0,0:0:0:0:
64,192,14163,1,0,0:0:0:0:
448,192,14163,1,0,0:0:0:0:
320,192,14244,1,0,0:0:0:0:
448,192,14244,1,0,0:0:0:0:
64,192,14325,1,0,0:0:0:0:
192,192,14325,1,0,0:0:0:0:
320,192,14325,1,0,0:0:0:0:
192,192,14407,1,0,0:0:0:0:
448,192,14407,1,0,0:0:0:0:
64,192,14488,1,0,0:0:0:0:
320,192,14488,1,0,0:0:0:0:
192,192,14571,1,0,0:0:0:0:
64,192,14571,1,0,0:0:0:0:
320,192,14652,1,0,0:0:0:0:
448,192,14652,1,0,0:0:0:0:
192,192,14652,1,0,0:0:0:0:
64,192,14733,1,0,0:0:0:0:
448,192,14733,1,0,0:0:0:0:
320,192,14815,1,0,0:0:0:0:
192,192,14815,1,0,0:0:0:0:
192,192,14896,1,0,0:0:0:0:
448,192,14896,1,0,0:0:0:0:
320,192,14977,1,0,0:0:0:0:
448,192,14977,1,0,0:0:0:0:
64,192,14977,1,0,0:0:0:0:
192,192,15060,1,0,0:0:0:0:
320,192,15060,1,0,0:0:0:0:
64,192,15141,1,0,0:0:0:0:
448,192,15141,1,0,0:0:0:0:
448,192,15222,1,0,0:0:0:0:
192,192,15222,1,0,0:0:0:0:
192,192,15304,1,0,0:0:0:0:
64,192,15304,1,0,0:0:0:0:
320,192,15304,1,0,0:0:0:0:
320,192,15385,1,0,0:0:0:0:
64,192,15385,1,0,0:0:0:0:
192,192,15466,1,0,0:0:0:0:
448,192,15466,1,0,0:0:0:0:
320,192,15548,1,0,0:0:0:0:
448,192,15548,1,0,0:0:0:0:
64,192,15630,1,0,0:0:0:0:
192,192,15630,1,0,0:0:0:0:
448,192,15630,1,0,0:0:0:0:
320,192,15711,1,0,0:0:0:0:
64,192,15711,1,0,0:0:0:0:
192,192,15793,1,0,0:0:0:0:
320,192,15793,1,0,0:0:0:0:
64,192,15874,1,0,0:0:0:0:
448,192,15874,1,0,0:0:0:0:
320,192,15955,1,0,0:0:0:0:
448,192,15955,1,0,0:0:0:0:
64,192,15955,1,0,0:0:0:0:
192,192,16037,1,0,0:0:0:0:
320,192,16037,1,0,0:0:0:0:
192,192,16118,1,0,0:0:0:0:
448,192,16118,1,0,0:0:0:0:
64,192,16201,1,0,0:0:0:0:
320,192,16201,1,0,0:0:0:0:
320,192,16282,1,0,0:0:0:0:
448,192,16282,1,0,0:0:0:0:
192,192,16282,1,0,0:0:0:0:
64,192,16363,1,0,0:0:0:0:
192,192,16363,1,0,0:0:0:0:
64,192,16445,1,0,0:0:0:0:
320,192,16445,1,0,0:0:0:0:
192,192,16526,1,0,0:0:0:0:
448,192,16526,1,0,0:0:0:0:
64,192,16607,1,0,0:0:0:0:
192,192,16607,1,0,0:0:0:0:
320,192,16607,1,0,0:0:0:0:
320,192,16690,1,0,0:0:0:0:
448,192,16690,1,0,0:0:0:0:
64,192,16771,1,0,0:0:0:0:
192,192,16771,1,0,0:0:0:0:
448,192,16771,1,0,0:0:0:0:
320,192,16852,1,0,0:0:0:0:
64,192,16852,1,0,0:0:0:0:
320,192,16934,1,0,0:0:0:0:
448,192,16934,1,0,0:0:0:0:
192,192,16934,1,0,0:0:0:0:
64,192,17015,1,0,0:0:0:0:
448,192,17015,1,0,0:0:0:0:
320,192,17096,1,0,0:0:0:0:
64,192,17096,1,0,0:0:0:0:
192,192,17178,1,0,0:0:0:0:
448,192,17178,1,0,0:0:0:0:
64,192,17260,1,0,0:0:0:0:
192,192,17260,1,0,0:0:0:0:
320,192,17260,1,0,0:0:0:0:
320,192,17341,1,0,0:0:0:0:
448,192,17341,1,0,0:0:0:0:
192,192,17423,1,0,0:0:0:0:
64,192,17423,1,0,0:0:0:0:
64,192,17504,1,0,0:0:0:0:
320,192,17504,1,0,0:0:0:0:
192,192,17585,1,0,0:0:0:0:
320,192,17585,1,0,0:0:0:0:
448,192,17585,1,0,0:0:0:0:
192,192,17667,1,0,0:0:0:0:
448,192,17667,1,0,0:0:0:0:
64,192,17748,1,0,0:0:0:0:
320,192,17748,1,0,0:0:0:0:
64,192,17830,1,0,0:0:0:0:
192,192,17830,1,0,0:0:0:0:
320,192,17912,1,0,0:0:0:0:
448,192,17912,1,0,0:0:0:0:
192,192,17912,1,0,0:0:0:0:
64,192,17993,1,0,0:0:0:0:
320,192,17993,1,0,0:0:0:0:
192,192,18075,1,0,0:0:0:0:
448,192,18075,1,0,0:0:0:0:
320,192,18156,1,0,0:0:0:0:
448,192,18156,1,0,0:0:0:0:
64,192,18237,1,0,0:0:0:0:
192,192,18237,1,0,0:0:0:0:
320,192,18237,1,0,0:0:0:0:
448,192,18320,1,0,0:0:0:0:
64,192,18320,1,0,0:0:0:0:
320,192,18401,1,0,0:0:0:0:
192,192,18401,1,0,0:0:0:0:
192,192,18482,1,0,0:0:0:0:
448,192,18482,1,0,0:0:0:0:
64,192,18564,1,0,0:0:0:0:
448,192,18564,1,0,0:0:0:0:
320,192,18564,1,0,0:0:0:0:
192,192,18645,1,0,0:0:0:0:
64,192,18645,1,0,0:0:0:0:
320,192,18726,1,0,0:0:0:0:
192,192,18726,1,0,0:0:0:0:
64,192,18808,1,0,0:0:0:0:
448,192,18808,1,0,0:0:0:0:
192,192,18890,1,0,0:0:0:0:
320,192,18890,1,0,0:0:0:0:
448,192,18890,1,0,0:0:0:0:
64,192,18971,1,0,0:0:0:0:
320,192,18971,1,0,0:0:0:0:
448,192,19053,1,0,0:0:0:0:
64,192,19053,1,0,0:0:0:0:
192,192,19134,1,0,0:0:0:0:
320,192,19134,1,0,0:0:0:0:
192,192,19215,1,0,0:0:0:0:
320,192,19215,1,0,0:0:0:0:
448,192,19215,1,0,0:0:0:0:
64,192,19297,1,0,0:0:0:0:
448,192,19297,1,0,0:0:0:0:
192,192,19378,1,0,0:0:0:0:
64,192,19378,1,0,0:0:0:0:
192,192,19460,1,0,0:0:0:0:
320,192,19460,1,0,0:0:0:0:
64,192,19542,1,0,0:0:0:0:
192,192,19542,1,0,0:0:0:0:
448,192,19542,1,0,0:0:0:0:
64,192,19623,1,0,0:0:0:0:
320,192,19623,1,0,0:0:0:0:
192,192,19705,1,0,0:0:0:0:
448,192,19705,1,0,0:0:0:0:
320,192,19786,1,0,0:0:0:0:
448,192,19786,1,0,0:0:0:0:
192,192,19867,1,0,0:0:0:0:
64,192,19867,1,0,0:0:0:0:
320,192,19867,1,0,0:0:0:0:
448,192,19950,1,0,0:0:0:0:
64,192,19950,1,0,0:0:0:0:
192,192,20031,1,0,0:0:0:0:
448,192,20031,1,0,0:0:0:0:
320,192,20112,1,0,0:0:0:0:
192,192,20112,1,0,0:0:0:0:
64,192,20194,1,0,0:0:0:0:
320,192,20194,1,0,0:0:0:0:
448,192,20194,1,0,0:0:0:0:
192,192,20275,1,0,0:0:0:0:
448,192,20275,1,0,0:0:0:0:
192,192,20356,1,0,0:0:0:0:
64,192,20356,1,0,0:0:0:0:
320,192,20438,1,0,0:0:0:0:
192,192,20438,1,0,0:0:0:0:
64,192,20520,1,0,0:0:0:0:
448,192,20520,1,0,0:0:0:0:
320,192,20520,1,0,0:0:0:0:
192,192,20601,1,0,0:0:0:0:
448,192,20601,1,0,0:0:0:0:
64,192,20683,1,0,0:0:0:0:
192,192,20683,1,0,0:0:0:0:
320,192,20764,1,0,0:0:0:0:
448,192,20764,1,0,0:0:0:0:
192,192,20845,1,0,0:0:0:0:
320,192,20845,1,0,0:0:0:0:
64,192,20845,1,0,0:0:0:0:
448,192,20927,1,0,0:0:0:0:
192,192,20927,1,0,0:0:0:0:
448,192,21008,1,0,0:0:0:0:
320,192,21008,1,0,0:0:0:0:
64,192,21008,1,0,0:0:0:0:
192,192,21090,1,0,0:0:0:0:
320,192,21090,1,0,0:0:0:0:
64,192,21172,1,0,0:0:0:0:
192,192,21172,1,0,0:0:0:0:
320,192,21172,1,0,0:0:0:0:
448,192,21253,1,0,0:0:0:0:
64,192,21253,1,0,0:0:0:0:
192,192,21335,1,0,0:0:0:0:
320,192,21335,1,0,0:0:0:0:
320,192,21416,1,0,0:0:0:0:
64,192,21416,1,0,0:0:0:0:
64,192,21497,1,0,0:0:0:0:
192,192,21497,1,0,0:0:0:0:
448,192,21497,1,0,0:0:0:0:
320,192,21580,1,0,0:0:0:0:
448,192,21580,1,0,0:0:0:0:
64,192,21661,1,0,0:0:0:0:
192,192,21702,1,0,0:0:0:0:
320,192,21742,1,0,0:0:0:0:
448,192,21783,1,0,0:0:0:0:
64,192,21824,1,0,0:0:0:0:
192,192,21864,1,0,0:0:0:0:
448,192,21905,1,0,0:0:0:0:
320,192,21946,1,0,0:0:0:0:
192,192,21986,1,0,0:0:0:0:
64,192,22027,1,0,0:0:0:0:
320,192,22068,1,0,0:0:0:0:
448,192,22068,1,0,0:0:0:0:
64,192,22150,1,0,0:0:0:0:
192,192,22150,1,0,0:0:0:0:
320,192,22150,1,0,0:0:0:0:
448,192,22150,1,0,0:0:0:0:
64,192,22231,1,0,0:0:0:0:
192,192,22231,1,0,0:0:0:0:
64,192,22313,1,0,0:0:0:0:
448,192,22313,1,0,0:0:0:0:
320,192,22394,1,0,0:0:0:0:
448,192,22394,1,0,0:0:0:0:
64,192,22475,1,0,0:0:0:0:
192,192,22475,1,0,0:0:0:0:
320,192,22475,1,0,0:0:0:0:
448,192,22475,1,0,0:0:0:0:
192,192,22557,1,0,0:0:0:0:
64,192,22557,1,0,0:0:0:0:
192,192,22638,1,0,0:0:0:0:
320,192,22638,1,0,0:0:0:0:
64,192,22720,1,0,0:0:0:0:
448,192,22720,1,0,0:0:0:0:
64,192,22802,1,0,0:0:0:0:
192,192,22802,1,0,0:0:0:0:
320,192,22802,1,0,0:0:0:0:
448,192,22802,1,0,0:0:0:0:
320,192,22883,1,0,0:0:0:0:
448,192,22883,1,0,0:0:0:0:
192,192,22965,1,0,0:0:0:0:
64,192,22965,1,0,0:0:0:0:
64,192,23046,1,0,0:0:0:0:
448,192,23046,1,0,0:0:0:0:
192,192,23127,1,0,0:0:0:0:
64,192,23127,1,0,0:0:0:0:
448,192,23127,1,0,0:0:0:0:
320,192,23127,1,0,0:0:0:0:
320,192,23210,1,0,0:0:0:0:
448,192,23210,1,0,0:0:0:0:
192,192,23291,1,0,0:0:0:0:
320,192,23291,1,0,0:0:0:0:
64,192,23372,1,0,0:0:0:0:
448,192,23372,1,0,0:0:0:0:
64,192,23454,1,0,0:0:0:0:
320,192,23454,1,0,0:0:0:0:
448,192,23454,1,0,0:0:0:0:
192,192,23454,1,0,0:0:0:0:
192,192,23535,1,0,0:0:0:0:
64,192,23535,1,0,0:0:0:0:
448,192,23616,1,0,0:0:0:0:
320,192,23616,1,0,0:0:0:0:
64,192,23698,1,0,0:0:0:0:
320,192,23698,1,0,0:0:0:0:
64,192,23780,1,0,0:0:0:0:
192,192,23780,1,0,0:0:0:0:
320,192,23780,1,0,0:0:0:0:
448,192,23780,1,0,0:0:0:0:
192,192,23861,1,0,0:0:0:0:
448,192,23861,1,0,0:0:0:0:
320,192,23943,1,0,0:0:0:0:
448,192,23943,1,0,0:0:0:0:
64,192,24024,1,0,0:0:0:0:
192,192,24024,1,0,0:0:0:0:
64,192,24105,1,0,0:0:0:0:
192,192,24105,1,0,0:0:0:0:
320,192,24105,1,0,0:0:0:0:
448,192,24105,1,0,0:0:0:0:
320,192,24187,1,0,0:0:0:0:
448,192,24187,1,0,0:0:0:0:
64,192,24268,1,0,0:0:0:0:
448,192,24268,1,0,0:0:0:0:
192,192,24350,1,0,0:0:0:0:
64,192,24350,1,0,0:0:0:0:
64,192,24432,1,0,0:0:0:0:
320,192,24432,1,0,0:0:0:0:
448,192,24432,1,0,0:0:0:0:
192,192,24432,1,0,0:0:0:0:
320,192,24513,1,0,0:0:0:0:
448,192,24513,1,0,0:0:0:0:
64,192,24595,1,0,0:0:0:0:
320,192,24595,1,0,0:0:0:0:
192,192,24676,1,0,0:0:0:0:
448,192,24676,1,0,0:0:0:0:
320,192,24757,1,0,0:0:0:0:
448,192,24757,1,0,0:0:0:0:
192,192,24757,1,0,0:0:0:0:
64,192,24757,1,0,0:0:0:0:
192,192,24840,1,0,0:0:0:0:
64,192,24840,1,0,0:0:0:0:
448,192,24921,1,0,0:0:0:0:
64,192,24921,1,0,0:0:0:0:
448,192,25002,1,0,0:0:0:0:
192,192,25002,1,0,0:0:0:0:
320,192,25084,1,0,0:0:0:0:
448,192,25084,1,0,0:0:0:0:
192,192,25084,1,0,0:0:0:0:
64,192,25084,1,0,0:0:0:0:
64,192,25165,1,0,0:0:0:0:
320,192,25165,1,0,0:0:0:0:
192,192,25246,1,0,0:0:0:0:
320,192,25246,1,0,0:0:0:0:
64,192,25328,1,0,0:0:0:0:
192,192,25328,1,0,0:0:0:0:
320,192,25410,1,0,0:0:0:0:
448,192,25410,1,0,0:0:0:0:
192,192,25410,1,0,0:0:0:0:
64,192,25410,1,0,0:0:0:0:
320,192,25491,1,0,0:0:0:0:
448,192,25491,1,0,0:0:0:0:
64,192,25573,1,0,0:0:0:0:
448,192,25573,1,0,0:0:0:0:
192,192,25654,1,0,0:0:0:0:
320,192,25654,1,0,0:0:0:0:
64,192,25735,1,0,0:0:0:0:
192,192,25735,1,0,0:0:0:0:
320,192,25735,1,0,0:0:0:0:
448,192,25735,1,0,0:0:0:0:
192,192,25817,1,0,0:0:0:0:
64,192,25817,1,0,0:0:0:0:
192,192,25898,1,0,0:0:0:0:
448,192,25898,1,0,0:0:0:0:
64,192,25980,1,0,0:0:0:0:
320,192,25980,1,0,0:0:0:0:
64,192,26062,1,0,0:0:0:0:
192,192,26062,1,0,0:0:0:0:
320,192,26062,1,0,0:0:0:0:
448,192,26062,1,0,0:0:0:0:
320,192,26143,1,0,0:0:0:0:
448,192,26143,1,0,0:0:0:0:
192,192,26225,1,0,0:0:0:0:
64,192,26225,1,0,0:0:0:0:
64,192,26306,1,0,0:0:0:0:
320,192,26306,1,0,0:0:0:0:
64,192,26387,1,0,0:0:0:0:
192,192,26387,1,0,0:0:0:0:
320,192,26387,1,0,0:0:0:0:
448,192,26387,1,0,0:0:0:0:
192,192,26470,1,0,0:0:0:0:
448,192,26470,1,0,0:0:0:0:
320,192,26551,1,0,0:0:0:0:
448,192,26551,1,0,0:0:0:0:
192,192,26632,1,0,0:0:0:0:
64,192,26632,1,0,0:0:0:0:
64,192,26714,1,0,0:0:0:0:
192,192,26714,1,0,0:0:0:0:
320,192,26714,1,0,0:0:0:0:
448,192,26714,1,0,0:0:0:0:
320,192,26795,1,0,0:0:0:0:
192,192,26795,1,0,0:0:0:0:
64,192,26876,1,0,0:0:0:0:
448,192,26876,1,0,0:0:0:0:
320,192,26958,1,0,0:0:0:0:
448,192,26958,1,0,0:0:0:0:
64,192,27040,1,0,0:0:0:0:
192,192,27040,1,0,0:0:0:0:
448,192,27040,1,0,0:0:0:0:
320,192,27040,1,0,0:0:0:0:
64,192,27121,1,0,0:0:0:0:
192,192,27121,1,0,0:0:0:0:
64,192,27203,1,0,0:0:0:0:
448,192,27203,1,0,0:0:0:0:
192,192,27284,1,0,0:0:0:0:
320,192,27284,1,0,0:0:0:0:
64,192,27365,1,0,0:0:0:0:
192,192,27365,1,0,0:0:0:0:
320,192,27365,1,0,0:0:0:0:
448,192,27365,1,0,0:0:0:0:
64,192,27528,1,0,0:0:0:0:
320,192,27528,1,0,0:0:0:0:
448,192,27528,1,0,0:0:0:0:
64,192,27692,1,0,0:0:0:0:
192,192,27692,1,0,0:0:0:0:
320,192,27692,1,0,0:0:0:0:
448,192,27692,1,0,0:0:0:0:
320,192,27855,1,0,0:0:0:0:
448,192,27855,1,0,0:0:0:0:
192,192,27855,1,0,0:0:0:0:
64,192,28017,1,0,0:0:0:0:
192,192,28017,1,0,0:0:0:0:
320,192,28017,1,0,0:0:0:0:
448,192,28017,1,0,0:0:0:0:
192,192,28181,1,0,0:0:0:0:
64,192,28181,1,0,0:0:0:0:
320,192,28181,1,0,0:0:0:0:
64,192,28344,1,0,0:0:0:0:
192,192,28344,1,0,0:0:0:0:
320,192,28344,1,0,0:0:0:0:
448,192,28344,1,0,0:0:0:0:
64,192,28506,1,0,0:0:0:0:
448,192,28506,1,0,0:0:0:0:
320,192,28506,1,0,0:0:0:0:
320,192,28670,1,0,0:0:0:0:
192,192,28670,1,0,0:0:0:0:
448,192,28670,1,0,0:0:0:0:
64,192,28670,1,0,0:0:0:0:
320,192,28833,1,0,0:0:0:0:
448,192,28833,1,0,0:0:0:0:
64,192,28833,1,0,0:0:0:0:
64,192,28995,1,0,0:0:0:0:
192,192,28995,1,0,0:0:0:0:
448,192,28995,1,0,0:0:0:0:
320,192,28995,1,0,0:0:0:0:
64,192,29158,1,0,0:0:0:0:
320,192,29158,1,0,0:0:0:0:
448,192,29158,1,0,0:0:0:0:
64,192,29322,1,0,0:0:0:0:
320,192,29322,1,0,0:0:0:0:
448,192,29322,1,0,0:0:0:0:
192,192,29322,1,0,0:0:0:0:
192,192,29485,1,0,0:0:0:0:
64,192,29485,1,0,0:0:0:0:
320,192,29485,1,0,0:0:0:0:
64,192,29647,1,0,0:0:0:0:
320,192,29647,1,0,0:0:0:0:
448,192,29647,1,0,0:0:0:0:
192,192,29647,1,0,0:0:0:0:
320,192,29811,1,0,0:0:0:0:
448,192,29811,1,0,0:0:0:0:
192,192,29811,1,0,0:0:0:0:
192,192,29974,1,0,0:0:0:0:
64,192,29974,1,0,0:0:0:0:
320,192,30055,1,0,0:0:0:0:
448,192,30055,1,0,0:0:0:0:
192,192,30136,1,0,0:0:0:0:
64,192,30136,1,0,0:0:0:0:
320,192,30218,1,0,0:0:0:0:
448,192,30218,1,0,0:0:0:0:
192,192,30300,1,0,0:0:0:0:
64,192,30300,1,0,0:0:0:0:
320,192,30381,1,0,0:0:0:0:
448,192,30381,1,0,0:0:0:0:
192,192,30463,1,0,0:0:0:0:
64,192,30463,1,0,0:0:0:0:
320,192,30544,1,0,0:0:0:0:
448,192,30544,1,0,0:0:0:0:
64,192,30625,1,0,0:0:0:0:
192,192,30625,1,0,0:0:0:0:
320,192,30707,1,0,0:0:0:0:
448,192,30707,1,0,0:0:0:0:
192,192,30788,1,0,0:0:0:0:
64,192,30788,1,0,0:0:0:0:
320,192,30870,1,0,0:0:0:0:
448,192,30870,1,0,0:0:0:0:
192,192,30952,1,0,0:0:0:0:
64,192,30952,1,0,0:0:0:0:
320,192,31033,1,0,0:0:0:0:
448,192,31033,1,0,0:0:0:0:
192,192,31115,1,0,0:0:0:0:
64,192,31115,1,0,0:0:0:0:
320,192,31196,1,0,0:0:0:0:
448,192,31196,1,0,0:0:0:0:
64,192,31277,5,0,0:0:0:0:
192,192,31318,1,0,0:0:0:0:
320,192,31360,1,0,0:0:0:0:
448,192,31400,1,0,0:0:0:0:
64,192,31441,1,0,0:0:0:0:
192,192,31482,1,0,0:0:0:0:
448,192,31522,1,0,0:0:0:0:
320,192,31563,1,0,0:0:0:0:
192,192,31604,1,0,0:0:0:0:
64,192,31644,1,0,0:0:0:0:
448,192,31685,1,0,0:0:0:0:
320,192,31726,1,0,0:0:0:0:
64,192,31766,1,0,0:0:0:0:
192,192,31807,1,0,0:0:0:0:
320,192,31848,1,0,0:0:0:0:
448,192,31888,1,0,0:0:0:0:
64,192,31930,1,0,0:0:0:0:
192,192,31971,1,0,0:0:0:0:
320,192,32011,1,0,0:0:0:0:
448,192,32052,1,0,0:0:0:0:
192,192,32174,1,0,0:0:0:0:
320,192,32215,1,0,0:0:0:0:
448,192,32255,1,0,0:0:0:0:
64,192,32296,1,0,0:0:0:0:
320,192,32418,1,0,0:0:0:0:
448,192,32460,1,0,0:0:0:0:
64,192,32500,1,0,0:0:0:0:
192,192,32541,1,0,0:0:0:0:
320,192,32582,1,0,0:0:0:0:
448,192,32582,1,0,0:0:0:0:
64,192,32745,1,0,0:0:0:0:
320,192,32907,1,0,0:0:0:0:
448,192,32907,1,0,0:0:0:0:
192,192,32907,1,0,0:0:0:0:
64,192,32907,1,0,0:0:0:0:
192,192,33071,1,0,0:0:0:0:
64,192,33234,1,0,0:0:0:0:
320,192,33234,1,0,0:0:0:0:
448,192,33396,1,0,0:0:0:0:
64,192,33560,1,0,0:0:0:0:
320,192,33560,1,0,0:0:0:0:
192,192,33560,1,0,0:0:0:0:
448,192,33560,1,0,0:0:0:0:
192,192,33723,1,0,0:0:0:0:
448,192,33885,1,0,0:0:0:0:
320,192,33885,1,0,0:0:0:0:
64,192,34048,1,0,0:0:0:0:
192,192,34212,1,0,0:0:0:0:
320,192,34212,1,0,0:0:0:0:
448,192,34212,1,0,0:0:0:0:
64,192,34212,1,0,0:0:0:0:
448,192,34374,1,0,0:0:0:0:
320,192,34537,1,0,0:0:0:0:
192,192,34537,1,0,0:0:0:0:
64,192,34701,1,0,0:0:0:0:
192,192,34864,1,0,0:0:0:0:
448,192,34864,1,0,0:0:0:0:
64,192,34864,1,0,0:0:0:0:
320,192,34864,1,0,0:0:0:0:
320,192,35026,1,0,0:0:0:0:
64,192,35190,1,0,0:0:0:0:
448,192,35190,1,0,0:0:0:0:
192,192,35353,1,0,0:0:0:0:
320,192,35515,1,0,0:0:0:0:
448,192,35515,1,0,0:0:0:0:
64,192,35515,1,0,0:0:0:0:
192,192,35515,1,0,0:0:0:0:
64,192,35678,1,0,0:0:0:0:
320,192,35842,1,0,0:0:0:0:
448,192,36004,1,0,0:0:0:0:
64,192,36167,1,0,0:0:0:0:
192,192,36167,1,0,0:0:0:0:
320,192,36167,1,0,0:0:0:0:
448,192,36167,1,0,0:0:0:0:
320,192,36331,1,0,0:0:0:0:
64,192,36494,1,0,0:0:0:0:
192,192,36656,1,0,0:0:0:0:
320,192,36820,1,0,0:0:0:0:
448,192,36820,1,0,0:0:0:0:
192,192,36820,1,0,0:0:0:0:
64,192,36820,1,0,0:0:0:0:
64,192,36983,1,0,0:0:0:0:
192,192,37145,1,0,0:0:0:0:
448,192,37308,1,0,0:0:0:0:
64,192,37472,1,0,0:0:0:0:
320,192,37472,1,0,0:0:0:0:
192,192,37472,1,0,0:0:0:0:
448,192,37472,1,0,0:0:0:0:
192,192,37634,1,0,0:0:0:0:
320,192,37797,1,0,0:0:0:0:
448,192,37797,1,0,0:0:0:0:
64,192,37961,1,0,0:0:0:0:
320,192,38124,1,0,0:0:0:0:
448,192,38124,1,0,0:0:0:0:
192,192,38124,1,0,0:0:0:0:
64,192,38124,1,0,0:0:0:0:
192,192,38286,1,0,0:0:0:0:
64,192,38450,1,0,0:0:0:0:
448,192,38450,1,0,0:0:0:0:
320,192,38613,1,0,0:0:0:0:
448,192,38775,1,0,0:0:0:0:
192,192,38775,1,0,0:0:0:0:
64,192,38775,1,0,0:0:0:0:
320,192,38775,1,0,0:0:0:0:
192,192,38938,1,0,0:0:0:0:
448,192,38938,1,0,0:0:0:0:
64,192,39102,1,0,0:0:0:0:
192,192,39264,1,0,0:0:0:0:
320,192,39264,1,0,0:0:0:0:
320,192,39427,1,0,0:0:0:0:
448,192,39427,1,0,0:0:0:0:
192,192,39427,1,0,0:0:0:0:
64,192,39427,1,0,0:0:0:0:
64,192,39591,1,0,0:0:0:0:
320,192,39591,1,0,0:0:0:0:
192,192,39754,1,0,0:0:0:0:
448,192,39754,1,0,0:0:0:0:
64,192,39916,1,0,0:0:0:0:
448,192,40080,1,0,0:0:0:0:
64,192,40080,1,0,0:0:0:0:
320,192,40080,1,0,0:0:0:0:
192,192,40080,1,0,0:0:0:0:
320,192,40243,1,0,0:0:0:0:
192,192,40405,1,0,0:0:0:0:
64,192,40405,1,0,0:0:0:0:
448,192,40568,1,0,0:0:0:0:
192,192,40732,1,0,0:0:0:0:
64,192,40732,1,0,0:0:0:0:
320,192,40732,1,0,0:0:0:0:
448,192,40732,1,0,0:0:0:0:
320,192,40894,1,0,0:0:0:0:
448,192,41057,1,0,0:0:0:0:
192,192,41057,1,0,0:0:0:0:
64,192,41221,1,0,0:0:0:0:
192,192,41384,1,0,0:0:0:0:
320,192,41384,1,0,0:0:0:0:
448,192,41384,1,0,0:0:0:0:
64,192,41384,1,0,0:0:0:0:
448,192,41546,1,0,0:0:0:0:
192,192,41546,1,0,0:0:0:0:
64,192,41710,1,0,0:0:0:0:
448,192,41873,1,0,0:0:0:0:
320,192,41873,1,0,0:0:0:0:
320,192,42035,1,0,0:0:0:0:
192,192,42035,1,0,0:0:0:0:
64,192,42035,1,0,0:0:0:0:
64,192,42198,1,0,0:0:0:0:
448,192,42198,1,0,0:0:0:0:
320,192,42362,1,0,0:0:0:0:
192,192,42362,1,0,0:0:0:0:
64,192,42524,1,0,0:0:0:0:
320,192,42524,1,0,0:0:0:0:
448,192,42524,1,0,0:0:0:0:
192,192,42687,1,0,0:0:0:0:
448,192,42687,1,0,0:0:0:0:
64,192,42851,1,0,0:0:0:0:
320,192,42851,1,0,0:0:0:0:
64,192,43014,1,0,0:0:0:0:
448,192,43014,1,0,0:0:0:0:
192,192,43014,1,0,0:0:0:0:
320,192,43095,1,0,0:0:0:0:
448,192,43095,1,0,0:0:0:0:
64,192,43176,1,0,0:0:0:0:
320,192,43176,1,0,0:0:0:0:
192,192,43258,1,0,0:0:0:0:
64,192,43258,1,0,0:0:0:0:
192,192,43340,1,0,0:0:0:0:
320,192,43340,1,0,0:0:0:0:
448,192,43340,1,0,0:0:0:0:
64,192,43421,1,0,0:0:0:0:
448,192,43421,1,0,0:0:0:0:
320,192,43503,1,0,0:0:0:0:
448,192,43503,1,0,0:0:0:0:
192,192,43584,1,0,0:0:0:0:
320,192,43584,1,0,0:0:0:0:
64,192,43665,1,0,0:0:0:0:
320,192,43665,1,0,0:0:0:0:
448,192,43665,1,0,0:0:0:0:
192,192,43747,1,0,0:0:0:0:
64,192,43747,1,0,0:0:0:0:
64,192,43828,1,0,0:0:0:0:
320,192,43828,1,0,0:0:0:0:
448,192,43910,1,0,0:0:0:0:
192,192,43910,1,0,0:0:0:0:
64,192,43992,1,0,0:0:0:0:
192,192,43992,1,0,0:0:0:0:
320,192,43992,1,0,0:0:0:0:
448,192,44073,1,0,0:0:0:0:
320,192,44073,1,0,0:0:0:0:
64,192,44154,1,0,0:0:0:0:
448,192,44154,1,0,0:0:0:0:
192,192,44236,1,0,0:0:0:0:
320,192,44236,1,0,0:0:0:0:
64,192,44317,1,0,0:0:0:0:
192,192,44317,1,0,0:0:0:0:
448,192,44317,1,0,0:0:0:0:
320,192,44400,1,0,0:0:0:0:
448,192,44400,1,0,0:0:0:0:
192,192,44481,1,0,0:0:0:0:
64,192,44481,1,0,0:0:0:0:
64,192,44562,1,0,0:0:0:0:
320,192,44562,1,0,0:0:0:0:
192,192,44644,1,0,0:0:0:0:
320,192,44644,1,0,0:0:0:0:
448,192,44644,1,0,0:0:0:0:
448,192,44725,1,0,0:0:0:0:
64,192,44725,1,0,0:0:0:0:
320,192,44806,1,0,0:0:0:0:
192,192,44806,1,0,0:0:0:0:
320,192,44888,1,0,0:0:0:0:
64,192,44888,1,0,0:0:0:0:
64,192,44970,1,0,0:0:0:0:
320,192,44970,1,0,0:0:0:0:
448,192,44970,1,0,0:0:0:0:
64,192,45051,1,0,0:0:0:0:
192,192,45051,1,0,0:0:0:0:
320,192,45133,1,0,0:0:0:0:
448,192,45133,1,0,0:0:0:0:
64,192,45214,1,0,0:0:0:0:
448,192,45214,1,0,0:0:0:0:
64,192,45295,1,0,0:0:0:0:
192,192,45295,1,0,0:0:0:0:
320,192,45295,1,0,0:0:0:0:
192,192,45377,1,0,0:0:0:0:
448,192,45377,1,0,0:0:0:0:
64,192,45458,1,0,0:0:0:0:
320,192,45458,1,0,0:0:0:0:
448,192,45540,1,0,0:0:0:0:
64,192,45540,1,0,0:0:0:0:
192,192,45622,1,0,0:0:0:0:
320,192,45622,1,0,0:0:0:0:
448,192,45622,1,0,0:0:0:0:
320,192,45703,1,0,0:0:0:0:
192,192,45703,1,0,0:0:0:0:
64,192,45784,1,0,0:0:0:0:
448,192,45784,1,0,0:0:0:0:
192,192,45866,1,0,0:0:0:0:
64,192,45866,1,0,0:0:0:0:
448,192,45947,1,0,0:0:0:0:
320,192,45947,1,0,0:0:0:0:
192,192,45947,1,0,0:0:0:0:
64,192,46030,1,0,0:0:0:0:
320,192,46030,1,0,0:0:0:0:
192,192,46111,1,0,0:0:0:0:
448,192,46111,1,0,0:0:0:0:
320,192,46192,1,0,0:0:0:0:
448,192,46192,1,0,0:0:0:0:
192,192,46274,1,0,0:0:0:0:
320,192,46274,1,0,0:0:0:0:
448,192,46274,1,0,0:0:0:0:
64,192,46355,1,0,0:0:0:0:
192,192,46355,1,0,0:0:0:0:
64,192,46436,1,0,0:0:0:0:
320,192,46436,1,0,0:0:0:0:
192,192,46518,1,0,0:0:0:0:
320,192,46518,1,0,0:0:0:0:
64,192,46600,5,0,0:0:0:0:
320,192,46600,1,0,0:0:0:0:
448,192,46600,1,0,0:0:0:0:
192,192,46681,1,0,0:0:0:0:
448,192,46681,1,0,0:0:0:0:
320,192,46763,1,0,0:0:0:0:
64,192,46763,1,0,0:0:0:0:
64,192,46844,1,0,0:0:0:0:
192,192,46844,1,0,0:0:0:0:
64,192,46925,1,0,0:0:0:0:
192,192,46925,1,0,0:0:0:0:
320,192,46925,1,0,0:0:0:0:
448,192,47007,1,0,0:0:0:0:
320,192,47007,1,0,0:0:0:0:
192,192,47088,1,0,0:0:0:0:
64,192,47088,1,0,0:0:0:0:
192,192,47170,1,0,0:0:0:0:
448,192,47170,1,0,0:0:0:0:
448,192,47252,1,0,0:0:0:0:
192,192,47252,1,0,0:0:0:0:
320,192,47252,1,0,0:0:0:0:
64,192,47333,1,0,0:0:0:0:
320,192,47333,1,0,0:0:0:0:
192,192,47414,1,0,0:0:0:0:
64,192,47414,1,0,0:0:0:0:
448,192,47496,1,0,0:0:0:0:
320,192,47496,1,0,0:0:0:0:
64,192,47577,1,0,0:0:0:0:
448,192,47577,1,0,0:0:0:0:
192,192,47577,1,0,0:0:0:0:
192,192,47660,1,0,0:0:0:0:
320,192,47660,1,0,0:0:0:0:
448,192,47741,1,0,0:0:0:0:
64,192,47741,1,0,0:0:0:0:
64,192,47822,1,0,0:0:0:0:
320,192,47822,1,0,0:0:0:0:
448,192,47904,5,0,0:0:0:0:
320,192,47904,1,0,0:0:0:0:
192,192,47904,1,0,0:0:0:0:
64,192,47985,1,0,0:0:0:0:
448,192,47985,1,0,0:0:0:0:
320,192,48066,1,0,0:0:0:0:
192,192,48066,1,0,0:0:0:0:
64,192,48066,1,0,0:0:0:0:
192,192,48148,1,0,0:0:0:0:
320,192,48148,1,0,0:0:0:0:
64,192,48230,1,0,0:0:0:0:
320,192,48230,1,0,0:0:0:0:
448,192,48230,1,0,0:0:0:0:
192,192,48311,1,0,0:0:0:0:
64,192,48311,1,0,0:0:0:0:
192,192,48393,1,0,0:0:0:0:
448,192,48393,1,0,0:0:0:0:
320,192,48474,1,0,0:0:0:0:
448,192,48474,1,0,0:0:0:0:
320,192,48555,1,0,0:0:0:0:
192,192,48555,1,0,0:0:0:0:
64,192,48555,1,0,0:0:0:0:
448,192,48637,1,0,0:0:0:0:
64,192,48637,1,0,0:0:0:0:
192,192,48718,1,0,0:0:0:0:
320,192,48718,1,0,0:0:0:0:
64,192,48800,1,0,0:0:0:0:
320,192,48800,1,0,0:0:0:0:
64,192,48882,1,0,0:0:0:0:
192,192,48882,1,0,0:0:0:0:
448,192,48882,1,0,0:0:0:0:
320,192,48963,1,0,0:0:0:0:
448,192,48963,1,0,0:0:0:0:
320,192,49044,1,0,0:0:0:0:
64,192,49044,1,0,0:0:0:0:
192,192,49126,1,0,0:0:0:0:
64,192,49126,1,0,0:0:0:0:
320,192,49207,1,0,0:0:0:0:
192,192,49207,1,0,0:0:0:0:
448,192,49207,1,0,0:0:0:0:
64,192,49290,1,0,0:0:0:0:
320,192,49290,1,0,0:0:0:0:
192,192,49371,1,0,0:0:0:0:
448,192,49371,1,0,0:0:0:0:
320,192,49452,1,0,0:0:0:0:
448,192,49452,1,0,0:0:0:0:
64,192,49534,1,0,0:0:0:0:
320,192,49534,1,0,0:0:0:0:
448,192,49534,1,0,0:0:0:0:
192,192,49615,1,0,0:0:0:0:
64,192,49615,1,0,0:0:0:0:
192,192,49696,1,0,0:0:0:0:
320,192,49696,1,0,0:0:0:0:
64,192,49778,1,0,0:0:0:0:
448,192,49778,1,0,0:0:0:0:
64,192,49860,1,0,0:0:0:0:
192,192,49860,1,0,0:0:0:0:
448,192,49860,1,0,0:0:0:0:
320,192,49941,1,0,0:0:0:0:
192,192,49941,1,0,0:0:0:0:
64,192,50023,1,0,0:0:0:0:
448,192,50023,1,0,0:0:0:0:
320,192,50104,1,0,0:0:0:0:
192,192,50104,1,0,0:0:0:0:
64,192,50185,1,0,0:0:0:0:
192,192,50185,1,0,0:0:0:0:
320,192,50185,1,0,0:0:0:0:
64,192,50267,1,0,0:0:0:0:
448,192,50267,1,0,0:0:0:0:
192,192,50348,1,0,0:0:0:0:
448,192,50348,1,0,0:0:0:0:
320,192,50430,1,0,0:0:0:0:
192,192,50430,1,0,0:0:0:0:
192,192,50512,1,0,0:0:0:0:
320,192,50512,1,0,0:0:0:0:
448,192,50512,1,0,0:0:0:0:
64,192,50593,1,0,0:0:0:0:
448,192,50593,1,0,0:0:0:0:
320,192,50674,1,0,0:0:0:0:
64,192,50674,1,0,0:0:0:0:
192,192,50756,1,0,0:0:0:0:
448,192,50756,1,0,0:0:0:0:
64,192,50837,1,0,0:0:0:0:
320,192,50837,1,0,0:0:0:0:
448,192,50837,1,0,0:0:0:0:
192,192,50918,1,0,0:0:0:0:
320,192,50918,1,0,0:0:0:0:
64,192,51001,1,0,0:0:0:0:
448,192,51001,1,0,0:0:0:0:
320,192,51082,1,0,0:0:0:0:
448,192,51082,1,0,0:0:0:0:
64,192,51164,1,0,0:0:0:0:
192,192,51164,1,0,0:0:0:0:
320,192,51164,1,0,0:0:0:0:
448,192,51245,1,0,0:0:0:0:
64,192,51245,1,0,0:0:0:0:
192,192,51326,1,0,0:0:0:0:
448,192,51326,1,0,0:0:0:0:
320,192,51408,1,0,0:0:0:0:
64,192,51408,1,0,0:0:0:0:
64,192,51490,1,0,0:0:0:0:
448,192,51490,1,0,0:0:0:0:
192,192,51490,1,0,0:0:0:0:
320,192,51571,1,0,0:0:0:0:
448,192,51571,1,0,0:0:0:0:
192,192,51653,1,0,0:0:0:0:
320,192,51653,1,0,0:0:0:0:
64,192,51734,1,0,0:0:0:0:
448,192,51734,1,0,0:0:0:0:
192,192,51815,1,0,0:0:0:0:
448,192,51815,1,0,0:0:0:0:
320,192,51815,1,0,0:0:0:0:
192,192,51897,1,0,0:0:0:0:
64,192,51897,1,0,0:0:0:0:
320,192,51978,1,0,0:0:0:0:
64,192,51978,1,0,0:0:0:0:
192,192,52060,1,0,0:0:0:0:
448,192,52060,1,0,0:0:0:0:
64,192,52142,1,0,0:0:0:0:
320,192,52142,1,0,0:0:0:0:
448,192,52142,1,0,0:0:0:0:
192,192,52223,1,0,0:0:0:0:
320,192,52223,1,0,0:0:0:0:
64,192,52304,1,0,0:0:0:0:
320,192,52304,1,0,0:0:0:0:
192,192,52386,1,0,0:0:0:0:
448,192,52386,1,0,0:0:0:0:
192,192,52467,1,0,0:0:0:0:
64,192,52467,1,0,0:0:0:0:
320,192,52467,1,0,0:0:0:0:
192,192,52548,1,0,0:0:0:0:
320,192,52548,1,0,0:0:0:0:
64,192,52631,1,0,0:0:0:0:
448,192,52631,1,0,0:0:0:0:
192,192,52712,1,0,0:0:0:0:
320,192,52712,1,0,0:0:0:0:
448,192,52794,1,0,0:0:0:0:
64,192,52794,1,0,0:0:0:0:
320,192,52794,1,0,0:0:0:0:
192,192,52875,1,0,0:0:0:0:
448,192,52875,1,0,0:0:0:0:
64,192,52956,1,0,0:0:0:0:
192,192,52956,1,0,0:0:0:0:
320,192,53038,1,0,0:0:0:0:
448,192,53038,1,0,0:0:0:0:
448,192,53120,1,0,0:0:0:0:
192,192,53120,1,0,0:0:0:0:
64,192,53120,1,0,0:0:0:0:
320,192,53201,1,0,0:0:0:0:
192,192,53201,1,0,0:0:0:0:
448,192,53283,1,0,0:0:0:0:
64,192,53283,1,0,0:0:0:0:
320,192,53283,1,0,0:0:0:0:
192,192,53364,1,0,0:0:0:0:
64,192,53364,1,0,0:0:0:0:
192,192,53445,5,0,0:0:0:0:
320,192,53445,1,0,0:0:0:0:
448,192,53445,1,0,0:0:0:0:
64,192,53527,1,0,0:0:0:0:
320,192,53527,1,0,0:0:0:0:
192,192,53608,1,0,0:0:0:0:
448,192,53608,1,0,0:0:0:0:
320,192,53690,1,0,0:0:0:0:
448,192,53690,1,0,0:0:0:0:
64,192,53772,1,0,0:0:0:0:
448,192,53772,1,0,0:0:0:0:
320,192,53772,1,0,0:0:0:0:
192,192,53853,1,0,0:0:0:0:
64,192,53853,1,0,0:0:0:0:
192,192,53934,1,0,0:0:0:0:
448,192,53934,1,0,0:0:0:0:
320,192,54016,1,0,0:0:0:0:
64,192,54016,1,0,0:0:0:0:
64,192,54097,1,0,0:0:0:0:
448,192,54097,1,0,0:0:0:0:
192,192,54097,1,0,0:0:0:0:
320,192,54178,1,0,0:0:0:0:
448,192,54178,1,0,0:0:0:0:
320,192,54261,1,0,0:0:0:0:
192,192,54261,1,0,0:0:0:0:
64,192,54342,1,0,0:0:0:0:
448,192,54342,1,0,0:0:0:0:
64,192,54424,1,0,0:0:0:0:
192,192,54424,1,0,0:0:0:0:
320,192,54424,1,0,0:0:0:0:
448,192,54505,1,0,0:0:0:0:
320,192,54505,1,0,0:0:0:0:
192,192,54586,1,0,0:0:0:0:
448,192,54586,1,0,0:0:0:0:
192,192,54668,1,0,0:0:0:0:
64,192,54668,1,0,0:0:0:0:
64,192,54750,1,0,0:0:0:0:
448,192,54750,1,0,0:0:0:0:
320,192,54750,1,0,0:0:0:0:
192,192,54831,1,0,0:0:0:0:
448,192,54831,1,0,0:0:0:0:
320,192,54913,1,0,0:0:0:0:
192,192,54913,1,0,0:0:0:0:
64,192,54994,1,0,0:0:0:0:
448,192,54994,1,0,0:0:0:0:
64,192,55075,1,0,0:0:0:0:
192,192,55075,1,0,0:0:0:0:
448,192,55075,1,0,0:0:0:0:
320,192,55157,1,0,0:0:0:0:
64,192,55157,1,0,0:0:0:0:
192,192,55238,1,0,0:0:0:0:
448,192,55238,1,0,0:0:0:0:
320,192,55320,1,0,0:0:0:0:
448,192,55320,1,0,0:0:0:0:
64,192,55402,1,0,0:0:0:0:
192,192,55402,1,0,0:0:0:0:
320,192,55402,1,0,0:0:0:0:
448,192,55483,1,0,0:0:0:0:
64,192,55483,1,0,0:0:0:0:
192,192,55564,1,0,0:0:0:0:
320,192,55564,1,0,0:0:0:0:
192,192,55646,1,0,0:0:0:0:
448,192,55646,1,0,0:0:0:0:
64,192,55727,1,0,0:0:0:0:
320,192,55727,1,0,0:0:0:0:
448,192,55727,1,0,0:0:0:0:
320,192,55808,1,0,0:0:0:0:
448,192,55808,1,0,0:0:0:0:
64,192,55891,1,0,0:0:0:0:
192,192,55891,1,0,0:0:0:0:
64,192,55972,1,0,0:0:0:0:
320,192,55972,1,0,0:0:0:0:
192,192,56054,1,0,0:0:0:0:
320,192,56054,1,0,0:0:0:0:
448,192,56054,1,0,0:0:0:0:
448,192,56135,1,0,0:0:0:0:
64,192,56135,1,0,0:0:0:0:
192,192,56216,1,0,0:0:0:0:
320,192,56216,1,0,0:0:0:0:
64,192,56298,1,0,0:0:0:0:
320,192,56298,1,0,0:0:0:0:
64,192,56380,1,0,0:0:0:0:
448,192,56380,1,0,0:0:0:0:
192,192,56380,1,0,0:0:0:0:
320,192,56461,1,0,0:0:0:0:
448,192,56461,1,0,0:0:0:0:
64,192,56543,1,0,0:0:0:0:
320,192,56543,1,0,0:0:0:0:
192,192,56624,1,0,0:0:0:0:
64,192,56624,1,0,0:0:0:0:
192,192,56705,1,0,0:0:0:0:
320,192,56705,1,0,0:0:0:0:
448,192,56705,1,0,0:0:0:0:
64,192,56787,1,0,0:0:0:0:
448,192,56787,1,0,0:0:0:0:
192,192,56868,1,0,0:0:0:0:
448,192,56868,1,0,0:0:0:0:
320,192,56950,1,0,0:0:0:0:
64,192,56950,1,0,0:0:0:0:
192,192,57032,1,0,0:0:0:0:
320,192,57032,1,0,0:0:0:0:
448,192,57032,1,0,0:0:0:0:
64,192,57113,1,0,0:0:0:0:
448,192,57113,1,0,0:0:0:0:
64,192,57194,1,0,0:0:0:0:
320,192,57194,1,0,0:0:0:0:
192,192,57276,1,0,0:0:0:0:
448,192,57276,1,0,0:0:0:0:
64,192,57357,5,0,0:0:0:0:
192,192,57357,1,0,0:0:0:0:
320,192,57357,1,0,0:0:0:0:
320,192,57438,1,0,0:0:0:0:
448,192,57438,1,0,0:0:0:0:
64,192,57521,1,0,0:0:0:0:
448,192,57521,1,0,0:0:0:0:
192,192,57602,1,0,0:0:0:0:
320,192,57602,1,0,0:0:0:0:
448,192,57684,1,0,0:0:0:0:
320,192,57684,1,0,0:0:0:0:
64,192,57684,1,0,0:0:0:0:
192,192,57765,1,0,0:0:0:0:
64,192,57765,1,0,0:0:0:0:
448,192,57846,1,0,0:0:0:0:
192,192,57846,1,0,0:0:0:0:
64,192,57928,1,0,0:0:0:0:
320,192,57928,1,0,0:0:0:0:
192,192,58010,1,0,0:0:0:0:
320,192,58010,1,0,0:0:0:0:
448,192,58010,1,0,0:0:0:0:
320,192,58091,1,0,0:0:0:0:
448,192,58091,1,0,0:0:0:0:
448,192,58173,1,0,0:0:0:0:
64,192,58173,1,0,0:0:0:0:
64,192,58254,1,0,0:0:0:0:
192,192,58254,1,0,0:0:0:0:
192,192,58335,5,0,0:0:0:0:
320,192,58335,1,0,0:0:0:0:
448,192,58335,1,0,0:0:0:0:
64,192,58417,1,0,0:0:0:0:
320,192,58417,1,0,0:0:0:0:
192,192,58498,1,0,0:0:0:0:
64,192,58498,1,0,0:0:0:0:
448,192,58498,1,0,0:0:0:0:
320,192,58580,1,0,0:0:0:0:
448,192,58580,1,0,0:0:0:0:
64,192,58662,5,0,0:0:0:0:
192,192,58662,1,0,0:0:0:0:
320,192,58662,1,0,0:0:0:0:
64,192,58743,1,0,0:0:0:0:
448,192,58743,1,0,0:0:0:0:
192,192,58824,1,0,0:0:0:0:
320,192,58824,1,0,0:0:0:0:
64,192,58906,1,0,0:0:0:0:
320,192,58906,1,0,0:0:0:0:
192,192,58987,1,0,0:0:0:0:
448,192,58987,1,0,0:0:0:0:
64,192,58987,1,0,0:0:0:0:
320,192,59068,1,0,0:0:0:0:
448,192,59068,1,0,0:0:0:0:
64,192,59151,1,0,0:0:0:0:
320,192,59151,1,0,0:0:0:0:
192,192,59232,1,0,0:0:0:0:
448,192,59232,1,0,0:0:0:0:
320,192,59314,1,0,0:0:0:0:
192,192,59314,1,0,0:0:0:0:
64,192,59314,1,0,0:0:0:0:
64,192,59395,1,0,0:0:0:0:
448,192,59395,1,0,0:0:0:0:
320,192,59476,1,0,0:0:0:0:
448,192,59476,1,0,0:0:0:0:
192,192,59558,1,0,0:0:0:0:
64,192,59558,1,0,0:0:0:0:
64,192,59640,1,0,0:0:0:0:
448,192,59640,1,0,0:0:0:0:
320,192,59640,1,0,0:0:0:0:
192,192,59721,1,0,0:0:0:0:
448,192,59721,1,0,0:0:0:0:
320,192,59803,1,0,0:0:0:0:
64,192,59803,1,0,0:0:0:0:
192,192,59884,1,0,0:0:0:0:
64,192,59884,1,0,0:0:0:0:
320,192,59965,1,0,0:0:0:0:
192,192,59965,1,0,0:0:0:0:
448,192,59965,1,0,0:0:0:0:
64,192,60047,1,0,0:0:0:0:
320,192,60047,1,0,0:0:0:0:
192,192,60128,1,0,0:0:0:0:
448,192,60128,1,0,0:0:0:0:
320,192,60210,1,0,0:0:0:0:
448,192,60210,1,0,0:0:0:0:
192,192,60292,1,0,0:0:0:0:
64,192,60292,1,0,0:0:0:0:
320,192,60292,1,0,0:0:0:0:
448,192,60373,1,0,0:0:0:0:
64,192,60373,1,0,0:0:0:0:
192,192,60454,1,0,0:0:0:0:
320,192,60454,1,0,0:0:0:0:
448,192,60536,1,0,0:0:0:0:
320,192,60536,1,0,0:0:0:0:
192,192,60617,1,0,0:0:0:0:
64,192,60617,1,0,0:0:0:0:
448,192,60617,1,0,0:0:0:0:
320,192,60698,1,0,0:0:0:0:
64,192,60698,1,0,0:0:0:0:
192,192,60781,1,0,0:0:0:0:
320,192,60781,1,0,0:0:0:0:
64,192,60862,1,0,0:0:0:0:
448,192,60862,1,0,0:0:0:0:
192,192,60944,1,0,0:0:0:0:
320,192,60944,1,0,0:0:0:0:
448,192,60944,1,0,0:0:0:0:
64,192,61025,1,0,0:0:0:0:
320,192,61025,1,0,0:0:0:0:
192,192,61106,1,0,0:0:0:0:
64,192,61106,1,0,0:0:0:0:
320,192,61188,1,0,0:0:0:0:
448,192,61188,1,0,0:0:0:0:
64,192,61270,1,0,0:0:0:0:
192,192,61270,1,0,0:0:0:0:
448,192,61270,1,0,0:0:0:0:
320,192,61351,1,0,0:0:0:0:
64,192,61351,1,0,0:0:0:0:
192,192,61433,1,0,0:0:0:0:
320,192,61433,1,0,0:0:0:0:
448,192,61514,1,0,0:0:0:0:
64,192,61514,1,0,0:0:0:0:
192,192,61595,1,0,0:0:0:0:
320,192,61595,1,0,0:0:0:0:
448,192,61595,1,0,0:0:0:0:
64,192,61677,1,0,0:0:0:0:
320,192,61677,1,0,0:0:0:0:
192,192,61758,1,0,0:0:0:0:
64,192,61758,1,0,0:0:0:0:
448,192,61840,1,0,0:0:0:0:
192,192,61840,1,0,0:0:0:0:
64,192,61922,1,0,0:0:0:0:
320,192,61922,1,0,0:0:0:0:
448,192,61922,1,0,0:0:0:0:
192,192,62003,1,0,0:0:0:0:
64,192,62003,1,0,0:0:0:0:
448,192,62084,1,0,0:0:0:0:
320,192,62084,1,0,0:0:0:0:
192,192,62166,1,0,0:0:0:0:
448,192,62166,1,0,0:0:0:0:
320,192,62247,1,0,0:0:0:0:
192,192,62247,1,0,0:0:0:0:
64,192,62247,1,0,0:0:0:0:
448,192,62328,1,0,0:0:0:0:
320,192,62328,1,0,0:0:0:0:
64,192,62411,1,0,0:0:0:0:
192,192,62411,1,0,0:0:0:0:
64,192,62492,1,0,0:0:0:0:
320,192,62492,1,0,0:0:0:0:
192,192,62574,1,0,0:0:0:0:
320,192,62574,1,0,0:0:0:0:
448,192,62574,1,0,0:0:0:0:
64,192,62655,1,0,0:0:0:0:
448,192,62655,1,0,0:0:0:0:
64,192,62736,1,0,0:0:0:0:
320,192,62736,1,0,0:0:0:0:
192,192,62818,1,0,0:0:0:0:
320,192,62818,1,0,0:0:0:0:
64,192,62900,1,0,0:0:0:0:
192,192,62900,1,0,0:0:0:0:
448,192,62900,1,0,0:0:0:0:
320,192,62981,1,0,0:0:0:0:
448,192,62981,1,0,0:0:0:0:
192,192,63063,1,0,0:0:0:0:
64,192,63063,1,0,0:0:0:0:
64,192,63144,1,0,0:0:0:0:
320,192,63144,1,0,0:0:0:0:
192,192,63225,1,0,0:0:0:0:
64,192,63225,1,0,0:0:0:0:
448,192,63225,1,0,0:0:0:0:
448,192,63388,1,0,0:0:0:0:
320,192,63430,1,0,0:0:0:0:
192,192,63470,1,0,0:0:0:0:
64,192,63511,1,0,0:0:0:0:
320,192,63552,1,0,0:0:0:0:
448,192,63552,1,0,0:0:0:0:
64,192,63714,1,0,0:0:0:0:
192,192,63755,1,0,0:0:0:0:
320,192,63796,1,0,0:0:0:0:
448,192,63836,1,0,0:0:0:0:
64,192,63877,5,0,0:0:0:0:
192,192,63877,1,0,0:0:0:0:
320,192,63958,1,0,0:0:0:0:
192,192,64041,1,0,0:0:0:0:
448,192,64122,1,0,0:0:0:0:
320,192,64204,1,0,0:0:0:0:
64,192,64204,1,0,0:0:0:0:
192,192,64285,1,0,0:0:0:0:
320,192,64366,1,0,0:0:0:0:
448,192,64366,1,0,0:0:0:0:
64,192,64448,1,0,0:0:0:0:
448,192,64530,1,0,0:0:0:0:
64,192,64611,1,0,0:0:0:0:
192,192,64693,1,0,0:0:0:0:
448,192,64693,1,0,0:0:0:0:
320,192,64774,1,0,0:0:0:0:
192,192,64855,1,0,0:0:0:0:
64,192,64855,1,0,0:0:0:0:
448,192,64937,1,0,0:0:0:0:
192,192,65018,1,0,0:0:0:0:
448,192,65100,1,0,0:0:0:0:
320,192,65182,1,0,0:0:0:0:
64,192,65182,1,0,0:0:0:0:
192,192,65263,1,0,0:0:0:0:
448,192,65344,1,0,0:0:0:0:
320,192,65426,1,0,0:0:0:0:
192,192,65507,1,0,0:0:0:0:
64,192,65507,1,0,0:0:0:0:
448,192,65588,1,0,0:0:0:0:
320,192,65671,1,0,0:0:0:0:
192,192,65752,1,0,0:0:0:0:
64,192,65834,1,0,0:0:0:0:
448,192,65834,1,0,0:0:0:0:
448,192,65915,1,0,0:0:0:0:
320,192,65996,1,0,0:0:0:0:
64,192,65996,1,0,0:0:0:0:
64,192,66078,1,0,0:0:0:0:
320,192,66160,1,0,0:0:0:0:
448,192,66160,1,0,0:0:0:0:
192,192,66160,1,0,0:0:0:0:
448,192,66241,1,0,0:0:0:0:
192,192,66323,1,0,0:0:0:0:
64,192,66323,1,0,0:0:0:0:
64,192,66404,1,0,0:0:0:0:
320,192,66404,1,0,0:0:0:0:
192,192,66485,1,0,0:0:0:0:
320,192,66485,1,0,0:0:0:0:
448,192,66485,1,0,0:0:0:0:
64,192,66567,1,0,0:0:0:0:
448,192,66567,1,0,0:0:0:0:
192,192,66648,1,0,0:0:0:0:
64,192,66648,1,0,0:0:0:0:
320,192,66730,1,0,0:0:0:0:
448,192,66730,1,0,0:0:0:0:
192,192,66812,1,0,0:0:0:0:
64,192,66812,1,0,0:0:0:0:
448,192,66812,1,0,0:0:0:0:
320,192,66893,1,0,0:0:0:0:
192,192,66893,1,0,0:0:0:0:
64,192,66974,1,0,0:0:0:0:
448,192,66974,1,0,0:0:0:0:
320,192,67056,1,0,0:0:0:0:
64,192,67056,1,0,0:0:0:0:
192,192,67137,1,0,0:0:0:0:
320,192,67137,1,0,0:0:0:0:
448,192,67137,1,0,0:0:0:0:
192,192,67218,1,0,0:0:0:0:
448,192,67218,1,0,0:0:0:0:
320,192,67301,1,0,0:0:0:0:
448,192,67301,1,0,0:0:0:0:
192,192,67382,1,0,0:0:0:0:
64,192,67382,1,0,0:0:0:0:
64,192,67463,1,0,0:0:0:0:
192,192,67463,1,0,0:0:0:0:
320,192,67463,1,0,0:0:0:0:
448,192,67545,1,0,0:0:0:0:
320,192,67545,1,0,0:0:0:0:
64,192,67626,1,0,0:0:0:0:
448,192,67626,1,0,0:0:0:0:
320,192,67708,1,0,0:0:0:0:
192,192,67708,1,0,0:0:0:0:
192,192,67790,1,0,0:0:0:0:
320,192,67790,1,0,0:0:0:0:
448,192,67790,1,0,0:0:0:0:
64,192,67871,1,0,0:0:0:0:
448,192,67871,1,0,0:0:0:0:
192,192,67953,1,0,0:0:0:0:
64,192,67953,1,0,0:0:0:0:
320,192,68034,1,0,0:0:0:0:
448,192,68034,1,0,0:0:0:0:
64,192,68115,1,0,0:0:0:0:
320,192,68115,1,0,0:0:0:0:
448,192,68115,1,0,0:0:0:0:
192,192,68197,1,0,0:0:0:0:
64,192,68197,1,0,0:0:0:0:
64,192,68278,1,0,0:0:0:0:
320,192,68278,1,0,0:0:0:0:
448,192,68360,1,0,0:0:0:0:
192,192,68360,1,0,0:0:0:0:
64,192,68442,1,0,0:0:0:0:
192,192,68442,1,0,0:0:0:0:
320,192,68442,1,0,0:0:0:0:
320,192,68523,1,0,0:0:0:0:
448,192,68523,1,0,0:0:0:0:
192,192,68604,1,0,0:0:0:0:
64,192,68604,1,0,0:0:0:0:
320,192,68686,1,0,0:0:0:0:
448,192,68686,1,0,0:0:0:0:
64,192,68767,1,0,0:0:0:0:
192,192,68767,1,0,0:0:0:0:
448,192,68767,1,0,0:0:0:0:
64,192,68848,1,0,0:0:0:0:
320,192,68848,1,0,0:0:0:0:
64,192,68931,1,0,0:0:0:0:
192,192,68931,1,0,0:0:0:0:
320,192,68931,1,0,0:0:0:0:
192,192,69012,1,0,0:0:0:0:
448,192,69012,1,0,0:0:0:0:
64,192,69093,1,0,0:0:0:0:
192,192,69093,1,0,0:0:0:0:
448,192,69093,1,0,0:0:0:0:
320,192,69175,1,0,0:0:0:0:
448,192,69175,1,0,0:0:0:0:
192,192,69256,1,0,0:0:0:0:
64,192,69256,1,0,0:0:0:0:
448,192,69338,1,0,0:0:0:0:
192,192,69338,1,0,0:0:0:0:
64,192,69420,1,0,0:0:0:0:
320,192,69420,1,0,0:0:0:0:
448,192,69420,1,0,0:0:0:0:
192,192,69501,1,0,0:0:0:0:
64,192,69501,1,0,0:0:0:0:
320,192,69583,1,0,0:0:0:0:
448,192,69583,1,0,0:0:0:0:
64,192,69664,1,0,0:0:0:0:
320,192,69664,1,0,0:0:0:0:
192,192,69745,1,0,0:0:0:0:
320,192,69745,1,0,0:0:0:0:
448,192,69745,1,0,0:0:0:0:
192,192,69827,1,0,0:0:0:0:
448,192,69827,1,0,0:0:0:0:
320,192,69908,1,0,0:0:0:0:
64,192,69908,1,0,0:0:0:0:
192,192,69990,1,0,0:0:0:0:
64,192,69990,1,0,0:0:0:0:
64,192,70072,1,0,0:0:0:0:
192,192,70072,1,0,0:0:0:0:
448,192,70072,1,0,0:0:0:0:
320,192,70153,1,0,0:0:0:0:
448,192,70153,1,0,0:0:0:0:
64,192,70234,1,0,0:0:0:0:
320,192,70234,1,0,0:0:0:0:
192,192,70316,1,0,0:0:0:0:
64,192,70316,1,0,0:0:0:0:
64,192,70397,1,0,0:0:0:0:
320,192,70397,1,0,0:0:0:0:
448,192,70397,1,0,0:0:0:0:
192,192,70478,1,0,0:0:0:0:
320,192,70478,1,0,0:0:0:0:
64,192,70561,1,0,0:0:0:0:
448,192,70561,1,0,0:0:0:0:
320,192,70642,1,0,0:0:0:0:
448,192,70642,1,0,0:0:0:0:
192,192,70723,1,0,0:0:0:0:
448,192,70723,1,0,0:0:0:0:
320,192,70723,1,0,0:0:0:0:
192,192,70805,1,0,0:0:0:0:
64,192,70805,1,0,0:0:0:0:
64,192,70886,1,0,0:0:0:0:
320,192,70886,1,0,0:0:0:0:
448,192,70968,1,0,0:0:0:0:
192,192,70968,1,0,0:0:0:0:
192,192,71050,1,0,0:0:0:0:
64,192,71050,1,0,0:0:0:0:
320,192,71050,1,0,0:0:0:0:
320,192,71131,1,0,0:0:0:0:
448,192,71131,1,0,0:0:0:0:
192,192,71213,1,0,0:0:0:0:
64,192,71213,1,0,0:0:0:0:
320,192,71294,1,0,0:0:0:0:
64,192,71294,1,0,0:0:0:0:
64,192,71375,1,0,0:0:0:0:
192,192,71375,1,0,0:0:0:0:
448,192,71375,1,0,0:0:0:0:
192,192,71457,1,0,0:0:0:0:
320,192,71457,1,0,0:0:0:0:
64,192,71538,1,0,0:0:0:0:
448,192,71538,1,0,0:0:0:0:
320,192,71620,1,0,0:0:0:0:
192,192,71620,1,0,0:0:0:0:
192,192,71702,1,0,0:0:0:0:
320,192,71702,1,0,0:0:0:0:
448,192,71702,1,0,0:0:0:0:
64,192,71783,1,0,0:0:0:0:
448,192,71783,1,0,0:0:0:0:
320,192,71864,1,0,0:0:0:0:
64,192,71864,1,0,0:0:0:0:
192,192,71946,1,0,0:0:0:0:
448,192,71946,1,0,0:0:0:0:
64,192,72027,1,0,0:0:0:0:
192,192,72027,1,0,0:0:0:0:
320,192,72027,1,0,0:0:0:0:
320,192,72108,1,0,0:0:0:0:
448,192,72108,1,0,0:0:0:0:
192,192,72191,1,0,0:0:0:0:
64,192,72191,1,0,0:0:0:0:
192,192,72272,1,0,0:0:0:0:
320,192,72272,1,0,0:0:0:0:
64,192,72353,1,0,0:0:0:0:
320,192,72353,1,0,0:0:0:0:
448,192,72353,1,0,0:0:0:0:
64,192,72435,1,0,0:0:0:0:
448,192,72435,1,0,0:0:0:0:
192,192,72516,1,0,0:0:0:0:
320,192,72516,1,0,0:0:0:0:
192,192,72598,1,0,0:0:0:0:
64,192,72598,1,0,0:0:0:0:
64,192,72680,1,0,0:0:0:0:
320,192,72680,1,0,0:0:0:0:
448,192,72680,1,0,0:0:0:0:
320,192,72761,1,0,0:0:0:0:
448,192,72761,1,0,0:0:0:0:
64,192,72843,1,0,0:0:0:0:
320,192,72843,1,0,0:0:0:0:
192,192,72924,1,0,0:0:0:0:
448,192,72924,1,0,0:0:0:0:
64,192,73005,1,0,0:0:0:0:
192,192,73005,1,0,0:0:0:0:
320,192,73005,1,0,0:0:0:0:
448,192,73087,1,0,0:0:0:0:
320,192,73087,1,0,0:0:0:0:
192,192,73168,1,0,0:0:0:0:
64,192,73168,1,0,0:0:0:0:
320,192,73250,1,0,0:0:0:0:
192,192,73250,1,0,0:0:0:0:
64,192,73332,1,0,0:0:0:0:
192,192,73332,1,0,0:0:0:0:
448,192,73332,1,0,0:0:0:0:
64,192,73413,1,0,0:0:0:0:
448,192,73413,1,0,0:0:0:0:
192,192,73494,1,0,0:0:0:0:
320,192,73494,1,0,0:0:0:0:
64,192,73576,1,0,0:0:0:0:
320,192,73576,1,0,0:0:0:0:
64,192,73657,1,0,0:0:0:0:
320,192,73657,1,0,0:0:0:0:
448,192,73657,1,0,0:0:0:0:
192,192,73738,1,0,0:0:0:0:
448,192,73738,1,0,0:0:0:0:
320,192,73821,1,0,0:0:0:0:
64,192,73821,1,0,0:0:0:0:
192,192,73902,1,0,0:0:0:0:
64,192,73902,1,0,0:0:0:0:
192,192,73983,1,0,0:0:0:0:
320,192,73983,1,0,0:0:0:0:
448,192,73983,1,0,0:0:0:0:
320,192,74065,1,0,0:0:0:0:
448,192,74065,1,0,0:0:0:0:
64,192,74146,1,0,0:0:0:0:
448,192,74146,1,0,0:0:0:0:
320,192,74228,1,0,0:0:0:0:
192,192,74228,1,0,0:0:0:0:
64,192,74310,1,0,0:0:0:0:
192,192,74310,1,0,0:0:0:0:
448,192,74310,1,0,0:0:0:0:
320,192,74391,1,0,0:0:0:0:
64,192,74391,1,0,0:0:0:0:
448,192,74473,1,0,0:0:0:0:
320,192,74473,1,0,0:0:0:0:
192,192,74554,1,0,0:0:0:0:
64,192,74554,1,0,0:0:0:0:
192,192,74635,1,0,0:0:0:0:
320,192,74635,1,0,0:0:0:0:
448,192,74635,1,0,0:0:0:0:
64,192,74717,1,0,0:0:0:0:
448,192,74717,1,0,0:0:0:0:
192,192,74798,1,0,0:0:0:0:
448,192,74798,1,0,0:0:0:0:
320,192,74880,1,0,0:0:0:0:
64,192,74880,1,0,0:0:0:0:
64,192,74962,1,0,0:0:0:0:
448,192,74962,1,0,0:0:0:0:
192,192,74962,1,0,0:0:0:0:
320,192,75043,1,0,0:0:0:0:
448,192,75043,1,0,0:0:0:0:
64,192,75124,1,0,0:0:0:0:
320,192,75124,1,0,0:0:0:0:
192,192,75206,1,0,0:0:0:0:
64,192,75206,1,0,0:0:0:0:
64,192,75287,1,0,0:0:0:0:
192,192,75287,1,0,0:0:0:0:
320,192,75287,1,0,0:0:0:0:
448,192,75368,1,0,0:0:0:0:
320,192,75368,1,0,0:0:0:0:
64,192,75451,1,0,0:0:0:0:
448,192,75451,1,0,0:0:0:0:
320,192,75532,1,0,0:0:0:0:
192,192,75532,1,0,0:0:0:0:
64,192,75613,1,0,0:0:0:0:
192,192,75613,1,0,0:0:0:0:
448,192,75613,1,0,0:0:0:0:
320,192,75695,1,0,0:0:0:0:
448,192,75695,1,0,0:0:0:0:
192,192,75776,1,0,0:0:0:0:
64,192,75776,1,0,0:0:0:0:
64,192,75858,1,0,0:0:0:0:
320,192,75858,1,0,0:0:0:0:
64,192,75940,1,0,0:0:0:0:
320,192,75940,1,0,0:0:0:0:
448,192,75940,1,0,0:0:0:0:
192,192,76021,1,0,0:0:0:0:
448,192,76021,1,0,0:0:0:0:
320,192,76103,1,0,0:0:0:0:
448,192,76103,1,0,0:0:0:0:
192,192,76184,1,0,0:0:0:0:
64,192,76184,1,0,0:0:0:0:
192,192,76265,1,0,0:0:0:0:
320,192,76265,1,0,0:0:0:0:
448,192,76265,1,0,0:0:0:0:
448,192,76347,1,0,0:0:0:0:
320,192,76347,1,0,0:0:0:0:
192,192,76428,1,0,0:0:0:0:
320,192,76428,1,0,0:0:0:0:
64,192,76510,1,0,0:0:0:0:
448,192,76510,1,0,0:0:0:0:
64,192,76592,1,0,0:0:0:0:
320,192,76592,1,0,0:0:0:0:
448,192,76592,1,0,0:0:0:0:
192,192,76673,1,0,0:0:0:0:
320,192,76673,1,0,0:0:0:0:
192,192,76754,1,0,0:0:0:0:
64,192,76754,1,0,0:0:0:0:
320,192,76836,1,0,0:0:0:0:
448,192,76836,1,0,0:0:0:0:
192,192,76917,5,0,0:0:0:0:
64,192,76917,1,0,0:0:0:0:
320,192,76917,1,0,0:0:0:0:
192,192,76998,1,0,0:0:0:0:
64,192,76998,1,0,0:0:0:0:
64,192,77081,1,0,0:0:0:0:
448,192,77081,1,0,0:0:0:0:
320,192,77162,1,0,0:0:0:0:
448,192,77162,1,0,0:0:0:0:
64,192,77243,1,0,0:0:0:0:
192,192,77243,1,0,0:0:0:0:
448,192,77243,1,0,0:0:0:0:
320,192,77325,1,0,0:0:0:0:
192,192,77325,1,0,0:0:0:0:
64,192,77406,1,0,0:0:0:0:
448,192,77406,1,0,0:0:0:0:
320,192,77488,1,0,0:0:0:0:
192,192,77488,1,0,0:0:0:0:
64,192,77570,1,0,0:0:0:0:
192,192,77570,1,0,0:0:0:0:
320,192,77570,1,0,0:0:0:0:
448,192,77651,1,0,0:0:0:0:
320,192,77651,1,0,0:0:0:0:
64,192,77733,1,0,0:0:0:0:
448,192,77733,1,0,0:0:0:0:
192,192,77814,1,0,0:0:0:0:
64,192,77814,1,0,0:0:0:0:
64,192,77895,1,0,0:0:0:0:
320,192,77895,1,0,0:0:0:0:
448,192,77895,1,0,0:0:0:0:
192,192,77977,1,0,0:0:0:0:
448,192,77977,1,0,0:0:0:0:
320,192,78058,1,0,0:0:0:0:
192,192,78058,1,0,0:0:0:0:
64,192,78140,1,0,0:0:0:0:
320,192,78140,1,0,0:0:0:0:
448,192,78222,128,0,78384:0:0:0:0:
192,192,78384,128,0,78547:0:0:0:0:
320,192,78547,128,0,78711:0:0:0:0:
64,192,78711,128,0,79036:0:0:0:0:
320,192,79036,1,0,0:0:0:0:
448,192,79036,1,0,0:0:0:0:
192,192,79200,1,0,0:0:0:0:
320,192,79200,1,0,0:0:0:0:
448,192,79200,1,0,0:0:0:0:
64,192,79363,1,0,0:0:0:0:
192,192,79363,1,0,0:0:0:0:
448,192,79363,1,0,0:0:0:0:
320,192,79363,1,0,0:0:0:0:
192,192,79525,1,0,0:0:0:0:
64,192,79525,1,0,0:0:0:0:
320,192,79525,1,0,0:0:0:0:
448,192,79525,1,0,0:0:0:0:
64,192,79607,1,0,0:0:0:0:
192,192,79607,1,0,0:0:0:0:
64,192,79688,1,0,0:0:0:0:
448,192,79688,1,0,0:0:0:0:
320,192,79770,1,0,0:0:0:0:
448,192,79770,1,0,0:0:0:0:
64,192,79852,1,0,0:0:0:0:
192,192,79852,1,0,0:0:0:0:
448,192,79852,1,0,0:0:0:0:
320,192,79852,1,0,0:0:0:0:
192,192,79933,1,0,0:0:0:0:
64,192,79933,1,0,0:0:0:0:
448,192,80014,1,0,0:0:0:0:
192,192,80014,1,0,0:0:0:0:
64,192,80096,1,0,0:0:0:0:
320,192,80096,1,0,0:0:0:0:
64,192,80177,1,0,0:0:0:0:
192,192,80177,1,0,0:0:0:0:
320,192,80177,1,0,0:0:0:0:
448,192,80177,1,0,0:0:0:0:
448,192,80258,1,0,0:0:0:0:
192,192,80258,1,0,0:0:0:0:
320,192,80341,1,0,0:0:0:0:
448,192,80341,1,0,0:0:0:0:
192,192,80422,1,0,0:0:0:0:
64,192,80422,1,0,0:0:0:0:
64,192,80503,1,0,0:0:0:0:
192,192,80503,1,0,0:0:0:0:
320,192,80503,1,0,0:0:0:0:
448,192,80503,1,0,0:0:0:0:
320,192,80585,1,0,0:0:0:0:
448,192,80585,1,0,0:0:0:0:
192,192,80666,1,0,0:0:0:0:
320,192,80666,1,0,0:0:0:0:
64,192,80748,1,0,0:0:0:0:
448,192,80748,1,0,0:0:0:0:
192,192,80830,1,0,0:0:0:0:
320,192,80830,1,0,0:0:0:0:
448,192,80830,1,0,0:0:0:0:
64,192,80830,1,0,0:0:0:0:
320,192,80911,1,0,0:0:0:0:
192,192,80911,1,0,0:0:0:0:
320,192,80993,1,0,0:0:0:0:
448,192,80993,1,0,0:0:0:0:
192,192,81074,1,0,0:0:0:0:
64,192,81074,1,0,0:0:0:0:
64,192,81155,1,0,0:0:0:0:
192,192,81155,1,0,0:0:0:0:
320,192,81155,1,0,0:0:0:0:
448,192,81155,1,0,0:0:0:0:
320,192,81237,1,0,0:0:0:0:
448,192,81237,1,0,0:0:0:0:
64,192,81318,1,0,0:0:0:0:
448,192,81318,1,0,0:0:0:0:
320,192,81400,1,0,0:0:0:0:
64,192,81400,1,0,0:0:0:0:
64,192,81482,1,0,0:0:0:0:
192,192,81482,1,0,0:0:0:0:
320,192,81482,1,0,0:0:0:0:
448,192,81482,1,0,0:0:0:0:
192,192,81563,1,0,0:0:0:0:
448,192,81563,1,0,0:0:0:0:
320,192,81644,1,0,0:0:0:0:
448,192,81644,1,0,0:0:0:0:
192,192,81726,1,0,0:0:0:0:
64,192,81726,1,0,0:0:0:0:
64,192,81807,1,0,0:0:0:0:
192,192,81807,1,0,0:0:0:0:
320,192,81807,1,0,0:0:0:0:
448,192,81807,1,0,0:0:0:0:
448,192,81888,1,0,0:0:0:0:
320,192,81888,1,0,0:0:0:0:
64,192,81971,1,0,0:0:0:0:
192,192,81971,1,0,0:0:0:0:
64,192,82052,1,0,0:0:0:0:
448,192,82052,1,0,0:0:0:0:
64,192,82133,1,0,0:0:0:0:
192,192,82133,1,0,0:0:0:0:
320,192,82133,1,0,0:0:0:0:
448,192,82133,1,0,0:0:0:0:
192,192,82215,1,0,0:0:0:0:
320,192,82215,1,0,0:0:0:0:
64,192,82296,1,0,0:0:0:0:
448,192,82296,1,0,0:0:0:0:
192,192,82378,1,0,0:0:0:0:
448,192,82378,1,0,0:0:0:0:
64,192,82460,1,0,0:0:0:0:
192,192,82460,1,0,0:0:0:0:
320,192,82460,1,0,0:0:0:0:
448,192,82460,1,0,0:0:0:0:
320,192,82541,1,0,0:0:0:0:
64,192,82541,1,0,0:0:0:0:
192,192,82623,1,0,0:0:0:0:
64,192,82623,1,0,0:0:0:0:
320,192,82704,1,0,0:0:0:0:
448,192,82704,1,0,0:0:0:0:
64,192,82785,1,0,0:0:0:0:
192,192,82785,1,0,0:0:0:0:
320,192,82785,1,0,0:0:0:0:
448,192,82785,1,0,0:0:0:0:
192,192,82867,1,0,0:0:0:0:
64,192,82867,1,0,0:0:0:0:
64,192,82948,1,0,0:0:0:0:
448,192,82948,1,0,0:0:0:0:
320,192,83030,1,0,0:0:0:0:
192,192,83030,1,0,0:0:0:0:
64,192,83112,1,0,0:0:0:0:
192,192,83112,1,0,0:0:0:0:
320,192,83112,1,0,0:0:0:0:
448,192,83112,1,0,0:0:0:0:
64,192,83193,1,0,0:0:0:0:
448,192,83193,1,0,0:0:0:0:
320,192,83274,1,0,0:0:0:0:
448,192,83274,1,0,0:0:0:0:
192,192,83356,1,0,0:0:0:0:
64,192,83356,1,0,0:0:0:0:
192,192,83437,1,0,0:0:0:0:
64,192,83437,1,0,0:0:0:0:
320,192,83437,1,0,0:0:0:0:
448,192,83437,1,0,0:0:0:0:
320,192,83518,1,0,0:0:0:0:
448,192,83518,1,0,0:0:0:0:
64,192,83601,1,0,0:0:0:0:
320,192,83601,1,0,0:0:0:0:
64,192,83682,1,0,0:0:0:0:
448,192,83682,1,0,0:0:0:0:
64,192,83763,1,0,0:0:0:0:
192,192,83763,1,0,0:0:0:0:
320,192,83763,1,0,0:0:0:0:
448,192,83763,1,0,0:0:0:0:
192,192,83845,1,0,0:0:0:0:
320,192,83845,1,0,0:0:0:0:
448,192,83926,1,0,0:0:0:0:
64,192,83926,1,0,0:0:0:0:
192,192,84007,1,0,0:0:0:0:
448,192,84007,1,0,0:0:0:0:
64,192,84090,1,0,0:0:0:0:
192,192,84090,1,0,0:0:0:0:
320,192,84090,1,0,0:0:0:0:
448,192,84090,1,0,0:0:0:0:
320,192,84171,1,0,0:0:0:0:
64,192,84171,1,0,0:0:0:0:
192,192,84253,1,0,0:0:0:0:
64,192,84253,1,0,0:0:0:0:
320,192,84334,1,0,0:0:0:0:
448,192,84334,1,0,0:0:0:0:
64,192,84415,1,0,0:0:0:0:
192,192,84415,1,0,0:0:0:0:
320,192,84415,1,0,0:0:0:0:
448,192,84415,1,0,0:0:0:0:
192,192,84497,1,0,0:0:0:0:
64,192,84497,1,0,0:0:0:0:
448,192,84578,1,0,0:0:0:0:
320,192,84578,1,0,0:0:0:0:
64,192,84578,1,0,0:0:0:0:
192,192,84578,1,0,0:0:0:0:
320,192,84660,1,0,0:0:0:0:
448,192,84660,1,0,0:0:0:0:
64,192,84742,1,0,0:0:0:0:
192,192,84742,1,0,0:0:0:0:
320,192,84742,1,0,0:0:0:0:
448,192,84742,1,0,0:0:0:0:
192,192,84823,1,0,0:0:0:0:
64,192,84823,1,0,0:0:0:0:
448,192,84904,1,0,0:0:0:0:
64,192,84904,1,0,0:0:0:0:
192,192,84986,1,0,0:0:0:0:
320,192,84986,1,0,0:0:0:0:
64,192,85067,1,0,0:0:0:0:
192,192,85067,1,0,0:0:0:0:
320,192,85067,1,0,0:0:0:0:
448,192,85067,1,0,0:0:0:0:
64,192,85148,1,0,0:0:0:0:
448,192,85148,1,0,0:0:0:0:
320,192,85231,1,0,0:0:0:0:
448,192,85231,1,0,0:0:0:0:
192,192,85312,1,0,0:0:0:0:
64,192,85312,1,0,0:0:0:0:
64,192,85393,1,0,0:0:0:0:
192,192,85393,1,0,0:0:0:0:
320,192,85393,1,0,0:0:0:0:
448,192,85393,1,0,0:0:0:0:
320,192,85475,1,0,0:0:0:0:
448,192,85475,1,0,0:0:0:0:
64,192,85556,1,0,0:0:0:0:
320,192,85556,1,0,0:0:0:0:
64,192,85637,1,0,0:0:0:0:
192,192,85637,1,0,0:0:0:0:
64,192,85720,1,0,0:0:0:0:
192,192,85720,1,0,0:0:0:0:
320,192,85720,1,0,0:0:0:0:
448,192,85720,1,0,0:0:0:0:
320,192,85801,1,0,0:0:0:0:
448,192,85801,1,0,0:0:0:0:
64,192,85883,1,0,0:0:0:0:
320,192,85883,1,0,0:0:0:0:
192,192,85964,1,0,0:0:0:0:
448,192,85964,1,0,0:0:0:0:
64,192,86045,1,0,0:0:0:0:
192,192,86045,1,0,0:0:0:0:
320,192,86045,1,0,0:0:0:0:
448,192,86045,1,0,0:0:0:0:
320,192,86127,1,0,0:0:0:0:
64,192,86127,1,0,0:0:0:0:
192,192,86208,1,0,0:0:0:0:
64,192,86208,1,0,0:0:0:0:
320,192,86290,1,0,0:0:0:0:
448,192,86290,1,0,0:0:0:0:
192,192,86372,1,0,0:0:0:0:
320,192,86372,1,0,0:0:0:0:
448,192,86372,1,0,0:0:0:0:
64,192,86372,1,0,0:0:0:0:
192,192,86453,1,0,0:0:0:0:
64,192,86453,1,0,0:0:0:0:
448,192,86534,1,0,0:0:0:0:
64,192,86534,1,0,0:0:0:0:
320,192,86616,1,0,0:0:0:0:
448,192,86616,1,0,0:0:0:0:
448,192,86697,1,0,0:0:0:0:
320,192,86697,1,0,0:0:0:0:
192,192,86697,1,0,0:0:0:0:
64,192,86697,1,0,0:0:0:0:
64,192,86778,1,0,0:0:0:0:
192,192,86778,1,0,0:0:0:0:
320,192,86861,1,0,0:0:0:0:
64,192,86861,1,0,0:0:0:0:
320,192,86942,1,0,0:0:0:0:
448,192,86942,1,0,0:0:0:0:
64,192,87023,1,0,0:0:0:0:
320,192,87023,1,0,0:0:0:0:
448,192,87023,1,0,0:0:0:0:
192,192,87023,1,0,0:0:0:0:
64,192,87105,1,0,0:0:0:0:
192,192,87105,1,0,0:0:0:0:
64,192,87186,1,0,0:0:0:0:
448,192,87186,1,0,0:0:0:0:
320,192,87267,1,0,0:0:0:0:
448,192,87267,1,0,0:0:0:0:
192,192,87350,1,0,0:0:0:0:
320,192,87350,1,0,0:0:0:0:
64,192,87350,1,0,0:0:0:0:
448,192,87350,1,0,0:0:0:0:
192,192,87431,1,0,0:0:0:0:
64,192,87431,1,0,0:0:0:0:
448,192,87513,1,0,0:0:0:0:
64,192,87513,1,0,0:0:0:0:
192,192,87594,1,0,0:0:0:0:
320,192,87594,1,0,0:0:0:0:
192,192,87675,1,0,0:0:0:0:
320,192,87675,1,0,0:0:0:0:
448,192,87675,1,0,0:0:0:0:
64,192,87675,1,0,0:0:0:0:
64,192,87757,1,0,0:0:0:0:
448,192,87757,1,0,0:0:0:0:
320,192,87838,1,0,0:0:0:0:
448,192,87838,1,0,0:0:0:0:
192,192,87920,1,0,0:0:0:0:
64,192,87920,1,0,0:0:0:0:
192,192,88002,1,0,0:0:0:0:
320,192,88002,1,0,0:0:0:0:
448,192,88002,1,0,0:0:0:0:
64,192,88002,1,0,0:0:0:0:
320,192,88083,1,0,0:0:0:0:
448,192,88083,1,0,0:0:0:0:
64,192,88164,1,0,0:0:0:0:
320,192,88164,1,0,0:0:0:0:
192,192,88246,1,0,0:0:0:0:
64,192,88246,1,0,0:0:0:0:
64,192,88327,1,0,0:0:0:0:
192,192,88327,1,0,0:0:0:0:
320,192,88327,1,0,0:0:0:0:
448,192,88327,1,0,0:0:0:0:
320,192,88408,1,0,0:0:0:0:
448,192,88408,1,0,0:0:0:0:
64,192,88491,1,0,0:0:0:0:
448,192,88491,1,0,0:0:0:0:
320,192,88572,1,0,0:0:0:0:
192,192,88572,1,0,0:0:0:0:
64,192,88653,1,0,0:0:0:0:
192,192,88653,1,0,0:0:0:0:
320,192,88653,1,0,0:0:0:0:
448,192,88653,1,0,0:0:0:0:
64,192,88735,1,0,0:0:0:0:
448,192,88735,1,0,0:0:0:0:
320,192,88816,1,0,0:0:0:0:
192,192,88816,1,0,0:0:0:0:
192,192,88897,1,0,0:0:0:0:
448,192,88897,1,0,0:0:0:0:
64,192,88980,1,0,0:0:0:0:
192,192,88980,1,0,0:0:0:0:
320,192,88980,1,0,0:0:0:0:
448,192,88980,1,0,0:0:0:0:
320,192,89061,1,0,0:0:0:0:
64,192,89061,1,0,0:0:0:0:
320,192,89143,1,0,0:0:0:0:
448,192,89143,1,0,0:0:0:0:
192,192,89224,1,0,0:0:0:0:
64,192,89224,1,0,0:0:0:0:
64,192,89305,1,0,0:0:0:0:
192,192,89305,1,0,0:0:0:0:
448,192,89305,1,0,0:0:0:0:
320,192,89305,1,0,0:0:0:0:
448,192,89468,1,0,0:0:0:0:
320,192,89510,1,0,0:0:0:0:
192,192,89550,1,0,0:0:0:0:
64,192,89591,1,0,0:0:0:0:
320,192,89632,1,0,0:0:0:0:
448,192,89632,1,0,0:0:0:0:
64,192,89794,1,0,0:0:0:0:
192,192,89835,1,0,0:0:0:0:
320,192,89876,1,0,0:0:0:0:
448,192,89876,1,0,0:0:0:0:
192,192,89957,1,0,0:0:0:0:
64,192,89957,1,0,0:0:0:0:
448,192,89957,1,0,0:0:0:0:
320,192,89957,1,0,0:0:0:0:
320,192,90038,1,0,0:0:0:0:
64,192,90038,1,0,0:0:0:0:
192,192,90121,1,0,0:0:0:0:
448,192,90121,1,0,0:0:0:0:
320,192,90202,1,0,0:0:0:0:
448,192,90202,1,0,0:0:0:0:
448,192,90283,1,0,0:0:0:0:
320,192,90283,1,0,0:0:0:0:
192,192,90283,1,0,0:0:0:0:
64,192,90283,1,0,0:0:0:0:
192,192,90365,1,0,0:0:0:0:
64,192,90365,1,0,0:0:0:0:
64,192,90446,1,0,0:0:0:0:
448,192,90446,1,0,0:0:0:0:
448,192,90527,1,0,0:0:0:0:
320,192,90527,1,0,0:0:0:0:
192,192,90610,1,0,0:0:0:0:
64,192,90610,1,0,0:0:0:0:
320,192,90610,1,0,0:0:0:0:
448,192,90610,1,0,0:0:0:0:
192,192,90691,1,0,0:0:0:0:
64,192,90691,1,0,0:0:0:0:
64,192,90773,1,0,0:0:0:0:
320,192,90773,1,0,0:0:0:0:
192,192,90854,1,0,0:0:0:0:
448,192,90854,1,0,0:0:0:0:
320,192,90935,1,0,0:0:0:0:
192,192,90935,1,0,0:0:0:0:
64,192,90935,1,0,0:0:0:0:
448,192,90935,1,0,0:0:0:0:
320,192,91017,1,0,0:0:0:0:
64,192,91017,1,0,0:0:0:0:
320,192,91098,1,0,0:0:0:0:
448,192,91098,1,0,0:0:0:0:
64,192,91180,1,0,0:0:0:0:
448,192,91180,1,0,0:0:0:0:
448,192,91262,1,0,0:0:0:0:
320,192,91262,1,0,0:0:0:0:
192,192,91262,1,0,0:0:0:0:
64,192,91262,1,0,0:0:0:0:
192,192,91343,1,0,0:0:0:0:
320,192,91343,1,0,0:0:0:0:
64,192,91424,1,0,0:0:0:0:
448,192,91424,1,0,0:0:0:0:
192,192,91506,1,0,0:0:0:0:
64,192,91506,1,0,0:0:0:0:
320,192,91587,1,0,0:0:0:0:
448,192,91587,1,0,0:0:0:0:
192,192,91587,1,0,0:0:0:0:
64,192,91587,1,0,0:0:0:0:
320,192,91668,1,0,0:0:0:0:
448,192,91668,1,0,0:0:0:0:
64,192,91751,1,0,0:0:0:0:
448,192,91751,1,0,0:0:0:0:
320,192,91832,1,0,0:0:0:0:
64,192,91832,1,0,0:0:0:0:
192,192,91913,1,0,0:0:0:0:
320,192,91913,1,0,0:0:0:0:
448,192,91913,1,0,0:0:0:0:
64,192,91913,1,0,0:0:0:0:
192,192,91995,1,0,0:0:0:0:
448,192,91995,1,0,0:0:0:0:
320,192,92076,1,0,0:0:0:0:
448,192,92076,1,0,0:0:0:0:
64,192,92157,1,0,0:0:0:0:
192,192,92157,1,0,0:0:0:0:
192,192,92240,1,0,0:0:0:0:
64,192,92240,1,0,0:0:0:0:
320,192,92240,1,0,0:0:0:0:
448,192,92240,1,0,0:0:0:0:
448,192,92321,1,0,0:0:0:0:
320,192,92321,1,0,0:0:0:0:
192,192,92403,1,0,0:0:0:0:
64,192,92403,1,0,0:0:0:0:
64,192,92484,1,0,0:0:0:0:
320,192,92484,1,0,0:0:0:0:
64,192,92565,1,0,0:0:0:0:
192,192,92565,1,0,0:0:0:0:
320,192,92565,1,0,0:0:0:0:
448,192,92565,1,0,0:0:0:0:
192,192,92647,1,0,0:0:0:0:
448,192,92647,1,0,0:0:0:0:
320,192,92728,1,0,0:0:0:0:
448,192,92728,1,0,0:0:0:0:
192,192,92810,1,0,0:0:0:0:
64,192,92810,1,0,0:0:0:0:
320,192,92892,1,0,0:0:0:0:
448,192,92892,1,0,0:0:0:0:
192,192,92892,1,0,0:0:0:0:
64,192,92892,1,0,0:0:0:0:
320,192,92973,1,0,0:0:0:0:
448,192,92973,1,0,0:0:0:0:
64,192,93054,1,0,0:0:0:0:
448,192,93054,1,0,0:0:0:0:
320,192,93136,1,0,0:0:0:0:
192,192,93136,1,0,0:0:0:0:
64,192,93217,1,0,0:0:0:0:
192,192,93217,1,0,0:0:0:0:
320,192,93217,1,0,0:0:0:0:
448,192,93217,1,0,0:0:0:0:
64,192,93298,1,0,0:0:0:0:
448,192,93298,1,0,0:0:0:0:
192,192,93381,1,0,0:0:0:0:
64,192,93381,1,0,0:0:0:0:
320,192,93462,1,0,0:0:0:0:
448,192,93462,1,0,0:0:0:0:
448,192,93543,1,0,0:0:0:0:
320,192,93543,1,0,0:0:0:0:
192,192,93543,1,0,0:0:0:0:
64,192,93543,1,0,0:0:0:0:
64,192,93625,1,0,0:0:0:0:
192,192,93625,1,0,0:0:0:0:
320,192,93706,1,0,0:0:0:0:
64,192,93706,1,0,0:0:0:0:
192,192,93787,1,0,0:0:0:0:
448,192,93787,1,0,0:0:0:0:
64,192,93870,1,0,0:0:0:0:
192,192,93870,1,0,0:0:0:0:
448,192,93870,1,0,0:0:0:0:
320,192,93870,1,0,0:0:0:0:
320,192,93951,1,0,0:0:0:0:
64,192,93951,1,0,0:0:0:0:
192,192,94033,1,0,0:0:0:0:
64,192,94033,1,0,0:0:0:0:
320,192,94114,1,0,0:0:0:0:
448,192,94114,1,0,0:0:0:0:
64,192,94195,1,0,0:0:0:0:
192,192,94195,1,0,0:0:0:0:
448,192,94195,1,0,0:0:0:0:
320,192,94195,1,0,0:0:0:0:
192,192,94277,1,0,0:0:0:0:
64,192,94277,1,0,0:0:0:0:
448,192,94358,1,0,0:0:0:0:
192,192,94358,1,0,0:0:0:0:
64,192,94440,1,0,0:0:0:0:
320,192,94440,1,0,0:0:0:0:
64,192,94522,1,0,0:0:0:0:
320,192,94522,1,0,0:0:0:0:
448,192,94522,1,0,0:0:0:0:
192,192,94522,1,0,0:0:0:0:
192,192,94603,1,0,0:0:0:0:
448,192,94603,1,0,0:0:0:0:
64,192,94684,1,0,0:0:0:0:
448,192,94684,1,0,0:0:0:0:
320,192,94766,1,0,0:0:0:0:
64,192,94766,1,0,0:0:0:0:
64,192,94847,1,0,0:0:0:0:
320,192,94847,1,0,0:0:0:0:
448,192,94847,1,0,0:0:0:0:
192,192,94847,1,0,0:0:0:0:
192,192,94928,1,0,0:0:0:0:
448,192,94928,1,0,0:0:0:0:
320,192,95011,1,0,0:0:0:0:
448,192,95011,1,0,0:0:0:0:
192,192,95092,1,0,0:0:0:0:
64,192,95092,1,0,0:0:0:0:
64,192,95173,1,0,0:0:0:0:
192,192,95173,1,0,0:0:0:0:
320,192,95173,1,0,0:0:0:0:
448,192,95173,1,0,0:0:0:0:
320,192,95255,1,0,0:0:0:0:
448,192,95255,1,0,0:0:0:0:
64,192,95336,1,0,0:0:0:0:
448,192,95336,1,0,0:0:0:0:
192,192,95417,1,0,0:0:0:0:
64,192,95417,1,0,0:0:0:0:
64,192,95500,1,0,0:0:0:0:
192,192,95500,1,0,0:0:0:0:
320,192,95500,1,0,0:0:0:0:
448,192,95500,1,0,0:0:0:0:
320,192,95581,1,0,0:0:0:0:
448,192,95581,1,0,0:0:0:0:
192,192,95663,1,0,0:0:0:0:
64,192,95663,1,0,0:0:0:0:
64,192,95744,1,0,0:0:0:0:
320,192,95744,1,0,0:0:0:0:
320,192,95825,1,0,0:0:0:0:
448,192,95825,1,0,0:0:0:0:
64,192,95825,1,0,0:0:0:0:
192,192,95825,1,0,0:0:0:0:
192,192,95907,1,0,0:0:0:0:
448,192,95907,1,0,0:0:0:0:
320,192,95988,1,0,0:0:0:0:
448,192,95988,1,0,0:0:0:0:
192,192,96070,1,0,0:0:0:0:
64,192,96070,1,0,0:0:0:0:
64,192,96152,1,0,0:0:0:0:
192,192,96152,1,0,0:0:0:0:
320,192,96152,1,0,0:0:0:0:
448,192,96152,1,0,0:0:0:0:
320,192,96233,1,0,0:0:0:0:
448,192,96233,1,0,0:0:0:0:
64,192,96314,1,0,0:0:0:0:
448,192,96314,1,0,0:0:0:0:
320,192,96396,1,0,0:0:0:0:
192,192,96396,1,0,0:0:0:0:
64,192,96477,1,0,0:0:0:0:
192,192,96477,1,0,0:0:0:0:
320,192,96477,1,0,0:0:0:0:
448,192,96477,1,0,0:0:0:0:
448,192,96558,1,0,0:0:0:0:
64,192,96558,1,0,0:0:0:0:
192,192,96641,1,0,0:0:0:0:
64,192,96641,1,0,0:0:0:0:
320,192,96722,1,0,0:0:0:0:
448,192,96722,1,0,0:0:0:0:
64,192,96803,1,0,0:0:0:0:
192,192,96803,1,0,0:0:0:0:
320,192,96803,1,0,0:0:0:0:
448,192,96803,1,0,0:0:0:0:
192,192,96885,1,0,0:0:0:0:
64,192,96885,1,0,0:0:0:0:
64,192,96966,1,0,0:0:0:0:
320,192,96966,1,0,0:0:0:0:
192,192,97047,1,0,0:0:0:0:
448,192,97047,1,0,0:0:0:0:
64,192,97130,1,0,0:0:0:0:
320,192,97130,1,0,0:0:0:0:
448,192,97130,1,0,0:0:0:0:
192,192,97130,1,0,0:0:0:0:
320,192,97211,1,0,0:0:0:0:
64,192,97211,1,0,0:0:0:0:
192,192,97293,1,0,0:0:0:0:
64,192,97293,1,0,0:0:0:0:
320,192,97374,1,0,0:0:0:0:
448,192,97374,1,0,0:0:0:0:
64,192,97455,1,0,0:0:0:0:
192,192,97455,1,0,0:0:0:0:
320,192,97455,1,0,0:0:0:0:
448,192,97455,1,0,0:0:0:0:
64,192,97537,1,0,0:0:0:0:
192,192,97537,1,0,0:0:0:0:
448,192,97618,1,0,0:0:0:0:
64,192,97618,1,0,0:0:0:0:
192,192,97700,1,0,0:0:0:0:
448,192,97700,1,0,0:0:0:0:
64,192,97782,1,0,0:0:0:0:
192,192,97782,1,0,0:0:0:0:
320,192,97782,1,0,0:0:0:0:
448,192,97782,1,0,0:0:0:0:
320,192,97863,1,0,0:0:0:0:
64,192,97863,1,0,0:0:0:0:
192,192,97944,1,0,0:0:0:0:
64,192,97944,1,0,0:0:0:0:
192,192,98026,1,0,0:0:0:0:
320,192,98026,1,0,0:0:0:0:
64,192,98107,1,0,0:0:0:0:
192,192,98107,1,0,0:0:0:0:
320,192,98107,1,0,0:0:0:0:
448,192,98107,1,0,0:0:0:0:
64,192,98188,1,0,0:0:0:0:
448,192,98188,1,0,0:0:0:0:
192,192,98271,1,0,0:0:0:0:
64,192,98271,1,0,0:0:0:0:
320,192,98352,1,0,0:0:0:0:
448,192,98352,1,0,0:0:0:0:
64,192,98433,1,0,0:0:0:0:
448,192,98433,1,0,0:0:0:0:
320,192,98433,1,0,0:0:0:0:
192,192,98433,1,0,0:0:0:0:
192,192,98515,1,0,0:0:0:0:
64,192,98515,1,0,0:0:0:0:
320,192,98596,1,0,0:0:0:0:
192,192,98596,1,0,0:0:0:0:
448,192,98677,1,0,0:0:0:0:
64,192,98677,1,0,0:0:0:0:
448,192,98760,1,0,0:0:0:0:
320,192,98760,1,0,0:0:0:0:
64,192,98760,1,0,0:0:0:0:
192,192,98760,1,0,0:0:0:0:
192,192,98841,1,0,0:0:0:0:
320,192,98841,1,0,0:0:0:0:
64,192,98923,1,0,0:0:0:0:
192,192,98923,1,0,0:0:0:0:
320,192,98923,1,0,0:0:0:0:
448,192,98923,1,0,0:0:0:0:
64,192,99004,1,0,0:0:0:0:
448,192,99004,1,0,0:0:0:0:
64,192,99085,1,0,0:0:0:0:
192,192,99085,1,0,0:0:0:0:
448,192,99085,1,0,0:0:0:0:
320,192,99085,1,0,0:0:0:0:
192,192,99167,1,0,0:0:0:0:
320,192,99248,1,0,0:0:0:0:
448,192,99248,1,0,0:0:0:0:
192,192,99330,1,0,0:0:0:0:
64,192,99330,1,0,0:0:0:0:
320,192,99412,1,0,0:0:0:0:
448,192,99412,1,0,0:0:0:0:
64,192,99493,1,0,0:0:0:0:
192,192,99493,1,0,0:0:0:0:
64,192,99574,1,0,0:0:0:0:
192,192,99574,1,0,0:0:0:0:
320,192,99574,1,0,0:0:0:0:
448,192,99574,1,0,0:0:0:0:
320,192,99656,1,0,0:0:0:0:
448,192,99656,1,0,0:0:0:0:
64,192,99737,1,0,0:0:0:0:
192,192,99737,1,0,0:0:0:0:
448,192,99737,1,0,0:0:0:0:
320,192,99737,1,0,0:0:0:0:
192,192,99818,1,0,0:0:0:0:
64,192,99818,1,0,0:0:0:0:
64,192,99901,1,0,0:0:0:0:
448,192,99901,1,0,0:0:0:0:
320,192,99982,1,0,0:0:0:0:
192,192,99982,1,0,0:0:0:0:
64,192,100063,1,0,0:0:0:0:
192,192,100063,1,0,0:0:0:0:
320,192,100063,1,0,0:0:0:0:
448,192,100063,1,0,0:0:0:0:
64,192,100145,1,0,0:0:0:0:
448,192,100145,1,0,0:0:0:0:
320,192,100226,1,0,0:0:0:0:
448,192,100226,1,0,0:0:0:0:
192,192,100307,1,0,0:0:0:0:
64,192,100307,1,0,0:0:0:0:
64,192,100390,1,0,0:0:0:0:
192,192,100390,1,0,0:0:0:0:
320,192,100390,1,0,0:0:0:0:
448,192,100390,1,0,0:0:0:0:
448,192,100471,1,0,0:0:0:0:
320,192,100471,1,0,0:0:0:0:
192,192,100552,1,0,0:0:0:0:
320,192,100552,1,0,0:0:0:0:
64,192,100634,1,0,0:0:0:0:
448,192,100634,1,0,0:0:0:0:
320,192,100715,1,0,0:0:0:0:
64,192,100715,1,0,0:0:0:0:
192,192,100715,1,0,0:0:0:0:
448,192,100715,1,0,0:0:0:0:
320,192,100797,1,0,0:0:0:0:
192,192,100797,1,0,0:0:0:0:
64,192,100878,1,0,0:0:0:0:
448,192,100878,1,0,0:0:0:0:
192,192,100960,1,0,0:0:0:0:
64,192,100960,1,0,0:0:0:0:
448,192,101042,1,0,0:0:0:0:
192,192,101042,1,0,0:0:0:0:
64,192,101042,1,0,0:0:0:0:
320,192,101042,1,0,0:0:0:0:
320,192,101123,1,0,0:0:0:0:
448,192,101123,1,0,0:0:0:0:
64,192,101204,1,0,0:0:0:0:
192,192,101204,1,0,0:0:0:0:
448,192,101286,1,0,0:0:0:0:
320,192,101286,1,0,0:0:0:0:
64,192,101367,1,0,0:0:0:0:
192,192,101367,1,0,0:0:0:0:
448,192,101367,1,0,0:0:0:0:
320,192,101367,1,0,0:0:0:0:
192,192,101448,1,0,0:0:0:0:
64,192,101448,1,0,0:0:0:0:
64,192,101531,1,0,0:0:0:0:
448,192,101531,1,0,0:0:0:0:
320,192,101612,1,0,0:0:0:0:
192,192,101612,1,0,0:0:0:0:
64,192,101693,1,0,0:0:0:0:
192,192,101693,1,0,0:0:0:0:
448,192,101693,1,0,0:0:0:0:
320,192,101693,1,0,0:0:0:0:
64,192,101775,1,0,0:0:0:0:
448,192,101775,1,0,0:0:0:0:
320,192,101856,1,0,0:0:0:0:
64,192,101856,1,0,0:0:0:0:
320,192,101937,1,0,0:0:0:0:
448,192,101937,1,0,0:0:0:0:
64,192,102020,1,0,0:0:0:0:
192,192,102020,1,0,0:0:0:0:
320,192,102020,1,0,0:0:0:0:
448,192,102020,1,0,0:0:0:0:
192,192,102101,1,0,0:0:0:0:
64,192,102101,1,0,0:0:0:0:
64,192,102182,1,0,0:0:0:0:
448,192,102182,1,0,0:0:0:0:
320,192,102264,1,0,0:0:0:0:
448,192,102264,1,0,0:0:0:0:
320,192,102345,1,0,0:0:0:0:
64,192,102345,1,0,0:0:0:0:
192,192,102345,1,0,0:0:0:0:
448,192,102345,1,0,0:0:0:0:
192,192,102427,1,0,0:0:0:0:
64,192,102427,1,0,0:0:0:0:
64,192,102508,1,0,0:0:0:0:
448,192,102508,1,0,0:0:0:0:
320,192,102590,1,0,0:0:0:0:
192,192,102590,1,0,0:0:0:0:
64,192,102672,1,0,0:0:0:0:
192,192,102672,1,0,0:0:0:0:
320,192,102672,1,0,0:0:0:0:
448,192,102672,1,0,0:0:0:0:
64,192,102753,1,0,0:0:0:0:
448,192,102753,1,0,0:0:0:0:
320,192,102834,1,0,0:0:0:0:
448,192,102834,1,0,0:0:0:0:
192,192,102916,1,0,0:0:0:0:
64,192,102916,1,0,0:0:0:0:
64,192,102997,1,0,0:0:0:0:
192,192,102997,1,0,0:0:0:0:
320,192,102997,1,0,0:0:0:0:
448,192,102997,1,0,0:0:0:0:
320,192,103078,1,0,0:0:0:0:
448,192,103078,1,0,0:0:0:0:
64,192,103161,1,0,0:0:0:0:
448,192,103161,1,0,0:0:0:0:
320,192,103242,1,0,0:0:0:0:
64,192,103242,1,0,0:0:0:0:
192,192,103323,1,0,0:0:0:0:
320,192,103323,1,0,0:0:0:0:
448,192,103323,1,0,0:0:0:0:
64,192,103323,1,0,0:0:0:0:
192,192,103405,1,0,0:0:0:0:
448,192,103405,1,0,0:0:0:0:
320,192,103486,1,0,0:0:0:0:
448,192,103486,1,0,0:0:0:0:
64,192,103567,1,0,0:0:0:0:
192,192,103567,1,0,0:0:0:0:
64,192,103650,1,0,0:0:0:0:
192,192,103650,1,0,0:0:0:0:
320,192,103650,1,0,0:0:0:0:
448,192,103650,1,0,0:0:0:0:
320,192,103731,1,0,0:0:0:0:
448,192,103731,1,0,0:0:0:0:
192,192,103812,1,0,0:0:0:0:
64,192,103812,1,0,0:0:0:0:
64,192,103894,1,0,0:0:0:0:
448,192,103894,1,0,0:0:0:0:
320,192,103975,1,0,0:0:0:0:
64,192,103975,1,0,0:0:0:0:
192,192,103975,1,0,0:0:0:0:
448,192,103975,1,0,0:0:0:0:
192,192,104057,1,0,0:0:0:0:
320,192,104057,1,0,0:0:0:0:
64,192,104138,1,0,0:0:0:0:
448,192,104138,1,0,0:0:0:0:
320,192,104220,1,0,0:0:0:0:
448,192,104220,1,0,0:0:0:0:
64,192,104302,1,0,0:0:0:0:
192,192,104302,1,0,0:0:0:0:
320,192,104302,1,0,0:0:0:0:
448,192,104302,1,0,0:0:0:0:
192,192,104383,1,0,0:0:0:0:
64,192,104383,1,0,0:0:0:0:
320,192,104464,1,0,0:0:0:0:
448,192,104464,1,0,0:0:0:0:
64,192,104546,1,0,0:0:0:0:
448,192,104546,1,0,0:0:0:0:
448,192,104627,1,0,0:0:0:0:
320,192,104627,1,0,0:0:0:0:
192,192,104627,1,0,0:0:0:0:
64,192,104627,1,0,0:0:0:0:
192,192,104708,1,0,0:0:0:0:
320,192,104708,1,0,0:0:0:0:
448,192,104791,1,0,0:0:0:0:
64,192,104791,1,0,0:0:0:0:
192,192,104872,1,0,0:0:0:0:
448,192,104872,1,0,0:0:0:0:
320,192,104953,1,0,0:0:0:0:
448,192,104953,1,0,0:0:0:0:
192,192,104953,1,0,0:0:0:0:
64,192,104953,1,0,0:0:0:0:
64,192,105035,1,0,0:0:0:0:
320,192,105035,1,0,0:0:0:0:
192,192,105116,1,0,0:0:0:0:
64,192,105116,1,0,0:0:0:0:
320,192,105197,1,0,0:0:0:0:
448,192,105197,1,0,0:0:0:0:
64,192,105280,1,0,0:0:0:0:
192,192,105280,1,0,0:0:0:0:
320,192,105280,1,0,0:0:0:0:
448,192,105280,1,0,0:0:0:0:
64,192,105361,1,0,0:0:0:0:
192,192,105361,1,0,0:0:0:0:
64,192,105442,1,0,0:0:0:0:
192,192,105442,1,0,0:0:0:0:
320,192,105442,1,0,0:0:0:0:
448,192,105442,1,0,0:0:0:0:
320,192,105524,1,0,0:0:0:0:
448,192,105524,1,0,0:0:0:0:
64,192,105605,1,0,0:0:0:0:
192,192,105605,1,0,0:0:0:0:
320,192,105605,1,0,0:0:0:0:
448,192,105605,1,0,0:0:0:0:
64,192,105687,1,0,0:0:0:0:
192,192,105687,1,0,0:0:0:0:
448,192,105768,1,0,0:0:0:0:
320,192,105768,1,0,0:0:0:0:
64,192,105850,1,0,0:0:0:0:
448,192,105850,1,0,0:0:0:0:
448,192,105932,1,0,0:0:0:0:
320,192,105932,1,0,0:0:0:0:
192,192,105932,1,0,0:0:0:0:
64,192,105932,1,0,0:0:0:0:
192,192,106013,1,0,0:0:0:0:
320,192,106013,1,0,0:0:0:0:
448,192,106094,1,0,0:0:0:0:
64,192,106094,1,0,0:0:0:0:
192,192,106176,1,0,0:0:0:0:
64,192,106176,1,0,0:0:0:0:
64,192,106257,1,0,0:0:0:0:
192,192,106257,1,0,0:0:0:0:
320,192,106257,1,0,0:0:0:0:
448,192,106257,1,0,0:0:0:0:
320,192,106338,1,0,0:0:0:0:
448,192,106338,1,0,0:0:0:0:
192,192,106421,1,0,0:0:0:0:
320,192,106421,1,0,0:0:0:0:
64,192,106502,1,0,0:0:0:0:
192,192,106502,1,0,0:0:0:0:
64,192,106583,1,0,0:0:0:0:
192,192,106583,1,0,0:0:0:0:
320,192,106583,1,0,0:0:0:0:
448,192,106583,1,0,0:0:0:0:
320,192,106665,1,0,0:0:0:0:
448,192,106665,1,0,0:0:0:0:
64,192,106746,1,0,0:0:0:0:
448,192,106746,1,0,0:0:0:0:
64,192,106827,1,0,0:0:0:0:
192,192,106827,1,0,0:0:0:0:
320,192,106910,1,0,0:0:0:0:
448,192,106910,1,0,0:0:0:0:
192,192,106910,1,0,0:0:0:0:
64,192,106910,1,0,0:0:0:0:
320,192,106991,1,0,0:0:0:0:
448,192,106991,1,0,0:0:0:0:
64,192,107072,1,0,0:0:0:0:
448,192,107072,1,0,0:0:0:0:
320,192,107154,1,0,0:0:0:0:
192,192,107154,1,0,0:0:0:0:
448,192,107235,1,0,0:0:0:0:
320,192,107235,1,0,0:0:0:0:
192,192,107235,1,0,0:0:0:0:
64,192,107235,1,0,0:0:0:0:
64,192,107317,1,0,0:0:0:0:
448,192,107317,1,0,0:0:0:0:
320,192,107398,1,0,0:0:0:0:
448,192,107398,1,0,0:0:0:0:
192,192,107480,1,0,0:0:0:0:
64,192,107480,1,0,0:0:0:0:
64,192,107562,1,0,0:0:0:0:
192,192,107562,1,0,0:0:0:0:
320,192,107562,1,0,0:0:0:0:
448,192,107562,1,0,0:0:0:0:
320,192,107643,1,0,0:0:0:0:
448,192,107643,1,0,0:0:0:0:
192,192,107724,1,0,0:0:0:0:
64,192,107724,1,0,0:0:0:0:
64,192,107806,1,0,0:0:0:0:
448,192,107806,1,0,0:0:0:0:
64,192,107887,1,0,0:0:0:0:
192,192,107887,1,0,0:0:0:0:
448,192,107887,1,0,0:0:0:0:
320,192,107887,1,0,0:0:0:0:
192,192,107968,1,0,0:0:0:0:
320,192,107968,1,0,0:0:0:0:
64,192,108051,1,0,0:0:0:0:
448,192,108051,1,0,0:0:0:0:
320,192,108132,1,0,0:0:0:0:
448,192,108132,1,0,0:0:0:0:
64,192,108213,1,0,0:0:0:0:
192,192,108213,1,0,0:0:0:0:
320,192,108213,1,0,0:0:0:0:
448,192,108213,1,0,0:0:0:0:
192,192,108295,1,0,0:0:0:0:
64,192,108295,1,0,0:0:0:0:
320,192,108376,1,0,0:0:0:0:
64,192,108376,1,0,0:0:0:0:
192,192,108457,1,0,0:0:0:0:
448,192,108457,1,0,0:0:0:0:
64,192,108540,1,0,0:0:0:0:
192,192,108540,1,0,0:0:0:0:
320,192,108540,1,0,0:0:0:0:
448,192,108540,1,0,0:0:0:0:
320,192,108621,1,0,0:0:0:0:
64,192,108621,1,0,0:0:0:0:
320,192,108702,1,0,0:0:0:0:
448,192,108702,1,0,0:0:0:0:
192,192,108784,1,0,0:0:0:0:
64,192,108784,1,0,0:0:0:0:
192,192,108865,1,0,0:0:0:0:
64,192,108865,1,0,0:0:0:0:
320,192,108865,1,0,0:0:0:0:
448,192,108865,1,0,0:0:0:0:
448,192,108947,1,0,0:0:0:0:
320,192,108947,1,0,0:0:0:0:
64,192,109028,1,0,0:0:0:0:
448,192,109028,1,0,0:0:0:0:
192,192,109110,1,0,0:0:0:0:
64,192,109110,1,0,0:0:0:0:
64,192,109192,1,0,0:0:0:0:
192,192,109192,1,0,0:0:0:0:
320,192,109192,1,0,0:0:0:0:
448,192,109192,1,0,0:0:0:0:
320,192,109273,1,0,0:0:0:0:
448,192,109273,1,0,0:0:0:0:
192,192,109354,1,0,0:0:0:0:
320,192,109354,1,0,0:0:0:0:
64,192,109436,1,0,0:0:0:0:
448,192,109436,1,0,0:0:0:0:
192,192,109517,1,0,0:0:0:0:
64,192,109517,1,0,0:0:0:0:
320,192,109517,1,0,0:0:0:0:
448,192,109517,1,0,0:0:0:0:
320,192,109598,1,0,0:0:0:0:
192,192,109598,1,0,0:0:0:0:
64,192,109681,1,0,0:0:0:0:
448,192,109681,1,0,0:0:0:0:
320,192,109762,1,0,0:0:0:0:
64,192,109762,1,0,0:0:0:0:
64,192,109843,1,0,0:0:0:0:
192,192,109843,1,0,0:0:0:0:
320,192,109843,1,0,0:0:0:0:
448,192,109843,1,0,0:0:0:0:
192,192,109925,1,0,0:0:0:0:
448,192,109925,1,0,0:0:0:0:
320,192,110006,1,0,0:0:0:0:
448,192,110006,1,0,0:0:0:0:
192,192,110087,1,0,0:0:0:0:
64,192,110087,1,0,0:0:0:0:
64,192,110170,1,0,0:0:0:0:
192,192,110170,1,0,0:0:0:0:
448,192,110170,1,0,0:0:0:0:
320,192,110170,1,0,0:0:0:0:
192,192,110332,1,0,0:0:0:0:
64,192,110332,1,0,0:0:0:0:
320,192,110414,1,0,0:0:0:0:
448,192,110414,1,0,0:0:0:0:
192,192,110495,1,0,0:0:0:0:
64,192,110495,1,0,0:0:0:0:
320,192,110495,1,0,0:0:0:0:
448,192,110495,1,0,0:0:0:0:
320,192,110658,1,0,0:0:0:0:
448,192,110658,1,0,0:0:0:0:
192,192,110740,1,0,0:0:0:0:
64,192,110740,1,0,0:0:0:0:
64,192,110822,1,0,0:0:0:0:
192,192,110822,1,0,0:0:0:0:
320,192,110822,1,0,0:0:0:0:
448,192,110822,1,0,0:0:0:0:
320,192,110903,1,0,0:0:0:0:
448,192,110903,1,0,0:0:0:0:
64,192,110984,1,0,0:0:0:0:
448,192,110984,1,0,0:0:0:0:
192,192,111066,1,0,0:0:0:0:
64,192,111066,1,0,0:0:0:0:
192,192,111147,1,0,0:0:0:0:
320,192,111147,1,0,0:0:0:0:
448,192,111147,1,0,0:0:0:0:
64,192,111147,1,0,0:0:0:0:
320,192,111228,1,0,0:0:0:0:
448,192,111228,1,0,0:0:0:0:
192,192,111311,1,0,0:0:0:0:
320,192,111311,1,0,0:0:0:0:
64,192,111392,1,0,0:0:0:0:
448,192,111392,1,0,0:0:0:0:
448,192,111473,1,0,0:0:0:0:
320,192,111473,1,0,0:0:0:0:
192,192,111473,1,0,0:0:0:0:
64,192,111473,1,0,0:0:0:0:
192,192,111555,1,0,0:0:0:0:
320,192,111555,1,0,0:0:0:0:
64,192,111636,1,0,0:0:0:0:
320,192,111636,1,0,0:0:0:0:
192,192,111717,1,0,0:0:0:0:
448,192,111717,1,0,0:0:0:0:
320,192,111800,1,0,0:0:0:0:
448,192,111800,1,0,0:0:0:0:
192,192,111800,1,0,0:0:0:0:
64,192,111800,1,0,0:0:0:0:
64,192,111881,1,0,0:0:0:0:
320,192,111881,1,0,0:0:0:0:
192,192,111962,1,0,0:0:0:0:
64,192,111962,1,0,0:0:0:0:
192,192,112044,1,0,0:0:0:0:
320,192,112044,1,0,0:0:0:0:
64,192,112125,1,0,0:0:0:0:
192,192,112125,1,0,0:0:0:0:
320,192,112125,1,0,0:0:0:0:
448,192,112125,1,0,0:0:0:0:
64,192,112207,1,0,0:0:0:0:
448,192,112207,1,0,0:0:0:0:
320,192,112288,1,0,0:0:0:0:
448,192,112288,1,0,0:0:0:0:
192,192,112370,1,0,0:0:0:0:
64,192,112370,1,0,0:0:0:0:
64,192,112452,1,0,0:0:0:0:
192,192,112452,1,0,0:0:0:0:
448,192,112452,1,0,0:0:0:0:
320,192,112452,1,0,0:0:0:0:
320,192,112533,1,0,0:0:0:0:
448,192,112533,1,0,0:0:0:0:
64,192,112614,1,0,0:0:0:0:
320,192,112614,1,0,0:0:0:0:
64,192,112696,1,0,0:0:0:0:
448,192,112696,1,0,0:0:0:0:
320,192,112777,1,0,0:0:0:0:
448,192,112777,1,0,0:0:0:0:
192,192,112777,1,0,0:0:0:0:
64,192,112777,1,0,0:0:0:0:
192,192,112858,1,0,0:0:0:0:
320,192,112858,1,0,0:0:0:0:
64,192,112941,1,0,0:0:0:0:
448,192,112941,1,0,0:0:0:0:
320,192,113022,1,0,0:0:0:0:
448,192,113022,1,0,0:0:0:0:
192,192,113103,1,0,0:0:0:0:
64,192,113103,1,0,0:0:0:0:
320,192,113103,1,0,0:0:0:0:
448,192,113103,1,0,0:0:0:0:
192,192,113185,1,0,0:0:0:0:
64,192,113185,1,0,0:0:0:0:
320,192,113266,1,0,0:0:0:0:
448,192,113266,1,0,0:0:0:0:
320,192,113347,1,0,0:0:0:0:
192,192,113347,1,0,0:0:0:0:
448,192,113430,1,0,0:0:0:0:
320,192,113430,1,0,0:0:0:0:
64,192,113430,1,0,0:0:0:0:
192,192,113430,1,0,0:0:0:0:
64,192,113511,1,0,0:0:0:0:
448,192,113511,1,0,0:0:0:0:
192,192,113592,1,0,0:0:0:0:
64,192,113592,1,0,0:0:0:0:
320,192,113674,1,0,0:0:0:0:
448,192,113674,1,0,0:0:0:0:
64,192,113755,1,0,0:0:0:0:
192,192,113755,1,0,0:0:0:0:
320,192,113755,1,0,0:0:0:0:
448,192,113755,1,0,0:0:0:0:
192,192,113837,1,0,0:0:0:0:
64,192,113837,1,0,0:0:0:0:
64,192,113918,1,0,0:0:0:0:
320,192,113918,1,0,0:0:0:0:
192,192,114000,1,0,0:0:0:0:
448,192,114000,1,0,0:0:0:0:
64,192,114082,1,0,0:0:0:0:
192,192,114082,1,0,0:0:0:0:
448,192,114082,1,0,0:0:0:0:
320,192,114082,1,0,0:0:0:0:
320,192,114163,1,0,0:0:0:0:
64,192,114163,1,0,0:0:0:0:
192,192,114244,1,0,0:0:0:0:
64,192,114244,1,0,0:0:0:0:
192,192,114326,1,0,0:0:0:0:
320,192,114326,1,0,0:0:0:0:
64,192,114407,1,0,0:0:0:0:
192,192,114407,1,0,0:0:0:0:
320,192,114407,1,0,0:0:0:0:
448,192,114407,1,0,0:0:0:0:
64,192,114488,1,0,0:0:0:0:
448,192,114488,1,0,0:0:0:0:
192,192,114571,1,0,0:0:0:0:
320,192,114571,1,0,0:0:0:0:
320,192,114652,1,0,0:0:0:0:
448,192,114652,1,0,0:0:0:0:
64,192,114733,1,0,0:0:0:0:
192,192,114733,1,0,0:0:0:0:
320,192,114733,1,0,0:0:0:0:
448,192,114733,1,0,0:0:0:0:
192,192,114815,1,0,0:0:0:0:
64,192,114815,1,0,0:0:0:0:
64,192,114896,1,0,0:0:0:0:
320,192,114896,1,0,0:0:0:0:
448,192,114977,1,0,0:0:0:0:
320,192,114977,1,0,0:0:0:0:
64,192,115060,1,0,0:0:0:0:
192,192,115060,1,0,0:0:0:0:
320,192,115060,1,0,0:0:0:0:
448,192,115060,1,0,0:0:0:0:
192,192,115141,1,0,0:0:0:0:
64,192,115141,1,0,0:0:0:0:
448,192,115222,1,0,0:0:0:0:
320,192,115222,1,0,0:0:0:0:
64,192,115304,1,0,0:0:0:0:
448,192,115304,1,0,0:0:0:0:
64,192,115385,1,0,0:0:0:0:
192,192,115385,1,0,0:0:0:0:
320,192,115385,1,0,0:0:0:0:
448,192,115385,1,0,0:0:0:0:
320,192,115466,1,0,0:0:0:0:
192,192,115466,1,0,0:0:0:0:
192,192,115548,1,0,0:0:0:0:
448,192,115548,1,0,0:0:0:0:
320,192,115630,1,0,0:0:0:0:
64,192,115630,1,0,0:0:0:0:
64,192,115712,1,0,0:0:0:0:
192,192,115712,1,0,0:0:0:0:
320,192,115712,1,0,0:0:0:0:
448,192,115712,1,0,0:0:0:0:
192,192,115793,1,0,0:0:0:0:
448,192,115793,1,0,0:0:0:0:
448,192,115874,1,0,0:0:0:0:
64,192,115874,1,0,0:0:0:0:
64,192,115956,1,0,0:0:0:0:
192,192,115956,1,0,0:0:0:0:
64,192,116037,1,0,0:0:0:0:
192,192,116037,1,0,0:0:0:0:
320,192,116037,1,0,0:0:0:0:
448,192,116037,1,0,0:0:0:0:
320,192,116118,1,0,0:0:0:0:
448,192,116118,1,0,0:0:0:0:
192,192,116201,1,0,0:0:0:0:
320,192,116201,1,0,0:0:0:0:
64,192,116282,1,0,0:0:0:0:
192,192,116282,1,0,0:0:0:0:
64,192,116363,1,0,0:0:0:0:
192,192,116363,1,0,0:0:0:0:
448,192,116363,1,0,0:0:0:0:
320,192,116363,1,0,0:0:0:0:
320,192,116445,1,0,0:0:0:0:
448,192,116445,1,0,0:0:0:0:
64,192,116526,1,0,0:0:0:0:
320,192,116526,1,0,0:0:0:0:
192,192,116607,1,0,0:0:0:0:
448,192,116607,1,0,0:0:0:0:
64,192,116690,1,0,0:0:0:0:
192,192,116690,1,0,0:0:0:0:
320,192,116690,1,0,0:0:0:0:
448,192,116690,1,0,0:0:0:0:
320,192,116771,1,0,0:0:0:0:
64,192,116771,1,0,0:0:0:0:
192,192,116852,1,0,0:0:0:0:
64,192,116852,1,0,0:0:0:0:
320,192,116934,1,0,0:0:0:0:
448,192,116934,1,0,0:0:0:0:
64,192,117015,1,0,0:0:0:0:
192,192,117015,1,0,0:0:0:0:
320,192,117015,1,0,0:0:0:0:
448,192,117015,1,0,0:0:0:0:
192,192,117096,1,0,0:0:0:0:
64,192,117096,1,0,0:0:0:0:
448,192,117178,1,0,0:0:0:0:
64,192,117178,1,0,0:0:0:0:
320,192,117260,1,0,0:0:0:0:
448,192,117260,1,0,0:0:0:0:
64,192,117342,5,0,0:0:0:0:
320,192,117342,1,0,0:0:0:0:
448,192,117342,1,0,0:0:0:0:
192,192,117342,1,0,0:0:0:0:
192,192,117423,1,0,0:0:0:0:
64,192,117423,1,0,0:0:0:0:
320,192,117504,1,0,0:0:0:0:
64,192,117504,1,0,0:0:0:0:
320,192,117586,1,0,0:0:0:0:
448,192,117586,1,0,0:0:0:0:
64,192,117667,5,0,0:0:0:0:
192,192,117667,1,0,0:0:0:0:
320,192,117667,1,0,0:0:0:0:
448,192,117667,1,0,0:0:0:0:
192,192,117748,1,0,0:0:0:0:
64,192,117748,1,0,0:0:0:0:
64,192,117831,1,0,0:0:0:0:
448,192,117831,1,0,0:0:0:0:
192,192,117912,1,0,0:0:0:0:
320,192,117912,1,0,0:0:0:0:
64,192,117993,5,0,0:0:0:0:
192,192,117993,1,0,0:0:0:0:
320,192,117993,1,0,0:0:0:0:
448,192,117993,1,0,0:0:0:0:
64,192,118075,1,0,0:0:0:0:
448,192,118075,1,0,0:0:0:0:
64,192,118156,1,0,0:0:0:0:
320,192,118156,1,0,0:0:0:0:
192,192,118237,1,0,0:0:0:0:
320,192,118237,1,0,0:0:0:0:
64,192,118320,5,0,0:0:0:0:
320,192,118320,1,0,0:0:0:0:
448,192,118320,1,0,0:0:0:0:
192,192,118320,1,0,0:0:0:0:
448,192,118401,1,0,0:0:0:0:
64,192,118401,1,0,0:0:0:0:
320,192,118482,1,0,0:0:0:0:
448,192,118482,1,0,0:0:0:0:
192,192,118564,1,0,0:0:0:0:
64,192,118564,1,0,0:0:0:0:
64,192,118645,5,0,0:0:0:0:
192,192,118645,1,0,0:0:0:0:
448,192,118645,1,0,0:0:0:0:
320,192,118645,1,0,0:0:0:0:
64,192,118808,1,0,0:0:0:0:
448,192,118972,1,0,0:0:0:0:
320,192,119134,1,0,0:0:0:0:
448,192,119297,1,0,0:0:0:0:
192,192,119461,1,0,0:0:0:0:
448,192,119623,1,0,0:0:0:0:
64,192,119786,1,0,0:0:0:0:
64,192,119950,1,0,0:0:0:0:
192,192,119950,1,0,0:0:0:0:
320,192,119950,1,0,0:0:0:0:
448,192,119950,1,0,0:0:0:0:
320,192,120112,1,0,0:0:0:0:
448,192,120112,1,0,0:0:0:0:
64,192,120275,1,0,0:0:0:0:
192,192,120275,1,0,0:0:0:0:
320,192,120275,1,0,0:0:0:0:
448,192,120275,1,0,0:0:0:0:
192,192,120438,1,0,0:0:0:0:
64,192,120438,1,0,0:0:0:0:
64,192,120602,1,0,0:0:0:0:
192,192,120602,1,0,0:0:0:0:
320,192,120602,1,0,0:0:0:0:
448,192,120602,1,0,0:0:0:0:
448,192,120764,1,0,0:0:0:0:
320,192,120805,1,0,0:0:0:0:
192,192,120846,1,0,0:0:0:0:
64,192,120886,1,0,0:0:0:0:
320,192,120927,1,0,0:0:0:0:
448,192,120927,1,0,0:0:0:0:
64,192,121091,1,0,0:0:0:0:
192,192,121131,1,0,0:0:0:0:
320,192,121172,1,0,0:0:0:0:
448,192,121213,1,0,0:0:0:0:
64,192,121253,1,0,0:0:0:0:
192,192,121253,1,0,0:0:0:0:
320,192,121335,1,0,0:0:0:0:
64,192,121335,1,0,0:0:0:0:
192,192,121416,1,0,0:0:0:0:
448,192,121416,1,0,0:0:0:0:
320,192,121497,1,0,0:0:0:0:
448,192,121497,1,0,0:0:0:0:
64,192,121580,1,0,0:0:0:0:
192,192,121580,1,0,0:0:0:0:
320,192,121580,1,0,0:0:0:0:
448,192,121661,1,0,0:0:0:0:
64,192,121661,1,0,0:0:0:0:
192,192,121742,1,0,0:0:0:0:
448,192,121742,1,0,0:0:0:0:
320,192,121824,1,0,0:0:0:0:
192,192,121824,1,0,0:0:0:0:
64,192,121905,1,0,0:0:0:0:
320,192,121905,1,0,0:0:0:0:
448,192,121905,1,0,0:0:0:0:
192,192,121986,1,0,0:0:0:0:
448,192,121986,1,0,0:0:0:0:
192,192,122068,1,0,0:0:0:0:
64,192,122068,1,0,0:0:0:0:
320,192,122150,1,0,0:0:0:0:
448,192,122150,1,0,0:0:0:0:
192,192,122232,1,0,0:0:0:0:
64,192,122232,1,0,0:0:0:0:
448,192,122232,1,0,0:0:0:0:
320,192,122313,1,0,0:0:0:0:
192,192,122313,1,0,0:0:0:0:
64,192,122394,1,0,0:0:0:0:
448,192,122394,1,0,0:0:0:0:
320,192,122476,1,0,0:0:0:0:
448,192,122476,1,0,0:0:0:0:
192,192,122557,1,0,0:0:0:0:
64,192,122557,1,0,0:0:0:0:
320,192,122557,1,0,0:0:0:0:
448,192,122638,1,0,0:0:0:0:
192,192,122638,1,0,0:0:0:0:
64,192,122721,1,0,0:0:0:0:
320,192,122721,1,0,0:0:0:0:
192,192,122802,1,0,0:0:0:0:
64,192,122802,1,0,0:0:0:0:
192,192,122883,1,0,0:0:0:0:
320,192,122883,1,0,0:0:0:0:
448,192,122883,1,0,0:0:0:0:
64,192,122965,1,0,0:0:0:0:
448,192,122965,1,0,0:0:0:0:
320,192,123046,1,0,0:0:0:0:
448,192,123046,1,0,0:0:0:0:
192,192,123127,1,0,0:0:0:0:
320,192,123127,1,0,0:0:0:0:
64,192,123210,1,0,0:0:0:0:
320,192,123210,1,0,0:0:0:0:
448,192,123210,1,0,0:0:0:0:
64,192,123291,1,0,0:0:0:0:
448,192,123291,1,0,0:0:0:0:
320,192,123372,1,0,0:0:0:0:
192,192,123372,1,0,0:0:0:0:
64,192,123454,1,0,0:0:0:0:
192,192,123454,1,0,0:0:0:0:
320,192,123535,1,0,0:0:0:0:
448,192,123535,1,0,0:0:0:0:
192,192,123535,1,0,0:0:0:0:
64,192,123616,1,0,0:0:0:0:
448,192,123616,1,0,0:0:0:0:
192,192,123698,1,0,0:0:0:0:
64,192,123698,1,0,0:0:0:0:
192,192,123780,1,0,0:0:0:0:
448,192,123780,1,0,0:0:0:0:
64,192,123862,1,0,0:0:0:0:
448,192,123862,1,0,0:0:0:0:
320,192,123862,1,0,0:0:0:0:
192,192,123943,1,0,0:0:0:0:
320,192,123943,1,0,0:0:0:0:
64,192,124024,1,0,0:0:0:0:
192,192,124024,1,0,0:0:0:0:
64,192,124106,1,0,0:0:0:0:
448,192,124106,1,0,0:0:0:0:
192,192,124187,1,0,0:0:0:0:
320,192,124187,1,0,0:0:0:0:
448,192,124187,1,0,0:0:0:0:
320,192,124268,1,0,0:0:0:0:
64,192,124268,1,0,0:0:0:0:
192,192,124351,1,0,0:0:0:0:
448,192,124351,1,0,0:0:0:0:
320,192,124432,1,0,0:0:0:0:
448,192,124432,1,0,0:0:0:0:
64,192,124513,1,0,0:0:0:0:
192,192,124513,1,0,0:0:0:0:
320,192,124513,1,0,0:0:0:0:
448,192,124595,1,0,0:0:0:0:
64,192,124595,1,0,0:0:0:0:
192,192,124676,1,0,0:0:0:0:
320,192,124676,1,0,0:0:0:0:
448,192,124757,1,0,0:0:0:0:
192,192,124757,1,0,0:0:0:0:
64,192,124840,1,0,0:0:0:0:
448,192,124840,1,0,0:0:0:0:
320,192,124840,1,0,0:0:0:0:
192,192,124921,1,0,0:0:0:0:
64,192,124921,1,0,0:0:0:0:
192,192,125002,1,0,0:0:0:0:
448,192,125002,1,0,0:0:0:0:
320,192,125084,1,0,0:0:0:0:
448,192,125084,1,0,0:0:0:0:
192,192,125165,1,0,0:0:0:0:
320,192,125165,1,0,0:0:0:0:
448,192,125165,1,0,0:0:0:0:
64,192,125246,1,0,0:0:0:0:
192,192,125246,1,0,0:0:0:0:
448,192,125328,1,0,0:0:0:0:
64,192,125328,1,0,0:0:0:0:
192,192,125410,1,0,0:0:0:0:
320,192,125410,1,0,0:0:0:0:
64,192,125492,1,0,0:0:0:0:
192,192,125492,1,0,0:0:0:0:
448,192,125492,1,0,0:0:0:0:
64,192,125573,1,0,0:0:0:0:
192,192,125573,1,0,0:0:0:0:
448,192,125654,1,0,0:0:0:0:
320,192,125654,1,0,0:0:0:0:
192,192,125736,1,0,0:0:0:0:
448,192,125736,1,0,0:0:0:0:
64,192,125817,1,0,0:0:0:0:
192,192,125817,1,0,0:0:0:0:
320,192,125817,1,0,0:0:0:0:
448,192,125898,1,0,0:0:0:0:
64,192,125898,1,0,0:0:0:0:
320,192,125981,1,0,0:0:0:0:
192,192,125981,1,0,0:0:0:0:
320,192,126062,1,0,0:0:0:0:
448,192,126062,1,0,0:0:0:0:
64,192,126143,1,0,0:0:0:0:
192,192,126143,1,0,0:0:0:0:
448,192,126143,1,0,0:0:0:0:
320,192,126225,1,0,0:0:0:0:
64,192,126225,1,0,0:0:0:0:
448,192,126306,1,0,0:0:0:0:
320,192,126306,1,0,0:0:0:0:
192,192,126387,1,0,0:0:0:0:
64,192,126387,1,0,0:0:0:0:
64,192,126470,1,0,0:0:0:0:
320,192,126470,1,0,0:0:0:0:
448,192,126470,1,0,0:0:0:0:
320,192,126632,1,0,0:0:0:0:
192,192,126795,1,0,0:0:0:0:
64,192,126795,1,0,0:0:0:0:
448,192,126958,1,0,0:0:0:0:
192,192,127122,1,0,0:0:0:0:
64,192,127122,1,0,0:0:0:0:
320,192,127284,1,0,0:0:0:0:
192,192,127447,1,0,0:0:0:0:
64,192,127447,1,0,0:0:0:0:
448,192,127611,1,0,0:0:0:0:
320,192,127773,1,0,0:0:0:0:
192,192,127773,1,0,0:0:0:0:
64,192,127936,1,0,0:0:0:0:
320,192,128100,1,0,0:0:0:0:
448,192,128100,1,0,0:0:0:0:
192,192,128262,1,0,0:0:0:0:
320,192,128425,1,0,0:0:0:0:
448,192,128425,1,0,0:0:0:0:
64,192,128588,1,0,0:0:0:0:
320,192,128752,1,0,0:0:0:0:
448,192,128752,1,0,0:0:0:0:
192,192,128914,1,0,0:0:0:0:
64,192,129077,1,0,0:0:0:0:
448,192,129077,1,0,0:0:0:0:
320,192,129241,1,0,0:0:0:0:
64,192,129403,1,0,0:0:0:0:
448,192,129403,1,0,0:0:0:0:
192,192,129566,1,0,0:0:0:0:
448,192,129730,1,0,0:0:0:0:
64,192,129730,1,0,0:0:0:0:
320,192,129892,1,0,0:0:0:0:
64,192,130055,1,0,0:0:0:0:
448,192,130055,1,0,0:0:0:0:
192,192,130218,1,0,0:0:0:0:
320,192,130382,1,0,0:0:0:0:
448,192,130382,1,0,0:0:0:0:
64,192,130544,1,0,0:0:0:0:
192,192,130707,1,0,0:0:0:0:
448,192,130707,1,0,0:0:0:0:
320,192,130871,1,0,0:0:0:0:
192,192,131033,1,0,0:0:0:0:
448,192,131033,1,0,0:0:0:0:
64,192,131196,1,0,0:0:0:0:
192,192,131360,1,0,0:0:0:0:
448,192,131360,1,0,0:0:0:0:
320,192,131522,1,0,0:0:0:0:
64,192,131685,1,0,0:0:0:0:
192,192,131685,1,0,0:0:0:0:
320,192,131685,1,0,0:0:0:0:
448,192,131685,1,0,0:0:0:0:
192,192,131766,1,0,0:0:0:0:
64,192,131766,1,0,0:0:0:0:
64,192,131848,1,0,0:0:0:0:
448,192,131848,1,0,0:0:0:0:
320,192,131930,1,0,0:0:0:0:
448,192,131930,1,0,0:0:0:0:
192,192,132011,1,0,0:0:0:0:
64,192,132011,1,0,0:0:0:0:
320,192,132011,1,0,0:0:0:0:
448,192,132011,1,0,0:0:0:0:
192,192,132093,1,0,0:0:0:0:
64,192,132093,1,0,0:0:0:0:
64,192,132174,1,0,0:0:0:0:
320,192,132174,1,0,0:0:0:0:
448,192,132256,1,0,0:0:0:0:
192,192,132256,1,0,0:0:0:0:
64,192,132337,1,0,0:0:0:0:
192,192,132337,1,0,0:0:0:0:
320,192,132337,1,0,0:0:0:0:
448,192,132337,1,0,0:0:0:0:
320,192,132418,1,0,0:0:0:0:
64,192,132418,1,0,0:0:0:0:
192,192,132501,1,0,0:0:0:0:
64,192,132501,1,0,0:0:0:0:
320,192,132582,1,0,0:0:0:0:
448,192,132582,1,0,0:0:0:0:
64,192,132663,1,0,0:0:0:0:
192,192,132663,1,0,0:0:0:0:
320,192,132663,1,0,0:0:0:0:
448,192,132663,1,0,0:0:0:0:
192,192,132745,1,0,0:0:0:0:
64,192,132745,1,0,0:0:0:0:
64,192,132826,1,0,0:0:0:0:
448,192,132826,1,0,0:0:0:0:
320,192,132907,1,0,0:0:0:0:
192,192,132907,1,0,0:0:0:0:
64,192,132990,1,0,0:0:0:0:
192,192,132990,1,0,0:0:0:0:
320,192,132990,1,0,0:0:0:0:
448,192,132990,1,0,0:0:0:0:
64,192,133071,1,0,0:0:0:0:
448,192,133071,1,0,0:0:0:0:
320,192,133152,1,0,0:0:0:0:
448,192,133152,1,0,0:0:0:0:
192,192,133234,1,0,0:0:0:0:
64,192,133234,1,0,0:0:0:0:
64,192,133315,1,0,0:0:0:0:
192,192,133315,1,0,0:0:0:0:
448,192,133315,1,0,0:0:0:0:
320,192,133315,1,0,0:0:0:0:
320,192,133396,1,0,0:0:0:0:
448,192,133396,1,0,0:0:0:0:
192,192,133478,1,0,0:0:0:0:
320,192,133478,1,0,0:0:0:0:
64,192,133560,1,0,0:0:0:0:
448,192,133560,1,0,0:0:0:0:
64,192,133641,1,0,0:0:0:0:
320,192,133641,1,0,0:0:0:0:
448,192,133641,1,0,0:0:0:0:
192,192,133641,1,0,0:0:0:0:
320,192,133723,1,0,0:0:0:0:
192,192,133723,1,0,0:0:0:0:
64,192,133804,1,0,0:0:0:0:
448,192,133804,1,0,0:0:0:0:
192,192,133886,1,0,0:0:0:0:
448,192,133886,1,0,0:0:0:0:
64,192,133967,1,0,0:0:0:0:
192,192,133967,1,0,0:0:0:0:
320,192,133967,1,0,0:0:0:0:
448,192,133967,1,0,0:0:0:0:
320,192,134048,1,0,0:0:0:0:
64,192,134048,1,0,0:0:0:0:
192,192,134131,1,0,0:0:0:0:
64,192,134131,1,0,0:0:0:0:
320,192,134212,1,0,0:0:0:0:
448,192,134212,1,0,0:0:0:0:
320,192,134293,1,0,0:0:0:0:
192,192,134293,1,0,0:0:0:0:
448,192,134293,1,0,0:0:0:0:
64,192,134293,1,0,0:0:0:0:
192,192,134375,1,0,0:0:0:0:
64,192,134375,1,0,0:0:0:0:
64,192,134456,1,0,0:0:0:0:
448,192,134456,1,0,0:0:0:0:
320,192,134537,1,0,0:0:0:0:
448,192,134537,1,0,0:0:0:0:
64,192,134620,1,0,0:0:0:0:
192,192,134620,1,0,0:0:0:0:
320,192,134620,1,0,0:0:0:0:
192,192,134701,1,0,0:0:0:0:
64,192,134701,1,0,0:0:0:0:
448,192,134782,1,0,0:0:0:0:
320,192,134782,1,0,0:0:0:0:
64,192,134864,1,0,0:0:0:0:
448,192,134864,1,0,0:0:0:0:
64,192,134945,1,0,0:0:0:0:
192,192,134945,1,0,0:0:0:0:
448,192,134945,1,0,0:0:0:0:
320,192,135026,1,0,0:0:0:0:
64,192,135026,1,0,0:0:0:0:
192,192,135108,1,0,0:0:0:0:
448,192,135108,1,0,0:0:0:0:
320,192,135190,1,0,0:0:0:0:
448,192,135190,1,0,0:0:0:0:
64,192,135271,1,0,0:0:0:0:
320,192,135271,1,0,0:0:0:0:
448,192,135271,1,0,0:0:0:0:
64,192,135353,1,0,0:0:0:0:
192,192,135353,1,0,0:0:0:0:
320,192,135434,1,0,0:0:0:0:
192,192,135434,1,0,0:0:0:0:
64,192,135516,1,0,0:0:0:0:
448,192,135516,1,0,0:0:0:0:
64,192,135597,1,0,0:0:0:0:
192,192,135597,1,0,0:0:0:0:
448,192,135597,1,0,0:0:0:0:
192,192,135678,1,0,0:0:0:0:
320,192,135678,1,0,0:0:0:0:
64,192,135761,1,0,0:0:0:0:
320,192,135761,1,0,0:0:0:0:
192,192,135842,1,0,0:0:0:0:
64,192,135842,1,0,0:0:0:0:
320,192,135923,1,0,0:0:0:0:
192,192,135923,1,0,0:0:0:0:
448,192,135923,1,0,0:0:0:0:
320,192,136005,1,0,0:0:0:0:
64,192,136005,1,0,0:0:0:0:
192,192,136086,1,0,0:0:0:0:
448,192,136086,1,0,0:0:0:0:
320,192,136167,1,0,0:0:0:0:
448,192,136167,1,0,0:0:0:0:
64,192,136250,1,0,0:0:0:0:
320,192,136250,1,0,0:0:0:0:
448,192,136250,1,0,0:0:0:0:
192,192,136331,1,0,0:0:0:0:
64,192,136331,1,0,0:0:0:0:
192,192,136412,1,0,0:0:0:0:
448,192,136412,1,0,0:0:0:0:
64,192,136494,1,0,0:0:0:0:
320,192,136494,1,0,0:0:0:0:
192,192,136575,1,0,0:0:0:0:
64,192,136575,1,0,0:0:0:0:
448,192,136575,1,0,0:0:0:0:
320,192,136656,1,0,0:0:0:0:
192,192,136656,1,0,0:0:0:0:
64,192,136738,1,0,0:0:0:0:
448,192,136738,1,0,0:0:0:0:
448,192,136820,1,0,0:0:0:0:
320,192,136820,1,0,0:0:0:0:
192,192,136901,1,0,0:0:0:0:
320,192,136901,1,0,0:0:0:0:
64,192,136901,1,0,0:0:0:0:
192,192,136983,1,0,0:0:0:0:
64,192,136983,1,0,0:0:0:0:
448,192,137064,1,0,0:0:0:0:
320,192,137064,1,0,0:0:0:0:
64,192,137146,1,0,0:0:0:0:
448,192,137146,1,0,0:0:0:0:
64,192,137227,1,0,0:0:0:0:
320,192,137227,1,0,0:0:0:0:
192,192,137227,1,0,0:0:0:0:
192,192,137308,1,0,0:0:0:0:
448,192,137308,1,0,0:0:0:0:
320,192,137391,1,0,0:0:0:0:
448,192,137391,1,0,0:0:0:0:
192,192,137472,1,0,0:0:0:0:
64,192,137472,1,0,0:0:0:0:
64,192,137553,1,0,0:0:0:0:
448,192,137553,1,0,0:0:0:0:
320,192,137553,1,0,0:0:0:0:
192,192,137635,1,0,0:0:0:0:
448,192,137635,1,0,0:0:0:0:
320,192,137716,1,0,0:0:0:0:
64,192,137716,1,0,0:0:0:0:
192,192,137797,1,0,0:0:0:0:
64,192,137797,1,0,0:0:0:0:
64,192,137880,1,0,0:0:0:0:
192,192,137880,1,0,0:0:0:0:
448,192,137880,1,0,0:0:0:0:
320,192,137961,1,0,0:0:0:0:
448,192,137961,1,0,0:0:0:0:
64,192,138042,1,0,0:0:0:0:
320,192,138042,1,0,0:0:0:0:
192,192,138124,1,0,0:0:0:0:
64,192,138124,1,0,0:0:0:0:
192,192,138205,1,0,0:0:0:0:
320,192,138205,1,0,0:0:0:0:
448,192,138205,1,0,0:0:0:0:
320,192,138286,1,0,0:0:0:0:
448,192,138286,1,0,0:0:0:0:
64,192,138368,1,0,0:0:0:0:
448,192,138368,1,0,0:0:0:0:
192,192,138450,1,0,0:0:0:0:
64,192,138450,1,0,0:0:0:0:
64,192,138531,1,0,0:0:0:0:
192,192,138531,1,0,0:0:0:0:
320,192,138531,1,0,0:0:0:0:
448,192,138613,1,0,0:0:0:0:
320,192,138613,1,0,0:0:0:0:
64,192,138694,1,0,0:0:0:0:
448,192,138694,1,0,0:0:0:0:
320,192,138776,1,0,0:0:0:0:
192,192,138776,1,0,0:0:0:0:
64,192,138857,1,0,0:0:0:0:
320,192,138857,1,0,0:0:0:0:
448,192,138857,1,0,0:0:0:0:
192,192,138938,1,0,0:0:0:0:
448,192,138938,1,0,0:0:0:0:
64,192,139021,1,0,0:0:0:0:
320,192,139021,1,0,0:0:0:0:
192,192,139102,1,0,0:0:0:0:
64,192,139102,1,0,0:0:0:0:
192,192,139183,1,0,0:0:0:0:
320,192,139183,1,0,0:0:0:0:
448,192,139183,1,0,0:0:0:0:
320,192,139265,1,0,0:0:0:0:
448,192,139265,1,0,0:0:0:0:
64,192,139346,1,0,0:0:0:0:
192,192,139346,1,0,0:0:0:0:
448,192,139427,1,0,0:0:0:0:
192,192,139427,1,0,0:0:0:0:
192,192,139510,1,0,0:0:0:0:
320,192,139510,1,0,0:0:0:0:
448,192,139510,1,0,0:0:0:0:
64,192,139591,1,0,0:0:0:0:
320,192,139591,1,0,0:0:0:0:
192,192,139672,1,0,0:0:0:0:
64,192,139672,1,0,0:0:0:0:
320,192,139754,1,0,0:0:0:0:
448,192,139754,1,0,0:0:0:0:
64,192,139835,1,0,0:0:0:0:
192,192,139835,1,0,0:0:0:0:
448,192,139835,1,0,0:0:0:0:
320,192,139916,1,0,0:0:0:0:
64,192,139916,1,0,0:0:0:0:
192,192,139998,1,0,0:0:0:0:
448,192,139998,1,0,0:0:0:0:
64,192,140080,1,0,0:0:0:0:
320,192,140080,1,0,0:0:0:0:
64,192,140161,1,0,0:0:0:0:
192,192,140161,1,0,0:0:0:0:
448,192,140161,1,0,0:0:0:0:
320,192,140243,1,0,0:0:0:0:
448,192,140243,1,0,0:0:0:0:
192,192,140324,1,0,0:0:0:0:
64,192,140324,1,0,0:0:0:0:
64,192,140406,1,0,0:0:0:0:
320,192,140406,1,0,0:0:0:0:
192,192,140487,1,0,0:0:0:0:
320,192,140487,1,0,0:0:0:0:
448,192,140487,1,0,0:0:0:0:
64,192,140568,1,0,0:0:0:0:
448,192,140568,1,0,0:0:0:0:
320,192,140651,1,0,0:0:0:0:
448,192,140651,1,0,0:0:0:0:
192,192,140732,1,0,0:0:0:0:
64,192,140732,1,0,0:0:0:0:
64,192,140813,1,0,0:0:0:0:
192,192,140813,1,0,0:0:0:0:
320,192,140813,1,0,0:0:0:0:
448,192,140895,1,0,0:0:0:0:
320,192,140895,1,0,0:0:0:0:
192,192,140976,1,0,0:0:0:0:
448,192,140976,1,0,0:0:0:0:
64,192,141057,1,0,0:0:0:0:
320,192,141057,1,0,0:0:0:0:
64,192,141140,1,0,0:0:0:0:
192,192,141140,1,0,0:0:0:0:
448,192,141140,1,0,0:0:0:0:
320,192,141221,1,0,0:0:0:0:
192,192,141221,1,0,0:0:0:0:
448,192,141302,1,0,0:0:0:0:
64,192,141302,1,0,0:0:0:0:
192,192,141384,1,0,0:0:0:0:
64,192,141384,1,0,0:0:0:0:
192,192,141465,1,0,0:0:0:0:
320,192,141465,1,0,0:0:0:0:
448,192,141465,1,0,0:0:0:0:
320,192,141546,1,0,0:0:0:0:
448,192,141546,1,0,0:0:0:0:
64,192,141628,1,0,0:0:0:0:
192,192,141628,1,0,0:0:0:0:
320,192,141710,1,0,0:0:0:0:
192,192,141710,1,0,0:0:0:0:
64,192,141791,1,0,0:0:0:0:
320,192,141791,1,0,0:0:0:0:
448,192,141791,1,0,0:0:0:0:
192,192,141873,1,0,0:0:0:0:
448,192,141873,1,0,0:0:0:0:
320,192,141954,1,0,0:0:0:0:
64,192,141954,1,0,0:0:0:0:
448,192,142036,1,0,0:0:0:0:
192,192,142036,1,0,0:0:0:0:
192,192,142117,1,0,0:0:0:0:
64,192,142117,1,0,0:0:0:0:
320,192,142117,1,0,0:0:0:0:
320,192,142198,1,0,0:0:0:0:
448,192,142198,1,0,0:0:0:0:
64,192,142281,1,0,0:0:0:0:
192,192,142281,1,0,0:0:0:0:
320,192,142362,1,0,0:0:0:0:
448,192,142362,1,0,0:0:0:0:
64,192,142443,1,0,0:0:0:0:
448,192,142443,1,0,0:0:0:0:
192,192,142443,1,0,0:0:0:0:
320,192,142525,1,0,0:0:0:0:
192,192,142525,1,0,0:0:0:0:
64,192,142606,1,0,0:0:0:0:
448,192,142606,1,0,0:0:0:0:
192,192,142687,1,0,0:0:0:0:
64,192,142687,1,0,0:0:0:0:
64,192,142770,1,0,0:0:0:0:
320,192,142770,1,0,0:0:0:0:
448,192,142770,1,0,0:0:0:0:
192,192,142851,1,0,0:0:0:0:
448,192,142851,1,0,0:0:0:0:
320,192,142932,1,0,0:0:0:0:
448,192,142932,1,0,0:0:0:0:
192,192,143014,1,0,0:0:0:0:
64,192,143014,1,0,0:0:0:0:
192,192,143095,1,0,0:0:0:0:
448,192,143095,1,0,0:0:0:0:
320,192,143095,1,0,0:0:0:0:
64,192,143176,1,0,0:0:0:0:
448,192,143176,1,0,0:0:0:0:
320,192,143258,1,0,0:0:0:0:
192,192,143258,1,0,0:0:0:0:
448,192,143340,1,0,0:0:0:0:
192,192,143340,1,0,0:0:0:0:
64,192,143421,1,0,0:0:0:0:
320,192,143421,1,0,0:0:0:0:
448,192,143421,1,0,0:0:0:0:
320,192,143503,1,0,0:0:0:0:
448,192,143503,1,0,0:0:0:0:
192,192,143584,1,0,0:0:0:0:
64,192,143584,1,0,0:0:0:0:
64,192,143666,1,0,0:0:0:0:
320,192,143666,1,0,0:0:0:0:
64,192,143747,1,0,0:0:0:0:
192,192,143747,1,0,0:0:0:0:
448,192,143747,1,0,0:0:0:0:
192,192,143828,1,0,0:0:0:0:
320,192,143828,1,0,0:0:0:0:
64,192,143911,1,0,0:0:0:0:
448,192,143911,1,0,0:0:0:0:
320,192,143992,1,0,0:0:0:0:
448,192,143992,1,0,0:0:0:0:
64,192,144073,1,0,0:0:0:0:
192,192,144073,1,0,0:0:0:0:
320,192,144073,1,0,0:0:0:0:
448,192,144155,1,0,0:0:0:0:
192,192,144155,1,0,0:0:0:0:
64,192,144236,1,0,0:0:0:0:
192,192,144236,1,0,0:0:0:0:
320,192,144317,1,0,0:0:0:0:
448,192,144317,1,0,0:0:0:0:
64,192,144400,1,0,0:0:0:0:
192,192,144400,1,0,0:0:0:0:
448,192,144400,1,0,0:0:0:0:
64,192,144481,1,0,0:0:0:0:
448,192,144481,1,0,0:0:0:0:
320,192,144562,1,0,0:0:0:0:
192,192,144562,1,0,0:0:0:0:
64,192,144644,1,0,0:0:0:0:
448,192,144644,1,0,0:0:0:0:
192,192,144725,1,0,0:0:0:0:
320,192,144725,1,0,0:0:0:0:
448,192,144725,1,0,0:0:0:0:
64,192,144725,1,0,0:0:0:0:
192,192,144806,1,0,0:0:0:0:
320,192,144806,1,0,0:0:0:0:
64,192,144888,1,0,0:0:0:0:
448,192,144888,1,0,0:0:0:0:
192,192,144970,1,0,0:0:0:0:
64,192,144970,1,0,0:0:0:0:
192,192,145051,1,0,0:0:0:0:
320,192,145051,1,0,0:0:0:0:
448,192,145051,1,0,0:0:0:0:
320,192,145133,1,0,0:0:0:0:
448,192,145133,1,0,0:0:0:0:
64,192,145214,1,0,0:0:0:0:
192,192,145214,1,0,0:0:0:0:
64,192,145296,1,0,0:0:0:0:
320,192,145296,1,0,0:0:0:0:
192,192,145377,1,0,0:0:0:0:
448,192,145377,1,0,0:0:0:0:
320,192,145377,1,0,0:0:0:0:
192,192,145458,1,0,0:0:0:0:
320,192,145458,1,0,0:0:0:0:
64,192,145541,1,0,0:0:0:0:
448,192,145541,1,0,0:0:0:0:
320,192,145622,1,0,0:0:0:0:
448,192,145622,1,0,0:0:0:0:
192,192,145703,1,0,0:0:0:0:
64,192,145703,1,0,0:0:0:0:
320,192,145703,1,0,0:0:0:0:
192,192,145785,1,0,0:0:0:0:
64,192,145785,1,0,0:0:0:0:
448,192,145866,1,0,0:0:0:0:
64,192,145866,1,0,0:0:0:0:
192,192,145947,1,0,0:0:0:0:
320,192,145947,1,0,0:0:0:0:
320,192,146030,1,0,0:0:0:0:
448,192,146030,1,0,0:0:0:0:
64,192,146030,1,0,0:0:0:0:
192,192,146111,1,0,0:0:0:0:
64,192,146111,1,0,0:0:0:0:
192,192,146192,1,0,0:0:0:0:
448,192,146192,1,0,0:0:0:0:
320,192,146274,1,0,0:0:0:0:
448,192,146274,1,0,0:0:0:0:
320,192,146355,1,0,0:0:0:0:
64,192,146355,1,0,0:0:0:0:
192,192,146355,1,0,0:0:0:0:
448,192,146436,1,0,0:0:0:0:
192,192,146436,1,0,0:0:0:0:
64,192,146518,1,0,0:0:0:0:
320,192,146518,1,0,0:0:0:0:
320,192,146600,1,0,0:0:0:0:
448,192,146600,1,0,0:0:0:0:
192,192,146681,1,0,0:0:0:0:
64,192,146681,1,0,0:0:0:0:
448,192,146681,1,0,0:0:0:0:
320,192,146763,1,0,0:0:0:0:
64,192,146763,1,0,0:0:0:0:
320,192,146844,1,0,0:0:0:0:
448,192,146844,1,0,0:0:0:0:
192,192,146926,1,0,0:0:0:0:
64,192,146926,1,0,0:0:0:0:
192,192,147007,1,0,0:0:0:0:
320,192,147007,1,0,0:0:0:0:
448,192,147007,1,0,0:0:0:0:
64,192,147088,1,0,0:0:0:0:
320,192,147088,1,0,0:0:0:0:
448,192,147171,1,0,0:0:0:0:
192,192,147171,1,0,0:0:0:0:
320,192,147252,1,0,0:0:0:0:
448,192,147252,1,0,0:0:0:0:
64,192,147333,1,0,0:0:0:0:
320,192,147333,1,0,0:0:0:0:
448,192,147333,1,0,0:0:0:0:
192,192,147415,1,0,0:0:0:0:
64,192,147415,1,0,0:0:0:0:
320,192,147496,1,0,0:0:0:0:
192,192,147496,1,0,0:0:0:0:
64,192,147577,1,0,0:0:0:0:
448,192,147577,1,0,0:0:0:0:
192,192,147660,1,0,0:0:0:0:
320,192,147660,1,0,0:0:0:0:
64,192,147660,1,0,0:0:0:0:
448,192,147741,1,0,0:0:0:0:
320,192,147741,1,0,0:0:0:0:
192,192,147822,1,0,0:0:0:0:
448,192,147822,1,0,0:0:0:0:
320,192,147904,1,0,0:0:0:0:
64,192,147904,1,0,0:0:0:0:
192,192,147985,1,0,0:0:0:0:
320,192,147985,1,0,0:0:0:0:
448,192,147985,1,0,0:0:0:0:
64,192,148066,1,0,0:0:0:0:
192,192,148066,1,0,0:0:0:0:
320,192,148148,1,0,0:0:0:0:
448,192,148148,1,0,0:0:0:0:
64,192,148230,1,0,0:0:0:0:
320,192,148230,1,0,0:0:0:0:
64,192,148311,1,0,0:0:0:0:
192,192,148311,1,0,0:0:0:0:
448,192,148311,1,0,0:0:0:0:
320,192,148393,1,0,0:0:0:0:
448,192,148393,1,0,0:0:0:0:
64,192,148474,1,0,0:0:0:0:
320,192,148474,1,0,0:0:0:0:
192,192,148555,1,0,0:0:0:0:
448,192,148555,1,0,0:0:0:0:
64,192,148637,1,0,0:0:0:0:
192,192,148637,1,0,0:0:0:0:
320,192,148637,1,0,0:0:0:0:
320,192,148718,1,0,0:0:0:0:
448,192,148718,1,0,0:0:0:0:
64,192,148801,1,0,0:0:0:0:
448,192,148801,1,0,0:0:0:0:
320,192,148882,1,0,0:0:0:0:
64,192,148882,1,0,0:0:0:0:
64,192,148963,1,0,0:0:0:0:
320,192,148963,1,0,0:0:0:0:
448,192,148963,1,0,0:0:0:0:
192,192,149045,1,0,0:0:0:0:
448,192,149045,1,0,0:0:0:0:
320,192,149126,1,0,0:0:0:0:
448,192,149126,1,0,0:0:0:0:
192,192,149207,1,0,0:0:0:0:
64,192,149207,1,0,0:0:0:0:
192,192,149290,1,0,0:0:0:0:
320,192,149290,1,0,0:0:0:0:
448,192,149290,1,0,0:0:0:0:
320,192,149371,1,0,0:0:0:0:
64,192,149371,1,0,0:0:0:0:
192,192,149452,1,0,0:0:0:0:
64,192,149452,1,0,0:0:0:0:
320,192,149534,1,0,0:0:0:0:
448,192,149534,1,0,0:0:0:0:
320,192,149615,1,0,0:0:0:0:
192,192,149615,1,0,0:0:0:0:
64,192,149615,1,0,0:0:0:0:
192,192,149696,1,0,0:0:0:0:
448,192,149696,1,0,0:0:0:0:
64,192,149778,1,0,0:0:0:0:
320,192,149778,1,0,0:0:0:0:
192,192,149860,1,0,0:0:0:0:
64,192,149860,1,0,0:0:0:0:
448,192,149941,1,0,0:0:0:0:
320,192,149941,1,0,0:0:0:0:
192,192,149941,1,0,0:0:0:0:
64,192,150023,1,0,0:0:0:0:
448,192,150023,1,0,0:0:0:0:
320,192,150104,1,0,0:0:0:0:
448,192,150104,1,0,0:0:0:0:
192,192,150185,1,0,0:0:0:0:
320,192,150185,1,0,0:0:0:0:
192,192,150267,1,0,0:0:0:0:
64,192,150267,1,0,0:0:0:0:
320,192,150267,1,0,0:0:0:0:
64,192,150348,1,0,0:0:0:0:
448,192,150348,1,0,0:0:0:0:
192,192,150431,1,0,0:0:0:0:
448,192,150431,1,0,0:0:0:0:
320,192,150512,1,0,0:0:0:0:
192,192,150512,1,0,0:0:0:0:
64,192,150593,1,0,0:0:0:0:
192,192,150593,1,0,0:0:0:0:
448,192,150593,1,0,0:0:0:0:
64,192,150675,1,0,0:0:0:0:
320,192,150675,1,0,0:0:0:0:
448,192,150756,1,0,0:0:0:0:
320,192,150756,1,0,0:0:0:0:
192,192,150837,1,0,0:0:0:0:
64,192,150837,1,0,0:0:0:0:
192,192,150920,1,0,0:0:0:0:
320,192,150920,1,0,0:0:0:0:
448,192,150920,1,0,0:0:0:0:
64,192,151001,1,0,0:0:0:0:
448,192,151001,1,0,0:0:0:0:
192,192,151082,1,0,0:0:0:0:
64,192,151082,1,0,0:0:0:0:
192,192,151164,1,0,0:0:0:0:
320,192,151164,1,0,0:0:0:0:
64,192,151245,5,0,0:0:0:0:
448,192,151245,1,0,0:0:0:0:
192,192,151245,1,0,0:0:0:0:
320,192,151326,1,0,0:0:0:0:
448,192,151326,1,0,0:0:0:0:
64,192,151408,1,0,0:0:0:0:
320,192,151408,1,0,0:0:0:0:
192,192,151490,1,0,0:0:0:0:
64,192,151490,1,0,0:0:0:0:
192,192,151571,1,0,0:0:0:0:
320,192,151571,1,0,0:0:0:0:
448,192,151571,1,0,0:0:0:0:
64,192,151653,1,0,0:0:0:0:
448,192,151653,1,0,0:0:0:0:
192,192,151734,1,0,0:0:0:0:
320,192,151734,1,0,0:0:0:0:
448,192,151815,1,0,0:0:0:0:
320,192,151897,1,0,0:0:0:0:
192,192,151897,1,0,0:0:0:0:
64,192,151897,1,0,0:0:0:0:
448,192,151978,1,0,0:0:0:0:
64,192,152061,1,0,0:0:0:0:
192,192,152061,1,0,0:0:0:0:
448,192,152142,1,0,0:0:0:0:
64,192,152223,1,0,0:0:0:0:
320,192,152223,1,0,0:0:0:0:
192,192,152223,1,0,0:0:0:0:
448,192,152305,1,0,0:0:0:0:
320,192,152386,1,0,0:0:0:0:
64,192,152386,1,0,0:0:0:0:
192,192,152467,1,0,0:0:0:0:
448,192,152550,5,0,0:0:0:0:
320,192,152550,1,0,0:0:0:0:
64,192,152631,1,0,0:0:0:0:
192,192,152712,1,0,0:0:0:0:
448,192,152712,1,0,0:0:0:0:
320,192,152794,1,0,0:0:0:0:
192,192,152875,1,0,0:0:0:0:
64,192,152875,1,0,0:0:0:0:
448,192,152956,1,0,0:0:0:0:
320,192,153038,1,0,0:0:0:0:
192,192,153038,1,0,0:0:0:0:
64,192,153120,1,0,0:0:0:0:
320,192,153201,1,0,0:0:0:0:
448,192,153201,1,0,0:0:0:0:
192,192,153283,1,0,0:0:0:0:
448,192,153364,1,0,0:0:0:0:
64,192,153364,1,0,0:0:0:0:
320,192,153445,1,0,0:0:0:0:
192,192,153527,1,0,0:0:0:0:
64,192,153527,1,0,0:0:0:0:
448,192,153608,1,0,0:0:0:0:
320,192,153691,1,0,0:0:0:0:
64,192,153691,1,0,0:0:0:0:
192,192,153772,1,0,0:0:0:0:
320,192,153853,1,0,0:0:0:0:
448,192,153853,1,0,0:0:0:0:
64,192,153935,1,0,0:0:0:0:
192,192,154016,1,0,0:0:0:0:
448,192,154016,1,0,0:0:0:0:
320,192,154097,1,0,0:0:0:0:
192,192,154180,1,0,0:0:0:0:
64,192,154180,1,0,0:0:0:0:
448,192,154261,1,0,0:0:0:0:
320,192,154342,1,0,0:0:0:0:
192,192,154342,1,0,0:0:0:0:
64,192,154424,1,0,0:0:0:0:
320,192,154505,1,0,0:0:0:0:
448,192,154505,1,0,0:0:0:0:
192,192,154586,1,0,0:0:0:0:
448,192,154668,1,0,0:0:0:0:
64,192,154668,1,0,0:0:0:0:
192,192,154750,1,0,0:0:0:0:
320,192,154831,1,0,0:0:0:0:
448,192,154831,1,0,0:0:0:0:
192,192,154913,1,0,0:0:0:0:
64,192,154913,1,0,0:0:0:0:
320,192,154994,1,0,0:0:0:0:
448,192,154994,1,0,0:0:0:0:
192,192,155075,1,0,0:0:0:0:
64,192,155075,1,0,0:0:0:0:
320,192,155157,1,0,0:0:0:0:
448,192,155157,1,0,0:0:0:0:
64,192,155321,1,0,0:0:0:0:
192,192,155483,1,0,0:0:0:0:
448,192,155810,1,0,0:0:0:0:
192,192,155972,1,0,0:0:0:0:
320,192,156135,1,0,0:0:0:0:
64,192,156298,1,0,0:0:0:0:
64,192,156624,1,0,0:0:0:0:
192,192,156787,1,0,0:0:0:0:
448,192,157113,1,0,0:0:0:0:
64,192,157440,1,0,0:0:0:0:
64,192,157765,1,0,0:0:0:0:
320,192,157765,1,0,0:0:0:0:
448,192,158091,1,0,0:0:0:0:
64,192,158417,1,0,0:0:0:0:
192,192,158581,1,0,0:0:0:0:
320,192,158906,1,0,0:0:0:0:
192,192,159232,1,0,0:0:0:0:
64,192,159395,1,0,0:0:0:0:
448,192,159721,1,0,0:0:0:0:
320,192,160047,1,0,0:0:0:0:
64,192,160373,1,0,0:0:0:0:
192,192,160700,1,0,0:0:0:0:
448,192,161025,1,0,0:0:0:0:
320,192,161188,1,0,0:0:0:0:
192,192,161514,1,0,0:0:0:0:
320,192,161841,1,0,0:0:0:0:
192,192,162003,1,0,0:0:0:0:
64,192,162330,1,0,0:0:0:0:
320,192,162655,1,0,0:0:0:0:
192,192,162981,1,0,0:0:0:0:
320,192,163307,1,0,0:0:0:0:
448,192,163633,1,0,0:0:0:0:
192,192,163796,1,0,0:0:0:0:
320,192,164122,1,0,0:0:0:0:
64,192,164448,1,0,0:0:0:0:
192,192,164611,1,0,0:0:0:0:
448,192,164774,1,0,0:0:0:0:
64,192,164937,1,0,0:0:0:0:
320,192,165263,1,0,0:0:0:0:
192,192,165590,1,0,0:0:0:0:
448,192,165590,1,0,0:0:0:0:
64,192,165915,1,0,0:0:0:0:
320,192,165915,1,0,0:0:0:0:
448,192,166241,1,0,0:0:0:0:
320,192,166241,1,0,0:0:0:0:
192,192,166404,1,0,0:0:0:0:
320,192,166404,1,0,0:0:0:0:
192,192,166567,1,0,0:0:0:0:
64,192,166567,1,0,0:0:0:0:
64,192,166730,1,0,0:0:0:0:
320,192,166730,1,0,0:0:0:0:
192,192,167056,1,0,0:0:0:0:
448,192,167056,1,0,0:0:0:0:
320,192,167220,1,0,0:0:0:0:
448,192,167220,1,0,0:0:0:0:
320,192,167545,1,0,0:0:0:0:
192,192,167545,1,0,0:0:0:0:
64,192,167708,1,0,0:0:0:0:
448,192,167708,1,0,0:0:0:0:
192,192,167871,1,0,0:0:0:0:
64,192,167871,1,0,0:0:0:0:
320,192,168034,1,0,0:0:0:0:
448,192,168034,1,0,0:0:0:0:
192,192,168197,1,0,0:0:0:0:
448,192,168197,1,0,0:0:0:0:
64,192,168197,1,0,0:0:0:0:
320,192,168523,1,0,0:0:0:0:
448,192,168523,1,0,0:0:0:0:
192,192,168850,1,0,0:0:0:0:
320,192,168850,1,0,0:0:0:0:
64,192,169012,1,0,0:0:0:0:
448,192,169012,1,0,0:0:0:0:
192,192,169338,1,0,0:0:0:0:
320,192,169338,1,0,0:0:0:0:
320,192,169664,1,0,0:0:0:0:
448,192,169664,1,0,0:0:0:0:
64,192,169827,1,0,0:0:0:0:
320,192,169827,1,0,0:0:0:0:
192,192,170153,1,0,0:0:0:0:
64,192,170153,1,0,0:0:0:0:
192,192,170480,1,0,0:0:0:0:
448,192,170480,1,0,0:0:0:0:
192,192,170805,1,0,0:0:0:0:
64,192,170805,1,0,0:0:0:0:
320,192,170805,1,0,0:0:0:0:
320,192,171131,1,0,0:0:0:0:
448,192,171131,1,0,0:0:0:0:
192,192,171457,1,0,0:0:0:0:
64,192,171457,1,0,0:0:0:0:
64,192,171620,1,0,0:0:0:0:
320,192,171620,1,0,0:0:0:0:
192,192,171783,1,0,0:0:0:0:
448,192,171783,1,0,0:0:0:0:
320,192,171946,1,0,0:0:0:0:
448,192,171946,1,0,0:0:0:0:
192,192,172272,5,0,0:0:0:0:
320,192,172272,1,0,0:0:0:0:
64,192,172435,1,0,0:0:0:0:
320,192,172435,1,0,0:0:0:0:
192,192,172761,1,0,0:0:0:0:
64,192,172761,1,0,0:0:0:0:
64,192,173087,1,0,0:0:0:0:
320,192,173087,1,0,0:0:0:0:
64,192,173413,5,0,0:0:0:0:
192,192,173495,1,0,0:0:0:0:
320,192,173576,1,0,0:0:0:0:
448,192,173657,1,0,0:0:0:0:
64,192,173740,1,0,0:0:0:0:
192,192,173821,1,0,0:0:0:0:
448,192,173902,1,0,0:0:0:0:
320,192,173984,1,0,0:0:0:0:
192,192,174065,1,0,0:0:0:0:
64,192,174146,1,0,0:0:0:0:
448,192,174228,1,0,0:0:0:0:
320,192,174228,1,0,0:0:0:0:
192,192,174310,1,0,0:0:0:0:
64,192,174310,1,0,0:0:0:0:
320,192,174391,1,0,0:0:0:0:
448,192,174391,1,0,0:0:0:0:
192,192,174473,1,0,0:0:0:0:
64,192,174473,1,0,0:0:0:0:
320,192,174554,1,0,0:0:0:0:
448,192,174554,1,0,0:0:0:0:
192,192,174635,1,0,0:0:0:0:
64,192,174635,1,0,0:0:0:0:
320,192,174717,1,0,0:0:0:0:
448,192,174717,1,0,0:0:0:0:
192,192,174798,1,0,0:0:0:0:
64,192,174798,1,0,0:0:0:0:
320,192,174880,1,0,0:0:0:0:
448,192,174880,1,0,0:0:0:0:
192,192,174962,1,0,0:0:0:0:
64,192,174962,1,0,0:0:0:0:
320,192,175043,1,0,0:0:0:0:
448,192,175043,1,0,0:0:0:0:
192,192,175125,1,0,0:0:0:0:
64,192,175125,1,0,0:0:0:0:
320,192,175206,1,0,0:0:0:0:
448,192,175206,1,0,0:0:0:0:
192,192,175287,1,0,0:0:0:0:
64,192,175287,1,0,0:0:0:0:
448,192,175370,1,0,0:0:0:0:
320,192,175370,1,0,0:0:0:0:
192,192,175451,1,0,0:0:0:0:
448,192,175532,1,0,0:0:0:0:
320,192,175532,1,0,0:0:0:0:
64,192,175532,1,0,0:0:0:0:
192,192,175614,1,0,0:0:0:0:
448,192,175695,1,0,0:0:0:0:
192,192,175695,1,0,0:0:0:0:
64,192,175695,1,0,0:0:0:0:
320,192,175776,1,0,0:0:0:0:
320,192,175858,1,0,0:0:0:0:
192,192,175858,1,0,0:0:0:0:
64,192,175858,1,0,0:0:0:0:
64,192,175940,1,0,0:0:0:0:
448,192,176021,1,0,0:0:0:0:
320,192,176021,1,0,0:0:0:0:
192,192,176021,1,0,0:0:0:0:
64,192,176021,1,0,0:0:0:0:
448,192,176347,1,0,0:0:0:0:
320,192,176347,1,0,0:0:0:0:
192,192,176347,1,0,0:0:0:0:
64,192,176510,1,0,0:0:0:0:
192,192,176673,1,0,0:0:0:0:
320,192,176673,1,0,0:0:0:0:
64,192,176673,1,0,0:0:0:0:
192,192,177000,1,0,0:0:0:0:
64,192,177000,1,0,0:0:0:0:
448,192,177000,1,0,0:0:0:0:
320,192,177162,1,0,0:0:0:0:
192,192,177325,1,0,0:0:0:0:
320,192,177325,1,0,0:0:0:0:
448,192,177325,1,0,0:0:0:0:
64,192,177488,1,0,0:0:0:0:
448,192,177488,1,0,0:0:0:0:
192,192,177651,1,0,0:0:0:0:
320,192,177651,1,0,0:0:0:0:
448,192,177651,1,0,0:0:0:0:
64,192,177814,1,0,0:0:0:0:
192,192,177814,1,0,0:0:0:0:
64,192,177977,1,0,0:0:0:0:
192,192,177977,1,0,0:0:0:0:
320,192,177977,1,0,0:0:0:0:
448,192,178140,1,0,0:0:0:0:
320,192,178140,1,0,0:0:0:0:
64,192,178303,1,0,0:0:0:0:
320,192,178303,1,0,0:0:0:0:
448,192,178303,1,0,0:0:0:0:
192,192,178466,1,0,0:0:0:0:
64,192,178466,1,0,0:0:0:0:
192,192,178630,1,0,0:0:0:0:
320,192,178630,1,0,0:0:0:0:
448,192,178630,1,0,0:0:0:0:
64,192,178955,1,0,0:0:0:0:
192,192,178955,1,0,0:0:0:0:
320,192,178955,1,0,0:0:0:0:
320,192,179118,1,0,0:0:0:0:
192,192,179281,1,0,0:0:0:0:
64,192,179281,1,0,0:0:0:0:
448,192,179281,1,0,0:0:0:0:
192,192,179607,1,0,0:0:0:0:
320,192,179607,1,0,0:0:0:0:
448,192,179607,1,0,0:0:0:0:
64,192,179770,1,0,0:0:0:0:
192,192,179933,1,0,0:0:0:0:
320,192,179933,1,0,0:0:0:0:
448,192,179933,1,0,0:0:0:0:
448,192,180096,1,0,0:0:0:0:
64,192,180096,1,0,0:0:0:0:
320,192,180260,1,0,0:0:0:0:
192,192,180260,1,0,0:0:0:0:
64,192,180260,1,0,0:0:0:0:
192,192,180422,1,0,0:0:0:0:
448,192,180422,1,0,0:0:0:0:
64,192,180585,1,0,0:0:0:0:
320,192,180585,1,0,0:0:0:0:
448,192,180585,1,0,0:0:0:0:
64,192,180911,1,0,0:0:0:0:
192,192,180911,1,0,0:0:0:0:
320,192,180911,1,0,0:0:0:0:
192,192,181237,1,0,0:0:0:0:
64,192,181237,1,0,0:0:0:0:
448,192,181237,1,0,0:0:0:0:
320,192,181237,1,0,0:0:0:0:
192,192,181563,1,0,0:0:0:0:
320,192,181563,1,0,0:0:0:0:
448,192,181563,1,0,0:0:0:0:
192,192,181890,1,0,0:0:0:0:
64,192,181890,1,0,0:0:0:0:
320,192,181890,1,0,0:0:0:0:
448,192,181890,1,0,0:0:0:0:
64,192,182215,1,0,0:0:0:0:
320,192,182215,1,0,0:0:0:0:
448,192,182215,1,0,0:0:0:0:
192,192,182541,1,0,0:0:0:0:
320,192,182541,1,0,0:0:0:0:
448,192,182541,1,0,0:0:0:0:
64,192,182541,1,0,0:0:0:0:
64,192,182867,1,0,0:0:0:0:
192,192,182867,1,0,0:0:0:0:
320,192,182867,1,0,0:0:0:0:
192,192,183193,1,0,0:0:0:0:
320,192,183193,1,0,0:0:0:0:
448,192,183193,1,0,0:0:0:0:
64,192,183520,1,0,0:0:0:0:
192,192,183520,1,0,0:0:0:0:
448,192,183520,1,0,0:0:0:0:
192,192,183845,1,0,0:0:0:0:
320,192,183845,1,0,0:0:0:0:
448,192,183845,1,0,0:0:0:0:
448,192,184090,1,0,0:0:0:0:
64,192,184171,1,0,0:0:0:0:
192,192,184171,1,0,0:0:0:0:
320,192,184171,1,0,0:0:0:0:
192,192,184334,1,0,0:0:0:0:
320,192,184334,1,0,0:0:0:0:
64,192,184497,1,0,0:0:0:0:
320,192,184497,1,0,0:0:0:0:
448,192,184497,1,0,0:0:0:0:
64,192,184742,5,0,0:0:0:0:
320,192,184823,1,0,0:0:0:0:
192,192,184823,1,0,0:0:0:0:
448,192,184823,1,0,0:0:0:0:
64,192,184986,1,0,0:0:0:0:
448,192,184986,1,0,0:0:0:0:
320,192,185150,1,0,0:0:0:0:
192,192,185150,1,0,0:0:0:0:
64,192,185150,1,0,0:0:0:0:
64,192,185475,1,0,0:0:0:0:
320,192,185475,1,0,0:0:0:0:
448,192,185475,1,0,0:0:0:0:
192,192,185801,1,0,0:0:0:0:
64,192,185801,1,0,0:0:0:0:
320,192,185801,1,0,0:0:0:0:
448,192,185964,5,0,0:0:0:0:
320,192,185964,1,0,0:0:0:0:
64,192,186127,1,0,0:0:0:0:
448,192,186127,1,0,0:0:0:0:
192,192,186290,1,0,0:0:0:0:
64,192,186290,1,0,0:0:0:0:
192,192,186453,1,0,0:0:0:0:
320,192,186453,1,0,0:0:0:0:
448,192,186453,1,0,0:0:0:0:
64,192,186780,1,0,0:0:0:0:
192,192,186780,1,0,0:0:0:0:
320,192,186780,1,0,0:0:0:0:
448,192,186942,1,0,0:0:0:0:
64,192,187105,1,0,0:0:0:0:
320,192,187105,1,0,0:0:0:0:
448,192,187105,1,0,0:0:0:0:
64,192,187431,1,0,0:0:0:0:
192,192,187431,1,0,0:0:0:0:
320,192,187431,1,0,0:0:0:0:
448,192,187594,1,0,0:0:0:0:
192,192,187594,1,0,0:0:0:0:
64,192,187757,1,0,0:0:0:0:
320,192,187757,1,0,0:0:0:0:
448,192,187757,1,0,0:0:0:0:
192,192,187920,1,0,0:0:0:0:
320,192,187920,1,0,0:0:0:0:
192,192,188083,1,0,0:0:0:0:
320,192,188083,1,0,0:0:0:0:
448,192,188083,1,0,0:0:0:0:
64,192,188246,1,0,0:0:0:0:
448,192,188246,1,0,0:0:0:0:
64,192,188410,1,0,0:0:0:0:
192,192,188410,1,0,0:0:0:0:
320,192,188410,1,0,0:0:0:0:
320,192,188572,1,0,0:0:0:0:
448,192,188572,1,0,0:0:0:0:
64,192,188735,1,0,0:0:0:0:
192,192,188735,1,0,0:0:0:0:
448,192,188735,1,0,0:0:0:0:
64,192,188898,1,0,0:0:0:0:
320,192,188898,1,0,0:0:0:0:
192,192,189061,1,0,0:0:0:0:
320,192,189061,1,0,0:0:0:0:
448,192,189061,1,0,0:0:0:0:
192,192,189224,1,0,0:0:0:0:
64,192,189224,1,0,0:0:0:0:
320,192,189387,1,0,0:0:0:0:
448,192,189387,1,0,0:0:0:0:
64,192,189387,1,0,0:0:0:0:
320,192,189550,1,0,0:0:0:0:
448,192,189550,1,0,0:0:0:0:
64,192,189713,1,0,0:0:0:0:
192,192,189713,1,0,0:0:0:0:
320,192,189713,1,0,0:0:0:0:
64,192,189876,1,0,0:0:0:0:
448,192,189876,1,0,0:0:0:0:
64,192,190040,1,0,0:0:0:0:
192,192,190040,1,0,0:0:0:0:
448,192,190040,1,0,0:0:0:0:
320,192,190202,1,0,0:0:0:0:
448,192,190202,1,0,0:0:0:0:
64,192,190365,1,0,0:0:0:0:
192,192,190365,1,0,0:0:0:0:
320,192,190365,1,0,0:0:0:0:
320,192,190528,1,0,0:0:0:0:
64,192,190528,1,0,0:0:0:0:
192,192,190691,1,0,0:0:0:0:
320,192,190691,1,0,0:0:0:0:
448,192,190691,1,0,0:0:0:0:
192,192,190854,1,0,0:0:0:0:
64,192,190854,1,0,0:0:0:0:
64,192,191017,1,0,0:0:0:0:
320,192,191017,1,0,0:0:0:0:
448,192,191017,1,0,0:0:0:0:
320,192,191180,1,0,0:0:0:0:
448,192,191180,1,0,0:0:0:0:
64,192,191343,1,0,0:0:0:0:
192,192,191343,1,0,0:0:0:0:
320,192,191343,1,0,0:0:0:0:
192,192,191506,1,0,0:0:0:0:
448,192,191506,1,0,0:0:0:0:
64,192,191670,1,0,0:0:0:0:
192,192,191670,1,0,0:0:0:0:
320,192,191670,1,0,0:0:0:0:
448,192,191670,1,0,0:0:0:0:
320,192,191832,1,0,0:0:0:0:
192,192,191832,1,0,0:0:0:0:
64,192,191832,1,0,0:0:0:0:
64,192,191995,1,0,0:0:0:0:
192,192,191995,1,0,0:0:0:0:
320,192,191995,1,0,0:0:0:0:
448,192,191995,1,0,0:0:0:0:
64,192,192158,1,0,0:0:0:0:
320,192,192158,1,0,0:0:0:0:
448,192,192158,1,0,0:0:0:0:
192,192,192321,1,0,0:0:0:0:
64,192,192321,1,0,0:0:0:0:
320,192,192321,1,0,0:0:0:0:
448,192,192321,1,0,0:0:0:0:
192,192,192484,1,0,0:0:0:0:
320,192,192484,1,0,0:0:0:0:
448,192,192484,1,0,0:0:0:0:
64,192,192647,1,0,0:0:0:0:
192,192,192647,1,0,0:0:0:0:
320,192,192647,1,0,0:0:0:0:
448,192,192647,1,0,0:0:0:0:
192,192,192810,1,0,0:0:0:0:
64,192,192810,1,0,0:0:0:0:
448,192,192810,1,0,0:0:0:0:
64,192,192973,1,0,0:0:0:0:
192,192,192973,1,0,0:0:0:0:
320,192,192973,1,0,0:0:0:0:
448,192,192973,1,0,0:0:0:0:
320,192,193136,1,0,0:0:0:0:
64,192,193136,1,0,0:0:0:0:
192,192,193136,1,0,0:0:0:0:
64,192,193300,1,0,0:0:0:0:
192,192,193300,1,0,0:0:0:0:
448,192,193300,1,0,0:0:0:0:
320,192,193300,1,0,0:0:0:0:
64,192,193462,1,0,0:0:0:0:
320,192,193462,1,0,0:0:0:0:
448,192,193462,1,0,0:0:0:0:
64,192,193625,1,0,0:0:0:0:
192,192,193625,1,0,0:0:0:0:
320,192,193625,1,0,0:0:0:0:
448,192,193625,1,0,0:0:0:0:
192,192,193788,1,0,0:0:0:0:
320,192,193788,1,0,0:0:0:0:
448,192,193788,1,0,0:0:0:0:
64,192,193951,1,0,0:0:0:0:
192,192,193951,1,0,0:0:0:0:
320,192,193951,1,0,0:0:0:0:
448,192,193951,1,0,0:0:0:0:
64,192,194114,1,0,0:0:0:0:
320,192,194114,1,0,0:0:0:0:
448,192,194114,1,0,0:0:0:0:
64,192,194277,1,0,0:0:0:0:
192,192,194277,1,0,0:0:0:0:
448,192,194277,1,0,0:0:0:0:
320,192,194277,1,0,0:0:0:0:
192,192,194440,1,0,0:0:0:0:
64,192,194440,1,0,0:0:0:0:
448,192,194440,1,0,0:0:0:0:
64,192,194603,1,0,0:0:0:0:
192,192,194603,1,0,0:0:0:0:
320,192,194603,1,0,0:0:0:0:
448,192,194603,1,0,0:0:0:0:
64,192,194766,1,0,0:0:0:0:
192,192,194766,1,0,0:0:0:0:
320,192,194766,1,0,0:0:0:0:
448,192,194766,1,0,0:0:0:0:
64,192,194930,1,0,0:0:0:0:
192,192,194930,1,0,0:0:0:0:
320,192,194930,1,0,0:0:0:0:
448,192,194930,1,0,0:0:0:0:
192,192,195092,1,0,0:0:0:0:
64,192,195092,1,0,0:0:0:0:
320,192,195092,1,0,0:0:0:0:
64,192,195255,1,0,0:0:0:0:
192,192,195255,1,0,0:0:0:0:
320,192,195255,1,0,0:0:0:0:
448,192,195255,1,0,0:0:0:0:
64,192,195418,1,0,0:0:0:0:
192,192,195418,1,0,0:0:0:0:
448,192,195418,1,0,0:0:0:0:
64,192,195581,1,0,0:0:0:0:
192,192,195581,1,0,0:0:0:0:
320,192,195581,1,0,0:0:0:0:
448,192,195581,1,0,0:0:0:0:
448,192,195744,1,0,0:0:0:0:
320,192,195744,1,0,0:0:0:0:
192,192,195744,1,0,0:0:0:0:
64,192,195907,1,0,0:0:0:0:
192,192,195907,1,0,0:0:0:0:
320,192,195907,1,0,0:0:0:0:
448,192,195907,1,0,0:0:0:0:
64,192,195988,1,0,0:0:0:0:
192,192,196070,1,0,0:0:0:0:
320,192,196070,1,0,0:0:0:0:
448,192,196070,1,0,0:0:0:0:
64,192,196152,1,0,0:0:0:0:
64,192,196233,1,0,0:0:0:0:
192,192,196233,1,0,0:0:0:0:
320,192,196233,1,0,0:0:0:0:
448,192,196233,1,0,0:0:0:0:
320,192,196314,1,0,0:0:0:0:
448,192,196396,1,0,0:0:0:0:
192,192,196396,1,0,0:0:0:0:
64,192,196396,1,0,0:0:0:0:
320,192,196477,1,0,0:0:0:0:
64,192,196560,1,0,0:0:0:0:
192,192,196560,1,0,0:0:0:0:
448,192,196560,1,0,0:0:0:0:
320,192,196560,1,0,0:0:0:0:
64,192,196641,1,0,0:0:0:0:
192,192,196722,1,0,0:0:0:0:
320,192,196722,1,0,0:0:0:0:
448,192,196722,1,0,0:0:0:0:
320,192,196804,1,0,0:0:0:0:
64,192,196885,128,0,197048:0:0:0:0:
320,192,197048,128,0,197211:0:0:0:0:
192,192,197211,128,0,197374:0:0:0:0:
448,192,197374,128,0,197700:0:0:0:0:
64,192,197700,1,0,0:0:0:0:
192,192,197700,1,0,0:0:0:0:
64,192,197863,1,0,0:0:0:0:
192,192,197863,1,0,0:0:0:0:
320,192,197863,1,0,0:0:0:0:
64,192,198026,1,0,0:0:0:0:
192,192,198026,1,0,0:0:0:0:
320,192,198026,1,0,0:0:0:0:
448,192,198026,1,0,0:0:0:0:
64,192,198188,1,0,0:0:0:0:
320,192,198188,1,0,0:0:0:0:
448,192,198188,1,0,0:0:0:0:
192,192,198188,1,0,0:0:0:0:
448,192,198271,1,0,0:0:0:0:
320,192,198271,1,0,0:0:0:0:
64,192,198352,1,0,0:0:0:0:
448,192,198352,1,0,0:0:0:0:
192,192,198352,1,0,0:0:0:0:
320,192,198434,1,0,0:0:0:0:
64,192,198434,1,0,0:0:0:0:
64,192,198515,1,0,0:0:0:0:
192,192,198515,1,0,0:0:0:0:
448,192,198515,1,0,0:0:0:0:
320,192,198515,1,0,0:0:0:0:
192,192,198596,1,0,0:0:0:0:
320,192,198596,1,0,0:0:0:0:
448,192,198678,1,0,0:0:0:0:
64,192,198678,1,0,0:0:0:0:
192,192,198678,1,0,0:0:0:0:
320,192,198760,1,0,0:0:0:0:
448,192,198760,1,0,0:0:0:0:
448,192,198841,1,0,0:0:0:0:
320,192,198841,1,0,0:0:0:0:
192,192,198841,1,0,0:0:0:0:
64,192,198841,1,0,0:0:0:0:
192,192,198923,1,0,0:0:0:0:
64,192,198923,1,0,0:0:0:0:
64,192,199004,1,0,0:0:0:0:
320,192,199004,1,0,0:0:0:0:
448,192,199004,1,0,0:0:0:0:
192,192,199085,1,0,0:0:0:0:
320,192,199085,1,0,0:0:0:0:
64,192,199167,1,0,0:0:0:0:
192,192,199167,1,0,0:0:0:0:
320,192,199167,1,0,0:0:0:0:
448,192,199167,1,0,0:0:0:0:
64,192,199248,1,0,0:0:0:0:
448,192,199248,1,0,0:0:0:0:
320,192,199330,1,0,0:0:0:0:
192,192,199330,1,0,0:0:0:0:
64,192,199330,1,0,0:0:0:0:
192,192,199412,1,0,0:0:0:0:
448,192,199412,1,0,0:0:0:0:
64,192,199493,1,0,0:0:0:0:
192,192,199493,1,0,0:0:0:0:
320,192,199493,1,0,0:0:0:0:
448,192,199493,1,0,0:0:0:0:
448,192,199574,1,0,0:0:0:0:
320,192,199574,1,0,0:0:0:0:
192,192,199656,1,0,0:0:0:0:
64,192,199656,1,0,0:0:0:0:
320,192,199656,1,0,0:0:0:0:
64,192,199737,1,0,0:0:0:0:
448,192,199737,1,0,0:0:0:0:
64,192,199818,1,0,0:0:0:0:
192,192,199818,1,0,0:0:0:0:
448,192,199818,1,0,0:0:0:0:
320,192,199818,1,0,0:0:0:0:
320,192,199901,1,0,0:0:0:0:
192,192,199901,1,0,0:0:0:0:
320,192,199982,1,0,0:0:0:0:
448,192,199982,1,0,0:0:0:0:
64,192,199982,1,0,0:0:0:0:
192,192,200064,1,0,0:0:0:0:
64,192,200064,1,0,0:0:0:0:
64,192,200145,1,0,0:0:0:0:
192,192,200145,1,0,0:0:0:0:
320,192,200145,1,0,0:0:0:0:
448,192,200145,1,0,0:0:0:0:
448,192,200226,1,0,0:0:0:0:
320,192,200226,1,0,0:0:0:0:
192,192,200308,1,0,0:0:0:0:
320,192,200308,1,0,0:0:0:0:
448,192,200308,1,0,0:0:0:0:
192,192,200390,1,0,0:0:0:0:
64,192,200390,1,0,0:0:0:0:
64,192,200471,1,0,0:0:0:0:
320,192,200471,1,0,0:0:0:0:
192,192,200471,1,0,0:0:0:0:
448,192,200471,1,0,0:0:0:0:
448,192,200553,1,0,0:0:0:0:
64,192,200553,1,0,0:0:0:0:
320,192,200634,1,0,0:0:0:0:
448,192,200634,1,0,0:0:0:0:
192,192,200634,1,0,0:0:0:0:
64,192,200715,1,0,0:0:0:0:
320,192,200715,1,0,0:0:0:0:
64,192,200797,1,0,0:0:0:0:
192,192,200797,1,0,0:0:0:0:
448,192,200797,1,0,0:0:0:0:
320,192,200797,1,0,0:0:0:0:
192,192,200878,1,0,0:0:0:0:
448,192,200878,1,0,0:0:0:0:
320,192,200960,1,0,0:0:0:0:
64,192,200960,1,0,0:0:0:0:
192,192,200960,1,0,0:0:0:0:
448,192,201042,1,0,0:0:0:0:
64,192,201042,1,0,0:0:0:0:
64,192,201123,1,0,0:0:0:0:
320,192,201123,1,0,0:0:0:0:
192,192,201123,1,0,0:0:0:0:
448,192,201123,1,0,0:0:0:0:
192,192,201204,1,0,0:0:0:0:
320,192,201204,1,0,0:0:0:0:
64,192,201286,1,0,0:0:0:0:
192,192,201286,1,0,0:0:0:0:
448,192,201286,1,0,0:0:0:0:
448,192,201367,1,0,0:0:0:0:
320,192,201367,1,0,0:0:0:0:
64,192,201448,1,0,0:0:0:0:
192,192,201448,1,0,0:0:0:0:
320,192,201448,1,0,0:0:0:0:
448,192,201448,1,0,0:0:0:0:
64,192,201531,1,0,0:0:0:0:
192,192,201531,1,0,0:0:0:0:
64,192,201612,1,0,0:0:0:0:
320,192,201612,1,0,0:0:0:0:
448,192,201612,1,0,0:0:0:0:
192,192,201694,1,0,0:0:0:0:
448,192,201694,1,0,0:0:0:0:
64,192,201775,1,0,0:0:0:0:
320,192,201775,1,0,0:0:0:0:
448,192,201775,1,0,0:0:0:0:
192,192,201775,1,0,0:0:0:0:
320,192,201856,1,0,0:0:0:0:
64,192,201856,1,0,0:0:0:0:
192,192,201938,1,0,0:0:0:0:
448,192,201938,1,0,0:0:0:0:
320,192,201938,1,0,0:0:0:0:
192,192,202020,1,0,0:0:0:0:
64,192,202020,1,0,0:0:0:0:
64,192,202101,1,0,0:0:0:0:
320,192,202101,1,0,0:0:0:0:
448,192,202101,1,0,0:0:0:0:
192,192,202101,1,0,0:0:0:0:
320,192,202183,1,0,0:0:0:0:
448,192,202183,1,0,0:0:0:0:
64,192,202264,1,0,0:0:0:0:
192,192,202264,1,0,0:0:0:0:
448,192,202264,1,0,0:0:0:0:
320,192,202345,1,0,0:0:0:0:
64,192,202345,1,0,0:0:0:0:
64,192,202427,1,0,0:0:0:0:
192,192,202427,1,0,0:0:0:0:
320,192,202427,1,0,0:0:0:0:
448,192,202427,1,0,0:0:0:0:
192,192,202508,1,0,0:0:0:0:
448,192,202508,1,0,0:0:0:0:
320,192,202590,1,0,0:0:0:0:
448,192,202590,1,0,0:0:0:0:
64,192,202590,1,0,0:0:0:0:
192,192,202672,1,0,0:0:0:0:
64,192,202672,1,0,0:0:0:0:
64,192,202753,1,0,0:0:0:0:
320,192,202753,1,0,0:0:0:0:
192,192,202753,1,0,0:0:0:0:
448,192,202753,1,0,0:0:0:0:
320,192,202834,1,0,0:0:0:0:
448,192,202834,1,0,0:0:0:0:
320,192,202916,1,0,0:0:0:0:
192,192,202916,1,0,0:0:0:0:
64,192,202916,1,0,0:0:0:0:
64,192,202997,1,0,0:0:0:0:
448,192,202997,1,0,0:0:0:0:
64,192,203078,1,0,0:0:0:0:
192,192,203078,1,0,0:0:0:0:
448,192,203078,1,0,0:0:0:0:
320,192,203078,1,0,0:0:0:0:
320,192,203161,1,0,0:0:0:0:
192,192,203161,1,0,0:0:0:0:
64,192,203242,1,0,0:0:0:0:
192,192,203242,1,0,0:0:0:0:
320,192,203242,1,0,0:0:0:0:
448,192,203242,1,0,0:0:0:0:
64,192,203324,1,0,0:0:0:0:
448,192,203324,1,0,0:0:0:0:
64,192,203405,1,0,0:0:0:0:
192,192,203405,1,0,0:0:0:0:
320,192,203405,1,0,0:0:0:0:
448,192,203405,1,0,0:0:0:0:
320,192,203486,1,0,0:0:0:0:
192,192,203486,1,0,0:0:0:0:
64,192,203568,1,0,0:0:0:0:
192,192,203568,1,0,0:0:0:0:
320,192,203568,1,0,0:0:0:0:
448,192,203650,1,0,0:0:0:0:
64,192,203650,1,0,0:0:0:0:
192,192,203731,1,0,0:0:0:0:
320,192,203731,1,0,0:0:0:0:
448,192,203731,1,0,0:0:0:0:
64,192,203731,1,0,0:0:0:0:
192,192,203813,1,0,0:0:0:0:
320,192,203813,1,0,0:0:0:0:
64,192,203894,1,0,0:0:0:0:
320,192,203894,1,0,0:0:0:0:
448,192,203894,1,0,0:0:0:0:
192,192,203975,1,0,0:0:0:0:
64,192,203975,1,0,0:0:0:0:
192,192,204057,1,0,0:0:0:0:
320,192,204057,1,0,0:0:0:0:
448,192,204057,1,0,0:0:0:0:
64,192,204057,1,0,0:0:0:0:
448,192,204138,1,0,0:0:0:0:
320,192,204138,1,0,0:0:0:0:
192,192,204220,1,0,0:0:0:0:
320,192,204220,1,0,0:0:0:0:
448,192,204220,1,0,0:0:0:0:
64,192,204302,1,0,0:0:0:0:
192,192,204302,1,0,0:0:0:0:
64,192,204383,1,0,0:0:0:0:
192,192,204383,1,0,0:0:0:0:
320,192,204383,1,0,0:0:0:0:
448,192,204383,1,0,0:0:0:0:
320,192,204464,1,0,0:0:0:0:
448,192,204464,1,0,0:0:0:0:
64,192,204546,1,0,0:0:0:0:
192,192,204546,1,0,0:0:0:0:
448,192,204546,1,0,0:0:0:0:
320,192,204627,1,0,0:0:0:0:
64,192,204627,1,0,0:0:0:0:
64,192,204708,1,0,0:0:0:0:
192,192,204708,1,0,0:0:0:0:
320,192,204708,1,0,0:0:0:0:
448,192,204708,1,0,0:0:0:0:
192,192,204791,1,0,0:0:0:0:
448,192,204791,1,0,0:0:0:0:
320,192,204872,1,0,0:0:0:0:
192,192,204872,1,0,0:0:0:0:
64,192,204872,1,0,0:0:0:0:
320,192,204954,1,0,0:0:0:0:
448,192,204954,1,0,0:0:0:0:
64,192,205035,1,0,0:0:0:0:
192,192,205035,1,0,0:0:0:0:
448,192,205035,1,0,0:0:0:0:
320,192,205035,1,0,0:0:0:0:
192,192,205116,1,0,0:0:0:0:
64,192,205116,1,0,0:0:0:0:
192,192,205198,1,0,0:0:0:0:
320,192,205198,1,0,0:0:0:0:
448,192,205198,1,0,0:0:0:0:
64,192,205280,1,0,0:0:0:0:
320,192,205280,1,0,0:0:0:0:
192,192,205361,1,0,0:0:0:0:
64,192,205361,1,0,0:0:0:0:
448,192,205361,1,0,0:0:0:0:
320,192,205361,1,0,0:0:0:0:
192,192,205443,1,0,0:0:0:0:
448,192,205443,1,0,0:0:0:0:
64,192,205524,1,0,0:0:0:0:
320,192,205524,1,0,0:0:0:0:
448,192,205524,1,0,0:0:0:0:
192,192,205605,1,0,0:0:0:0:
64,192,205605,1,0,0:0:0:0:
320,192,205687,1,0,0:0:0:0:
448,192,205687,1,0,0:0:0:0:
192,192,205687,1,0,0:0:0:0:
64,192,205687,1,0,0:0:0:0:
320,192,205768,1,0,0:0:0:0:
448,192,205768,1,0,0:0:0:0:
64,192,205850,1,0,0:0:0:0:
320,192,205850,1,0,0:0:0:0:
448,192,205850,1,0,0:0:0:0:
192,192,205932,1,0,0:0:0:0:
64,192,205932,1,0,0:0:0:0:
64,192,206013,1,0,0:0:0:0:
320,192,206013,1,0,0:0:0:0:
448,192,206013,1,0,0:0:0:0:
192,192,206013,1,0,0:0:0:0:
192,192,206094,1,0,0:0:0:0:
320,192,206094,1,0,0:0:0:0:
64,192,206176,1,0,0:0:0:0:
320,192,206176,1,0,0:0:0:0:
448,192,206176,1,0,0:0:0:0:
448,192,206257,1,0,0:0:0:0:
192,192,206257,1,0,0:0:0:0:
64,192,206338,1,0,0:0:0:0:
192,192,206338,1,0,0:0:0:0:
320,192,206338,1,0,0:0:0:0:
448,192,206338,1,0,0:0:0:0:
320,192,206421,1,0,0:0:0:0:
64,192,206421,1,0,0:0:0:0:
192,192,206502,1,0,0:0:0:0:
64,192,206502,1,0,0:0:0:0:
448,192,206502,1,0,0:0:0:0:
320,192,206584,1,0,0:0:0:0:
448,192,206584,1,0,0:0:0:0:
64,192,206665,1,0,0:0:0:0:
192,192,206665,1,0,0:0:0:0:
448,192,206665,1,0,0:0:0:0:
320,192,206665,1,0,0:0:0:0:
192,192,206746,1,0,0:0:0:0:
64,192,206746,1,0,0:0:0:0:
64,192,206828,1,0,0:0:0:0:
448,192,206828,1,0,0:0:0:0:
192,192,206828,1,0,0:0:0:0:
448,192,206910,1,0,0:0:0:0:
320,192,206910,1,0,0:0:0:0:
448,192,206991,1,0,0:0:0:0:
320,192,206991,1,0,0:0:0:0:
192,192,206991,1,0,0:0:0:0:
64,192,206991,1,0,0:0:0:0:
192,192,207073,1,0,0:0:0:0:
64,192,207073,1,0,0:0:0:0:
448,192,207154,1,0,0:0:0:0:
192,192,207154,1,0,0:0:0:0:
320,192,207154,1,0,0:0:0:0:
64,192,207235,1,0,0:0:0:0:
320,192,207235,1,0,0:0:0:0:
448,192,207317,1,0,0:0:0:0:
320,192,207317,1,0,0:0:0:0:
192,192,207317,1,0,0:0:0:0:
64,192,207317,1,0,0:0:0:0:
192,192,207398,1,0,0:0:0:0:
448,192,207398,1,0,0:0:0:0:
320,192,207480,1,0,0:0:0:0:
192,192,207480,1,0,0:0:0:0:
64,192,207480,1,0,0:0:0:0:
448,192,207562,1,0,0:0:0:0:
64,192,207562,1,0,0:0:0:0:
64,192,207643,1,0,0:0:0:0:
192,192,207643,1,0,0:0:0:0:
320,192,207643,1,0,0:0:0:0:
448,192,207643,1,0,0:0:0:0:
192,192,207724,1,0,0:0:0:0:
320,192,207724,1,0,0:0:0:0:
448,192,207806,1,0,0:0:0:0:
192,192,207806,1,0,0:0:0:0:
64,192,207806,1,0,0:0:0:0:
320,192,207887,1,0,0:0:0:0:
448,192,207887,1,0,0:0:0:0:
64,192,207968,1,0,0:0:0:0:
192,192,207968,1,0,0:0:0:0:
320,192,207968,1,0,0:0:0:0:
448,192,207968,1,0,0:0:0:0:
64,192,208051,1,0,0:0:0:0:
192,192,208051,1,0,0:0:0:0:
448,192,208132,1,0,0:0:0:0:
320,192,208173,1,0,0:0:0:0:
64,192,208214,1,0,0:0:0:0:
192,192,208254,1,0,0:0:0:0:
320,192,208295,1,0,0:0:0:0:
448,192,208295,1,0,0:0:0:0:
64,192,208376,1,0,0:0:0:0:
448,192,208376,1,0,0:0:0:0:
192,192,208458,1,0,0:0:0:0:
320,192,208498,1,0,0:0:0:0:
64,192,208540,1,0,0:0:0:0:
448,192,208540,1,0,0:0:0:0:
192,192,208621,1,0,0:0:0:0:
320,192,208621,1,0,0:0:0:0:
448,192,208621,1,0,0:0:0:0:
64,192,208621,1,0,0:0:0:0:
192,192,208703,1,0,0:0:0:0:
320,192,208703,1,0,0:0:0:0:
64,192,208784,1,0,0:0:0:0:
192,192,208784,1,0,0:0:0:0:
448,192,208784,1,0,0:0:0:0:
320,192,208865,1,0,0:0:0:0:
448,192,208865,1,0,0:0:0:0:
448,192,208947,1,0,0:0:0:0:
320,192,208947,1,0,0:0:0:0:
192,192,208947,1,0,0:0:0:0:
64,192,208947,1,0,0:0:0:0:
192,192,209028,1,0,0:0:0:0:
64,192,209028,1,0,0:0:0:0:
320,192,209110,1,0,0:0:0:0:
448,192,209110,1,0,0:0:0:0:
192,192,209110,1,0,0:0:0:0:
64,192,209192,1,0,0:0:0:0:
448,192,209192,1,0,0:0:0:0:
64,192,209273,1,0,0:0:0:0:
192,192,209273,1,0,0:0:0:0:
320,192,209273,1,0,0:0:0:0:
448,192,209273,1,0,0:0:0:0:
320,192,209354,1,0,0:0:0:0:
192,192,209354,1,0,0:0:0:0:
64,192,209436,1,0,0:0:0:0:
192,192,209436,1,0,0:0:0:0:
448,192,209436,1,0,0:0:0:0:
320,192,209517,1,0,0:0:0:0:
448,192,209517,1,0,0:0:0:0:
64,192,209598,1,0,0:0:0:0:
192,192,209598,1,0,0:0:0:0:
320,192,209598,1,0,0:0:0:0:
448,192,209598,1,0,0:0:0:0:
192,192,209681,1,0,0:0:0:0:
64,192,209681,1,0,0:0:0:0:
64,192,209762,1,0,0:0:0:0:
448,192,209762,1,0,0:0:0:0:
320,192,209762,1,0,0:0:0:0:
192,192,209844,1,0,0:0:0:0:
448,192,209844,1,0,0:0:0:0:
64,192,209925,1,0,0:0:0:0:
192,192,209925,1,0,0:0:0:0:
448,192,209925,1,0,0:0:0:0:
320,192,209925,1,0,0:0:0:0:
320,192,210006,1,0,0:0:0:0:
64,192,210006,1,0,0:0:0:0:
192,192,210088,1,0,0:0:0:0:
64,192,210088,1,0,0:0:0:0:
448,192,210088,1,0,0:0:0:0:
320,192,210170,1,0,0:0:0:0:
192,192,210170,1,0,0:0:0:0:
64,192,210251,1,0,0:0:0:0:
192,192,210251,1,0,0:0:0:0:
320,192,210251,1,0,0:0:0:0:
448,192,210251,1,0,0:0:0:0:
64,192,210333,1,0,0:0:0:0:
448,192,210333,1,0,0:0:0:0:
192,192,210414,1,0,0:0:0:0:
320,192,210414,1,0,0:0:0:0:
448,192,210414,1,0,0:0:0:0:
64,192,210495,1,0,0:0:0:0:
320,192,210495,1,0,0:0:0:0:
64,192,210577,1,0,0:0:0:0:
320,192,210577,1,0,0:0:0:0:
192,192,210577,1,0,0:0:0:0:
448,192,210577,1,0,0:0:0:0:
192,192,210658,1,0,0:0:0:0:
448,192,210658,1,0,0:0:0:0:
320,192,210740,1,0,0:0:0:0:
448,192,210740,1,0,0:0:0:0:
64,192,210740,1,0,0:0:0:0:
192,192,210822,1,0,0:0:0:0:
64,192,210822,1,0,0:0:0:0:
64,192,210903,1,0,0:0:0:0:
192,192,210903,1,0,0:0:0:0:
320,192,210903,1,0,0:0:0:0:
448,192,210903,1,0,0:0:0:0:
320,192,210984,1,0,0:0:0:0:
448,192,210984,1,0,0:0:0:0:
64,192,211066,1,0,0:0:0:0:
192,192,211066,1,0,0:0:0:0:
448,192,211066,1,0,0:0:0:0:
320,192,211147,1,0,0:0:0:0:
192,192,211147,1,0,0:0:0:0:
64,192,211228,1,0,0:0:0:0:
192,192,211228,1,0,0:0:0:0:
320,192,211228,1,0,0:0:0:0:
448,192,211228,1,0,0:0:0:0:
64,192,211311,1,0,0:0:0:0:
448,192,211311,1,0,0:0:0:0:
192,192,211392,1,0,0:0:0:0:
320,192,211392,1,0,0:0:0:0:
448,192,211392,1,0,0:0:0:0:
320,192,211474,1,0,0:0:0:0:
64,192,211474,1,0,0:0:0:0:
64,192,211555,1,0,0:0:0:0:
192,192,211555,1,0,0:0:0:0:
448,192,211555,1,0,0:0:0:0:
320,192,211555,1,0,0:0:0:0:
192,192,211636,1,0,0:0:0:0:
448,192,211636,1,0,0:0:0:0:
320,192,211718,1,0,0:0:0:0:
192,192,211718,1,0,0:0:0:0:
64,192,211718,1,0,0:0:0:0:
448,192,211800,1,0,0:0:0:0:
64,192,211800,1,0,0:0:0:0:
64,192,211881,1,0,0:0:0:0:
192,192,211881,1,0,0:0:0:0:
448,192,211881,1,0,0:0:0:0:
320,192,211881,1,0,0:0:0:0:
192,192,211963,1,0,0:0:0:0:
320,192,211963,1,0,0:0:0:0:
320,192,212044,1,0,0:0:0:0:
448,192,212044,1,0,0:0:0:0:
64,192,212044,1,0,0:0:0:0:
192,192,212125,1,0,0:0:0:0:
64,192,212125,1,0,0:0:0:0:
64,192,212207,1,0,0:0:0:0:
192,192,212207,1,0,0:0:0:0:
320,192,212207,1,0,0:0:0:0:
448,192,212207,1,0,0:0:0:0:
320,192,212288,1,0,0:0:0:0:
448,192,212288,1,0,0:0:0:0:
64,192,212370,1,0,0:0:0:0:
192,192,212370,1,0,0:0:0:0:
320,192,212370,1,0,0:0:0:0:
448,192,212452,1,0,0:0:0:0:
64,192,212452,1,0,0:0:0:0:
64,192,212533,1,0,0:0:0:0:
192,192,212533,1,0,0:0:0:0:
448,192,212533,1,0,0:0:0:0:
320,192,212533,1,0,0:0:0:0:
192,192,212614,1,0,0:0:0:0:
320,192,212614,1,0,0:0:0:0:
320,192,212696,1,0,0:0:0:0:
64,192,212696,1,0,0:0:0:0:
448,192,212696,1,0,0:0:0:0:
64,192,212777,1,0,0:0:0:0:
192,192,212777,1,0,0:0:0:0:
64,192,212858,1,0,0:0:0:0:
192,192,212858,1,0,0:0:0:0:
448,192,212858,1,0,0:0:0:0:
320,192,212858,1,0,0:0:0:0:
320,192,212941,1,0,0:0:0:0:
448,192,212941,1,0,0:0:0:0:
192,192,213022,1,0,0:0:0:0:
64,192,213022,1,0,0:0:0:0:
320,192,213022,1,0,0:0:0:0:
448,192,213104,1,0,0:0:0:0:
64,192,213104,1,0,0:0:0:0:
448,192,213185,1,0,0:0:0:0:
320,192,213185,1,0,0:0:0:0:
64,192,213185,1,0,0:0:0:0:
192,192,213185,1,0,0:0:0:0:
320,192,213266,1,0,0:0:0:0:
192,192,213266,1,0,0:0:0:0:
64,192,213348,1,0,0:0:0:0:
192,192,213348,1,0,0:0:0:0:
448,192,213348,1,0,0:0:0:0:
320,192,213430,1,0,0:0:0:0:
448,192,213430,1,0,0:0:0:0:
64,192,213511,1,0,0:0:0:0:
192,192,213511,1,0,0:0:0:0:
320,192,213511,1,0,0:0:0:0:
448,192,213511,1,0,0:0:0:0:
64,192,213593,1,0,0:0:0:0:
192,192,213593,1,0,0:0:0:0:
64,192,213674,1,0,0:0:0:0:
320,192,213674,1,0,0:0:0:0:
448,192,213674,1,0,0:0:0:0:
192,192,213755,1,0,0:0:0:0:
448,192,213755,1,0,0:0:0:0:
64,192,213837,1,0,0:0:0:0:
192,192,213837,1,0,0:0:0:0:
320,192,213837,1,0,0:0:0:0:
448,192,213837,1,0,0:0:0:0:
320,192,213918,1,0,0:0:0:0:
64,192,213918,1,0,0:0:0:0:
192,192,214000,1,0,0:0:0:0:
64,192,214000,1,0,0:0:0:0:
448,192,214000,1,0,0:0:0:0:
320,192,214082,1,0,0:0:0:0:
448,192,214082,1,0,0:0:0:0:
448,192,214163,1,0,0:0:0:0:
320,192,214163,1,0,0:0:0:0:
64,192,214163,1,0,0:0:0:0:
192,192,214163,1,0,0:0:0:0:
64,192,214244,1,0,0:0:0:0:
192,192,214244,1,0,0:0:0:0:
192,192,214326,1,0,0:0:0:0:
320,192,214326,1,0,0:0:0:0:
448,192,214326,1,0,0:0:0:0:
64,192,214407,1,0,0:0:0:0:
448,192,214407,1,0,0:0:0:0:
64,192,214488,1,0,0:0:0:0:
192,192,214488,1,0,0:0:0:0:
320,192,214488,1,0,0:0:0:0:
448,192,214488,1,0,0:0:0:0:
320,192,214571,1,0,0:0:0:0:
192,192,214571,1,0,0:0:0:0:
64,192,214652,1,0,0:0:0:0:
192,192,214652,1,0,0:0:0:0:
448,192,214652,1,0,0:0:0:0:
320,192,214733,1,0,0:0:0:0:
448,192,214733,1,0,0:0:0:0:
64,192,214815,1,0,0:0:0:0:
192,192,214815,1,0,0:0:0:0:
320,192,214815,1,0,0:0:0:0:
448,192,214815,1,0,0:0:0:0:
192,192,214896,1,0,0:0:0:0:
64,192,214896,1,0,0:0:0:0:
64,192,214978,1,0,0:0:0:0:
320,192,214978,1,0,0:0:0:0:
448,192,214978,1,0,0:0:0:0:
192,192,215060,1,0,0:0:0:0:
320,192,215060,1,0,0:0:0:0:
64,192,215141,1,0,0:0:0:0:
192,192,215141,1,0,0:0:0:0:
320,192,215141,1,0,0:0:0:0:
448,192,215141,1,0,0:0:0:0:
64,192,215223,1,0,0:0:0:0:
448,192,215223,1,0,0:0:0:0:
320,192,215304,1,0,0:0:0:0:
192,192,215304,1,0,0:0:0:0:
64,192,215304,1,0,0:0:0:0:
320,192,215385,1,0,0:0:0:0:
448,192,215385,1,0,0:0:0:0:
64,192,215467,1,0,0:0:0:0:
192,192,215467,1,0,0:0:0:0:
320,192,215467,1,0,0:0:0:0:
448,192,215467,1,0,0:0:0:0:
192,192,215548,1,0,0:0:0:0:
64,192,215548,1,0,0:0:0:0:
64,192,215630,1,0,0:0:0:0:
448,192,215630,1,0,0:0:0:0:
320,192,215630,1,0,0:0:0:0:
448,192,215712,1,0,0:0:0:0:
192,192,215712,1,0,0:0:0:0:
64,192,215793,1,0,0:0:0:0:
192,192,215793,1,0,0:0:0:0:
448,192,215793,1,0,0:0:0:0:
320,192,215793,1,0,0:0:0:0:
320,192,215874,1,0,0:0:0:0:
64,192,215874,1,0,0:0:0:0:
192,192,215956,1,0,0:0:0:0:
320,192,215956,1,0,0:0:0:0:
448,192,215956,1,0,0:0:0:0:
192,192,216037,1,0,0:0:0:0:
64,192,216037,1,0,0:0:0:0:
448,192,216118,1,0,0:0:0:0:
320,192,216118,1,0,0:0:0:0:
192,192,216118,1,0,0:0:0:0:
64,192,216118,1,0,0:0:0:0:
320,192,216201,1,0,0:0:0:0:
448,192,216201,1,0,0:0:0:0:
192,192,216282,1,0,0:0:0:0:
64,192,216282,1,0,0:0:0:0:
448,192,216282,1,0,0:0:0:0:
320,192,216363,1,0,0:0:0:0:
64,192,216363,1,0,0:0:0:0:
64,192,216445,1,0,0:0:0:0:
192,192,216445,1,0,0:0:0:0:
448,192,216445,1,0,0:0:0:0:
320,192,216526,1,0,0:0:0:0:
448,192,216608,1,0,0:0:0:0:
64,192,216690,1,0,0:0:0:0:
192,192,216771,1,0,0:0:0:0:
448,192,216853,1,0,0:0:0:0:
64,192,216934,1,0,0:0:0:0:
320,192,217015,1,0,0:0:0:0:
192,192,217097,1,0,0:0:0:0:
64,192,217178,1,0,0:0:0:0:
448,192,217260,1,0,0:0:0:0:
320,192,217342,1,0,0:0:0:0:
192,192,217423,1,0,0:0:0:0:
64,192,217504,1,0,0:0:0:0:
192,192,217586,1,0,0:0:0:0:
320,192,217667,1,0,0:0:0:0:
448,192,217748,1,0,0:0:0:0:
64,192,217748,1,0,0:0:0:0:
192,192,217748,1,0,0:0:0:0:
320,192,217831,1,0,0:0:0:0:
192,192,217912,1,0,0:0:0:0:
64,192,217912,1,0,0:0:0:0:
448,192,217993,1,0,0:0:0:0:
320,192,218075,1,0,0:0:0:0:
64,192,218075,1,0,0:0:0:0:
192,192,218075,1,0,0:0:0:0:
448,192,218156,1,0,0:0:0:0:
64,192,218238,1,0,0:0:0:0:
320,192,218238,1,0,0:0:0:0:
192,192,218320,1,0,0:0:0:0:
320,192,218401,1,0,0:0:0:0:
448,192,218401,1,0,0:0:0:0:
64,192,218483,1,0,0:0:0:0:
448,192,218564,1,0,0:0:0:0:
320,192,218605,1,0,0:0:0:0:
64,192,218645,1,0,0:0:0:0:
192,192,218686,1,0,0:0:0:0:
320,192,218727,1,0,0:0:0:0:
448,192,218727,1,0,0:0:0:0:
448,192,218808,1,0,0:0:0:0:
64,192,218808,1,0,0:0:0:0:
64,192,218890,1,0,0:0:0:0:
192,192,218931,1,0,0:0:0:0:
448,192,218972,1,0,0:0:0:0:
320,192,218972,1,0,0:0:0:0:
64,192,219053,1,0,0:0:0:0:
192,192,219053,1,0,0:0:0:0:
448,192,219053,1,0,0:0:0:0:
320,192,219053,1,0,0:0:0:0:
192,192,219134,1,0,0:0:0:0:
448,192,219134,1,0,0:0:0:0:
64,192,219216,1,0,0:0:0:0:
448,192,219216,1,0,0:0:0:0:
320,192,219216,1,0,0:0:0:0:
192,192,219297,1,0,0:0:0:0:
448,192,219297,1,0,0:0:0:0:
320,192,219378,1,0,0:0:0:0:
448,192,219378,1,0,0:0:0:0:
192,192,219378,1,0,0:0:0:0:
64,192,219378,1,0,0:0:0:0:
64,192,219461,1,0,0:0:0:0:
320,192,219461,1,0,0:0:0:0:
192,192,219542,1,0,0:0:0:0:
64,192,219542,1,0,0:0:0:0:
448,192,219542,1,0,0:0:0:0:
320,192,219623,1,0,0:0:0:0:
448,192,219623,1,0,0:0:0:0:
448,192,219705,1,0,0:0:0:0:
320,192,219705,1,0,0:0:0:0:
192,192,219705,1,0,0:0:0:0:
64,192,219705,1,0,0:0:0:0:
64,192,219786,1,0,0:0:0:0:
192,192,219786,1,0,0:0:0:0:
448,192,219868,1,0,0:0:0:0:
320,192,219868,1,0,0:0:0:0:
64,192,219868,1,0,0:0:0:0:
192,192,219950,1,0,0:0:0:0:
448,192,219950,1,0,0:0:0:0:
448,192,220031,1,0,0:0:0:0:
320,192,220031,1,0,0:0:0:0:
192,192,220031,1,0,0:0:0:0:
64,192,220031,1,0,0:0:0:0:
64,192,220113,1,0,0:0:0:0:
320,192,220113,1,0,0:0:0:0:
192,192,220194,1,0,0:0:0:0:
64,192,220194,1,0,0:0:0:0:
448,192,220194,1,0,0:0:0:0:
320,192,220275,1,0,0:0:0:0:
192,192,220275,1,0,0:0:0:0:
64,192,220357,1,0,0:0:0:0:
320,192,220357,1,0,0:0:0:0:
448,192,220357,1,0,0:0:0:0:
192,192,220357,1,0,0:0:0:0:
64,192,220438,1,0,0:0:0:0:
448,192,220438,1,0,0:0:0:0:
320,192,220520,1,0,0:0:0:0:
64,192,220520,1,0,0:0:0:0:
192,192,220520,1,0,0:0:0:0:
448,192,220602,1,0,0:0:0:0:
320,192,220602,1,0,0:0:0:0:
64,192,220683,1,0,0:0:0:0:
192,192,220683,1,0,0:0:0:0:
320,192,220683,1,0,0:0:0:0:
448,192,220683,1,0,0:0:0:0:
192,192,220764,1,0,0:0:0:0:
64,192,220764,1,0,0:0:0:0:
64,192,220846,1,0,0:0:0:0:
192,192,220846,1,0,0:0:0:0:
448,192,220846,1,0,0:0:0:0:
192,192,220927,1,0,0:0:0:0:
448,192,220927,1,0,0:0:0:0:
64,192,221008,1,0,0:0:0:0:
192,192,221008,1,0,0:0:0:0:
320,192,221008,1,0,0:0:0:0:
448,192,221008,1,0,0:0:0:0:
320,192,221091,1,0,0:0:0:0:
64,192,221091,1,0,0:0:0:0:
192,192,221172,1,0,0:0:0:0:
320,192,221172,1,0,0:0:0:0:
448,192,221172,1,0,0:0:0:0:
64,192,221253,1,0,0:0:0:0:
448,192,221253,1,0,0:0:0:0:
64,192,221335,1,0,0:0:0:0:
192,192,221335,1,0,0:0:0:0:
320,192,221335,1,0,0:0:0:0:
448,192,221335,1,0,0:0:0:0:
320,192,221416,1,0,0:0:0:0:
192,192,221416,1,0,0:0:0:0:
64,192,221498,1,0,0:0:0:0:
320,192,221498,1,0,0:0:0:0:
448,192,221498,1,0,0:0:0:0:
192,192,221580,1,0,0:0:0:0:
64,192,221580,1,0,0:0:0:0:
64,192,221661,1,0,0:0:0:0:
320,192,221661,1,0,0:0:0:0:
192,192,221661,1,0,0:0:0:0:
448,192,221661,1,0,0:0:0:0:
320,192,221743,1,0,0:0:0:0:
448,192,221743,1,0,0:0:0:0:
64,192,221824,1,0,0:0:0:0:
192,192,221824,1,0,0:0:0:0:
448,192,221824,1,0,0:0:0:0:
320,192,221905,1,0,0:0:0:0:
192,192,221905,1,0,0:0:0:0:
64,192,221987,1,0,0:0:0:0:
192,192,221987,1,0,0:0:0:0:
448,192,221987,1,0,0:0:0:0:
320,192,221987,1,0,0:0:0:0:
192,192,222068,1,0,0:0:0:0:
448,192,222068,1,0,0:0:0:0:
192,192,222150,1,0,0:0:0:0:
320,192,222150,1,0,0:0:0:0:
448,192,222150,1,0,0:0:0:0:
64,192,222232,1,0,0:0:0:0:
320,192,222232,1,0,0:0:0:0:
64,192,222313,1,0,0:0:0:0:
192,192,222313,1,0,0:0:0:0:
320,192,222313,1,0,0:0:0:0:
448,192,222313,1,0,0:0:0:0:
320,192,222394,1,0,0:0:0:0:
448,192,222394,1,0,0:0:0:0:
64,192,222476,1,0,0:0:0:0:
192,192,222476,1,0,0:0:0:0:
448,192,222476,1,0,0:0:0:0:
320,192,222557,1,0,0:0:0:0:
64,192,222557,1,0,0:0:0:0:
64,192,222638,1,0,0:0:0:0:
192,192,222638,1,0,0:0:0:0:
320,192,222638,1,0,0:0:0:0:
448,192,222638,1,0,0:0:0:0:
192,192,222721,1,0,0:0:0:0:
320,192,222721,1,0,0:0:0:0:
320,192,222802,1,0,0:0:0:0:
192,192,222802,1,0,0:0:0:0:
64,192,222802,1,0,0:0:0:0:
448,192,222883,1,0,0:0:0:0:
64,192,222883,1,0,0:0:0:0:
192,192,222965,1,0,0:0:0:0:
320,192,222965,1,0,0:0:0:0:
64,192,222965,1,0,0:0:0:0:
448,192,222965,1,0,0:0:0:0:
192,192,223046,1,0,0:0:0:0:
320,192,223046,1,0,0:0:0:0:
448,192,223128,1,0,0:0:0:0:
320,192,223128,1,0,0:0:0:0:
64,192,223128,1,0,0:0:0:0:
192,192,223210,1,0,0:0:0:0:
448,192,223210,1,0,0:0:0:0:
64,192,223291,1,0,0:0:0:0:
192,192,223291,1,0,0:0:0:0:
320,192,223291,1,0,0:0:0:0:
448,192,223291,1,0,0:0:0:0:
320,192,223373,1,0,0:0:0:0:
64,192,223373,1,0,0:0:0:0:
192,192,223454,1,0,0:0:0:0:
64,192,223454,1,0,0:0:0:0:
448,192,223454,1,0,0:0:0:0:
448,192,223535,1,0,0:0:0:0:
64,192,223535,1,0,0:0:0:0:
448,192,223617,1,0,0:0:0:0:
320,192,223617,1,0,0:0:0:0:
64,192,223617,1,0,0:0:0:0:
192,192,223617,1,0,0:0:0:0:
320,192,223698,1,0,0:0:0:0:
64,192,223698,1,0,0:0:0:0:
192,192,223780,1,0,0:0:0:0:
448,192,223780,1,0,0:0:0:0:
64,192,223780,1,0,0:0:0:0:
448,192,223862,1,0,0:0:0:0:
320,192,223862,1,0,0:0:0:0:
64,192,223943,1,0,0:0:0:0:
192,192,223943,1,0,0:0:0:0:
320,192,223943,1,0,0:0:0:0:
448,192,223943,1,0,0:0:0:0:
192,192,224024,1,0,0:0:0:0:
64,192,224024,1,0,0:0:0:0:
448,192,224106,1,0,0:0:0:0:
320,192,224106,1,0,0:0:0:0:
192,192,224106,1,0,0:0:0:0:
64,192,224106,1,0,0:0:0:0:
448,192,224187,1,0,0:0:0:0:
320,192,224187,1,0,0:0:0:0:
192,192,224268,1,0,0:0:0:0:
320,192,224268,1,0,0:0:0:0:
448,192,224268,1,0,0:0:0:0:
64,192,224268,1,0,0:0:0:0:
64,192,224351,1,0,0:0:0:0:
192,192,224351,1,0,0:0:0:0:
320,192,224432,1,0,0:0:0:0:
448,192,224432,1,0,0:0:0:0:
64,192,224432,1,0,0:0:0:0:
192,192,224513,1,0,0:0:0:0:
320,192,224513,1,0,0:0:0:0:
64,192,224595,1,0,0:0:0:0:
192,192,224595,1,0,0:0:0:0:
448,192,224595,1,0,0:0:0:0:
320,192,224595,1,0,0:0:0:0:
64,192,224676,1,0,0:0:0:0:
448,192,224676,1,0,0:0:0:0:
320,192,224758,1,0,0:0:0:0:
192,192,224758,1,0,0:0:0:0:
64,192,224758,1,0,0:0:0:0:
192,192,224840,1,0,0:0:0:0:
448,192,224840,1,0,0:0:0:0:
64,192,224921,1,0,0:0:0:0:
192,192,224921,1,0,0:0:0:0:
320,192,224921,1,0,0:0:0:0:
448,192,224921,1,0,0:0:0:0:
320,192,225003,1,0,0:0:0:0:
448,192,225003,1,0,0:0:0:0:
192,192,225084,1,0,0:0:0:0:
64,192,225084,1,0,0:0:0:0:
448,192,225084,1,0,0:0:0:0:
64,192,225165,1,0,0:0:0:0:
448,192,225165,1,0,0:0:0:0:
64,192,225247,1,0,0:0:0:0:
320,192,225247,1,0,0:0:0:0:
448,192,225247,1,0,0:0:0:0:
192,192,225247,1,0,0:0:0:0:
192,192,225328,1,0,0:0:0:0:
320,192,225328,1,0,0:0:0:0:
64,192,225410,1,0,0:0:0:0:
320,192,225410,1,0,0:0:0:0:
448,192,225410,1,0,0:0:0:0:
64,192,225492,1,0,0:0:0:0:
192,192,225492,1,0,0:0:0:0:
64,192,225573,1,0,0:0:0:0:
192,192,225573,1,0,0:0:0:0:
320,192,225573,1,0,0:0:0:0:
448,192,225573,1,0,0:0:0:0:
448,192,225654,1,0,0:0:0:0:
320,192,225654,1,0,0:0:0:0:
64,192,225736,1,0,0:0:0:0:
192,192,225736,1,0,0:0:0:0:
448,192,225736,1,0,0:0:0:0:
320,192,225817,1,0,0:0:0:0:
192,192,225817,1,0,0:0:0:0:
64,192,225898,1,0,0:0:0:0:
192,192,225898,1,0,0:0:0:0:
320,192,225898,1,0,0:0:0:0:
448,192,225898,1,0,0:0:0:0:
320,192,225981,1,0,0:0:0:0:
64,192,225981,1,0,0:0:0:0:
192,192,226062,1,0,0:0:0:0:
448,192,226062,1,0,0:0:0:0:
64,192,226062,1,0,0:0:0:0:
320,192,226143,1,0,0:0:0:0:
448,192,226143,1,0,0:0:0:0:
448,192,226225,1,0,0:0:0:0:
320,192,226225,1,0,0:0:0:0:
192,192,226225,1,0,0:0:0:0:
64,192,226225,1,0,0:0:0:0:
192,192,226306,1,0,0:0:0:0:
64,192,226306,1,0,0:0:0:0:
64,192,226388,1,0,0:0:0:0:
320,192,226388,1,0,0:0:0:0:
448,192,226388,1,0,0:0:0:0:
192,192,226470,1,0,0:0:0:0:
448,192,226470,1,0,0:0:0:0:
64,192,226551,1,0,0:0:0:0:
192,192,226551,1,0,0:0:0:0:
448,192,226551,1,0,0:0:0:0:
320,192,226551,1,0,0:0:0:0:
320,192,226633,1,0,0:0:0:0:
64,192,226633,1,0,0:0:0:0:
192,192,226714,1,0,0:0:0:0:
64,192,226714,1,0,0:0:0:0:
448,192,226714,1,0,0:0:0:0:
320,192,226795,1,0,0:0:0:0:
448,192,226795,1,0,0:0:0:0:
320,192,226877,1,0,0:0:0:0:
64,192,226877,1,0,0:0:0:0:
192,192,226877,1,0,0:0:0:0:
448,192,226877,1,0,0:0:0:0:
192,192,226958,1,0,0:0:0:0:
64,192,226958,1,0,0:0:0:0:
320,192,227040,1,0,0:0:0:0:
64,192,227040,1,0,0:0:0:0:
448,192,227040,1,0,0:0:0:0:
192,192,227122,1,0,0:0:0:0:
320,192,227122,1,0,0:0:0:0:
64,192,227203,1,0,0:0:0:0:
192,192,227203,1,0,0:0:0:0:
448,192,227203,1,0,0:0:0:0:
320,192,227203,1,0,0:0:0:0:
64,192,227284,1,0,0:0:0:0:
320,192,227284,1,0,0:0:0:0:
320,192,227366,1,0,0:0:0:0:
64,192,227366,1,0,0:0:0:0:
448,192,227366,1,0,0:0:0:0:
320,192,227447,1,0,0:0:0:0:
448,192,227447,1,0,0:0:0:0:
320,192,227528,1,0,0:0:0:0:
64,192,227528,1,0,0:0:0:0:
192,192,227528,1,0,0:0:0:0:
448,192,227528,1,0,0:0:0:0:
192,192,227611,1,0,0:0:0:0:
64,192,227611,1,0,0:0:0:0:
192,192,227692,1,0,0:0:0:0:
448,192,227692,1,0,0:0:0:0:
320,192,227692,1,0,0:0:0:0:
64,192,227773,1,0,0:0:0:0:
448,192,227773,1,0,0:0:0:0:
192,192,227855,1,0,0:0:0:0:
64,192,227855,1,0,0:0:0:0:
320,192,227855,1,0,0:0:0:0:
448,192,227855,1,0,0:0:0:0:
320,192,227936,1,0,0:0:0:0:
192,192,227936,1,0,0:0:0:0:
320,192,228018,1,0,0:0:0:0:
64,192,228018,1,0,0:0:0:0:
448,192,228018,1,0,0:0:0:0:
192,192,228100,1,0,0:0:0:0:
64,192,228100,1,0,0:0:0:0:
64,192,228181,1,0,0:0:0:0:
192,192,228181,1,0,0:0:0:0:
320,192,228181,1,0,0:0:0:0:
448,192,228181,1,0,0:0:0:0:
320,192,228263,1,0,0:0:0:0:
448,192,228263,1,0,0:0:0:0:
192,192,228344,1,0,0:0:0:0:
64,192,228344,1,0,0:0:0:0:
448,192,228344,1,0,0:0:0:0:
320,192,228425,1,0,0:0:0:0:
192,192,228425,1,0,0:0:0:0:
448,192,228507,1,0,0:0:0:0:
320,192,228507,1,0,0:0:0:0:
192,192,228507,1,0,0:0:0:0:
64,192,228507,1,0,0:0:0:0:
64,192,228588,1,0,0:0:0:0:
448,192,228588,1,0,0:0:0:0:
192,192,228670,1,0,0:0:0:0:
64,192,228670,1,0,0:0:0:0:
320,192,228670,1,0,0:0:0:0:
320,192,228752,1,0,0:0:0:0:
448,192,228752,1,0,0:0:0:0:
448,192,228833,1,0,0:0:0:0:
320,192,228833,1,0,0:0:0:0:
192,192,228833,1,0,0:0:0:0:
64,192,228833,1,0,0:0:0:0:
64,192,228914,1,0,0:0:0:0:
192,192,228914,1,0,0:0:0:0:
448,192,228996,1,0,0:0:0:0:
320,192,229036,1,0,0:0:0:0:
64,192,229077,1,0,0:0:0:0:
192,192,229118,1,0,0:0:0:0:
320,192,229158,1,0,0:0:0:0:
448,192,229158,1,0,0:0:0:0:
192,192,229241,1,0,0:0:0:0:
64,192,229241,1,0,0:0:0:0:
448,192,229322,1,0,0:0:0:0:
320,192,229363,1,0,0:0:0:0:
192,192,229403,1,0,0:0:0:0:
64,192,229403,1,0,0:0:0:0:
64,192,229485,1,0,0:0:0:0:
192,192,229485,1,0,0:0:0:0:
320,192,229485,1,0,0:0:0:0:
448,192,229485,1,0,0:0:0:0:
320,192,229566,1,0,0:0:0:0:
448,192,229566,1,0,0:0:0:0:
64,192,229647,1,0,0:0:0:0:
192,192,229647,1,0,0:0:0:0:
448,192,229647,1,0,0:0:0:0:
320,192,229730,1,0,0:0:0:0:
192,192,229730,1,0,0:0:0:0:
64,192,229811,1,0,0:0:0:0:
192,192,229811,1,0,0:0:0:0:
320,192,229811,1,0,0:0:0:0:
448,192,229811,1,0,0:0:0:0:
64,192,229893,1,0,0:0:0:0:
448,192,229893,1,0,0:0:0:0:
320,192,229974,1,0,0:0:0:0:
192,192,229974,1,0,0:0:0:0:
448,192,229974,1,0,0:0:0:0:
64,192,230055,1,0,0:0:0:0:
320,192,230055,1,0,0:0:0:0:
64,192,230137,1,0,0:0:0:0:
192,192,230137,1,0,0:0:0:0:
320,192,230137,1,0,0:0:0:0:
448,192,230137,1,0,0:0:0:0:
192,192,230218,1,0,0:0:0:0:
448,192,230218,1,0,0:0:0:0:
320,192,230300,1,0,0:0:0:0:
448,192,230300,1,0,0:0:0:0:
64,192,230300,1,0,0:0:0:0:
192,192,230382,1,0,0:0:0:0:
64,192,230382,1,0,0:0:0:0:
64,192,230463,1,0,0:0:0:0:
192,192,230463,1,0,0:0:0:0:
320,192,230463,1,0,0:0:0:0:
448,192,230463,1,0,0:0:0:0:
192,192,230544,1,0,0:0:0:0:
448,192,230544,1,0,0:0:0:0:
192,192,230626,1,0,0:0:0:0:
64,192,230626,1,0,0:0:0:0:
320,192,230626,1,0,0:0:0:0:
64,192,230707,1,0,0:0:0:0:
448,192,230707,1,0,0:0:0:0:
64,192,230788,1,0,0:0:0:0:
192,192,230788,1,0,0:0:0:0:
320,192,230788,1,0,0:0:0:0:
448,192,230788,1,0,0:0:0:0:
192,192,230871,1,0,0:0:0:0:
320,192,230871,1,0,0:0:0:0:
64,192,230952,1,0,0:0:0:0:
320,192,230952,1,0,0:0:0:0:
448,192,230952,1,0,0:0:0:0:
448,192,231033,1,0,0:0:0:0:
192,192,231033,1,0,0:0:0:0:
64,192,231115,1,0,0:0:0:0:
320,192,231115,1,0,0:0:0:0:
448,192,231115,1,0,0:0:0:0:
192,192,231115,1,0,0:0:0:0:
320,192,231196,1,0,0:0:0:0:
448,192,231196,1,0,0:0:0:0:
448,192,231277,1,0,0:0:0:0:
64,192,231277,1,0,0:0:0:0:
192,192,231277,1,0,0:0:0:0:
192,192,231360,1,0,0:0:0:0:
320,192,231360,1,0,0:0:0:0:
64,192,231441,1,0,0:0:0:0:
192,192,231441,1,0,0:0:0:0:
448,192,231441,1,0,0:0:0:0:
320,192,231441,1,0,0:0:0:0:
64,192,231523,1,0,0:0:0:0:
448,192,231523,1,0,0:0:0:0:
448,192,231604,1,0,0:0:0:0:
320,192,231604,1,0,0:0:0:0:
192,192,231604,1,0,0:0:0:0:
64,192,231685,1,0,0:0:0:0:
320,192,231685,1,0,0:0:0:0:
64,192,231767,1,0,0:0:0:0:
192,192,231767,1,0,0:0:0:0:
448,192,231767,1,0,0:0:0:0:
320,192,231767,1,0,0:0:0:0:
192,192,231848,1,0,0:0:0:0:
448,192,231848,1,0,0:0:0:0:
192,192,231930,1,0,0:0:0:0:
64,192,231930,1,0,0:0:0:0:
320,192,231930,1,0,0:0:0:0:
448,192,232012,1,0,0:0:0:0:
320,192,232012,1,0,0:0:0:0:
64,192,232093,1,0,0:0:0:0:
192,192,232093,1,0,0:0:0:0:
320,192,232093,1,0,0:0:0:0:
448,192,232093,1,0,0:0:0:0:
192,192,232174,1,0,0:0:0:0:
64,192,232174,1,0,0:0:0:0:
448,192,232256,1,0,0:0:0:0:
320,192,232256,1,0,0:0:0:0:
64,192,232256,1,0,0:0:0:0:
192,192,232337,1,0,0:0:0:0:
320,192,232337,1,0,0:0:0:0:
64,192,232418,1,0,0:0:0:0:
192,192,232418,1,0,0:0:0:0:
320,192,232418,1,0,0:0:0:0:
448,192,232418,1,0,0:0:0:0:
64,192,232501,1,0,0:0:0:0:
448,192,232501,1,0,0:0:0:0:
448,192,232582,1,0,0:0:0:0:
192,192,232582,1,0,0:0:0:0:
320,192,232582,1,0,0:0:0:0:
192,192,232663,1,0,0:0:0:0:
64,192,232663,1,0,0:0:0:0:
320,192,232745,1,0,0:0:0:0:
448,192,232745,1,0,0:0:0:0:
64,192,232745,1,0,0:0:0:0:
192,192,232745,1,0,0:0:0:0:
192,192,232826,1,0,0:0:0:0:
448,192,232826,1,0,0:0:0:0:
64,192,232907,1,0,0:0:0:0:
192,192,232907,1,0,0:0:0:0:
320,192,232907,1,0,0:0:0:0:
448,192,232990,1,0,0:0:0:0:
64,192,232990,1,0,0:0:0:0:
64,192,233071,1,0,0:0:0:0:
192,192,233071,1,0,0:0:0:0:
320,192,233071,1,0,0:0:0:0:
448,192,233071,1,0,0:0:0:0:
192,192,233153,1,0,0:0:0:0:
320,192,233153,1,0,0:0:0:0:
320,192,233234,1,0,0:0:0:0:
448,192,233234,1,0,0:0:0:0:
64,192,233234,1,0,0:0:0:0:
192,192,233315,1,0,0:0:0:0:
64,192,233315,1,0,0:0:0:0:
64,192,233397,1,0,0:0:0:0:
192,192,233397,1,0,0:0:0:0:
320,192,233397,1,0,0:0:0:0:
448,192,233397,1,0,0:0:0:0:
320,192,233478,1,0,0:0:0:0:
448,192,233478,1,0,0:0:0:0:
192,192,233560,1,0,0:0:0:0:
64,192,233560,1,0,0:0:0:0:
448,192,233560,1,0,0:0:0:0:
320,192,233642,1,0,0:0:0:0:
192,192,233642,1,0,0:0:0:0:
448,192,233723,1,0,0:0:0:0:
320,192,233723,1,0,0:0:0:0:
64,192,233723,1,0,0:0:0:0:
192,192,233723,1,0,0:0:0:0:
64,192,233804,1,0,0:0:0:0:
448,192,233804,1,0,0:0:0:0:
192,192,233886,1,0,0:0:0:0:
320,192,233886,1,0,0:0:0:0:
448,192,233886,1,0,0:0:0:0:
64,192,233967,1,0,0:0:0:0:
320,192,233967,1,0,0:0:0:0:
64,192,234048,1,0,0:0:0:0:
320,192,234048,1,0,0:0:0:0:
448,192,234048,1,0,0:0:0:0:
192,192,234048,1,0,0:0:0:0:
192,192,234131,1,0,0:0:0:0:
448,192,234131,1,0,0:0:0:0:
64,192,234212,1,0,0:0:0:0:
192,192,234212,1,0,0:0:0:0:
320,192,234212,1,0,0:0:0:0:
64,192,234293,1,0,0:0:0:0:
448,192,234293,1,0,0:0:0:0:
64,192,234375,1,0,0:0:0:0:
320,192,234375,1,0,0:0:0:0:
192,192,234375,1,0,0:0:0:0:
448,192,234375,1,0,0:0:0:0:
64,192,234456,1,0,0:0:0:0:
192,192,234456,1,0,0:0:0:0:
320,192,234537,1,0,0:0:0:0:
192,192,234537,1,0,0:0:0:0:
448,192,234537,1,0,0:0:0:0:
64,192,234620,1,0,0:0:0:0:
448,192,234620,1,0,0:0:0:0:
448,192,234701,1,0,0:0:0:0:
192,192,234701,1,0,0:0:0:0:
64,192,234701,1,0,0:0:0:0:
320,192,234701,1,0,0:0:0:0:
192,192,234783,1,0,0:0:0:0:
320,192,234783,1,0,0:0:0:0:
448,192,234864,1,0,0:0:0:0:
320,192,234864,1,0,0:0:0:0:
64,192,234864,1,0,0:0:0:0:
64,192,234945,1,0,0:0:0:0:
192,192,234945,1,0,0:0:0:0:
64,192,235027,1,0,0:0:0:0:
192,192,235027,1,0,0:0:0:0:
320,192,235027,1,0,0:0:0:0:
448,192,235027,1,0,0:0:0:0:
320,192,235108,1,0,0:0:0:0:
448,192,235108,1,0,0:0:0:0:
192,192,235190,1,0,0:0:0:0:
64,192,235190,1,0,0:0:0:0:
320,192,235190,1,0,0:0:0:0:
64,192,235272,1,0,0:0:0:0:
448,192,235272,1,0,0:0:0:0:
64,192,235353,1,0,0:0:0:0:
192,192,235353,1,0,0:0:0:0:
448,192,235353,1,0,0:0:0:0:
320,192,235353,1,0,0:0:0:0:
192,192,235434,1,0,0:0:0:0:
320,192,235434,1,0,0:0:0:0:
64,192,235516,1,0,0:0:0:0:
320,192,235516,1,0,0:0:0:0:
448,192,235516,1,0,0:0:0:0:
192,192,235597,1,0,0:0:0:0:
448,192,235597,1,0,0:0:0:0:
64,192,235678,1,0,0:0:0:0:
192,192,235678,1,0,0:0:0:0:
320,192,235678,1,0,0:0:0:0:
448,192,235678,1,0,0:0:0:0:
320,192,235761,1,0,0:0:0:0:
64,192,235761,1,0,0:0:0:0:
320,192,235842,1,0,0:0:0:0:
64,192,235842,1,0,0:0:0:0:
448,192,235842,1,0,0:0:0:0:
192,192,235923,1,0,0:0:0:0:
448,192,235923,1,0,0:0:0:0:
64,192,236005,1,0,0:0:0:0:
192,192,236005,1,0,0:0:0:0:
320,192,236005,1,0,0:0:0:0:
448,192,236005,1,0,0:0:0:0:
192,192,236086,1,0,0:0:0:0:
64,192,236086,1,0,0:0:0:0:
448,192,236167,1,0,0:0:0:0:
192,192,236167,1,0,0:0:0:0:
320,192,236167,1,0,0:0:0:0:
64,192,236250,1,0,0:0:0:0:
320,192,236250,1,0,0:0:0:0:
192,192,236331,1,0,0:0:0:0:
448,192,236331,1,0,0:0:0:0:
320,192,236331,1,0,0:0:0:0:
64,192,236331,1,0,0:0:0:0:
192,192,236413,1,0,0:0:0:0:
448,192,236413,1,0,0:0:0:0:
320,192,236494,1,0,0:0:0:0:
192,192,236494,1,0,0:0:0:0:
64,192,236494,1,0,0:0:0:0:
64,192,236575,1,0,0:0:0:0:
448,192,236575,1,0,0:0:0:0:
192,192,236657,1,0,0:0:0:0:
320,192,236657,1,0,0:0:0:0:
64,192,236657,1,0,0:0:0:0:
448,192,236657,1,0,0:0:0:0:
192,192,236738,1,0,0:0:0:0:
320,192,236738,1,0,0:0:0:0:
64,192,236820,1,0,0:0:0:0:
320,192,236820,1,0,0:0:0:0:
448,192,236820,1,0,0:0:0:0:
320,192,236902,1,0,0:0:0:0:
448,192,236902,1,0,0:0:0:0:
64,192,236983,1,0,0:0:0:0:
192,192,236983,1,0,0:0:0:0:
448,192,236983,1,0,0:0:0:0:
320,192,236983,1,0,0:0:0:0:
192,192,237064,1,0,0:0:0:0:
64,192,237064,1,0,0:0:0:0:
64,192,237146,1,0,0:0:0:0:
320,192,237146,1,0,0:0:0:0:
448,192,237146,1,0,0:0:0:0:
192,192,237227,1,0,0:0:0:0:
320,192,237227,1,0,0:0:0:0:
64,192,237308,1,0,0:0:0:0:
192,192,237308,1,0,0:0:0:0:
320,192,237308,1,0,0:0:0:0:
448,192,237308,1,0,0:0:0:0:
64,192,237391,1,0,0:0:0:0:
192,192,237472,1,0,0:0:0:0:
320,192,237553,1,0,0:0:0:0:
448,192,237635,1,0,0:0:0:0:
64,192,237635,1,0,0:0:0:0:
192,192,237716,1,0,0:0:0:0:
448,192,237797,1,0,0:0:0:0:
320,192,237880,1,0,0:0:0:0:
192,192,237961,1,0,0:0:0:0:
64,192,237961,1,0,0:0:0:0:
448,192,238043,1,0,0:0:0:0:
320,192,238124,1,0,0:0:0:0:
192,192,238205,1,0,0:0:0:0:
64,192,238287,1,0,0:0:0:0:
320,192,238287,1,0,0:0:0:0:
448,192,238368,1,0,0:0:0:0:
64,192,238450,1,0,0:0:0:0:
192,192,238532,1,0,0:0:0:0:
448,192,238613,1,0,0:0:0:0:
64,192,238613,1,0,0:0:0:0:
320,192,238613,1,0,0:0:0:0:
192,192,238694,1,0,0:0:0:0:
448,192,238694,1,0,0:0:0:0:
64,192,238776,1,0,0:0:0:0:
192,192,238776,1,0,0:0:0:0:
448,192,238857,1,0,0:0:0:0:
64,192,238857,1,0,0:0:0:0:
192,192,238938,1,0,0:0:0:0:
320,192,238938,1,0,0:0:0:0:
448,192,238938,1,0,0:0:0:0:
192,192,239021,1,0,0:0:0:0:
320,192,239021,1,0,0:0:0:0:
64,192,239102,1,0,0:0:0:0:
448,192,239102,1,0,0:0:0:0:
192,192,239183,1,0,0:0:0:0:
64,192,239183,1,0,0:0:0:0:
320,192,239265,1,0,0:0:0:0:
448,192,239265,1,0,0:0:0:0:
64,192,239265,1,0,0:0:0:0:
448,192,239346,1,0,0:0:0:0:
320,192,239346,1,0,0:0:0:0:
64,192,239427,1,0,0:0:0:0:
192,192,239468,1,0,0:0:0:0:
320,192,239510,1,0,0:0:0:0:
448,192,239550,1,0,0:0:0:0:
192,192,239591,1,0,0:0:0:0:
64,192,239591,1,0,0:0:0:0:
448,192,239673,1,0,0:0:0:0:
192,192,239673,1,0,0:0:0:0:
64,192,239754,1,0,0:0:0:0:
320,192,239795,1,0,0:0:0:0:
448,192,239835,1,0,0:0:0:0:
192,192,239876,1,0,0:0:0:0:
64,192,239917,1,0,0:0:0:0:
320,192,239917,1,0,0:0:0:0:
448,192,239998,1,0,0:0:0:0:
192,192,239998,1,0,0:0:0:0:
320,192,240080,1,0,0:0:0:0:
448,192,240080,1,0,0:0:0:0:
192,192,240162,1,0,0:0:0:0:
64,192,240162,1,0,0:0:0:0:
64,192,240243,1,0,0:0:0:0:
320,192,240243,1,0,0:0:0:0:
448,192,240243,1,0,0:0:0:0:
192,192,240324,1,0,0:0:0:0:
448,192,240324,1,0,0:0:0:0:
320,192,240406,1,0,0:0:0:0:
64,192,240406,1,0,0:0:0:0:
192,192,240487,1,0,0:0:0:0:
320,192,240487,1,0,0:0:0:0:
64,192,240568,1,0,0:0:0:0:
320,192,240568,1,0,0:0:0:0:
448,192,240568,1,0,0:0:0:0:
192,192,240651,1,0,0:0:0:0:
64,192,240651,1,0,0:0:0:0:
192,192,240732,1,0,0:0:0:0:
448,192,240732,1,0,0:0:0:0:
320,192,240813,1,0,0:0:0:0:
64,192,240813,1,0,0:0:0:0:
64,192,240895,1,0,0:0:0:0:
192,192,240895,1,0,0:0:0:0:
448,192,240895,1,0,0:0:0:0:
320,192,240976,1,0,0:0:0:0:
448,192,240976,1,0,0:0:0:0:
192,192,241057,1,0,0:0:0:0:
448,192,241057,1,0,0:0:0:0:
64,192,241140,1,0,0:0:0:0:
192,192,241140,1,0,0:0:0:0:
64,192,241221,1,0,0:0:0:0:
192,192,241221,1,0,0:0:0:0:
448,192,241221,1,0,0:0:0:0:
320,192,241303,1,0,0:0:0:0:
448,192,241303,1,0,0:0:0:0:
64,192,241384,1,0,0:0:0:0:
192,192,241384,1,0,0:0:0:0:
64,192,241465,1,0,0:0:0:0:
448,192,241465,1,0,0:0:0:0:
64,192,241547,1,0,0:0:0:0:
320,192,241547,1,0,0:0:0:0:
448,192,241547,1,0,0:0:0:0:
192,192,241628,1,0,0:0:0:0:
320,192,241628,1,0,0:0:0:0:
64,192,241710,1,0,0:0:0:0:
448,192,241710,1,0,0:0:0:0:
448,192,241792,1,0,0:0:0:0:
192,192,241792,1,0,0:0:0:0:
320,192,241873,1,0,0:0:0:0:
64,192,241873,1,0,0:0:0:0:
192,192,241873,1,0,0:0:0:0:
320,192,241954,1,0,0:0:0:0:
448,192,241954,1,0,0:0:0:0:
64,192,242036,1,0,0:0:0:0:
448,192,242036,1,0,0:0:0:0:
64,192,242117,1,0,0:0:0:0:
320,192,242117,1,0,0:0:0:0:
192,192,242198,1,0,0:0:0:0:
320,192,242198,1,0,0:0:0:0:
448,192,242198,1,0,0:0:0:0:
64,192,242281,1,0,0:0:0:0:
448,192,242281,1,0,0:0:0:0:
320,192,242362,1,0,0:0:0:0:
64,192,242362,1,0,0:0:0:0:
192,192,242443,1,0,0:0:0:0:
448,192,242443,1,0,0:0:0:0:
320,192,242525,1,0,0:0:0:0:
448,192,242525,1,0,0:0:0:0:
64,192,242525,1,0,0:0:0:0:
192,192,242606,1,0,0:0:0:0:
320,192,242606,1,0,0:0:0:0:
64,192,242687,1,0,0:0:0:0:
448,192,242687,1,0,0:0:0:0:
192,192,242770,1,0,0:0:0:0:
448,192,242770,1,0,0:0:0:0:
320,192,242851,1,0,0:0:0:0:
448,192,242851,1,0,0:0:0:0:
64,192,242851,1,0,0:0:0:0:
320,192,242933,1,0,0:0:0:0:
192,192,242933,1,0,0:0:0:0:
64,192,243014,1,0,0:0:0:0:
448,192,243014,1,0,0:0:0:0:
320,192,243095,1,0,0:0:0:0:
64,192,243095,1,0,0:0:0:0:
192,192,243177,1,0,0:0:0:0:
320,192,243177,1,0,0:0:0:0:
448,192,243177,1,0,0:0:0:0:
64,192,243258,1,0,0:0:0:0:
192,192,243258,1,0,0:0:0:0:
64,192,243340,1,0,0:0:0:0:
448,192,243340,1,0,0:0:0:0:
320,192,243422,1,0,0:0:0:0:
448,192,243422,1,0,0:0:0:0:
192,192,243503,1,0,0:0:0:0:
320,192,243503,1,0,0:0:0:0:
64,192,243503,1,0,0:0:0:0:
448,192,243584,1,0,0:0:0:0:
192,192,243584,1,0,0:0:0:0:
64,192,243666,1,0,0:0:0:0:
320,192,243666,1,0,0:0:0:0:
64,192,243747,1,0,0:0:0:0:
192,192,243747,1,0,0:0:0:0:
192,192,243828,1,0,0:0:0:0:
448,192,243828,1,0,0:0:0:0:
64,192,243828,1,0,0:0:0:0:
320,192,243911,1,0,0:0:0:0:
448,192,243911,1,0,0:0:0:0:
64,192,243992,1,0,0:0:0:0:
320,192,243992,1,0,0:0:0:0:
192,192,244073,1,0,0:0:0:0:
448,192,244073,1,0,0:0:0:0:
320,192,244155,1,0,0:0:0:0:
64,192,244155,1,0,0:0:0:0:
448,192,244155,1,0,0:0:0:0:
192,192,244236,1,0,0:0:0:0:
64,192,244236,1,0,0:0:0:0:
192,192,244317,1,0,0:0:0:0:
448,192,244317,1,0,0:0:0:0:
320,192,244400,1,0,0:0:0:0:
64,192,244400,1,0,0:0:0:0:
64,192,244481,1,0,0:0:0:0:
448,192,244481,1,0,0:0:0:0:
192,192,244481,1,0,0:0:0:0:
320,192,244563,1,0,0:0:0:0:
448,192,244563,1,0,0:0:0:0:
320,192,244644,1,0,0:0:0:0:
192,192,244644,1,0,0:0:0:0:
64,192,244725,1,0,0:0:0:0:
448,192,244725,1,0,0:0:0:0:
320,192,244807,1,0,0:0:0:0:
192,192,244807,1,0,0:0:0:0:
64,192,244807,1,0,0:0:0:0:
448,192,244888,1,0,0:0:0:0:
192,192,244888,1,0,0:0:0:0:
320,192,244970,1,0,0:0:0:0:
448,192,244970,1,0,0:0:0:0:
64,192,245052,1,0,0:0:0:0:
192,192,245052,1,0,0:0:0:0:
64,192,245133,1,0,0:0:0:0:
192,192,245133,1,0,0:0:0:0:
448,192,245133,1,0,0:0:0:0:
192,192,245296,1,0,0:0:0:0:
320,192,245458,1,0,0:0:0:0:
448,192,245458,1,0,0:0:0:0:
192,192,245622,1,0,0:0:0:0:
320,192,245785,1,0,0:0:0:0:
448,192,245785,1,0,0:0:0:0:
64,192,245947,1,0,0:0:0:0:
320,192,246111,1,0,0:0:0:0:
448,192,246111,1,0,0:0:0:0:
64,192,246274,1,0,0:0:0:0:
192,192,246437,1,0,0:0:0:0:
448,192,246437,1,0,0:0:0:0:
320,192,246600,1,0,0:0:0:0:
192,192,246763,1,0,0:0:0:0:
64,192,246763,1,0,0:0:0:0:
448,192,246926,1,0,0:0:0:0:
320,192,247088,1,0,0:0:0:0:
64,192,247088,1,0,0:0:0:0:
192,192,247252,1,0,0:0:0:0:
448,192,247415,1,0,0:0:0:0:
320,192,247415,1,0,0:0:0:0:
64,192,247577,1,0,0:0:0:0:
192,192,247741,1,0,0:0:0:0:
448,192,247741,1,0,0:0:0:0:
320,192,247904,1,0,0:0:0:0:
192,192,248067,1,0,0:0:0:0:
64,192,248067,1,0,0:0:0:0:
448,192,248230,1,0,0:0:0:0:
320,192,248393,1,0,0:0:0:0:
192,192,248393,1,0,0:0:0:0:
64,192,248556,1,0,0:0:0:0:
320,192,248718,1,0,0:0:0:0:
448,192,248718,1,0,0:0:0:0:
192,192,248882,1,0,0:0:0:0:
64,192,249045,1,0,0:0:0:0:
320,192,249045,1,0,0:0:0:0:
192,192,249207,1,0,0:0:0:0:
448,192,249371,1,0,0:0:0:0:
64,192,249371,1,0,0:0:0:0:
320,192,249534,1,0,0:0:0:0:
192,192,249697,1,0,0:0:0:0:
64,192,249697,1,0,0:0:0:0:
448,192,249860,1,0,0:0:0:0:
320,192,250023,1,0,0:0:0:0:
192,192,250023,1,0,0:0:0:0:
64,192,250186,1,0,0:0:0:0:
64,192,250348,1,0,0:0:0:0:
192,192,250348,1,0,0:0:0:0:
320,192,250348,1,0,0:0:0:0:
448,192,250348,1,0,0:0:0:0:
320,192,250431,1,0,0:0:0:0:
448,192,250431,1,0,0:0:0:0:
64,192,250512,1,0,0:0:0:0:
192,192,250512,1,0,0:0:0:0:
448,192,250512,1,0,0:0:0:0:
320,192,250593,1,0,0:0:0:0:
64,192,250593,1,0,0:0:0:0:
192,192,250675,1,0,0:0:0:0:
64,192,250675,1,0,0:0:0:0:
320,192,250675,1,0,0:0:0:0:
448,192,250675,1,0,0:0:0:0:
192,192,250756,1,0,0:0:0:0:
448,192,250756,1,0,0:0:0:0:
448,192,250837,1,0,0:0:0:0:
320,192,250837,1,0,0:0:0:0:
64,192,250837,1,0,0:0:0:0:
192,192,250920,1,0,0:0:0:0:
320,192,250920,1,0,0:0:0:0:
64,192,251001,1,0,0:0:0:0:
320,192,251001,1,0,0:0:0:0:
448,192,251001,1,0,0:0:0:0:
192,192,251001,1,0,0:0:0:0:
192,192,251082,1,0,0:0:0:0:
448,192,251082,1,0,0:0:0:0:
320,192,251164,1,0,0:0:0:0:
448,192,251164,1,0,0:0:0:0:
64,192,251164,1,0,0:0:0:0:
192,192,251245,1,0,0:0:0:0:
64,192,251245,1,0,0:0:0:0:
64,192,251327,1,0,0:0:0:0:
192,192,251327,1,0,0:0:0:0:
320,192,251327,1,0,0:0:0:0:
448,192,251327,1,0,0:0:0:0:
192,192,251408,1,0,0:0:0:0:
448,192,251408,1,0,0:0:0:0:
320,192,251490,1,0,0:0:0:0:
192,192,251490,1,0,0:0:0:0:
64,192,251490,1,0,0:0:0:0:
64,192,251572,1,0,0:0:0:0:
448,192,251572,1,0,0:0:0:0:
64,192,251653,1,0,0:0:0:0:
192,192,251653,1,0,0:0:0:0:
320,192,251653,1,0,0:0:0:0:
448,192,251653,1,0,0:0:0:0:
192,192,251734,1,0,0:0:0:0:
320,192,251734,1,0,0:0:0:0:
64,192,251816,1,0,0:0:0:0:
448,192,251816,1,0,0:0:0:0:
320,192,251816,1,0,0:0:0:0:
192,192,251897,1,0,0:0:0:0:
64,192,251897,1,0,0:0:0:0:
64,192,251978,1,0,0:0:0:0:
192,192,251978,1,0,0:0:0:0:
320,192,251978,1,0,0:0:0:0:
448,192,251978,1,0,0:0:0:0:
320,192,252061,1,0,0:0:0:0:
448,192,252061,1,0,0:0:0:0:
64,192,252142,1,0,0:0:0:0:
448,192,252142,1,0,0:0:0:0:
192,192,252142,1,0,0:0:0:0:
320,192,252223,1,0,0:0:0:0:
64,192,252223,1,0,0:0:0:0:
64,192,252305,1,0,0:0:0:0:
192,192,252305,1,0,0:0:0:0:
320,192,252305,1,0,0:0:0:0:
448,192,252305,1,0,0:0:0:0:
64,192,252386,1,0,0:0:0:0:
192,192,252386,1,0,0:0:0:0:
64,192,252467,1,0,0:0:0:0:
448,192,252467,1,0,0:0:0:0:
320,192,252467,1,0,0:0:0:0:
320,192,252550,1,0,0:0:0:0:
448,192,252550,1,0,0:0:0:0:
64,192,252631,1,0,0:0:0:0:
192,192,252631,1,0,0:0:0:0:
320,192,252631,1,0,0:0:0:0:
448,192,252631,1,0,0:0:0:0:
448,192,252712,1,0,0:0:0:0:
64,192,252712,1,0,0:0:0:0:
448,192,252794,1,0,0:0:0:0:
192,192,252794,1,0,0:0:0:0:
320,192,252794,1,0,0:0:0:0:
320,192,252875,1,0,0:0:0:0:
64,192,252875,1,0,0:0:0:0:
64,192,252957,1,0,0:0:0:0:
192,192,252957,1,0,0:0:0:0:
448,192,252957,1,0,0:0:0:0:
320,192,252957,1,0,0:0:0:0:
192,192,253038,1,0,0:0:0:0:
64,192,253038,1,0,0:0:0:0:
64,192,253120,1,0,0:0:0:0:
448,192,253120,1,0,0:0:0:0:
192,192,253202,1,0,0:0:0:0:
320,192,253202,1,0,0:0:0:0:
320,192,253283,1,0,0:0:0:0:
448,192,253283,1,0,0:0:0:0:
192,192,253283,1,0,0:0:0:0:
64,192,253283,1,0,0:0:0:0:
64,192,253364,1,0,0:0:0:0:
448,192,253364,1,0,0:0:0:0:
320,192,253446,1,0,0:0:0:0:
448,192,253446,1,0,0:0:0:0:
192,192,253527,1,0,0:0:0:0:
320,192,253527,1,0,0:0:0:0:
64,192,253608,1,0,0:0:0:0:
192,192,253608,1,0,0:0:0:0:
320,192,253608,1,0,0:0:0:0:
448,192,253608,1,0,0:0:0:0:
192,192,253691,1,0,0:0:0:0:
64,192,253691,1,0,0:0:0:0:
448,192,253772,1,0,0:0:0:0:
320,192,253772,1,0,0:0:0:0:
192,192,253853,1,0,0:0:0:0:
448,192,253853,1,0,0:0:0:0:
320,192,253935,1,0,0:0:0:0:
192,192,253935,1,0,0:0:0:0:
64,192,253935,1,0,0:0:0:0:
448,192,253935,1,0,0:0:0:0:
320,192,254016,1,0,0:0:0:0:
64,192,254016,1,0,0:0:0:0:
192,192,254097,1,0,0:0:0:0:
448,192,254097,1,0,0:0:0:0:
448,192,254180,1,0,0:0:0:0:
320,192,254180,1,0,0:0:0:0:
64,192,254261,1,0,0:0:0:0:
192,192,254261,1,0,0:0:0:0:
320,192,254261,1,0,0:0:0:0:
448,192,254261,1,0,0:0:0:0:
192,192,254342,1,0,0:0:0:0:
64,192,254342,1,0,0:0:0:0:
64,192,254424,1,0,0:0:0:0:
320,192,254424,1,0,0:0:0:0:
192,192,254505,1,0,0:0:0:0:
320,192,254505,1,0,0:0:0:0:
192,192,254587,1,0,0:0:0:0:
320,192,254587,1,0,0:0:0:0:
448,192,254587,1,0,0:0:0:0:
64,192,254587,1,0,0:0:0:0:
64,192,254668,1,0,0:0:0:0:
448,192,254668,1,0,0:0:0:0:
192,192,254750,1,0,0:0:0:0:
448,192,254750,1,0,0:0:0:0:
192,192,254832,1,0,0:0:0:0:
64,192,254832,1,0,0:0:0:0:
64,192,254913,1,0,0:0:0:0:
192,192,254913,1,0,0:0:0:0:
320,192,254913,1,0,0:0:0:0:
448,192,254913,1,0,0:0:0:0:
320,192,254994,1,0,0:0:0:0:
448,192,254994,1,0,0:0:0:0:
64,192,255076,1,0,0:0:0:0:
192,192,255076,1,0,0:0:0:0:
64,192,255157,1,0,0:0:0:0:
448,192,255157,1,0,0:0:0:0:
64,192,255238,1,0,0:0:0:0:
192,192,255238,1,0,0:0:0:0:
448,192,255238,1,0,0:0:0:0:
320,192,255238,1,0,0:0:0:0:
320,192,255321,1,0,0:0:0:0:
448,192,255321,1,0,0:0:0:0:
192,192,255402,1,0,0:0:0:0:
64,192,255402,1,0,0:0:0:0:
64,192,255483,1,0,0:0:0:0:
320,192,255483,1,0,0:0:0:0:
64,192,255565,1,0,0:0:0:0:
192,192,255565,1,0,0:0:0:0:
320,192,255565,1,0,0:0:0:0:
448,192,255565,1,0,0:0:0:0:
192,192,255646,1,0,0:0:0:0:
448,192,255646,1,0,0:0:0:0:
320,192,255727,1,0,0:0:0:0:
448,192,255727,1,0,0:0:0:0:
192,192,255810,1,0,0:0:0:0:
320,192,255810,1,0,0:0:0:0:
64,192,255891,1,0,0:0:0:0:
192,192,255891,1,0,0:0:0:0:
320,192,255891,1,0,0:0:0:0:
448,192,255891,1,0,0:0:0:0:
64,192,255972,1,0,0:0:0:0:
448,192,255972,1,0,0:0:0:0:
192,192,256054,1,0,0:0:0:0:
64,192,256054,1,0,0:0:0:0:
320,192,256135,1,0,0:0:0:0:
448,192,256135,1,0,0:0:0:0:
64,192,256217,1,0,0:0:0:0:
192,192,256217,1,0,0:0:0:0:
320,192,256217,1,0,0:0:0:0:
448,192,256217,1,0,0:0:0:0:
192,192,256298,1,0,0:0:0:0:
448,192,256298,1,0,0:0:0:0:
320,192,256380,1,0,0:0:0:0:
64,192,256380,1,0,0:0:0:0:
192,192,256462,1,0,0:0:0:0:
64,192,256462,1,0,0:0:0:0:
64,192,256543,1,0,0:0:0:0:
320,192,256543,1,0,0:0:0:0:
192,192,256543,1,0,0:0:0:0:
448,192,256543,1,0,0:0:0:0:
192,192,256624,1,0,0:0:0:0:
320,192,256624,1,0,0:0:0:0:
64,192,256706,1,0,0:0:0:0:
448,192,256706,1,0,0:0:0:0:
192,192,256787,1,0,0:0:0:0:
320,192,256787,1,0,0:0:0:0:
64,192,256868,1,0,0:0:0:0:
192,192,256868,1,0,0:0:0:0:
320,192,256868,1,0,0:0:0:0:
448,192,256868,1,0,0:0:0:0:
64,192,256951,1,0,0:0:0:0:
448,192,256951,1,0,0:0:0:0:
320,192,257032,1,0,0:0:0:0:
448,192,257032,1,0,0:0:0:0:
192,192,257113,1,0,0:0:0:0:
64,192,257113,1,0,0:0:0:0:
64,192,257195,1,0,0:0:0:0:
192,192,257195,1,0,0:0:0:0:
448,192,257195,1,0,0:0:0:0:
320,192,257195,1,0,0:0:0:0:
320,192,257276,1,0,0:0:0:0:
448,192,257276,1,0,0:0:0:0:
192,192,257357,1,0,0:0:0:0:
448,192,257357,1,0,0:0:0:0:
320,192,257440,1,0,0:0:0:0:
192,192,257440,1,0,0:0:0:0:
64,192,257521,1,0,0:0:0:0:
192,192,257521,1,0,0:0:0:0:
448,192,257521,1,0,0:0:0:0:
320,192,257521,1,0,0:0:0:0:
64,192,257602,1,0,0:0:0:0:
448,192,257602,1,0,0:0:0:0:
192,192,257684,1,0,0:0:0:0:
64,192,257684,1,0,0:0:0:0:
320,192,257765,1,0,0:0:0:0:
448,192,257765,1,0,0:0:0:0:
64,192,257847,1,0,0:0:0:0:
448,192,257847,1,0,0:0:0:0:
320,192,257847,1,0,0:0:0:0:
192,192,257847,1,0,0:0:0:0:
192,192,257928,1,0,0:0:0:0:
64,192,257928,1,0,0:0:0:0:
64,192,258010,1,0,0:0:0:0:
320,192,258010,1,0,0:0:0:0:
192,192,258092,1,0,0:0:0:0:
448,192,258092,1,0,0:0:0:0:
320,192,258173,1,0,0:0:0:0:
448,192,258173,1,0,0:0:0:0:
192,192,258173,1,0,0:0:0:0:
64,192,258173,1,0,0:0:0:0:
192,192,258254,1,0,0:0:0:0:
64,192,258254,1,0,0:0:0:0:
320,192,258336,1,0,0:0:0:0:
448,192,258336,1,0,0:0:0:0:
64,192,258417,1,0,0:0:0:0:
448,192,258417,1,0,0:0:0:0:
448,192,258498,1,0,0:0:0:0:
320,192,258498,1,0,0:0:0:0:
192,192,258498,1,0,0:0:0:0:
64,192,258498,1,0,0:0:0:0:
64,192,258581,1,0,0:0:0:0:
192,192,258581,1,0,0:0:0:0:
320,192,258662,1,0,0:0:0:0:
192,192,258662,1,0,0:0:0:0:
64,192,258743,1,0,0:0:0:0:
448,192,258743,1,0,0:0:0:0:
64,192,258825,1,0,0:0:0:0:
192,192,258825,1,0,0:0:0:0:
320,192,258825,1,0,0:0:0:0:
448,192,258825,1,0,0:0:0:0:
320,192,258906,1,0,0:0:0:0:
448,192,258906,1,0,0:0:0:0:
192,192,258987,1,0,0:0:0:0:
320,192,258987,1,0,0:0:0:0:
64,192,259070,1,0,0:0:0:0:
448,192,259070,1,0,0:0:0:0:
192,192,259151,1,0,0:0:0:0:
320,192,259151,1,0,0:0:0:0:
448,192,259151,1,0,0:0:0:0:
64,192,259151,1,0,0:0:0:0:
192,192,259232,1,0,0:0:0:0:
64,192,259232,1,0,0:0:0:0:
448,192,259314,1,0,0:0:0:0:
192,192,259314,1,0,0:0:0:0:
320,192,259395,1,0,0:0:0:0:
448,192,259395,1,0,0:0:0:0:
64,192,259477,1,0,0:0:0:0:
192,192,259477,1,0,0:0:0:0:
320,192,259477,1,0,0:0:0:0:
448,192,259477,1,0,0:0:0:0:
64,192,259558,1,0,0:0:0:0:
192,192,259558,1,0,0:0:0:0:
64,192,259640,1,0,0:0:0:0:
448,192,259640,1,0,0:0:0:0:
192,192,259722,1,0,0:0:0:0:
320,192,259722,1,0,0:0:0:0:
192,192,259803,1,0,0:0:0:0:
320,192,259803,1,0,0:0:0:0:
448,192,259803,1,0,0:0:0:0:
64,192,259803,1,0,0:0:0:0:
192,192,259884,1,0,0:0:0:0:
448,192,259884,1,0,0:0:0:0:
320,192,259966,1,0,0:0:0:0:
448,192,259966,1,0,0:0:0:0:
192,192,260047,1,0,0:0:0:0:
64,192,260047,1,0,0:0:0:0:
448,192,260128,1,0,0:0:0:0:
320,192,260128,1,0,0:0:0:0:
192,192,260128,1,0,0:0:0:0:
64,192,260128,1,0,0:0:0:0:
320,192,260211,1,0,0:0:0:0:
64,192,260211,1,0,0:0:0:0:
192,192,260292,1,0,0:0:0:0:
64,192,260292,1,0,0:0:0:0:
320,192,260373,1,0,0:0:0:0:
448,192,260373,1,0,0:0:0:0:
64,192,260455,1,0,0:0:0:0:
320,192,260455,1,0,0:0:0:0:
448,192,260455,1,0,0:0:0:0:
192,192,260455,1,0,0:0:0:0:
192,192,260536,1,0,0:0:0:0:
64,192,260536,1,0,0:0:0:0:
320,192,260617,1,0,0:0:0:0:
448,192,260617,1,0,0:0:0:0:
192,192,260700,1,0,0:0:0:0:
64,192,260700,1,0,0:0:0:0:
64,192,260781,1,0,0:0:0:0:
192,192,260781,1,0,0:0:0:0:
320,192,260781,1,0,0:0:0:0:
448,192,260781,1,0,0:0:0:0:
320,192,260862,1,0,0:0:0:0:
448,192,260862,1,0,0:0:0:0:
64,192,260944,1,0,0:0:0:0:
448,192,260944,1,0,0:0:0:0:
192,192,261025,1,0,0:0:0:0:
320,192,261025,1,0,0:0:0:0:
64,192,261107,1,0,0:0:0:0:
192,192,261107,1,0,0:0:0:0:
448,192,261107,1,0,0:0:0:0:
320,192,261107,1,0,0:0:0:0:
64,192,261188,1,0,0:0:0:0:
320,192,261188,1,0,0:0:0:0:
192,192,261270,1,0,0:0:0:0:
64,192,261270,1,0,0:0:0:0:
320,192,261352,1,0,0:0:0:0:
448,192,261352,1,0,0:0:0:0:
64,192,261433,1,0,0:0:0:0:
192,192,261433,1,0,0:0:0:0:
320,192,261433,1,0,0:0:0:0:
448,192,261433,1,0,0:0:0:0:
192,192,261514,1,0,0:0:0:0:
64,192,261514,1,0,0:0:0:0:
64,192,261596,1,0,0:0:0:0:
448,192,261596,1,0,0:0:0:0:
320,192,261677,1,0,0:0:0:0:
448,192,261677,1,0,0:0:0:0:
64,192,261758,1,0,0:0:0:0:
192,192,261758,1,0,0:0:0:0:
320,192,261758,1,0,0:0:0:0:
448,192,261758,1,0,0:0:0:0:
320,192,261841,1,0,0:0:0:0:
192,192,261841,1,0,0:0:0:0:
64,192,261922,1,0,0:0:0:0:
448,192,261922,1,0,0:0:0:0:
192,192,262003,1,0,0:0:0:0:
64,192,262003,1,0,0:0:0:0:
64,192,262085,1,0,0:0:0:0:
192,192,262085,1,0,0:0:0:0:
320,192,262085,1,0,0:0:0:0:
448,192,262085,1,0,0:0:0:0:
320,192,262166,1,0,0:0:0:0:
448,192,262166,1,0,0:0:0:0:
192,192,262247,1,0,0:0:0:0:
64,192,262247,1,0,0:0:0:0:
192,192,262330,1,0,0:0:0:0:
320,192,262330,1,0,0:0:0:0:
64,192,262411,1,0,0:0:0:0:
192,192,262411,1,0,0:0:0:0:
320,192,262411,1,0,0:0:0:0:
448,192,262411,1,0,0:0:0:0:
64,192,262492,1,0,0:0:0:0:
448,192,262492,1,0,0:0:0:0:
192,192,262574,1,0,0:0:0:0:
448,192,262574,1,0,0:0:0:0:
320,192,262655,1,0,0:0:0:0:
192,192,262655,1,0,0:0:0:0:
448,192,262736,1,0,0:0:0:0:
320,192,262736,1,0,0:0:0:0:
192,192,262736,1,0,0:0:0:0:
64,192,262736,1,0,0:0:0:0:
64,192,262818,1,0,0:0:0:0:
320,192,262818,1,0,0:0:0:0:
192,192,262900,1,0,0:0:0:0:
448,192,262900,1,0,0:0:0:0:
320,192,262982,1,0,0:0:0:0:
448,192,262982,1,0,0:0:0:0:
448,192,263063,1,0,0:0:0:0:
320,192,263063,1,0,0:0:0:0:
192,192,263063,1,0,0:0:0:0:
64,192,263063,1,0,0:0:0:0:
192,192,263144,1,0,0:0:0:0:
64,192,263144,1,0,0:0:0:0:
448,192,263226,1,0,0:0:0:0:
64,192,263226,1,0,0:0:0:0:
192,192,263307,1,0,0:0:0:0:
320,192,263307,1,0,0:0:0:0:
64,192,263388,1,0,0:0:0:0:
192,192,263388,1,0,0:0:0:0:
320,192,263388,1,0,0:0:0:0:
448,192,263388,1,0,0:0:0:0:
64,192,263471,1,0,0:0:0:0:
448,192,263471,1,0,0:0:0:0:
320,192,263552,1,0,0:0:0:0:
448,192,263552,1,0,0:0:0:0:
192,192,263633,1,0,0:0:0:0:
320,192,263633,1,0,0:0:0:0:
448,192,263715,1,0,0:0:0:0:
320,192,263715,1,0,0:0:0:0:
192,192,263715,1,0,0:0:0:0:
64,192,263715,1,0,0:0:0:0:
64,192,263796,1,0,0:0:0:0:
192,192,263796,1,0,0:0:0:0:
64,192,263877,1,0,0:0:0:0:
448,192,263877,1,0,0:0:0:0:
448,192,263960,1,0,0:0:0:0:
320,192,263960,1,0,0:0:0:0:
192,192,264041,1,0,0:0:0:0:
64,192,264041,1,0,0:0:0:0:
320,192,264041,1,0,0:0:0:0:
448,192,264041,1,0,0:0:0:0:
192,192,264122,1,0,0:0:0:0:
64,192,264122,1,0,0:0:0:0:
448,192,264204,1,0,0:0:0:0:
64,192,264204,1,0,0:0:0:0:
320,192,264285,1,0,0:0:0:0:
448,192,264285,1,0,0:0:0:0:
64,192,264366,1,0,0:0:0:0:
320,192,264366,1,0,0:0:0:0:
192,192,264366,1,0,0:0:0:0:
448,192,264366,1,0,0:0:0:0:
192,192,264448,1,0,0:0:0:0:
64,192,264448,1,0,0:0:0:0:
320,192,264530,1,0,0:0:0:0:
192,192,264530,1,0,0:0:0:0:
64,192,264612,1,0,0:0:0:0:
448,192,264612,1,0,0:0:0:0:
64,192,264693,1,0,0:0:0:0:
192,192,264693,1,0,0:0:0:0:
320,192,264693,1,0,0:0:0:0:
448,192,264693,1,0,0:0:0:0:
320,192,264774,1,0,0:0:0:0:
448,192,264774,1,0,0:0:0:0:
64,192,264856,1,0,0:0:0:0:
192,192,264856,1,0,0:0:0:0:
64,192,264937,1,0,0:0:0:0:
320,192,264937,1,0,0:0:0:0:
64,192,265018,1,0,0:0:0:0:
192,192,265018,1,0,0:0:0:0:
320,192,265018,1,0,0:0:0:0:
448,192,265018,1,0,0:0:0:0:
192,192,265101,1,0,0:0:0:0:
448,192,265101,1,0,0:0:0:0:
320,192,265182,1,0,0:0:0:0:
448,192,265182,1,0,0:0:0:0:
64,192,265263,1,0,0:0:0:0:
320,192,265263,1,0,0:0:0:0:
64,192,265345,1,0,0:0:0:0:
192,192,265345,1,0,0:0:0:0:
320,192,265345,1,0,0:0:0:0:
448,192,265345,1,0,0:0:0:0:
192,192,265426,1,0,0:0:0:0:
320,192,265426,1,0,0:0:0:0:
448,192,265507,1,0,0:0:0:0:
64,192,265507,1,0,0:0:0:0:
192,192,265590,1,0,0:0:0:0:
64,192,265590,1,0,0:0:0:0:
320,192,265671,1,0,0:0:0:0:
192,192,265671,1,0,0:0:0:0:
448,192,265671,1,0,0:0:0:0:
64,192,265671,1,0,0:0:0:0:
448,192,265752,1,0,0:0:0:0:
192,192,265752,1,0,0:0:0:0:
320,192,265834,1,0,0:0:0:0:
448,192,265834,1,0,0:0:0:0:
192,192,265915,1,0,0:0:0:0:
64,192,265915,1,0,0:0:0:0:
64,192,265996,1,0,0:0:0:0:
192,192,265996,1,0,0:0:0:0:
320,192,265996,1,0,0:0:0:0:
448,192,265996,1,0,0:0:0:0:
64,192,266078,1,0,0:0:0:0:
448,192,266078,1,0,0:0:0:0:
320,192,266160,1,0,0:0:0:0:
192,192,266160,1,0,0:0:0:0:
64,192,266242,1,0,0:0:0:0:
320,192,266242,1,0,0:0:0:0:
64,192,266323,1,0,0:0:0:0:
320,192,266323,1,0,0:0:0:0:
448,192,266323,1,0,0:0:0:0:
192,192,266323,1,0,0:0:0:0:
192,192,266404,1,0,0:0:0:0:
448,192,266404,1,0,0:0:0:0:
320,192,266486,1,0,0:0:0:0:
448,192,266486,1,0,0:0:0:0:
320,192,266567,1,0,0:0:0:0:
192,192,266567,1,0,0:0:0:0:
64,192,266648,1,0,0:0:0:0:
320,192,266648,1,0,0:0:0:0:
448,192,266648,1,0,0:0:0:0:
192,192,266648,1,0,0:0:0:0:
64,192,266731,1,0,0:0:0:0:
448,192,266731,1,0,0:0:0:0:
192,192,266812,1,0,0:0:0:0:
64,192,266812,1,0,0:0:0:0:
320,192,266893,1,0,0:0:0:0:
192,192,266893,1,0,0:0:0:0:
192,192,266975,1,0,0:0:0:0:
64,192,266975,1,0,0:0:0:0:
320,192,266975,1,0,0:0:0:0:
448,192,266975,1,0,0:0:0:0:
64,192,267056,1,0,0:0:0:0:
320,192,267056,1,0,0:0:0:0:
192,192,267137,1,0,0:0:0:0:
448,192,267137,1,0,0:0:0:0:
320,192,267220,1,0,0:0:0:0:
448,192,267220,1,0,0:0:0:0:
64,192,267301,1,0,0:0:0:0:
192,192,267301,1,0,0:0:0:0:
320,192,267301,1,0,0:0:0:0:
448,192,267301,1,0,0:0:0:0:
192,192,267382,1,0,0:0:0:0:
64,192,267382,1,0,0:0:0:0:
448,192,267464,1,0,0:0:0:0:
320,192,267464,1,0,0:0:0:0:
64,192,267545,1,0,0:0:0:0:
320,192,267545,1,0,0:0:0:0:
64,192,267626,1,0,0:0:0:0:
320,192,267626,1,0,0:0:0:0:
448,192,267626,1,0,0:0:0:0:
192,192,267626,1,0,0:0:0:0:
192,192,267708,1,0,0:0:0:0:
448,192,267708,1,0,0:0:0:0:
320,192,267790,1,0,0:0:0:0:
448,192,267790,1,0,0:0:0:0:
192,192,267872,1,0,0:0:0:0:
64,192,267872,1,0,0:0:0:0:
64,192,267953,1,0,0:0:0:0:
192,192,267953,1,0,0:0:0:0:
320,192,267953,1,0,0:0:0:0:
448,192,267953,1,0,0:0:0:0:
64,192,268034,1,0,0:0:0:0:
320,192,268034,1,0,0:0:0:0:
192,192,268116,1,0,0:0:0:0:
448,192,268116,1,0,0:0:0:0:
320,192,268197,1,0,0:0:0:0:
448,192,268197,1,0,0:0:0:0:
64,192,268278,1,0,0:0:0:0:
320,192,268278,1,0,0:0:0:0:
448,192,268278,1,0,0:0:0:0:
192,192,268278,1,0,0:0:0:0:
192,192,268361,1,0,0:0:0:0:
64,192,268361,1,0,0:0:0:0:
64,192,268442,1,0,0:0:0:0:
320,192,268442,1,0,0:0:0:0:
320,192,268523,1,0,0:0:0:0:
192,192,268523,1,0,0:0:0:0:
64,192,268605,1,0,0:0:0:0:
320,192,268605,1,0,0:0:0:0:
448,192,268605,1,0,0:0:0:0:
192,192,268605,1,0,0:0:0:0:
64,192,268686,1,0,0:0:0:0:
448,192,268686,1,0,0:0:0:0:
192,192,268767,1,0,0:0:0:0:
320,192,268767,1,0,0:0:0:0:
64,192,268850,1,0,0:0:0:0:
320,192,268850,1,0,0:0:0:0:
64,192,268931,1,0,0:0:0:0:
192,192,268931,1,0,0:0:0:0:
320,192,268931,1,0,0:0:0:0:
448,192,268931,1,0,0:0:0:0:
448,192,269012,1,0,0:0:0:0:
192,192,269012,1,0,0:0:0:0:
320,192,269094,1,0,0:0:0:0:
448,192,269094,1,0,0:0:0:0:
192,192,269175,1,0,0:0:0:0:
64,192,269175,1,0,0:0:0:0:
64,192,269256,1,0,0:0:0:0:
192,192,269256,1,0,0:0:0:0:
448,192,269256,1,0,0:0:0:0:
320,192,269256,1,0,0:0:0:0:
320,192,269338,1,0,0:0:0:0:
448,192,269338,1,0,0:0:0:0:
64,192,269420,1,0,0:0:0:0:
448,192,269420,1,0,0:0:0:0:
320,192,269502,1,0,0:0:0:0:
64,192,269502,1,0,0:0:0:0:
192,192,269583,1,0,0:0:0:0:
64,192,269583,1,0,0:0:0:0:
320,192,269583,1,0,0:0:0:0:
448,192,269583,1,0,0:0:0:0:
192,192,269664,1,0,0:0:0:0:
448,192,269664,1,0,0:0:0:0:
320,192,269746,1,0,0:0:0:0:
448,192,269746,1,0,0:0:0:0:
192,192,269827,1,0,0:0:0:0:
64,192,269827,1,0,0:0:0:0:
192,192,269908,1,0,0:0:0:0:
64,192,269908,1,0,0:0:0:0:
320,192,269908,1,0,0:0:0:0:
448,192,269908,1,0,0:0:0:0:
192,192,269991,1,0,0:0:0:0:
320,192,269991,1,0,0:0:0:0:
64,192,270072,1,0,0:0:0:0:
448,192,270072,1,0,0:0:0:0:
320,192,270153,1,0,0:0:0:0:
448,192,270153,1,0,0:0:0:0:
64,192,270235,1,0,0:0:0:0:
192,192,270235,1,0,0:0:0:0:
320,192,270235,1,0,0:0:0:0:
448,192,270235,1,0,0:0:0:0:
192,192,270316,1,0,0:0:0:0:
64,192,270316,1,0,0:0:0:0:
64,192,270397,1,0,0:0:0:0:
320,192,270397,1,0,0:0:0:0:
192,192,270480,1,0,0:0:0:0:
448,192,270480,1,0,0:0:0:0:
448,192,270561,1,0,0:0:0:0:
192,192,270561,1,0,0:0:0:0:
320,192,270561,1,0,0:0:0:0:
64,192,270561,1,0,0:0:0:0:
320,192,270642,1,0,0:0:0:0:
448,192,270642,1,0,0:0:0:0:
192,192,270724,1,0,0:0:0:0:
64,192,270724,1,0,0:0:0:0:
64,192,270805,1,0,0:0:0:0:
320,192,270805,1,0,0:0:0:0:
448,192,270886,1,0,0:0:0:0:
320,192,270886,1,0,0:0:0:0:
192,192,270886,1,0,0:0:0:0:
64,192,270886,1,0,0:0:0:0:
192,192,270968,1,0,0:0:0:0:
448,192,270968,1,0,0:0:0:0:
320,192,271050,1,0,0:0:0:0:
192,192,271050,1,0,0:0:0:0:
64,192,271132,1,0,0:0:0:0:
448,192,271132,1,0,0:0:0:0:
64,192,271213,1,0,0:0:0:0:
192,192,271213,1,0,0:0:0:0:
320,192,271213,1,0,0:0:0:0:
448,192,271213,1,0,0:0:0:0:
320,192,271294,1,0,0:0:0:0:
192,192,271294,1,0,0:0:0:0:
64,192,271376,1,0,0:0:0:0:
448,192,271376,1,0,0:0:0:0:
320,192,271457,1,0,0:0:0:0:
64,192,271457,1,0,0:0:0:0:
64,192,271538,1,0,0:0:0:0:
448,192,271538,1,0,0:0:0:0:
320,192,271538,1,0,0:0:0:0:
192,192,271538,1,0,0:0:0:0:
192,192,271621,1,0,0:0:0:0:
448,192,271621,1,0,0:0:0:0:
320,192,271702,1,0,0:0:0:0:
448,192,271702,1,0,0:0:0:0:
192,192,271783,1,0,0:0:0:0:
64,192,271783,1,0,0:0:0:0:
64,192,271865,1,0,0:0:0:0:
192,192,271865,1,0,0:0:0:0:
320,192,271865,1,0,0:0:0:0:
448,192,271865,1,0,0:0:0:0:
320,192,271946,1,0,0:0:0:0:
192,192,271946,1,0,0:0:0:0:
64,192,272027,1,0,0:0:0:0:
448,192,272027,1,0,0:0:0:0:
320,192,272110,1,0,0:0:0:0:
448,192,272110,1,0,0:0:0:0:
64,192,272191,1,0,0:0:0:0:
192,192,272191,1,0,0:0:0:0:
320,192,272191,1,0,0:0:0:0:
448,192,272191,1,0,0:0:0:0:
192,192,272272,1,0,0:0:0:0:
64,192,272272,1,0,0:0:0:0:
64,192,272354,1,0,0:0:0:0:
320,192,272354,1,0,0:0:0:0:
192,192,272435,1,0,0:0:0:0:
448,192,272435,1,0,0:0:0:0:
64,192,272516,1,0,0:0:0:0:
192,192,272516,1,0,0:0:0:0:
320,192,272516,1,0,0:0:0:0:
448,192,272516,1,0,0:0:0:0:
320,192,272598,1,0,0:0:0:0:
448,192,272598,1,0,0:0:0:0:
192,192,272680,1,0,0:0:0:0:
64,192,272680,1,0,0:0:0:0:
320,192,272762,1,0,0:0:0:0:
64,192,272762,1,0,0:0:0:0:
64,192,272843,1,0,0:0:0:0:
192,192,272843,1,0,0:0:0:0:
320,192,272843,1,0,0:0:0:0:
448,192,272843,1,0,0:0:0:0:
192,192,272924,1,0,0:0:0:0:
320,192,272924,1,0,0:0:0:0:
64,192,273006,1,0,0:0:0:0:
448,192,273006,1,0,0:0:0:0:
192,192,273087,1,0,0:0:0:0:
320,192,273087,1,0,0:0:0:0:
448,192,273168,1,0,0:0:0:0:
320,192,273168,1,0,0:0:0:0:
192,192,273168,1,0,0:0:0:0:
64,192,273168,1,0,0:0:0:0:
320,192,273251,1,0,0:0:0:0:
448,192,273251,1,0,0:0:0:0:
64,192,273332,1,0,0:0:0:0:
192,192,273332,1,0,0:0:0:0:
64,192,273413,1,0,0:0:0:0:
448,192,273413,1,0,0:0:0:0:
192,192,273495,1,0,0:0:0:0:
64,192,273495,1,0,0:0:0:0:
320,192,273495,1,0,0:0:0:0:
448,192,273495,1,0,0:0:0:0:
192,192,273576,1,0,0:0:0:0:
320,192,273576,1,0,0:0:0:0:
448,192,273657,1,0,0:0:0:0:
320,192,273657,1,0,0:0:0:0:
64,192,273740,1,0,0:0:0:0:
192,192,273740,1,0,0:0:0:0:
192,192,273821,1,0,0:0:0:0:
320,192,273821,1,0,0:0:0:0:
448,192,273821,1,0,0:0:0:0:
64,192,273902,1,0,0:0:0:0:
448,192,273902,1,0,0:0:0:0:
320,192,273984,1,0,0:0:0:0:
192,192,273984,1,0,0:0:0:0:
64,192,274065,1,0,0:0:0:0:
320,192,274065,1,0,0:0:0:0:
64,192,274146,1,0,0:0:0:0:
192,192,274146,1,0,0:0:0:0:
448,192,274146,1,0,0:0:0:0:
320,192,274228,1,0,0:0:0:0:
448,192,274228,1,0,0:0:0:0:
192,192,274310,1,0,0:0:0:0:
320,192,274310,1,0,0:0:0:0:
64,192,274392,1,0,0:0:0:0:
448,192,274392,1,0,0:0:0:0:
64,192,274473,1,0,0:0:0:0:
192,192,274473,1,0,0:0:0:0:
320,192,274473,1,0,0:0:0:0:
192,192,274554,1,0,0:0:0:0:
448,192,274554,1,0,0:0:0:0:
320,192,274636,1,0,0:0:0:0:
448,192,274636,1,0,0:0:0:0:
192,192,274717,1,0,0:0:0:0:
64,192,274717,1,0,0:0:0:0:
64,192,274798,1,0,0:0:0:0:
320,192,274798,1,0,0:0:0:0:
192,192,274798,1,0,0:0:0:0:
448,192,274881,1,0,0:0:0:0:
320,192,274881,1,0,0:0:0:0:
64,192,274962,1,0,0:0:0:0:
320,192,274962,1,0,0:0:0:0:
192,192,275043,1,0,0:0:0:0:
448,192,275043,1,0,0:0:0:0:
320,192,275125,1,0,0:0:0:0:
448,192,275125,1,0,0:0:0:0:
64,192,275125,1,0,0:0:0:0:
192,192,275206,1,0,0:0:0:0:
320,192,275206,1,0,0:0:0:0:
192,192,275287,1,0,0:0:0:0:
64,192,275287,1,0,0:0:0:0:
64,192,275370,1,0,0:0:0:0:
320,192,275370,1,0,0:0:0:0:
320,192,275451,1,0,0:0:0:0:
448,192,275451,1,0,0:0:0:0:
192,192,275451,1,0,0:0:0:0:
64,192,275532,1,0,0:0:0:0:
448,192,275532,1,0,0:0:0:0:
192,192,275614,1,0,0:0:0:0:
64,192,275614,1,0,0:0:0:0:
192,192,275695,1,0,0:0:0:0:
320,192,275695,1,0,0:0:0:0:
320,192,275776,1,0,0:0:0:0:
448,192,275776,1,0,0:0:0:0:
64,192,275776,1,0,0:0:0:0:
192,192,275858,1,0,0:0:0:0:
448,192,275858,1,0,0:0:0:0:
320,192,275940,1,0,0:0:0:0:
64,192,275940,1,0,0:0:0:0:
192,192,276022,1,0,0:0:0:0:
320,192,276022,1,0,0:0:0:0:
64,192,276103,1,0,0:0:0:0:
192,192,276103,1,0,0:0:0:0:
448,192,276103,1,0,0:0:0:0:
320,192,276184,1,0,0:0:0:0:
448,192,276184,1,0,0:0:0:0:
192,192,276266,1,0,0:0:0:0:
64,192,276266,1,0,0:0:0:0:
64,192,276347,1,0,0:0:0:0:
320,192,276347,1,0,0:0:0:0:
64,192,276428,1,0,0:0:0:0:
448,192,276428,1,0,0:0:0:0:
320,192,276428,1,0,0:0:0:0:
192,192,276511,1,0,0:0:0:0:
320,192,276511,1,0,0:0:0:0:
64,192,276592,1,0,0:0:0:0:
448,192,276592,1,0,0:0:0:0:
192,192,276673,1,0,0:0:0:0:
320,192,276673,1,0,0:0:0:0:
192,192,276755,1,0,0:0:0:0:
320,192,276755,1,0,0:0:0:0:
448,192,276755,1,0,0:0:0:0:
64,192,276836,1,0,0:0:0:0:
448,192,276836,1,0,0:0:0:0:
320,192,276917,1,0,0:0:0:0:
64,192,276917,1,0,0:0:0:0:
192,192,277000,1,0,0:0:0:0:
448,192,277000,1,0,0:0:0:0:
192,192,277081,1,0,0:0:0:0:
320,192,277081,1,0,0:0:0:0:
64,192,277081,1,0,0:0:0:0:
448,192,277162,1,0,0:0:0:0:
320,192,277162,1,0,0:0:0:0:
64,192,277244,1,0,0:0:0:0:
448,192,277244,1,0,0:0:0:0:
192,192,277325,1,0,0:0:0:0:
320,192,277325,1,0,0:0:0:0:
192,192,277406,1,0,0:0:0:0:
448,192,277406,1,0,0:0:0:0:
64,192,277406,1,0,0:0:0:0:
320,192,277488,1,0,0:0:0:0:
448,192,277488,1,0,0:0:0:0:
64,192,277570,1,0,0:0:0:0:
320,192,277570,1,0,0:0:0:0:
192,192,277652,1,0,0:0:0:0:
448,192,277652,1,0,0:0:0:0:
64,192,277733,1,0,0:0:0:0:
192,192,277733,1,0,0:0:0:0:
320,192,277733,1,0,0:0:0:0:
448,192,277814,1,0,0:0:0:0:
320,192,277814,1,0,0:0:0:0:
64,192,277896,1,0,0:0:0:0:
448,192,277896,1,0,0:0:0:0:
192,192,277977,1,0,0:0:0:0:
64,192,277977,1,0,0:0:0:0:
192,192,278058,1,0,0:0:0:0:
320,192,278058,1,0,0:0:0:0:
448,192,278058,1,0,0:0:0:0:
64,192,278141,1,0,0:0:0:0:
448,192,278141,1,0,0:0:0:0:
192,192,278222,1,0,0:0:0:0:
320,192,278222,1,0,0:0:0:0:
64,192,278303,1,0,0:0:0:0:
320,192,278303,1,0,0:0:0:0:
448,192,278385,1,0,0:0:0:0:
320,192,278385,1,0,0:0:0:0:
192,192,278385,1,0,0:0:0:0:
64,192,278466,1,0,0:0:0:0:
448,192,278466,1,0,0:0:0:0:
320,192,278547,1,0,0:0:0:0:
64,192,278547,1,0,0:0:0:0:
192,192,278630,1,0,0:0:0:0:
448,192,278630,1,0,0:0:0:0:
192,192,278711,1,0,0:0:0:0:
320,192,278711,1,0,0:0:0:0:
64,192,278711,1,0,0:0:0:0:
64,192,278874,1,0,0:0:0:0:
192,192,278874,1,0,0:0:0:0:
448,192,278874,1,0,0:0:0:0:
192,192,279036,1,0,0:0:0:0:
448,192,279036,1,0,0:0:0:0:
320,192,279036,1,0,0:0:0:0:
64,192,279118,1,0,0:0:0:0:
192,192,279200,1,0,0:0:0:0:
448,192,279200,1,0,0:0:0:0:
320,192,279281,1,0,0:0:0:0:
192,192,279363,1,0,0:0:0:0:
64,192,279363,1,0,0:0:0:0:
448,192,279363,1,0,0:0:0:0:
320,192,279444,1,0,0:0:0:0:
192,192,279526,1,0,0:0:0:0:
64,192,279526,1,0,0:0:0:0:
448,192,279607,1,0,0:0:0:0:
320,192,279688,1,0,0:0:0:0:
192,192,279688,1,0,0:0:0:0:
64,192,279688,1,0,0:0:0:0:
448,192,279771,1,0,0:0:0:0:
64,192,279852,1,0,0:0:0:0:
320,192,279852,1,0,0:0:0:0:
192,192,279933,1,0,0:0:0:0:
64,192,280015,1,0,0:0:0:0:
448,192,280015,1,0,0:0:0:0:
320,192,280096,1,0,0:0:0:0:
448,192,280177,1,0,0:0:0:0:
192,192,280177,1,0,0:0:0:0:
64,192,280260,1,0,0:0:0:0:
192,192,280341,1,0,0:0:0:0:
320,192,280341,1,0,0:0:0:0:
448,192,280341,1,0,0:0:0:0:
64,192,280422,1,0,0:0:0:0:
320,192,280504,1,0,0:0:0:0:
448,192,280504,1,0,0:0:0:0:
192,192,280585,1,0,0:0:0:0:
64,192,280666,1,0,0:0:0:0:
320,192,280666,1,0,0:0:0:0:
448,192,280666,1,0,0:0:0:0:
192,192,280748,1,0,0:0:0:0:
448,192,280830,1,0,0:0:0:0:
64,192,280830,1,0,0:0:0:0:
320,192,280911,1,0,0:0:0:0:
192,192,280993,1,0,0:0:0:0:
64,192,280993,1,0,0:0:0:0:
448,192,281074,1,0,0:0:0:0:
320,192,281156,1,0,0:0:0:0:
192,192,281156,1,0,0:0:0:0:
64,192,281156,1,0,0:0:0:0:
448,192,281237,1,0,0:0:0:0:
320,192,281318,1,0,0:0:0:0:
192,192,281318,1,0,0:0:0:0:
64,192,281401,1,0,0:0:0:0:
192,192,281482,1,0,0:0:0:0:
448,192,281482,1,0,0:0:0:0:
320,192,281563,1,0,0:0:0:0:
64,192,281645,1,0,0:0:0:0:
192,192,281645,1,0,0:0:0:0:
448,192,281645,1,0,0:0:0:0:
320,192,281726,1,0,0:0:0:0:
64,192,281807,1,0,0:0:0:0:
448,192,281807,1,0,0:0:0:0:
192,192,281890,1,0,0:0:0:0:
320,192,281971,1,0,0:0:0:0:
448,192,281971,1,0,0:0:0:0:
64,192,281971,1,0,0:0:0:0:
192,192,282052,1,0,0:0:0:0:
320,192,282134,1,0,0:0:0:0:
448,192,282134,1,0,0:0:0:0:
64,192,282215,1,0,0:0:0:0:
192,192,282296,1,0,0:0:0:0:
320,192,282296,1,0,0:0:0:0:
448,192,282296,1,0,0:0:0:0:
64,192,282378,1,0,0:0:0:0:
192,192,282460,1,0,0:0:0:0:
448,192,282460,1,0,0:0:0:0:
320,192,282541,1,0,0:0:0:0:
192,192,282623,1,0,0:0:0:0:
64,192,282623,1,0,0:0:0:0:
448,192,282623,1,0,0:0:0:0:
320,192,282704,1,0,0:0:0:0:
192,192,282786,1,0,0:0:0:0:
64,192,282786,1,0,0:0:0:0:
448,192,282867,1,0,0:0:0:0:
64,192,282948,1,0,0:0:0:0:
192,192,282948,1,0,0:0:0:0:
320,192,282948,1,0,0:0:0:0:
448,192,283031,1,0,0:0:0:0:
320,192,283112,1,0,0:0:0:0:
192,192,283112,1,0,0:0:0:0:
64,192,283112,1,0,0:0:0:0:
448,192,283193,1,0,0:0:0:0:
320,192,283275,1,0,0:0:0:0:
192,192,283275,1,0,0:0:0:0:
64,192,283275,1,0,0:0:0:0:
448,192,283356,1,0,0:0:0:0:
64,192,283437,1,0,0:0:0:0:
320,192,283437,1,0,0:0:0:0:
192,192,283520,1,0,0:0:0:0:
320,192,283601,1,0,0:0:0:0:
448,192,283601,1,0,0:0:0:0:
64,192,283601,1,0,0:0:0:0:
192,192,283682,1,0,0:0:0:0:
448,192,283764,1,0,0:0:0:0:
320,192,283804,1,0,0:0:0:0:
192,192,283845,1,0,0:0:0:0:
64,192,283886,1,0,0:0:0:0:
448,192,283926,1,0,0:0:0:0:
320,192,283967,1,0,0:0:0:0:
64,192,284008,1,0,0:0:0:0:
192,192,284048,1,0,0:0:0:0:
320,192,284090,1,0,0:0:0:0:
448,192,284131,1,0,0:0:0:0:
64,192,284171,1,0,0:0:0:0:
192,192,284171,1,0,0:0:0:0:
320,192,284253,1,0,0:0:0:0:
448,192,284253,1,0,0:0:0:0:
64,192,284253,1,0,0:0:0:0:
192,192,284416,1,0,0:0:0:0:
192,192,284578,1,0,0:0:0:0:
320,192,284578,1,0,0:0:0:0:
448,192,284578,1,0,0:0:0:0:
64,192,284578,1,0,0:0:0:0:
448,192,284742,1,0,0:0:0:0:
320,192,284905,1,0,0:0:0:0:
192,192,284905,1,0,0:0:0:0:
64,192,284905,1,0,0:0:0:0:
192,192,285067,1,0,0:0:0:0:
64,192,285231,1,0,0:0:0:0:
192,192,285231,1,0,0:0:0:0:
320,192,285231,1,0,0:0:0:0:
448,192,285231,1,0,0:0:0:0:
448,192,285394,1,0,0:0:0:0:
320,192,285556,1,0,0:0:0:0:
448,192,285556,1,0,0:0:0:0:
64,192,285556,1,0,0:0:0:0:
192,192,285720,1,0,0:0:0:0:
64,192,285883,1,0,0:0:0:0:
192,192,285883,1,0,0:0:0:0:
448,192,285883,1,0,0:0:0:0:
320,192,285883,1,0,0:0:0:0:
320,192,286046,1,0,0:0:0:0:
192,192,286208,1,0,0:0:0:0:
448,192,286208,1,0,0:0:0:0:
64,192,286208,1,0,0:0:0:0:
192,192,286372,1,0,0:0:0:0:
192,192,286535,1,0,0:0:0:0:
320,192,286535,1,0,0:0:0:0:
448,192,286535,1,0,0:0:0:0:
64,192,286535,1,0,0:0:0:0:
448,192,286697,1,0,0:0:0:0:
320,192,286861,1,0,0:0:0:0:
448,192,286861,1,0,0:0:0:0:
192,192,286861,1,0,0:0:0:0:
64,192,287024,1,0,0:0:0:0:
64,192,287186,1,0,0:0:0:0:
320,192,287186,1,0,0:0:0:0:
192,192,287186,1,0,0:0:0:0:
448,192,287186,1,0,0:0:0:0:
320,192,287350,1,0,0:0:0:0:
64,192,287513,1,0,0:0:0:0:
192,192,287513,1,0,0:0:0:0:
448,192,287513,1,0,0:0:0:0:
192,192,287676,1,0,0:0:0:0:
64,192,287838,1,0,0:0:0:0:
192,192,287838,1,0,0:0:0:0:
320,192,287838,1,0,0:0:0:0:
448,192,287838,1,0,0:0:0:0:
320,192,288002,1,0,0:0:0:0:
64,192,288165,1,0,0:0:0:0:
192,192,288165,1,0,0:0:0:0:
448,192,288165,1,0,0:0:0:0:
64,192,288327,1,0,0:0:0:0:
64,192,288491,1,0,0:0:0:0:
192,192,288491,1,0,0:0:0:0:
448,192,288491,1,0,0:0:0:0:
320,192,288491,1,0,0:0:0:0:
448,192,288654,1,0,0:0:0:0:
64,192,288816,1,0,0:0:0:0:
320,192,288816,1,0,0:0:0:0:
448,192,288816,1,0,0:0:0:0:
192,192,288980,1,0,0:0:0:0:
64,192,289143,1,0,0:0:0:0:
192,192,289143,1,0,0:0:0:0:
320,192,289143,1,0,0:0:0:0:
448,192,289143,1,0,0:0:0:0:
64,192,289306,1,0,0:0:0:0:
448,192,289306,1,0,0:0:0:0:
320,192,289306,1,0,0:0:0:0:
448,192,289468,1,0,0:0:0:0:
320,192,289468,1,0,0:0:0:0:
192,192,289468,1,0,0:0:0:0:
64,192,289468,1,0,0:0:0:0:
192,192,289632,1,0,0:0:0:0:
320,192,289632,1,0,0:0:0:0:
64,192,289632,1,0,0:0:0:0:
64,192,289795,1,0,0:0:0:0:
192,192,289795,1,0,0:0:0:0:
320,192,289795,1,0,0:0:0:0:
448,192,289795,1,0,0:0:0:0:
192,192,289957,1,0,0:0:0:0:
64,192,289957,1,0,0:0:0:0:
448,192,289957,1,0,0:0:0:0:
64,192,290121,1,0,0:0:0:0:
192,192,290121,1,0,0:0:0:0:
320,192,290121,1,0,0:0:0:0:
448,192,290121,1,0,0:0:0:0:
320,192,290284,1,0,0:0:0:0:
448,192,290284,1,0,0:0:0:0:
64,192,290284,1,0,0:0:0:0:
64,192,290446,1,0,0:0:0:0:
192,192,290446,1,0,0:0:0:0:
320,192,290446,1,0,0:0:0:0:
448,192,290446,1,0,0:0:0:0:
64,192,290610,1,0,0:0:0:0:
320,192,290610,1,0,0:0:0:0:
192,192,290610,1,0,0:0:0:0:
64,192,290773,1,0,0:0:0:0:
192,192,290773,1,0,0:0:0:0:
320,192,290773,1,0,0:0:0:0:
448,192,290773,1,0,0:0:0:0:
192,192,290936,1,0,0:0:0:0:
64,192,290936,1,0,0:0:0:0:
448,192,290936,1,0,0:0:0:0:
64,192,291098,1,0,0:0:0:0:
192,192,291098,1,0,0:0:0:0:
320,192,291098,1,0,0:0:0:0:
448,192,291098,1,0,0:0:0:0:
320,192,291262,1,0,0:0:0:0:
448,192,291262,1,0,0:0:0:0:
192,192,291262,1,0,0:0:0:0:
64,192,291425,1,0,0:0:0:0:
192,192,291425,1,0,0:0:0:0:
320,192,291425,1,0,0:0:0:0:
448,192,291425,1,0,0:0:0:0:
448,192,291587,1,0,0:0:0:0:
320,192,291587,1,0,0:0:0:0:
64,192,291587,1,0,0:0:0:0:
64,192,291751,1,0,0:0:0:0:
192,192,291751,1,0,0:0:0:0:
320,192,291751,1,0,0:0:0:0:
448,192,291751,1,0,0:0:0:0:
192,192,291914,1,0,0:0:0:0:
64,192,291914,1,0,0:0:0:0:
320,192,291914,1,0,0:0:0:0:
320,192,292076,1,0,0:0:0:0:
448,192,292076,1,0,0:0:0:0:
192,192,292158,1,0,0:0:0:0:
64,192,292158,1,0,0:0:0:0:
320,192,292240,1,0,0:0:0:0:
448,192,292240,1,0,0:0:0:0:
192,192,292321,1,0,0:0:0:0:
64,192,292321,1,0,0:0:0:0:
320,192,292403,1,0,0:0:0:0:
448,192,292403,1,0,0:0:0:0:
192,192,292484,1,0,0:0:0:0:
64,192,292484,1,0,0:0:0:0:
320,192,292566,1,0,0:0:0:0:
448,192,292566,1,0,0:0:0:0:
192,192,292647,1,0,0:0:0:0:
64,192,292647,1,0,0:0:0:0:
320,192,292728,1,0,0:0:0:0:
448,192,292728,1,0,0:0:0:0:
192,192,292811,1,0,0:0:0:0:
64,192,292811,1,0,0:0:0:0:
320,192,292892,1,0,0:0:0:0:
448,192,292892,1,0,0:0:0:0:
192,192,292973,1,0,0:0:0:0:
64,192,292973,1,0,0:0:0:0:
320,192,293055,1,0,0:0:0:0:
448,192,293055,1,0,0:0:0:0:
192,192,293136,1,0,0:0:0:0:
64,192,293136,1,0,0:0:0:0:
320,192,293217,1,0,0:0:0:0:
448,192,293217,1,0,0:0:0:0:
192,192,293300,1,0,0:0:0:0:
64,192,293300,1,0,0:0:0:0:
448,192,293381,1,0,0:0:0:0:
320,192,293422,1,0,0:0:0:0:
192,192,293462,1,0,0:0:0:0:
64,192,293503,1,0,0:0:0:0:
448,192,293544,1,0,0:0:0:0:
320,192,293584,1,0,0:0:0:0:
192,192,293625,1,0,0:0:0:0:
64,192,293666,1,0,0:0:0:0:
448,192,293706,1,0,0:0:0:0:
320,192,293747,1,0,0:0:0:0:
64,192,293788,1,0,0:0:0:0:
192,192,293828,1,0,0:0:0:0:
448,192,293870,1,0,0:0:0:0:
320,192,293911,1,0,0:0:0:0:
64,192,293951,1,0,0:0:0:0:
192,192,293992,1,0,0:0:0:0:
448,192,294033,1,0,0:0:0:0:
320,192,294073,1,0,0:0:0:0:
192,192,294114,1,0,0:0:0:0:
64,192,294155,1,0,0:0:0:0:
320,192,294277,1,0,0:0:0:0:
192,192,294318,1,0,0:0:0:0:
64,192,294358,1,0,0:0:0:0:
448,192,294400,1,0,0:0:0:0:
192,192,294522,1,0,0:0:0:0:
64,192,294563,1,0,0:0:0:0:
448,192,294603,1,0,0:0:0:0:
320,192,294644,1,0,0:0:0:0:
192,192,294685,1,0,0:0:0:0:
64,192,294685,1,0,0:0:0:0:
