osu file format v14

[General]
AudioFilename: audio 0.800x.mp3
AudioLeadIn: 0
PreviewTime: 222412
Countdown: 0
SampleSet: Normal
StackLeniency: 0.7
Mode: 3
LetterboxInBreaks: 0
SpecialStyle: 0
WidescreenStoryboard: 0

[Editor]
DistanceSpacing: 0.8
BeatDivisor: 4
GridSize: 16
TimelineZoom: 1.7

[Metadata]
Title:Tactical Railroad
TitleUnicode:Tactical Railroad
Artist:DJ Sharpnel
ArtistUnicode:DJ Sharpnel
Creator:YoungBurger14
Version:0.8x
Source:
Tags:レール・ウォーズ -nihonkoku yuuteddou kouantai- opening 茅原実里 chihara minori remix electronic japanese ver2.0 colossalcom2016 limited srpx-0002 srpx-0004 comiket c86 コミケット86 hardcore jcore j-core bootleg -日本國有鉄道公安隊- 向かい風に打たれながら mukai kaze ni utare nagara jack chord chordjack speedjack
BeatmapID:4536765
BeatmapSetID:2153117

[Difficulty]
HPDrainRate:7
CircleSize:4
OverallDifficulty:8
ApproachRate:3.9
SliderMultiplier:1.4
SliderTickRate:1

[Events]
//Background and Video events
0,0,"Tactical Railroad.jpg",0,0
//Break Periods
//Storyboard Layer 0 (Background)
//Storyboard Layer 1 (Fail)
//Storyboard Layer 2 (Pass)
//Storyboard Layer 3 (Foreground)
//Storyboard Layer 4 (Overlay)
//Storyboard Sound Samples

[TimingPoints]
1447,366.74875,4,1,0,30,1,0
89466,-100,4,1,0,30,0,1
151080,-100,4,1,0,30,0,0
222962,-100,4,1,0,30,0,1
284577,-100,4,1,0,30,0,0

[HitObjects]
64,192,1447,5,0,0:0:0:0:
192,192,1447,1,0,0:0:0:0:
320,192,1447,1,0,0:0:0:0:
448,192,1447,1,0,0:0:0:0:
64,192,1630,1,0,0:0:0:0:
192,192,1630,1,0,0:0:0:0:
64,192,1813,1,0,0:0:0:0:
192,192,1813,1,0,0:0:0:0:
320,192,1813,1,0,0:0:0:0:
448,192,1813,1,0,0:0:0:0:
64,192,1997,1,0,0:0:0:0:
448,192,1997,1,0,0:0:0:0:
320,192,2180,1,0,0:0:0:0:
448,192,2180,1,0,0:0:0:0:
192,192,2180,1,0,0:0:0:0:
64,192,2180,1,0,0:0:0:0:
192,192,2363,1,0,0:0:0:0:
320,192,2363,1,0,0:0:0:0:
64,192,2547,1,0,0:0:0:0:
192,192,2547,1,0,0:0:0:0:
320,192,2547,1,0,0:0:0:0:
448,192,2547,1,0,0:0:0:0:
192,192,2730,1,0,0:0:0:0:
448,192,2730,1,0,0:0:0:0:
192,192,2913,1,0,0:0:0:0:
320,192,2913,1,0,0:0:0:0:
448,192,2913,1,0,0:0:0:0:
64,192,2913,1,0,0:0:0:0:
64,192,3097,1,0,0:0:0:0:
320,192,3097,1,0,0:0:0:0:
64,192,3280,1,0,0:0:0:0:
192,192,3280,1,0,0:0:0:0:
320,192,3280,1,0,0:0:0:0:
448,192,3280,1,0,0:0:0:0:
448,192,3463,1,0,0:0:0:0:
320,192,3463,1,0,0:0:0:0:
64,192,3647,1,0,0:0:0:0:
192,192,3647,1,0,0:0:0:0:
448,192,3647,1,0,0:0:0:0:
320,192,3647,1,0,0:0:0:0:
192,192,3831,1,0,0:0:0:0:
64,192,3831,1,0,0:0:0:0:
64,192,4013,1,0,0:0:0:0:
192,192,4013,1,0,0:0:0:0:
320,192,4013,1,0,0:0:0:0:
448,192,4013,1,0,0:0:0:0:
64,192,4197,1,0,0:0:0:0:
448,192,4197,1,0,0:0:0:0:
192,192,4381,1,0,0:0:0:0:
64,192,4381,1,0,0:0:0:0:
320,192,4381,1,0,0:0:0:0:
448,192,4381,1,0,0:0:0:0:
64,192,4563,1,0,0:0:0:0:
320,192,4563,1,0,0:0:0:0:
64,192,4747,1,0,0:0:0:0:
192,192,4747,1,0,0:0:0:0:
448,192,4747,1,0,0:0:0:0:
320,192,4747,1,0,0:0:0:0:
192,192,4931,1,0,0:0:0:0:
320,192,4931,1,0,0:0:0:0:
64,192,5113,1,0,0:0:0:0:
192,192,5113,1,0,0:0:0:0:
320,192,5113,1,0,0:0:0:0:
448,192,5113,1,0,0:0:0:0:
448,192,5297,1,0,0:0:0:0:
64,192,5297,1,0,0:0:0:0:
64,192,5481,1,0,0:0:0:0:
192,192,5481,1,0,0:0:0:0:
448,192,5481,1,0,0:0:0:0:
320,192,5481,1,0,0:0:0:0:
320,192,5665,1,0,0:0:0:0:
448,192,5665,1,0,0:0:0:0:
64,192,5847,1,0,0:0:0:0:
192,192,5847,1,0,0:0:0:0:
320,192,5847,1,0,0:0:0:0:
448,192,5847,1,0,0:0:0:0:
64,192,6031,1,0,0:0:0:0:
192,192,6031,1,0,0:0:0:0:
64,192,6215,1,0,0:0:0:0:
320,192,6215,1,0,0:0:0:0:
448,192,6215,1,0,0:0:0:0:
192,192,6215,1,0,0:0:0:0:
64,192,6397,1,0,0:0:0:0:
320,192,6397,1,0,0:0:0:0:
64,192,6581,1,0,0:0:0:0:
192,192,6581,1,0,0:0:0:0:
320,192,6581,1,0,0:0:0:0:
448,192,6581,1,0,0:0:0:0:
192,192,6765,1,0,0:0:0:0:
448,192,6765,1,0,0:0:0:0:
64,192,6947,1,0,0:0:0:0:
192,192,6947,1,0,0:0:0:0:
320,192,6947,1,0,0:0:0:0:
448,192,6947,1,0,0:0:0:0:
320,192,7131,1,0,0:0:0:0:
448,192,7131,1,0,0:0:0:0:
64,192,7315,1,0,0:0:0:0:
192,192,7315,1,0,0:0:0:0:
320,192,7315,1,0,0:0:0:0:
448,192,7315,1,0,0:0:0:0:
192,192,7498,1,0,0:0:0:0:
64,192,7498,1,0,0:0:0:0:
64,192,7681,1,0,0:0:0:0:
192,192,7681,1,0,0:0:0:0:
320,192,7681,1,0,0:0:0:0:
448,192,7681,1,0,0:0:0:0:
320,192,7865,1,0,0:0:0:0:
448,192,7865,1,0,0:0:0:0:
64,192,8048,1,0,0:0:0:0:
192,192,8048,1,0,0:0:0:0:
320,192,8048,1,0,0:0:0:0:
448,192,8048,1,0,0:0:0:0:
192,192,8231,1,0,0:0:0:0:
320,192,8231,1,0,0:0:0:0:
64,192,8415,1,0,0:0:0:0:
192,192,8415,1,0,0:0:0:0:
448,192,8415,1,0,0:0:0:0:
320,192,8415,1,0,0:0:0:0:
192,192,8598,1,0,0:0:0:0:
64,192,8598,1,0,0:0:0:0:
64,192,8781,1,0,0:0:0:0:
192,192,8781,1,0,0:0:0:0:
320,192,8781,1,0,0:0:0:0:
448,192,8781,1,0,0:0:0:0:
448,192,8965,1,0,0:0:0:0:
64,192,8965,1,0,0:0:0:0:
64,192,9148,1,0,0:0:0:0:
192,192,9148,1,0,0:0:0:0:
320,192,9148,1,0,0:0:0:0:
448,192,9148,1,0,0:0:0:0:
192,192,9332,1,0,0:0:0:0:
320,192,9332,1,0,0:0:0:0:
64,192,9515,1,0,0:0:0:0:
192,192,9515,1,0,0:0:0:0:
320,192,9515,1,0,0:0:0:0:
448,192,9515,1,0,0:0:0:0:
320,192,9698,1,0,0:0:0:0:
448,192,9698,1,0,0:0:0:0:
64,192,9882,1,0,0:0:0:0:
192,192,9882,1,0,0:0:0:0:
448,192,9882,1,0,0:0:0:0:
320,192,9882,1,0,0:0:0:0:
192,192,10065,1,0,0:0:0:0:
64,192,10065,1,0,0:0:0:0:
64,192,10248,1,0,0:0:0:0:
192,192,10248,1,0,0:0:0:0:
320,192,10248,1,0,0:0:0:0:
448,192,10248,1,0,0:0:0:0:
64,192,10432,1,0,0:0:0:0:
448,192,10432,1,0,0:0:0:0:
64,192,10615,1,0,0:0:0:0:
192,192,10615,1,0,0:0:0:0:
320,192,10615,1,0,0:0:0:0:
448,192,10615,1,0,0:0:0:0:
320,192,10798,1,0,0:0:0:0:
192,192,10798,1,0,0:0:0:0:
64,192,10982,1,0,0:0:0:0:
192,192,10982,1,0,0:0:0:0:
448,192,10982,1,0,0:0:0:0:
320,192,10982,1,0,0:0:0:0:
64,192,11166,1,0,0:0:0:0:
320,192,11166,1,0,0:0:0:0:
192,192,11348,1,0,0:0:0:0:
320,192,11348,1,0,0:0:0:0:
64,192,11348,1,0,0:0:0:0:
448,192,11348,1,0,0:0:0:0:
192,192,11532,1,0,0:0:0:0:
448,192,11532,1,0,0:0:0:0:
64,192,11716,1,0,0:0:0:0:
320,192,11716,1,0,0:0:0:0:
448,192,11716,1,0,0:0:0:0:
192,192,11716,1,0,0:0:0:0:
64,192,11898,1,0,0:0:0:0:
192,192,11898,1,0,0:0:0:0:
448,192,12082,1,0,0:0:0:0:
320,192,12082,1,0,0:0:0:0:
192,192,12082,1,0,0:0:0:0:
64,192,12082,1,0,0:0:0:0:
320,192,12266,1,0,0:0:0:0:
448,192,12266,1,0,0:0:0:0:
448,192,12448,1,0,0:0:0:0:
320,192,12448,1,0,0:0:0:0:
64,192,12448,1,0,0:0:0:0:
192,192,12448,1,0,0:0:0:0:
64,192,12632,1,0,0:0:0:0:
192,192,12678,1,0,0:0:0:0:
320,192,12725,1,0,0:0:0:0:
448,192,12770,1,0,0:0:0:0:
192,192,12816,1,0,0:0:0:0:
64,192,12816,1,0,0:0:0:0:
448,192,13000,1,0,0:0:0:0:
320,192,13045,1,0,0:0:0:0:
192,192,13091,1,0,0:0:0:0:
64,192,13091,1,0,0:0:0:0:
64,192,13182,5,0,0:0:0:0:
192,192,13182,1,0,0:0:0:0:
320,192,13182,1,0,0:0:0:0:
448,192,13275,1,0,0:0:0:0:
320,192,13275,1,0,0:0:0:0:
64,192,13366,1,0,0:0:0:0:
192,192,13366,1,0,0:0:0:0:
64,192,13457,1,0,0:0:0:0:
320,192,13457,1,0,0:0:0:0:
192,192,13550,1,0,0:0:0:0:
320,192,13550,1,0,0:0:0:0:
448,192,13550,1,0,0:0:0:0:
64,192,13641,1,0,0:0:0:0:
448,192,13641,1,0,0:0:0:0:
320,192,13732,1,0,0:0:0:0:
64,192,13732,1,0,0:0:0:0:
192,192,13825,1,0,0:0:0:0:
448,192,13825,1,0,0:0:0:0:
64,192,13916,1,0,0:0:0:0:
192,192,13916,1,0,0:0:0:0:
448,192,13916,1,0,0:0:0:0:
320,192,14007,1,0,0:0:0:0:
64,192,14007,1,0,0:0:0:0:
192,192,14100,1,0,0:0:0:0:
320,192,14100,1,0,0:0:0:0:
64,192,14191,1,0,0:0:0:0:
448,192,14191,1,0,0:0:0:0:
192,192,14282,1,0,0:0:0:0:
320,192,14282,1,0,0:0:0:0:
448,192,14282,1,0,0:0:0:0:
64,192,14375,1,0,0:0:0:0:
192,192,14375,1,0,0:0:0:0:
64,192,14466,1,0,0:0:0:0:
320,192,14466,1,0,0:0:0:0:
192,192,14558,1,0,0:0:0:0:
448,192,14558,1,0,0:0:0:0:
64,192,14650,1,0,0:0:0:0:
448,192,14650,1,0,0:0:0:0:
320,192,14650,1,0,0:0:0:0:
320,192,14741,1,0,0:0:0:0:
192,192,14741,1,0,0:0:0:0:
64,192,14833,1,0,0:0:0:0:
448,192,14833,1,0,0:0:0:0:
320,192,14925,1,0,0:0:0:0:
448,192,14925,1,0,0:0:0:0:
64,192,15016,1,0,0:0:0:0:
192,192,15016,1,0,0:0:0:0:
320,192,15016,1,0,0:0:0:0:
448,192,15108,1,0,0:0:0:0:
64,192,15108,1,0,0:0:0:0:
192,192,15200,1,0,0:0:0:0:
320,192,15200,1,0,0:0:0:0:
64,192,15291,1,0,0:0:0:0:
320,192,15291,1,0,0:0:0:0:
192,192,15383,1,0,0:0:0:0:
448,192,15383,1,0,0:0:0:0:
64,192,15383,1,0,0:0:0:0:
320,192,15475,1,0,0:0:0:0:
448,192,15475,1,0,0:0:0:0:
192,192,15566,1,0,0:0:0:0:
64,192,15566,1,0,0:0:0:0:
192,192,15658,1,0,0:0:0:0:
448,192,15658,1,0,0:0:0:0:
64,192,15750,1,0,0:0:0:0:
320,192,15750,1,0,0:0:0:0:
448,192,15750,1,0,0:0:0:0:
320,192,15841,1,0,0:0:0:0:
192,192,15841,1,0,0:0:0:0:
64,192,15933,1,0,0:0:0:0:
448,192,15933,1,0,0:0:0:0:
320,192,16025,1,0,0:0:0:0:
448,192,16025,1,0,0:0:0:0:
64,192,16116,1,0,0:0:0:0:
192,192,16116,1,0,0:0:0:0:
320,192,16116,1,0,0:0:0:0:
192,192,16208,1,0,0:0:0:0:
448,192,16208,1,0,0:0:0:0:
64,192,16300,1,0,0:0:0:0:
320,192,16300,1,0,0:0:0:0:
192,192,16392,1,0,0:0:0:0:
64,192,16392,1,0,0:0:0:0:
320,192,16483,1,0,0:0:0:0:
448,192,16483,1,0,0:0:0:0:
192,192,16483,1,0,0:0:0:0:
64,192,16575,1,0,0:0:0:0:
448,192,16575,1,0,0:0:0:0:
320,192,16667,1,0,0:0:0:0:
192,192,16667,1,0,0:0:0:0:
192,192,16758,1,0,0:0:0:0:
448,192,16758,1,0,0:0:0:0:
320,192,16850,1,0,0:0:0:0:
448,192,16850,1,0,0:0:0:0:
64,192,16850,1,0,0:0:0:0:
192,192,16942,1,0,0:0:0:0:
320,192,16942,1,0,0:0:0:0:
64,192,17033,1,0,0:0:0:0:
448,192,17033,1,0,0:0:0:0:
448,192,17125,1,0,0:0:0:0:
192,192,17125,1,0,0:0:0:0:
192,192,17217,1,0,0:0:0:0:
64,192,17217,1,0,0:0:0:0:
320,192,17217,1,0,0:0:0:0:
320,192,17308,1,0,0:0:0:0:
64,192,17308,1,0,0:0:0:0:
192,192,17400,1,0,0:0:0:0:
448,192,17400,1,0,0:0:0:0:
320,192,17492,1,0,0:0:0:0:
448,192,17492,1,0,0:0:0:0:
64,192,17583,1,0,0:0:0:0:
192,192,17583,1,0,0:0:0:0:
448,192,17583,1,0,0:0:0:0:
320,192,17675,1,0,0:0:0:0:
64,192,17675,1,0,0:0:0:0:
192,192,17767,1,0,0:0:0:0:
320,192,17767,1,0,0:0:0:0:
64,192,17858,1,0,0:0:0:0:
448,192,17858,1,0,0:0:0:0:
320,192,17950,1,0,0:0:0:0:
448,192,17950,1,0,0:0:0:0:
64,192,17950,1,0,0:0:0:0:
192,192,18042,1,0,0:0:0:0:
320,192,18042,1,0,0:0:0:0:
192,192,18133,1,0,0:0:0:0:
448,192,18133,1,0,0:0:0:0:
64,192,18226,1,0,0:0:0:0:
320,192,18226,1,0,0:0:0:0:
320,192,18317,1,0,0:0:0:0:
448,192,18317,1,0,0:0:0:0:
192,192,18317,1,0,0:0:0:0:
64,192,18408,1,0,0:0:0:0:
192,192,18408,1,0,0:0:0:0:
64,192,18501,1,0,0:0:0:0:
320,192,18501,1,0,0:0:0:0:
192,192,18592,1,0,0:0:0:0:
448,192,18592,1,0,0:0:0:0:
64,192,18683,1,0,0:0:0:0:
192,192,18683,1,0,0:0:0:0:
320,192,18683,1,0,0:0:0:0:
320,192,18776,1,0,0:0:0:0:
448,192,18776,1,0,0:0:0:0:
64,192,18867,1,0,0:0:0:0:
192,192,18867,1,0,0:0:0:0:
448,192,18867,1,0,0:0:0:0:
320,192,18958,1,0,0:0:0:0:
64,192,18958,1,0,0:0:0:0:
320,192,19051,1,0,0:0:0:0:
448,192,19051,1,0,0:0:0:0:
192,192,19051,1,0,0:0:0:0:
64,192,19142,1,0,0:0:0:0:
448,192,19142,1,0,0:0:0:0:
320,192,19233,1,0,0:0:0:0:
64,192,19233,1,0,0:0:0:0:
192,192,19326,1,0,0:0:0:0:
448,192,19326,1,0,0:0:0:0:
64,192,19417,1,0,0:0:0:0:
192,192,19417,1,0,0:0:0:0:
320,192,19417,1,0,0:0:0:0:
320,192,19508,1,0,0:0:0:0:
448,192,19508,1,0,0:0:0:0:
192,192,19601,1,0,0:0:0:0:
64,192,19601,1,0,0:0:0:0:
64,192,19692,1,0,0:0:0:0:
320,192,19692,1,0,0:0:0:0:
192,192,19783,1,0,0:0:0:0:
320,192,19783,1,0,0:0:0:0:
448,192,19783,1,0,0:0:0:0:
192,192,19876,1,0,0:0:0:0:
448,192,19876,1,0,0:0:0:0:
64,192,19967,1,0,0:0:0:0:
320,192,19967,1,0,0:0:0:0:
64,192,20058,1,0,0:0:0:0:
192,192,20058,1,0,0:0:0:0:
320,192,20151,1,0,0:0:0:0:
448,192,20151,1,0,0:0:0:0:
192,192,20151,1,0,0:0:0:0:
64,192,20242,1,0,0:0:0:0:
320,192,20242,1,0,0:0:0:0:
192,192,20335,1,0,0:0:0:0:
448,192,20335,1,0,0:0:0:0:
320,192,20426,1,0,0:0:0:0:
448,192,20426,1,0,0:0:0:0:
64,192,20517,1,0,0:0:0:0:
192,192,20517,1,0,0:0:0:0:
320,192,20517,1,0,0:0:0:0:
448,192,20610,1,0,0:0:0:0:
64,192,20610,1,0,0:0:0:0:
320,192,20701,1,0,0:0:0:0:
192,192,20701,1,0,0:0:0:0:
192,192,20792,1,0,0:0:0:0:
448,192,20792,1,0,0:0:0:0:
64,192,20885,1,0,0:0:0:0:
448,192,20885,1,0,0:0:0:0:
320,192,20885,1,0,0:0:0:0:
192,192,20976,1,0,0:0:0:0:
64,192,20976,1,0,0:0:0:0:
320,192,21067,1,0,0:0:0:0:
192,192,21067,1,0,0:0:0:0:
64,192,21160,1,0,0:0:0:0:
448,192,21160,1,0,0:0:0:0:
192,192,21251,1,0,0:0:0:0:
320,192,21251,1,0,0:0:0:0:
448,192,21251,1,0,0:0:0:0:
64,192,21342,1,0,0:0:0:0:
320,192,21342,1,0,0:0:0:0:
448,192,21435,1,0,0:0:0:0:
64,192,21435,1,0,0:0:0:0:
192,192,21526,1,0,0:0:0:0:
320,192,21526,1,0,0:0:0:0:
192,192,21617,1,0,0:0:0:0:
320,192,21617,1,0,0:0:0:0:
448,192,21617,1,0,0:0:0:0:
64,192,21710,1,0,0:0:0:0:
448,192,21710,1,0,0:0:0:0:
192,192,21801,1,0,0:0:0:0:
64,192,21801,1,0,0:0:0:0:
192,192,21892,1,0,0:0:0:0:
320,192,21892,1,0,0:0:0:0:
64,192,21985,1,0,0:0:0:0:
192,192,21985,1,0,0:0:0:0:
448,192,21985,1,0,0:0:0:0:
64,192,22076,1,0,0:0:0:0:
320,192,22076,1,0,0:0:0:0:
192,192,22168,1,0,0:0:0:0:
448,192,22168,1,0,0:0:0:0:
320,192,22260,1,0,0:0:0:0:
448,192,22260,1,0,0:0:0:0:
192,192,22351,1,0,0:0:0:0:
64,192,22351,1,0,0:0:0:0:
320,192,22351,1,0,0:0:0:0:
448,192,22443,1,0,0:0:0:0:
64,192,22443,1,0,0:0:0:0:
192,192,22535,1,0,0:0:0:0:
448,192,22535,1,0,0:0:0:0:
320,192,22626,1,0,0:0:0:0:
192,192,22626,1,0,0:0:0:0:
64,192,22718,1,0,0:0:0:0:
320,192,22718,1,0,0:0:0:0:
448,192,22718,1,0,0:0:0:0:
192,192,22810,1,0,0:0:0:0:
448,192,22810,1,0,0:0:0:0:
192,192,22901,1,0,0:0:0:0:
64,192,22901,1,0,0:0:0:0:
320,192,22993,1,0,0:0:0:0:
192,192,22993,1,0,0:0:0:0:
64,192,23085,1,0,0:0:0:0:
448,192,23085,1,0,0:0:0:0:
320,192,23085,1,0,0:0:0:0:
192,192,23176,1,0,0:0:0:0:
448,192,23176,1,0,0:0:0:0:
64,192,23268,1,0,0:0:0:0:
192,192,23268,1,0,0:0:0:0:
320,192,23360,1,0,0:0:0:0:
448,192,23360,1,0,0:0:0:0:
192,192,23451,1,0,0:0:0:0:
320,192,23451,1,0,0:0:0:0:
64,192,23451,1,0,0:0:0:0:
448,192,23543,1,0,0:0:0:0:
192,192,23543,1,0,0:0:0:0:
448,192,23635,1,0,0:0:0:0:
320,192,23635,1,0,0:0:0:0:
64,192,23635,1,0,0:0:0:0:
192,192,23726,1,0,0:0:0:0:
320,192,23726,1,0,0:0:0:0:
64,192,23818,1,0,0:0:0:0:
192,192,23818,1,0,0:0:0:0:
320,192,23818,1,0,0:0:0:0:
448,192,23910,1,0,0:0:0:0:
64,192,23910,1,0,0:0:0:0:
192,192,24002,1,0,0:0:0:0:
320,192,24002,1,0,0:0:0:0:
320,192,24093,1,0,0:0:0:0:
64,192,24093,1,0,0:0:0:0:
64,192,24185,1,0,0:0:0:0:
192,192,24185,1,0,0:0:0:0:
448,192,24185,1,0,0:0:0:0:
320,192,24277,1,0,0:0:0:0:
448,192,24277,1,0,0:0:0:0:
64,192,24368,1,0,0:0:0:0:
192,192,24415,1,0,0:0:0:0:
320,192,24460,1,0,0:0:0:0:
448,192,24506,1,0,0:0:0:0:
64,192,24552,1,0,0:0:0:0:
192,192,24597,1,0,0:0:0:0:
448,192,24643,1,0,0:0:0:0:
320,192,24690,1,0,0:0:0:0:
192,192,24735,1,0,0:0:0:0:
64,192,24781,1,0,0:0:0:0:
320,192,24827,1,0,0:0:0:0:
448,192,24827,1,0,0:0:0:0:
64,192,24918,1,0,0:0:0:0:
192,192,24918,1,0,0:0:0:0:
320,192,24918,1,0,0:0:0:0:
448,192,24918,1,0,0:0:0:0:
64,192,25010,1,0,0:0:0:0:
192,192,25010,1,0,0:0:0:0:
64,192,25102,1,0,0:0:0:0:
448,192,25102,1,0,0:0:0:0:
320,192,25193,1,0,0:0:0:0:
448,192,25193,1,0,0:0:0:0:
64,192,25285,1,0,0:0:0:0:
192,192,25285,1,0,0:0:0:0:
320,192,25285,1,0,0:0:0:0:
448,192,25285,1,0,0:0:0:0:
192,192,25377,1,0,0:0:0:0:
64,192,25377,1,0,0:0:0:0:
192,192,25468,1,0,0:0:0:0:
320,192,25468,1,0,0:0:0:0:
64,192,25560,1,0,0:0:0:0:
448,192,25560,1,0,0:0:0:0:
64,192,25652,1,0,0:0:0:0:
192,192,25652,1,0,0:0:0:0:
320,192,25652,1,0,0:0:0:0:
448,192,25652,1,0,0:0:0:0:
320,192,25743,1,0,0:0:0:0:
448,192,25743,1,0,0:0:0:0:
192,192,25836,1,0,0:0:0:0:
64,192,25836,1,0,0:0:0:0:
64,192,25927,1,0,0:0:0:0:
448,192,25927,1,0,0:0:0:0:
192,192,26018,1,0,0:0:0:0:
64,192,26018,1,0,0:0:0:0:
448,192,26018,1,0,0:0:0:0:
320,192,26018,1,0,0:0:0:0:
320,192,26111,1,0,0:0:0:0:
448,192,26111,1,0,0:0:0:0:
192,192,26202,1,0,0:0:0:0:
320,192,26202,1,0,0:0:0:0:
64,192,26293,1,0,0:0:0:0:
448,192,26293,1,0,0:0:0:0:
64,192,26386,1,0,0:0:0:0:
320,192,26386,1,0,0:0:0:0:
448,192,26386,1,0,0:0:0:0:
192,192,26386,1,0,0:0:0:0:
192,192,26477,1,0,0:0:0:0:
64,192,26477,1,0,0:0:0:0:
448,192,26568,1,0,0:0:0:0:
320,192,26568,1,0,0:0:0:0:
64,192,26661,1,0,0:0:0:0:
320,192,26661,1,0,0:0:0:0:
64,192,26752,1,0,0:0:0:0:
192,192,26752,1,0,0:0:0:0:
320,192,26752,1,0,0:0:0:0:
448,192,26752,1,0,0:0:0:0:
192,192,26843,1,0,0:0:0:0:
448,192,26843,1,0,0:0:0:0:
320,192,26936,1,0,0:0:0:0:
448,192,26936,1,0,0:0:0:0:
64,192,27027,1,0,0:0:0:0:
192,192,27027,1,0,0:0:0:0:
64,192,27118,1,0,0:0:0:0:
192,192,27118,1,0,0:0:0:0:
320,192,27118,1,0,0:0:0:0:
448,192,27118,1,0,0:0:0:0:
320,192,27211,1,0,0:0:0:0:
448,192,27211,1,0,0:0:0:0:
64,192,27302,1,0,0:0:0:0:
448,192,27302,1,0,0:0:0:0:
192,192,27393,1,0,0:0:0:0:
64,192,27393,1,0,0:0:0:0:
64,192,27486,1,0,0:0:0:0:
320,192,27486,1,0,0:0:0:0:
448,192,27486,1,0,0:0:0:0:
192,192,27486,1,0,0:0:0:0:
320,192,27577,1,0,0:0:0:0:
448,192,27577,1,0,0:0:0:0:
64,192,27670,1,0,0:0:0:0:
320,192,27670,1,0,0:0:0:0:
192,192,27761,1,0,0:0:0:0:
448,192,27761,1,0,0:0:0:0:
320,192,27852,1,0,0:0:0:0:
448,192,27852,1,0,0:0:0:0:
192,192,27852,1,0,0:0:0:0:
64,192,27852,1,0,0:0:0:0:
192,192,27945,1,0,0:0:0:0:
64,192,27945,1,0,0:0:0:0:
448,192,28036,1,0,0:0:0:0:
64,192,28036,1,0,0:0:0:0:
448,192,28127,1,0,0:0:0:0:
192,192,28127,1,0,0:0:0:0:
320,192,28220,1,0,0:0:0:0:
448,192,28220,1,0,0:0:0:0:
192,192,28220,1,0,0:0:0:0:
64,192,28220,1,0,0:0:0:0:
64,192,28311,1,0,0:0:0:0:
320,192,28311,1,0,0:0:0:0:
192,192,28402,1,0,0:0:0:0:
320,192,28402,1,0,0:0:0:0:
64,192,28495,1,0,0:0:0:0:
192,192,28495,1,0,0:0:0:0:
320,192,28586,1,0,0:0:0:0:
448,192,28586,1,0,0:0:0:0:
192,192,28586,1,0,0:0:0:0:
64,192,28586,1,0,0:0:0:0:
320,192,28677,1,0,0:0:0:0:
448,192,28677,1,0,0:0:0:0:
64,192,28770,1,0,0:0:0:0:
448,192,28770,1,0,0:0:0:0:
192,192,28861,1,0,0:0:0:0:
320,192,28861,1,0,0:0:0:0:
64,192,28952,1,0,0:0:0:0:
192,192,28952,1,0,0:0:0:0:
320,192,28952,1,0,0:0:0:0:
448,192,28952,1,0,0:0:0:0:
192,192,29045,1,0,0:0:0:0:
64,192,29045,1,0,0:0:0:0:
192,192,29136,1,0,0:0:0:0:
448,192,29136,1,0,0:0:0:0:
64,192,29227,1,0,0:0:0:0:
320,192,29227,1,0,0:0:0:0:
64,192,29320,1,0,0:0:0:0:
192,192,29320,1,0,0:0:0:0:
320,192,29320,1,0,0:0:0:0:
448,192,29320,1,0,0:0:0:0:
320,192,29411,1,0,0:0:0:0:
448,192,29411,1,0,0:0:0:0:
192,192,29503,1,0,0:0:0:0:
64,192,29503,1,0,0:0:0:0:
64,192,29595,1,0,0:0:0:0:
320,192,29595,1,0,0:0:0:0:
64,192,29686,1,0,0:0:0:0:
192,192,29686,1,0,0:0:0:0:
320,192,29686,1,0,0:0:0:0:
448,192,29686,1,0,0:0:0:0:
192,192,29778,1,0,0:0:0:0:
448,192,29778,1,0,0:0:0:0:
320,192,29870,1,0,0:0:0:0:
448,192,29870,1,0,0:0:0:0:
192,192,29961,1,0,0:0:0:0:
64,192,29961,1,0,0:0:0:0:
64,192,30053,1,0,0:0:0:0:
192,192,30053,1,0,0:0:0:0:
320,192,30053,1,0,0:0:0:0:
448,192,30053,1,0,0:0:0:0:
320,192,30145,1,0,0:0:0:0:
192,192,30145,1,0,0:0:0:0:
64,192,30236,1,0,0:0:0:0:
448,192,30236,1,0,0:0:0:0:
320,192,30328,1,0,0:0:0:0:
448,192,30328,1,0,0:0:0:0:
64,192,30420,1,0,0:0:0:0:
192,192,30420,1,0,0:0:0:0:
448,192,30420,1,0,0:0:0:0:
320,192,30420,1,0,0:0:0:0:
64,192,30511,1,0,0:0:0:0:
192,192,30511,1,0,0:0:0:0:
64,192,30603,1,0,0:0:0:0:
448,192,30603,1,0,0:0:0:0:
192,192,30695,1,0,0:0:0:0:
320,192,30695,1,0,0:0:0:0:
64,192,30786,1,0,0:0:0:0:
192,192,30786,1,0,0:0:0:0:
320,192,30786,1,0,0:0:0:0:
448,192,30786,1,0,0:0:0:0:
64,192,30970,1,0,0:0:0:0:
320,192,30970,1,0,0:0:0:0:
448,192,30970,1,0,0:0:0:0:
64,192,31153,1,0,0:0:0:0:
192,192,31153,1,0,0:0:0:0:
320,192,31153,1,0,0:0:0:0:
448,192,31153,1,0,0:0:0:0:
320,192,31337,1,0,0:0:0:0:
448,192,31337,1,0,0:0:0:0:
192,192,31337,1,0,0:0:0:0:
64,192,31520,1,0,0:0:0:0:
192,192,31520,1,0,0:0:0:0:
320,192,31520,1,0,0:0:0:0:
448,192,31520,1,0,0:0:0:0:
192,192,31703,1,0,0:0:0:0:
64,192,31703,1,0,0:0:0:0:
320,192,31703,1,0,0:0:0:0:
64,192,31887,1,0,0:0:0:0:
192,192,31887,1,0,0:0:0:0:
320,192,31887,1,0,0:0:0:0:
448,192,31887,1,0,0:0:0:0:
64,192,32070,1,0,0:0:0:0:
448,192,32070,1,0,0:0:0:0:
320,192,32070,1,0,0:0:0:0:
320,192,32253,1,0,0:0:0:0:
192,192,32253,1,0,0:0:0:0:
448,192,32253,1,0,0:0:0:0:
64,192,32253,1,0,0:0:0:0:
320,192,32437,1,0,0:0:0:0:
448,192,32437,1,0,0:0:0:0:
64,192,32437,1,0,0:0:0:0:
64,192,32620,1,0,0:0:0:0:
192,192,32620,1,0,0:0:0:0:
448,192,32620,1,0,0:0:0:0:
320,192,32620,1,0,0:0:0:0:
64,192,32803,1,0,0:0:0:0:
320,192,32803,1,0,0:0:0:0:
448,192,32803,1,0,0:0:0:0:
64,192,32987,1,0,0:0:0:0:
320,192,32987,1,0,0:0:0:0:
448,192,32987,1,0,0:0:0:0:
192,192,32987,1,0,0:0:0:0:
192,192,33171,1,0,0:0:0:0:
64,192,33171,1,0,0:0:0:0:
320,192,33171,1,0,0:0:0:0:
64,192,33353,1,0,0:0:0:0:
320,192,33353,1,0,0:0:0:0:
448,192,33353,1,0,0:0:0:0:
192,192,33353,1,0,0:0:0:0:
320,192,33537,1,0,0:0:0:0:
448,192,33537,1,0,0:0:0:0:
192,192,33537,1,0,0:0:0:0:
192,192,33721,1,0,0:0:0:0:
64,192,33721,1,0,0:0:0:0:
320,192,33812,1,0,0:0:0:0:
448,192,33812,1,0,0:0:0:0:
192,192,33903,1,0,0:0:0:0:
64,192,33903,1,0,0:0:0:0:
320,192,33996,1,0,0:0:0:0:
448,192,33996,1,0,0:0:0:0:
192,192,34087,1,0,0:0:0:0:
64,192,34087,1,0,0:0:0:0:
320,192,34178,1,0,0:0:0:0:
448,192,34178,1,0,0:0:0:0:
192,192,34271,1,0,0:0:0:0:
64,192,34271,1,0,0:0:0:0:
320,192,34362,1,0,0:0:0:0:
448,192,34362,1,0,0:0:0:0:
64,192,34453,1,0,0:0:0:0:
192,192,34453,1,0,0:0:0:0:
320,192,34546,1,0,0:0:0:0:
448,192,34546,1,0,0:0:0:0:
192,192,34637,1,0,0:0:0:0:
64,192,34637,1,0,0:0:0:0:
320,192,34728,1,0,0:0:0:0:
448,192,34728,1,0,0:0:0:0:
192,192,34821,1,0,0:0:0:0:
64,192,34821,1,0,0:0:0:0:
320,192,34912,1,0,0:0:0:0:
448,192,34912,1,0,0:0:0:0:
192,192,35005,1,0,0:0:0:0:
64,192,35005,1,0,0:0:0:0:
320,192,35096,1,0,0:0:0:0:
448,192,35096,1,0,0:0:0:0:
64,192,35187,5,0,0:0:0:0:
192,192,35233,1,0,0:0:0:0:
320,192,35280,1,0,0:0:0:0:
448,192,35325,1,0,0:0:0:0:
64,192,35371,1,0,0:0:0:0:
192,192,35417,1,0,0:0:0:0:
448,192,35462,1,0,0:0:0:0:
320,192,35508,1,0,0:0:0:0:
192,192,35555,1,0,0:0:0:0:
64,192,35600,1,0,0:0:0:0:
448,192,35646,1,0,0:0:0:0:
320,192,35692,1,0,0:0:0:0:
64,192,35737,1,0,0:0:0:0:
192,192,35783,1,0,0:0:0:0:
320,192,35830,1,0,0:0:0:0:
448,192,35875,1,0,0:0:0:0:
64,192,35921,1,0,0:0:0:0:
192,192,35967,1,0,0:0:0:0:
320,192,36012,1,0,0:0:0:0:
448,192,36058,1,0,0:0:0:0:
192,192,36196,1,0,0:0:0:0:
320,192,36242,1,0,0:0:0:0:
448,192,36287,1,0,0:0:0:0:
64,192,36333,1,0,0:0:0:0:
320,192,36471,1,0,0:0:0:0:
448,192,36517,1,0,0:0:0:0:
64,192,36562,1,0,0:0:0:0:
192,192,36608,1,0,0:0:0:0:
320,192,36655,1,0,0:0:0:0:
448,192,36655,1,0,0:0:0:0:
64,192,36838,1,0,0:0:0:0:
320,192,37021,1,0,0:0:0:0:
448,192,37021,1,0,0:0:0:0:
192,192,37021,1,0,0:0:0:0:
64,192,37021,1,0,0:0:0:0:
192,192,37205,1,0,0:0:0:0:
64,192,37388,1,0,0:0:0:0:
320,192,37388,1,0,0:0:0:0:
448,192,37571,1,0,0:0:0:0:
64,192,37755,1,0,0:0:0:0:
320,192,37755,1,0,0:0:0:0:
192,192,37755,1,0,0:0:0:0:
448,192,37755,1,0,0:0:0:0:
192,192,37938,1,0,0:0:0:0:
448,192,38121,1,0,0:0:0:0:
320,192,38121,1,0,0:0:0:0:
64,192,38305,1,0,0:0:0:0:
192,192,38488,1,0,0:0:0:0:
320,192,38488,1,0,0:0:0:0:
448,192,38488,1,0,0:0:0:0:
64,192,38488,1,0,0:0:0:0:
448,192,38671,1,0,0:0:0:0:
320,192,38855,1,0,0:0:0:0:
192,192,38855,1,0,0:0:0:0:
64,192,39038,1,0,0:0:0:0:
192,192,39222,1,0,0:0:0:0:
448,192,39222,1,0,0:0:0:0:
64,192,39222,1,0,0:0:0:0:
320,192,39222,1,0,0:0:0:0:
320,192,39405,1,0,0:0:0:0:
64,192,39588,1,0,0:0:0:0:
448,192,39588,1,0,0:0:0:0:
192,192,39772,1,0,0:0:0:0:
320,192,39955,1,0,0:0:0:0:
448,192,39955,1,0,0:0:0:0:
64,192,39955,1,0,0:0:0:0:
192,192,39955,1,0,0:0:0:0:
64,192,40138,1,0,0:0:0:0:
320,192,40322,1,0,0:0:0:0:
448,192,40505,1,0,0:0:0:0:
64,192,40688,1,0,0:0:0:0:
192,192,40688,1,0,0:0:0:0:
320,192,40688,1,0,0:0:0:0:
448,192,40688,1,0,0:0:0:0:
320,192,40872,1,0,0:0:0:0:
64,192,41056,1,0,0:0:0:0:
192,192,41238,1,0,0:0:0:0:
320,192,41422,1,0,0:0:0:0:
448,192,41422,1,0,0:0:0:0:
192,192,41422,1,0,0:0:0:0:
64,192,41422,1,0,0:0:0:0:
64,192,41606,1,0,0:0:0:0:
192,192,41788,1,0,0:0:0:0:
448,192,41972,1,0,0:0:0:0:
64,192,42156,1,0,0:0:0:0:
320,192,42156,1,0,0:0:0:0:
192,192,42156,1,0,0:0:0:0:
448,192,42156,1,0,0:0:0:0:
192,192,42338,1,0,0:0:0:0:
320,192,42522,1,0,0:0:0:0:
448,192,42522,1,0,0:0:0:0:
64,192,42706,1,0,0:0:0:0:
320,192,42890,1,0,0:0:0:0:
448,192,42890,1,0,0:0:0:0:
192,192,42890,1,0,0:0:0:0:
64,192,42890,1,0,0:0:0:0:
192,192,43072,1,0,0:0:0:0:
64,192,43256,1,0,0:0:0:0:
448,192,43256,1,0,0:0:0:0:
320,192,43440,1,0,0:0:0:0:
448,192,43622,1,0,0:0:0:0:
192,192,43622,1,0,0:0:0:0:
64,192,43622,1,0,0:0:0:0:
320,192,43622,1,0,0:0:0:0:
192,192,43806,1,0,0:0:0:0:
448,192,43806,1,0,0:0:0:0:
64,192,43990,1,0,0:0:0:0:
192,192,44172,1,0,0:0:0:0:
320,192,44172,1,0,0:0:0:0:
320,192,44356,1,0,0:0:0:0:
448,192,44356,1,0,0:0:0:0:
192,192,44356,1,0,0:0:0:0:
64,192,44356,1,0,0:0:0:0:
64,192,44540,1,0,0:0:0:0:
320,192,44540,1,0,0:0:0:0:
192,192,44723,1,0,0:0:0:0:
448,192,44723,1,0,0:0:0:0:
64,192,44906,1,0,0:0:0:0:
448,192,45090,1,0,0:0:0:0:
64,192,45090,1,0,0:0:0:0:
320,192,45090,1,0,0:0:0:0:
192,192,45090,1,0,0:0:0:0:
320,192,45273,1,0,0:0:0:0:
192,192,45456,1,0,0:0:0:0:
64,192,45456,1,0,0:0:0:0:
448,192,45640,1,0,0:0:0:0:
192,192,45823,1,0,0:0:0:0:
64,192,45823,1,0,0:0:0:0:
320,192,45823,1,0,0:0:0:0:
448,192,45823,1,0,0:0:0:0:
320,192,46006,1,0,0:0:0:0:
448,192,46190,1,0,0:0:0:0:
192,192,46190,1,0,0:0:0:0:
64,192,46373,1,0,0:0:0:0:
192,192,46557,1,0,0:0:0:0:
320,192,46557,1,0,0:0:0:0:
448,192,46557,1,0,0:0:0:0:
64,192,46557,1,0,0:0:0:0:
448,192,46740,1,0,0:0:0:0:
192,192,46740,1,0,0:0:0:0:
64,192,46923,1,0,0:0:0:0:
448,192,47107,1,0,0:0:0:0:
320,192,47107,1,0,0:0:0:0:
320,192,47290,1,0,0:0:0:0:
192,192,47290,1,0,0:0:0:0:
64,192,47290,1,0,0:0:0:0:
64,192,47473,1,0,0:0:0:0:
448,192,47473,1,0,0:0:0:0:
320,192,47657,1,0,0:0:0:0:
192,192,47657,1,0,0:0:0:0:
64,192,47840,1,0,0:0:0:0:
320,192,47840,1,0,0:0:0:0:
448,192,47840,1,0,0:0:0:0:
192,192,48023,1,0,0:0:0:0:
448,192,48023,1,0,0:0:0:0:
64,192,48207,1,0,0:0:0:0:
320,192,48207,1,0,0:0:0:0:
64,192,48391,1,0,0:0:0:0:
448,192,48391,1,0,0:0:0:0:
192,192,48391,1,0,0:0:0:0:
320,192,48482,1,0,0:0:0:0:
448,192,48482,1,0,0:0:0:0:
64,192,48573,1,0,0:0:0:0:
320,192,48573,1,0,0:0:0:0:
192,192,48666,1,0,0:0:0:0:
64,192,48666,1,0,0:0:0:0:
192,192,48757,1,0,0:0:0:0:
320,192,48757,1,0,0:0:0:0:
448,192,48757,1,0,0:0:0:0:
64,192,48848,1,0,0:0:0:0:
448,192,48848,1,0,0:0:0:0:
320,192,48941,1,0,0:0:0:0:
448,192,48941,1,0,0:0:0:0:
192,192,49032,1,0,0:0:0:0:
320,192,49032,1,0,0:0:0:0:
64,192,49123,1,0,0:0:0:0:
320,192,49123,1,0,0:0:0:0:
448,192,49123,1,0,0:0:0:0:
192,192,49216,1,0,0:0:0:0:
64,192,49216,1,0,0:0:0:0:
64,192,49307,1,0,0:0:0:0:
320,192,49307,1,0,0:0:0:0:
448,192,49398,1,0,0:0:0:0:
192,192,49398,1,0,0:0:0:0:
64,192,49491,1,0,0:0:0:0:
192,192,49491,1,0,0:0:0:0:
320,192,49491,1,0,0:0:0:0:
448,192,49582,1,0,0:0:0:0:
320,192,49582,1,0,0:0:0:0:
64,192,49673,1,0,0:0:0:0:
448,192,49673,1,0,0:0:0:0:
192,192,49766,1,0,0:0:0:0:
320,192,49766,1,0,0:0:0:0:
64,192,49857,1,0,0:0:0:0:
192,192,49857,1,0,0:0:0:0:
448,192,49857,1,0,0:0:0:0:
320,192,49950,1,0,0:0:0:0:
448,192,49950,1,0,0:0:0:0:
192,192,50041,1,0,0:0:0:0:
64,192,50041,1,0,0:0:0:0:
64,192,50132,1,0,0:0:0:0:
320,192,50132,1,0,0:0:0:0:
192,192,50225,1,0,0:0:0:0:
320,192,50225,1,0,0:0:0:0:
448,192,50225,1,0,0:0:0:0:
448,192,50316,1,0,0:0:0:0:
64,192,50316,1,0,0:0:0:0:
320,192,50407,1,0,0:0:0:0:
192,192,50407,1,0,0:0:0:0:
320,192,50500,1,0,0:0:0:0:
64,192,50500,1,0,0:0:0:0:
64,192,50591,1,0,0:0:0:0:
320,192,50591,1,0,0:0:0:0:
448,192,50591,1,0,0:0:0:0:
64,192,50682,1,0,0:0:0:0:
192,192,50682,1,0,0:0:0:0:
320,192,50775,1,0,0:0:0:0:
448,192,50775,1,0,0:0:0:0:
64,192,50866,1,0,0:0:0:0:
448,192,50866,1,0,0:0:0:0:
64,192,50957,1,0,0:0:0:0:
192,192,50957,1,0,0:0:0:0:
320,192,50957,1,0,0:0:0:0:
192,192,51050,1,0,0:0:0:0:
448,192,51050,1,0,0:0:0:0:
64,192,51141,1,0,0:0:0:0:
320,192,51141,1,0,0:0:0:0:
448,192,51232,1,0,0:0:0:0:
64,192,51232,1,0,0:0:0:0:
192,192,51325,1,0,0:0:0:0:
320,192,51325,1,0,0:0:0:0:
448,192,51325,1,0,0:0:0:0:
320,192,51416,1,0,0:0:0:0:
192,192,51416,1,0,0:0:0:0:
64,192,51507,1,0,0:0:0:0:
448,192,51507,1,0,0:0:0:0:
192,192,51600,1,0,0:0:0:0:
64,192,51600,1,0,0:0:0:0:
448,192,51691,1,0,0:0:0:0:
320,192,51691,1,0,0:0:0:0:
192,192,51691,1,0,0:0:0:0:
64,192,51783,1,0,0:0:0:0:
320,192,51783,1,0,0:0:0:0:
192,192,51875,1,0,0:0:0:0:
448,192,51875,1,0,0:0:0:0:
320,192,51966,1,0,0:0:0:0:
448,192,51966,1,0,0:0:0:0:
192,192,52058,1,0,0:0:0:0:
320,192,52058,1,0,0:0:0:0:
448,192,52058,1,0,0:0:0:0:
64,192,52150,1,0,0:0:0:0:
192,192,52150,1,0,0:0:0:0:
64,192,52241,1,0,0:0:0:0:
320,192,52241,1,0,0:0:0:0:
192,192,52333,1,0,0:0:0:0:
320,192,52333,1,0,0:0:0:0:
64,192,52425,5,0,0:0:0:0:
320,192,52425,1,0,0:0:0:0:
448,192,52425,1,0,0:0:0:0:
192,192,52516,1,0,0:0:0:0:
448,192,52516,1,0,0:0:0:0:
320,192,52608,1,0,0:0:0:0:
64,192,52608,1,0,0:0:0:0:
64,192,52700,1,0,0:0:0:0:
192,192,52700,1,0,0:0:0:0:
64,192,52791,1,0,0:0:0:0:
192,192,52791,1,0,0:0:0:0:
320,192,52791,1,0,0:0:0:0:
448,192,52883,1,0,0:0:0:0:
320,192,52883,1,0,0:0:0:0:
192,192,52975,1,0,0:0:0:0:
64,192,52975,1,0,0:0:0:0:
192,192,53066,1,0,0:0:0:0:
448,192,53066,1,0,0:0:0:0:
448,192,53158,1,0,0:0:0:0:
192,192,53158,1,0,0:0:0:0:
320,192,53158,1,0,0:0:0:0:
64,192,53250,1,0,0:0:0:0:
320,192,53250,1,0,0:0:0:0:
192,192,53341,1,0,0:0:0:0:
64,192,53341,1,0,0:0:0:0:
448,192,53433,1,0,0:0:0:0:
320,192,53433,1,0,0:0:0:0:
64,192,53525,1,0,0:0:0:0:
448,192,53525,1,0,0:0:0:0:
192,192,53525,1,0,0:0:0:0:
192,192,53617,1,0,0:0:0:0:
320,192,53617,1,0,0:0:0:0:
448,192,53708,1,0,0:0:0:0:
64,192,53708,1,0,0:0:0:0:
64,192,53800,1,0,0:0:0:0:
320,192,53800,1,0,0:0:0:0:
448,192,53892,5,0,0:0:0:0:
320,192,53892,1,0,0:0:0:0:
192,192,53892,1,0,0:0:0:0:
64,192,53983,1,0,0:0:0:0:
448,192,53983,1,0,0:0:0:0:
320,192,54075,1,0,0:0:0:0:
192,192,54075,1,0,0:0:0:0:
64,192,54075,1,0,0:0:0:0:
192,192,54167,1,0,0:0:0:0:
320,192,54167,1,0,0:0:0:0:
64,192,54258,1,0,0:0:0:0:
320,192,54258,1,0,0:0:0:0:
448,192,54258,1,0,0:0:0:0:
192,192,54350,1,0,0:0:0:0:
64,192,54350,1,0,0:0:0:0:
192,192,54442,1,0,0:0:0:0:
448,192,54442,1,0,0:0:0:0:
320,192,54533,1,0,0:0:0:0:
448,192,54533,1,0,0:0:0:0:
320,192,54625,1,0,0:0:0:0:
192,192,54625,1,0,0:0:0:0:
64,192,54625,1,0,0:0:0:0:
448,192,54717,1,0,0:0:0:0:
64,192,54717,1,0,0:0:0:0:
192,192,54808,1,0,0:0:0:0:
320,192,54808,1,0,0:0:0:0:
64,192,54900,1,0,0:0:0:0:
320,192,54900,1,0,0:0:0:0:
64,192,54992,1,0,0:0:0:0:
192,192,54992,1,0,0:0:0:0:
448,192,54992,1,0,0:0:0:0:
320,192,55083,1,0,0:0:0:0:
448,192,55083,1,0,0:0:0:0:
320,192,55175,1,0,0:0:0:0:
64,192,55175,1,0,0:0:0:0:
192,192,55267,1,0,0:0:0:0:
64,192,55267,1,0,0:0:0:0:
320,192,55358,1,0,0:0:0:0:
192,192,55358,1,0,0:0:0:0:
448,192,55358,1,0,0:0:0:0:
64,192,55451,1,0,0:0:0:0:
320,192,55451,1,0,0:0:0:0:
192,192,55542,1,0,0:0:0:0:
448,192,55542,1,0,0:0:0:0:
320,192,55633,1,0,0:0:0:0:
448,192,55633,1,0,0:0:0:0:
64,192,55726,1,0,0:0:0:0:
320,192,55726,1,0,0:0:0:0:
448,192,55726,1,0,0:0:0:0:
192,192,55817,1,0,0:0:0:0:
64,192,55817,1,0,0:0:0:0:
192,192,55908,1,0,0:0:0:0:
320,192,55908,1,0,0:0:0:0:
64,192,56001,1,0,0:0:0:0:
448,192,56001,1,0,0:0:0:0:
64,192,56092,1,0,0:0:0:0:
192,192,56092,1,0,0:0:0:0:
448,192,56092,1,0,0:0:0:0:
320,192,56183,1,0,0:0:0:0:
192,192,56183,1,0,0:0:0:0:
64,192,56276,1,0,0:0:0:0:
448,192,56276,1,0,0:0:0:0:
320,192,56367,1,0,0:0:0:0:
192,192,56367,1,0,0:0:0:0:
64,192,56458,1,0,0:0:0:0:
192,192,56458,1,0,0:0:0:0:
320,192,56458,1,0,0:0:0:0:
64,192,56551,1,0,0:0:0:0:
448,192,56551,1,0,0:0:0:0:
192,192,56642,1,0,0:0:0:0:
448,192,56642,1,0,0:0:0:0:
320,192,56733,1,0,0:0:0:0:
192,192,56733,1,0,0:0:0:0:
192,192,56826,1,0,0:0:0:0:
320,192,56826,1,0,0:0:0:0:
448,192,56826,1,0,0:0:0:0:
64,192,56917,1,0,0:0:0:0:
448,192,56917,1,0,0:0:0:0:
320,192,57008,1,0,0:0:0:0:
64,192,57008,1,0,0:0:0:0:
192,192,57101,1,0,0:0:0:0:
448,192,57101,1,0,0:0:0:0:
64,192,57192,1,0,0:0:0:0:
320,192,57192,1,0,0:0:0:0:
448,192,57192,1,0,0:0:0:0:
192,192,57283,1,0,0:0:0:0:
320,192,57283,1,0,0:0:0:0:
64,192,57376,1,0,0:0:0:0:
448,192,57376,1,0,0:0:0:0:
320,192,57467,1,0,0:0:0:0:
448,192,57467,1,0,0:0:0:0:
64,192,57560,1,0,0:0:0:0:
192,192,57560,1,0,0:0:0:0:
320,192,57560,1,0,0:0:0:0:
448,192,57651,1,0,0:0:0:0:
64,192,57651,1,0,0:0:0:0:
192,192,57742,1,0,0:0:0:0:
448,192,57742,1,0,0:0:0:0:
320,192,57835,1,0,0:0:0:0:
64,192,57835,1,0,0:0:0:0:
64,192,57926,1,0,0:0:0:0:
448,192,57926,1,0,0:0:0:0:
192,192,57926,1,0,0:0:0:0:
320,192,58017,1,0,0:0:0:0:
448,192,58017,1,0,0:0:0:0:
192,192,58110,1,0,0:0:0:0:
320,192,58110,1,0,0:0:0:0:
64,192,58201,1,0,0:0:0:0:
448,192,58201,1,0,0:0:0:0:
192,192,58292,1,0,0:0:0:0:
448,192,58292,1,0,0:0:0:0:
320,192,58292,1,0,0:0:0:0:
192,192,58385,1,0,0:0:0:0:
64,192,58385,1,0,0:0:0:0:
320,192,58476,1,0,0:0:0:0:
64,192,58476,1,0,0:0:0:0:
192,192,58567,1,0,0:0:0:0:
448,192,58567,1,0,0:0:0:0:
64,192,58660,1,0,0:0:0:0:
320,192,58660,1,0,0:0:0:0:
448,192,58660,1,0,0:0:0:0:
192,192,58751,1,0,0:0:0:0:
320,192,58751,1,0,0:0:0:0:
64,192,58842,1,0,0:0:0:0:
320,192,58842,1,0,0:0:0:0:
192,192,58935,1,0,0:0:0:0:
448,192,58935,1,0,0:0:0:0:
192,192,59026,1,0,0:0:0:0:
64,192,59026,1,0,0:0:0:0:
320,192,59026,1,0,0:0:0:0:
192,192,59117,1,0,0:0:0:0:
320,192,59117,1,0,0:0:0:0:
64,192,59210,1,0,0:0:0:0:
448,192,59210,1,0,0:0:0:0:
192,192,59301,1,0,0:0:0:0:
320,192,59301,1,0,0:0:0:0:
448,192,59393,1,0,0:0:0:0:
64,192,59393,1,0,0:0:0:0:
320,192,59393,1,0,0:0:0:0:
192,192,59485,1,0,0:0:0:0:
448,192,59485,1,0,0:0:0:0:
64,192,59576,1,0,0:0:0:0:
192,192,59576,1,0,0:0:0:0:
320,192,59668,1,0,0:0:0:0:
448,192,59668,1,0,0:0:0:0:
448,192,59760,1,0,0:0:0:0:
192,192,59760,1,0,0:0:0:0:
64,192,59760,1,0,0:0:0:0:
320,192,59851,1,0,0:0:0:0:
192,192,59851,1,0,0:0:0:0:
448,192,59943,1,0,0:0:0:0:
64,192,59943,1,0,0:0:0:0:
320,192,59943,1,0,0:0:0:0:
192,192,60035,1,0,0:0:0:0:
64,192,60035,1,0,0:0:0:0:
192,192,60126,5,0,0:0:0:0:
320,192,60126,1,0,0:0:0:0:
448,192,60126,1,0,0:0:0:0:
64,192,60218,1,0,0:0:0:0:
320,192,60218,1,0,0:0:0:0:
192,192,60310,1,0,0:0:0:0:
448,192,60310,1,0,0:0:0:0:
320,192,60401,1,0,0:0:0:0:
448,192,60401,1,0,0:0:0:0:
64,192,60493,1,0,0:0:0:0:
448,192,60493,1,0,0:0:0:0:
320,192,60493,1,0,0:0:0:0:
192,192,60585,1,0,0:0:0:0:
64,192,60585,1,0,0:0:0:0:
192,192,60676,1,0,0:0:0:0:
448,192,60676,1,0,0:0:0:0:
320,192,60768,1,0,0:0:0:0:
64,192,60768,1,0,0:0:0:0:
64,192,60860,1,0,0:0:0:0:
448,192,60860,1,0,0:0:0:0:
192,192,60860,1,0,0:0:0:0:
320,192,60951,1,0,0:0:0:0:
448,192,60951,1,0,0:0:0:0:
320,192,61043,1,0,0:0:0:0:
192,192,61043,1,0,0:0:0:0:
64,192,61135,1,0,0:0:0:0:
448,192,61135,1,0,0:0:0:0:
64,192,61227,1,0,0:0:0:0:
192,192,61227,1,0,0:0:0:0:
320,192,61227,1,0,0:0:0:0:
448,192,61318,1,0,0:0:0:0:
320,192,61318,1,0,0:0:0:0:
192,192,61410,1,0,0:0:0:0:
448,192,61410,1,0,0:0:0:0:
192,192,61502,1,0,0:0:0:0:
64,192,61502,1,0,0:0:0:0:
64,192,61593,1,0,0:0:0:0:
448,192,61593,1,0,0:0:0:0:
320,192,61593,1,0,0:0:0:0:
192,192,61685,1,0,0:0:0:0:
448,192,61685,1,0,0:0:0:0:
320,192,61777,1,0,0:0:0:0:
192,192,61777,1,0,0:0:0:0:
64,192,61868,1,0,0:0:0:0:
448,192,61868,1,0,0:0:0:0:
64,192,61960,1,0,0:0:0:0:
192,192,61960,1,0,0:0:0:0:
448,192,61960,1,0,0:0:0:0:
320,192,62052,1,0,0:0:0:0:
64,192,62052,1,0,0:0:0:0:
192,192,62143,1,0,0:0:0:0:
448,192,62143,1,0,0:0:0:0:
320,192,62235,1,0,0:0:0:0:
448,192,62235,1,0,0:0:0:0:
64,192,62327,1,0,0:0:0:0:
192,192,62327,1,0,0:0:0:0:
320,192,62327,1,0,0:0:0:0:
448,192,62418,1,0,0:0:0:0:
64,192,62418,1,0,0:0:0:0:
192,192,62510,1,0,0:0:0:0:
320,192,62510,1,0,0:0:0:0:
192,192,62602,1,0,0:0:0:0:
448,192,62602,1,0,0:0:0:0:
64,192,62693,1,0,0:0:0:0:
320,192,62693,1,0,0:0:0:0:
448,192,62693,1,0,0:0:0:0:
320,192,62785,1,0,0:0:0:0:
448,192,62785,1,0,0:0:0:0:
64,192,62877,1,0,0:0:0:0:
192,192,62877,1,0,0:0:0:0:
64,192,62968,1,0,0:0:0:0:
320,192,62968,1,0,0:0:0:0:
192,192,63061,1,0,0:0:0:0:
320,192,63061,1,0,0:0:0:0:
448,192,63061,1,0,0:0:0:0:
448,192,63152,1,0,0:0:0:0:
64,192,63152,1,0,0:0:0:0:
192,192,63243,1,0,0:0:0:0:
320,192,63243,1,0,0:0:0:0:
64,192,63336,1,0,0:0:0:0:
320,192,63336,1,0,0:0:0:0:
64,192,63427,1,0,0:0:0:0:
448,192,63427,1,0,0:0:0:0:
192,192,63427,1,0,0:0:0:0:
320,192,63518,1,0,0:0:0:0:
448,192,63518,1,0,0:0:0:0:
64,192,63611,1,0,0:0:0:0:
320,192,63611,1,0,0:0:0:0:
192,192,63702,1,0,0:0:0:0:
64,192,63702,1,0,0:0:0:0:
192,192,63793,1,0,0:0:0:0:
320,192,63793,1,0,0:0:0:0:
448,192,63793,1,0,0:0:0:0:
64,192,63886,1,0,0:0:0:0:
448,192,63886,1,0,0:0:0:0:
192,192,63977,1,0,0:0:0:0:
448,192,63977,1,0,0:0:0:0:
320,192,64068,1,0,0:0:0:0:
64,192,64068,1,0,0:0:0:0:
192,192,64161,1,0,0:0:0:0:
320,192,64161,1,0,0:0:0:0:
448,192,64161,1,0,0:0:0:0:
64,192,64252,1,0,0:0:0:0:
448,192,64252,1,0,0:0:0:0:
64,192,64343,1,0,0:0:0:0:
320,192,64343,1,0,0:0:0:0:
192,192,64436,1,0,0:0:0:0:
448,192,64436,1,0,0:0:0:0:
64,192,64527,5,0,0:0:0:0:
192,192,64527,1,0,0:0:0:0:
320,192,64527,1,0,0:0:0:0:
320,192,64618,1,0,0:0:0:0:
448,192,64618,1,0,0:0:0:0:
64,192,64711,1,0,0:0:0:0:
448,192,64711,1,0,0:0:0:0:
192,192,64802,1,0,0:0:0:0:
320,192,64802,1,0,0:0:0:0:
448,192,64895,1,0,0:0:0:0:
320,192,64895,1,0,0:0:0:0:
64,192,64895,1,0,0:0:0:0:
192,192,64986,1,0,0:0:0:0:
64,192,64986,1,0,0:0:0:0:
448,192,65077,1,0,0:0:0:0:
192,192,65077,1,0,0:0:0:0:
64,192,65170,1,0,0:0:0:0:
320,192,65170,1,0,0:0:0:0:
192,192,65261,1,0,0:0:0:0:
320,192,65261,1,0,0:0:0:0:
448,192,65261,1,0,0:0:0:0:
320,192,65352,1,0,0:0:0:0:
448,192,65352,1,0,0:0:0:0:
448,192,65445,1,0,0:0:0:0:
64,192,65445,1,0,0:0:0:0:
64,192,65536,1,0,0:0:0:0:
192,192,65536,1,0,0:0:0:0:
192,192,65627,5,0,0:0:0:0:
320,192,65627,1,0,0:0:0:0:
448,192,65627,1,0,0:0:0:0:
64,192,65720,1,0,0:0:0:0:
320,192,65720,1,0,0:0:0:0:
192,192,65811,1,0,0:0:0:0:
64,192,65811,1,0,0:0:0:0:
448,192,65811,1,0,0:0:0:0:
320,192,65902,1,0,0:0:0:0:
448,192,65902,1,0,0:0:0:0:
64,192,65995,5,0,0:0:0:0:
192,192,65995,1,0,0:0:0:0:
320,192,65995,1,0,0:0:0:0:
64,192,66086,1,0,0:0:0:0:
448,192,66086,1,0,0:0:0:0:
192,192,66177,1,0,0:0:0:0:
320,192,66177,1,0,0:0:0:0:
64,192,66270,1,0,0:0:0:0:
320,192,66270,1,0,0:0:0:0:
192,192,66361,1,0,0:0:0:0:
448,192,66361,1,0,0:0:0:0:
64,192,66361,1,0,0:0:0:0:
320,192,66452,1,0,0:0:0:0:
448,192,66452,1,0,0:0:0:0:
64,192,66545,1,0,0:0:0:0:
320,192,66545,1,0,0:0:0:0:
192,192,66636,1,0,0:0:0:0:
448,192,66636,1,0,0:0:0:0:
320,192,66728,1,0,0:0:0:0:
192,192,66728,1,0,0:0:0:0:
64,192,66728,1,0,0:0:0:0:
64,192,66820,1,0,0:0:0:0:
448,192,66820,1,0,0:0:0:0:
320,192,66911,1,0,0:0:0:0:
448,192,66911,1,0,0:0:0:0:
192,192,67003,1,0,0:0:0:0:
64,192,67003,1,0,0:0:0:0:
64,192,67095,1,0,0:0:0:0:
448,192,67095,1,0,0:0:0:0:
320,192,67095,1,0,0:0:0:0:
192,192,67186,1,0,0:0:0:0:
448,192,67186,1,0,0:0:0:0:
320,192,67278,1,0,0:0:0:0:
64,192,67278,1,0,0:0:0:0:
192,192,67370,1,0,0:0:0:0:
64,192,67370,1,0,0:0:0:0:
320,192,67461,1,0,0:0:0:0:
192,192,67461,1,0,0:0:0:0:
448,192,67461,1,0,0:0:0:0:
64,192,67553,1,0,0:0:0:0:
320,192,67553,1,0,0:0:0:0:
192,192,67645,1,0,0:0:0:0:
448,192,67645,1,0,0:0:0:0:
320,192,67736,1,0,0:0:0:0:
448,192,67736,1,0,0:0:0:0:
192,192,67828,1,0,0:0:0:0:
64,192,67828,1,0,0:0:0:0:
320,192,67828,1,0,0:0:0:0:
448,192,67920,1,0,0:0:0:0:
64,192,67920,1,0,0:0:0:0:
192,192,68011,1,0,0:0:0:0:
320,192,68011,1,0,0:0:0:0:
448,192,68103,1,0,0:0:0:0:
320,192,68103,1,0,0:0:0:0:
192,192,68195,1,0,0:0:0:0:
64,192,68195,1,0,0:0:0:0:
448,192,68195,1,0,0:0:0:0:
320,192,68286,1,0,0:0:0:0:
64,192,68286,1,0,0:0:0:0:
192,192,68378,1,0,0:0:0:0:
320,192,68378,1,0,0:0:0:0:
64,192,68470,1,0,0:0:0:0:
448,192,68470,1,0,0:0:0:0:
192,192,68562,1,0,0:0:0:0:
320,192,68562,1,0,0:0:0:0:
448,192,68562,1,0,0:0:0:0:
64,192,68653,1,0,0:0:0:0:
320,192,68653,1,0,0:0:0:0:
192,192,68745,1,0,0:0:0:0:
64,192,68745,1,0,0:0:0:0:
320,192,68837,1,0,0:0:0:0:
448,192,68837,1,0,0:0:0:0:
64,192,68928,1,0,0:0:0:0:
192,192,68928,1,0,0:0:0:0:
448,192,68928,1,0,0:0:0:0:
320,192,69020,1,0,0:0:0:0:
64,192,69020,1,0,0:0:0:0:
192,192,69112,1,0,0:0:0:0:
320,192,69112,1,0,0:0:0:0:
448,192,69203,1,0,0:0:0:0:
64,192,69203,1,0,0:0:0:0:
192,192,69295,1,0,0:0:0:0:
320,192,69295,1,0,0:0:0:0:
448,192,69295,1,0,0:0:0:0:
64,192,69387,1,0,0:0:0:0:
320,192,69387,1,0,0:0:0:0:
192,192,69478,1,0,0:0:0:0:
64,192,69478,1,0,0:0:0:0:
448,192,69570,1,0,0:0:0:0:
192,192,69570,1,0,0:0:0:0:
64,192,69662,1,0,0:0:0:0:
320,192,69662,1,0,0:0:0:0:
448,192,69662,1,0,0:0:0:0:
192,192,69753,1,0,0:0:0:0:
64,192,69753,1,0,0:0:0:0:
448,192,69845,1,0,0:0:0:0:
320,192,69845,1,0,0:0:0:0:
192,192,69937,1,0,0:0:0:0:
448,192,69937,1,0,0:0:0:0:
320,192,70028,1,0,0:0:0:0:
192,192,70028,1,0,0:0:0:0:
64,192,70028,1,0,0:0:0:0:
448,192,70120,1,0,0:0:0:0:
320,192,70120,1,0,0:0:0:0:
64,192,70212,1,0,0:0:0:0:
192,192,70212,1,0,0:0:0:0:
64,192,70303,1,0,0:0:0:0:
320,192,70303,1,0,0:0:0:0:
192,192,70396,1,0,0:0:0:0:
320,192,70396,1,0,0:0:0:0:
448,192,70396,1,0,0:0:0:0:
64,192,70487,1,0,0:0:0:0:
448,192,70487,1,0,0:0:0:0:
64,192,70578,1,0,0:0:0:0:
320,192,70578,1,0,0:0:0:0:
192,192,70671,1,0,0:0:0:0:
320,192,70671,1,0,0:0:0:0:
64,192,70762,1,0,0:0:0:0:
192,192,70762,1,0,0:0:0:0:
448,192,70762,1,0,0:0:0:0:
320,192,70853,1,0,0:0:0:0:
448,192,70853,1,0,0:0:0:0:
192,192,70946,1,0,0:0:0:0:
64,192,70946,1,0,0:0:0:0:
64,192,71037,1,0,0:0:0:0:
320,192,71037,1,0,0:0:0:0:
192,192,71128,1,0,0:0:0:0:
64,192,71128,1,0,0:0:0:0:
448,192,71128,1,0,0:0:0:0:
448,192,71312,1,0,0:0:0:0:
320,192,71358,1,0,0:0:0:0:
192,192,71403,1,0,0:0:0:0:
64,192,71450,1,0,0:0:0:0:
320,192,71496,1,0,0:0:0:0:
448,192,71496,1,0,0:0:0:0:
64,192,71678,1,0,0:0:0:0:
192,192,71725,1,0,0:0:0:0:
320,192,71771,1,0,0:0:0:0:
448,192,71816,1,0,0:0:0:0:
64,192,71862,5,0,0:0:0:0:
192,192,71862,1,0,0:0:0:0:
320,192,71953,1,0,0:0:0:0:
192,192,72046,1,0,0:0:0:0:
448,192,72137,1,0,0:0:0:0:
320,192,72230,1,0,0:0:0:0:
64,192,72230,1,0,0:0:0:0:
192,192,72321,1,0,0:0:0:0:
320,192,72412,1,0,0:0:0:0:
448,192,72412,1,0,0:0:0:0:
64,192,72505,1,0,0:0:0:0:
448,192,72596,1,0,0:0:0:0:
64,192,72687,1,0,0:0:0:0:
192,192,72780,1,0,0:0:0:0:
448,192,72780,1,0,0:0:0:0:
320,192,72871,1,0,0:0:0:0:
192,192,72962,1,0,0:0:0:0:
64,192,72962,1,0,0:0:0:0:
448,192,73055,1,0,0:0:0:0:
192,192,73146,1,0,0:0:0:0:
448,192,73237,1,0,0:0:0:0:
320,192,73330,1,0,0:0:0:0:
64,192,73330,1,0,0:0:0:0:
192,192,73421,1,0,0:0:0:0:
448,192,73512,1,0,0:0:0:0:
320,192,73605,1,0,0:0:0:0:
192,192,73696,1,0,0:0:0:0:
64,192,73696,1,0,0:0:0:0:
448,192,73787,1,0,0:0:0:0:
320,192,73880,1,0,0:0:0:0:
192,192,73971,1,0,0:0:0:0:
64,192,74063,1,0,0:0:0:0:
448,192,74063,1,0,0:0:0:0:
448,192,74155,1,0,0:0:0:0:
320,192,74246,1,0,0:0:0:0:
64,192,74246,1,0,0:0:0:0:
64,192,74338,1,0,0:0:0:0:
320,192,74430,1,0,0:0:0:0:
448,192,74430,1,0,0:0:0:0:
192,192,74430,1,0,0:0:0:0:
448,192,74521,1,0,0:0:0:0:
192,192,74613,1,0,0:0:0:0:
64,192,74613,1,0,0:0:0:0:
64,192,74705,1,0,0:0:0:0:
320,192,74705,1,0,0:0:0:0:
192,192,74796,1,0,0:0:0:0:
320,192,74796,1,0,0:0:0:0:
448,192,74796,1,0,0:0:0:0:
64,192,74888,1,0,0:0:0:0:
448,192,74888,1,0,0:0:0:0:
192,192,74980,1,0,0:0:0:0:
64,192,74980,1,0,0:0:0:0:
320,192,75071,1,0,0:0:0:0:
448,192,75071,1,0,0:0:0:0:
192,192,75163,1,0,0:0:0:0:
64,192,75163,1,0,0:0:0:0:
448,192,75163,1,0,0:0:0:0:
320,192,75255,1,0,0:0:0:0:
192,192,75255,1,0,0:0:0:0:
64,192,75346,1,0,0:0:0:0:
448,192,75346,1,0,0:0:0:0:
320,192,75438,1,0,0:0:0:0:
64,192,75438,1,0,0:0:0:0:
192,192,75530,1,0,0:0:0:0:
320,192,75530,1,0,0:0:0:0:
448,192,75530,1,0,0:0:0:0:
192,192,75621,1,0,0:0:0:0:
448,192,75621,1,0,0:0:0:0:
320,192,75713,1,0,0:0:0:0:
448,192,75713,1,0,0:0:0:0:
192,192,75805,1,0,0:0:0:0:
64,192,75805,1,0,0:0:0:0:
64,192,75896,1,0,0:0:0:0:
192,192,75896,1,0,0:0:0:0:
320,192,75896,1,0,0:0:0:0:
448,192,75988,1,0,0:0:0:0:
320,192,75988,1,0,0:0:0:0:
64,192,76080,1,0,0:0:0:0:
448,192,76080,1,0,0:0:0:0:
320,192,76172,1,0,0:0:0:0:
192,192,76172,1,0,0:0:0:0:
192,192,76263,1,0,0:0:0:0:
320,192,76263,1,0,0:0:0:0:
448,192,76263,1,0,0:0:0:0:
64,192,76355,1,0,0:0:0:0:
448,192,76355,1,0,0:0:0:0:
192,192,76447,1,0,0:0:0:0:
64,192,76447,1,0,0:0:0:0:
320,192,76538,1,0,0:0:0:0:
448,192,76538,1,0,0:0:0:0:
64,192,76630,1,0,0:0:0:0:
320,192,76630,1,0,0:0:0:0:
448,192,76630,1,0,0:0:0:0:
192,192,76722,1,0,0:0:0:0:
64,192,76722,1,0,0:0:0:0:
64,192,76813,1,0,0:0:0:0:
320,192,76813,1,0,0:0:0:0:
448,192,76905,1,0,0:0:0:0:
192,192,76905,1,0,0:0:0:0:
64,192,76997,1,0,0:0:0:0:
192,192,76997,1,0,0:0:0:0:
320,192,76997,1,0,0:0:0:0:
320,192,77088,1,0,0:0:0:0:
448,192,77088,1,0,0:0:0:0:
192,192,77180,1,0,0:0:0:0:
64,192,77180,1,0,0:0:0:0:
320,192,77272,1,0,0:0:0:0:
448,192,77272,1,0,0:0:0:0:
64,192,77363,1,0,0:0:0:0:
192,192,77363,1,0,0:0:0:0:
448,192,77363,1,0,0:0:0:0:
64,192,77455,1,0,0:0:0:0:
320,192,77455,1,0,0:0:0:0:
64,192,77547,1,0,0:0:0:0:
192,192,77547,1,0,0:0:0:0:
320,192,77547,1,0,0:0:0:0:
192,192,77638,1,0,0:0:0:0:
448,192,77638,1,0,0:0:0:0:
64,192,77730,1,0,0:0:0:0:
192,192,77730,1,0,0:0:0:0:
448,192,77730,1,0,0:0:0:0:
320,192,77822,1,0,0:0:0:0:
448,192,77822,1,0,0:0:0:0:
192,192,77913,1,0,0:0:0:0:
64,192,77913,1,0,0:0:0:0:
448,192,78006,1,0,0:0:0:0:
192,192,78006,1,0,0:0:0:0:
64,192,78097,1,0,0:0:0:0:
320,192,78097,1,0,0:0:0:0:
448,192,78097,1,0,0:0:0:0:
192,192,78188,1,0,0:0:0:0:
64,192,78188,1,0,0:0:0:0:
320,192,78281,1,0,0:0:0:0:
448,192,78281,1,0,0:0:0:0:
64,192,78372,1,0,0:0:0:0:
320,192,78372,1,0,0:0:0:0:
192,192,78463,1,0,0:0:0:0:
320,192,78463,1,0,0:0:0:0:
448,192,78463,1,0,0:0:0:0:
192,192,78556,1,0,0:0:0:0:
448,192,78556,1,0,0:0:0:0:
320,192,78647,1,0,0:0:0:0:
64,192,78647,1,0,0:0:0:0:
192,192,78738,1,0,0:0:0:0:
64,192,78738,1,0,0:0:0:0:
64,192,78831,1,0,0:0:0:0:
192,192,78831,1,0,0:0:0:0:
448,192,78831,1,0,0:0:0:0:
320,192,78922,1,0,0:0:0:0:
448,192,78922,1,0,0:0:0:0:
64,192,79013,1,0,0:0:0:0:
320,192,79013,1,0,0:0:0:0:
192,192,79106,1,0,0:0:0:0:
64,192,79106,1,0,0:0:0:0:
64,192,79197,1,0,0:0:0:0:
320,192,79197,1,0,0:0:0:0:
448,192,79197,1,0,0:0:0:0:
192,192,79288,1,0,0:0:0:0:
320,192,79288,1,0,0:0:0:0:
64,192,79381,1,0,0:0:0:0:
448,192,79381,1,0,0:0:0:0:
320,192,79472,1,0,0:0:0:0:
448,192,79472,1,0,0:0:0:0:
192,192,79563,1,0,0:0:0:0:
448,192,79563,1,0,0:0:0:0:
320,192,79563,1,0,0:0:0:0:
192,192,79656,1,0,0:0:0:0:
64,192,79656,1,0,0:0:0:0:
64,192,79747,1,0,0:0:0:0:
320,192,79747,1,0,0:0:0:0:
448,192,79840,1,0,0:0:0:0:
192,192,79840,1,0,0:0:0:0:
192,192,79931,1,0,0:0:0:0:
64,192,79931,1,0,0:0:0:0:
320,192,79931,1,0,0:0:0:0:
320,192,80022,1,0,0:0:0:0:
448,192,80022,1,0,0:0:0:0:
192,192,80115,1,0,0:0:0:0:
64,192,80115,1,0,0:0:0:0:
320,192,80206,1,0,0:0:0:0:
64,192,80206,1,0,0:0:0:0:
64,192,80297,1,0,0:0:0:0:
192,192,80297,1,0,0:0:0:0:
448,192,80297,1,0,0:0:0:0:
192,192,80390,1,0,0:0:0:0:
320,192,80390,1,0,0:0:0:0:
64,192,80481,1,0,0:0:0:0:
448,192,80481,1,0,0:0:0:0:
320,192,80572,1,0,0:0:0:0:
192,192,80572,1,0,0:0:0:0:
192,192,80665,1,0,0:0:0:0:
320,192,80665,1,0,0:0:0:0:
448,192,80665,1,0,0:0:0:0:
64,192,80756,1,0,0:0:0:0:
448,192,80756,1,0,0:0:0:0:
320,192,80847,1,0,0:0:0:0:
64,192,80847,1,0,0:0:0:0:
192,192,80940,1,0,0:0:0:0:
448,192,80940,1,0,0:0:0:0:
64,192,81031,1,0,0:0:0:0:
192,192,81031,1,0,0:0:0:0:
320,192,81031,1,0,0:0:0:0:
320,192,81122,1,0,0:0:0:0:
448,192,81122,1,0,0:0:0:0:
192,192,81215,1,0,0:0:0:0:
64,192,81215,1,0,0:0:0:0:
192,192,81306,1,0,0:0:0:0:
320,192,81306,1,0,0:0:0:0:
64,192,81397,1,0,0:0:0:0:
320,192,81397,1,0,0:0:0:0:
448,192,81397,1,0,0:0:0:0:
64,192,81490,1,0,0:0:0:0:
448,192,81490,1,0,0:0:0:0:
192,192,81581,1,0,0:0:0:0:
320,192,81581,1,0,0:0:0:0:
192,192,81673,1,0,0:0:0:0:
64,192,81673,1,0,0:0:0:0:
64,192,81765,1,0,0:0:0:0:
320,192,81765,1,0,0:0:0:0:
448,192,81765,1,0,0:0:0:0:
320,192,81856,1,0,0:0:0:0:
448,192,81856,1,0,0:0:0:0:
64,192,81948,1,0,0:0:0:0:
320,192,81948,1,0,0:0:0:0:
192,192,82040,1,0,0:0:0:0:
448,192,82040,1,0,0:0:0:0:
64,192,82131,1,0,0:0:0:0:
192,192,82131,1,0,0:0:0:0:
320,192,82131,1,0,0:0:0:0:
448,192,82223,1,0,0:0:0:0:
320,192,82223,1,0,0:0:0:0:
192,192,82315,1,0,0:0:0:0:
64,192,82315,1,0,0:0:0:0:
320,192,82406,1,0,0:0:0:0:
192,192,82406,1,0,0:0:0:0:
64,192,82498,1,0,0:0:0:0:
192,192,82498,1,0,0:0:0:0:
448,192,82498,1,0,0:0:0:0:
64,192,82590,1,0,0:0:0:0:
448,192,82590,1,0,0:0:0:0:
192,192,82681,1,0,0:0:0:0:
320,192,82681,1,0,0:0:0:0:
64,192,82773,1,0,0:0:0:0:
320,192,82773,1,0,0:0:0:0:
64,192,82865,1,0,0:0:0:0:
320,192,82865,1,0,0:0:0:0:
448,192,82865,1,0,0:0:0:0:
192,192,82956,1,0,0:0:0:0:
448,192,82956,1,0,0:0:0:0:
320,192,83048,1,0,0:0:0:0:
64,192,83048,1,0,0:0:0:0:
192,192,83140,1,0,0:0:0:0:
64,192,83140,1,0,0:0:0:0:
192,192,83231,1,0,0:0:0:0:
320,192,83231,1,0,0:0:0:0:
448,192,83231,1,0,0:0:0:0:
320,192,83323,1,0,0:0:0:0:
448,192,83323,1,0,0:0:0:0:
64,192,83415,1,0,0:0:0:0:
448,192,83415,1,0,0:0:0:0:
320,192,83507,1,0,0:0:0:0:
192,192,83507,1,0,0:0:0:0:
64,192,83598,1,0,0:0:0:0:
192,192,83598,1,0,0:0:0:0:
448,192,83598,1,0,0:0:0:0:
320,192,83690,1,0,0:0:0:0:
64,192,83690,1,0,0:0:0:0:
448,192,83782,1,0,0:0:0:0:
320,192,83782,1,0,0:0:0:0:
192,192,83873,1,0,0:0:0:0:
64,192,83873,1,0,0:0:0:0:
192,192,83965,1,0,0:0:0:0:
320,192,83965,1,0,0:0:0:0:
448,192,83965,1,0,0:0:0:0:
64,192,84057,1,0,0:0:0:0:
448,192,84057,1,0,0:0:0:0:
192,192,84148,1,0,0:0:0:0:
448,192,84148,1,0,0:0:0:0:
320,192,84240,1,0,0:0:0:0:
64,192,84240,1,0,0:0:0:0:
64,192,84332,1,0,0:0:0:0:
448,192,84332,1,0,0:0:0:0:
192,192,84332,1,0,0:0:0:0:
320,192,84423,1,0,0:0:0:0:
448,192,84423,1,0,0:0:0:0:
64,192,84515,1,0,0:0:0:0:
320,192,84515,1,0,0:0:0:0:
192,192,84607,1,0,0:0:0:0:
64,192,84607,1,0,0:0:0:0:
64,192,84698,1,0,0:0:0:0:
192,192,84698,1,0,0:0:0:0:
320,192,84698,1,0,0:0:0:0:
448,192,84790,1,0,0:0:0:0:
320,192,84790,1,0,0:0:0:0:
64,192,84882,1,0,0:0:0:0:
448,192,84882,1,0,0:0:0:0:
320,192,84973,1,0,0:0:0:0:
192,192,84973,1,0,0:0:0:0:
64,192,85065,1,0,0:0:0:0:
192,192,85065,1,0,0:0:0:0:
448,192,85065,1,0,0:0:0:0:
320,192,85157,1,0,0:0:0:0:
448,192,85157,1,0,0:0:0:0:
192,192,85248,1,0,0:0:0:0:
64,192,85248,1,0,0:0:0:0:
64,192,85341,1,0,0:0:0:0:
320,192,85341,1,0,0:0:0:0:
64,192,85432,1,0,0:0:0:0:
320,192,85432,1,0,0:0:0:0:
448,192,85432,1,0,0:0:0:0:
192,192,85523,1,0,0:0:0:0:
448,192,85523,1,0,0:0:0:0:
320,192,85616,1,0,0:0:0:0:
448,192,85616,1,0,0:0:0:0:
192,192,85707,1,0,0:0:0:0:
64,192,85707,1,0,0:0:0:0:
192,192,85798,1,0,0:0:0:0:
320,192,85798,1,0,0:0:0:0:
448,192,85798,1,0,0:0:0:0:
448,192,85891,1,0,0:0:0:0:
320,192,85891,1,0,0:0:0:0:
192,192,85982,1,0,0:0:0:0:
320,192,85982,1,0,0:0:0:0:
64,192,86073,1,0,0:0:0:0:
448,192,86073,1,0,0:0:0:0:
64,192,86166,1,0,0:0:0:0:
320,192,86166,1,0,0:0:0:0:
448,192,86166,1,0,0:0:0:0:
192,192,86257,1,0,0:0:0:0:
320,192,86257,1,0,0:0:0:0:
192,192,86348,1,0,0:0:0:0:
64,192,86348,1,0,0:0:0:0:
320,192,86441,1,0,0:0:0:0:
448,192,86441,1,0,0:0:0:0:
192,192,86532,5,0,0:0:0:0:
64,192,86532,1,0,0:0:0:0:
320,192,86532,1,0,0:0:0:0:
192,192,86623,1,0,0:0:0:0:
64,192,86623,1,0,0:0:0:0:
64,192,86716,1,0,0:0:0:0:
448,192,86716,1,0,0:0:0:0:
320,192,86807,1,0,0:0:0:0:
448,192,86807,1,0,0:0:0:0:
64,192,86898,1,0,0:0:0:0:
192,192,86898,1,0,0:0:0:0:
448,192,86898,1,0,0:0:0:0:
320,192,86991,1,0,0:0:0:0:
192,192,86991,1,0,0:0:0:0:
64,192,87082,1,0,0:0:0:0:
448,192,87082,1,0,0:0:0:0:
320,192,87175,1,0,0:0:0:0:
192,192,87175,1,0,0:0:0:0:
64,192,87266,1,0,0:0:0:0:
192,192,87266,1,0,0:0:0:0:
320,192,87266,1,0,0:0:0:0:
448,192,87357,1,0,0:0:0:0:
320,192,87357,1,0,0:0:0:0:
64,192,87450,1,0,0:0:0:0:
448,192,87450,1,0,0:0:0:0:
192,192,87541,1,0,0:0:0:0:
64,192,87541,1,0,0:0:0:0:
64,192,87632,1,0,0:0:0:0:
320,192,87632,1,0,0:0:0:0:
448,192,87632,1,0,0:0:0:0:
192,192,87725,1,0,0:0:0:0:
448,192,87725,1,0,0:0:0:0:
320,192,87816,1,0,0:0:0:0:
192,192,87816,1,0,0:0:0:0:
64,192,87907,1,0,0:0:0:0:
320,192,87907,1,0,0:0:0:0:
448,192,88000,128,0,88182:0:0:0:0:
192,192,88182,128,0,88366:0:0:0:0:
320,192,88366,128,0,88550:0:0:0:0:
64,192,88550,128,0,88916:0:0:0:0:
320,192,88916,1,0,0:0:0:0:
448,192,88916,1,0,0:0:0:0:
192,192,89100,1,0,0:0:0:0:
320,192,89100,1,0,0:0:0:0:
448,192,89100,1,0,0:0:0:0:
64,192,89283,1,0,0:0:0:0:
192,192,89283,1,0,0:0:0:0:
448,192,89283,1,0,0:0:0:0:
320,192,89283,1,0,0:0:0:0:
192,192,89466,1,0,0:0:0:0:
64,192,89466,1,0,0:0:0:0:
320,192,89466,1,0,0:0:0:0:
448,192,89466,1,0,0:0:0:0:
64,192,89558,1,0,0:0:0:0:
192,192,89558,1,0,0:0:0:0:
64,192,89650,1,0,0:0:0:0:
448,192,89650,1,0,0:0:0:0:
320,192,89741,1,0,0:0:0:0:
448,192,89741,1,0,0:0:0:0:
64,192,89833,1,0,0:0:0:0:
192,192,89833,1,0,0:0:0:0:
448,192,89833,1,0,0:0:0:0:
320,192,89833,1,0,0:0:0:0:
192,192,89925,1,0,0:0:0:0:
64,192,89925,1,0,0:0:0:0:
448,192,90016,1,0,0:0:0:0:
192,192,90016,1,0,0:0:0:0:
64,192,90108,1,0,0:0:0:0:
320,192,90108,1,0,0:0:0:0:
64,192,90200,1,0,0:0:0:0:
192,192,90200,1,0,0:0:0:0:
320,192,90200,1,0,0:0:0:0:
448,192,90200,1,0,0:0:0:0:
448,192,90291,1,0,0:0:0:0:
192,192,90291,1,0,0:0:0:0:
320,192,90383,1,0,0:0:0:0:
448,192,90383,1,0,0:0:0:0:
192,192,90475,1,0,0:0:0:0:
64,192,90475,1,0,0:0:0:0:
64,192,90566,1,0,0:0:0:0:
192,192,90566,1,0,0:0:0:0:
320,192,90566,1,0,0:0:0:0:
448,192,90566,1,0,0:0:0:0:
320,192,90658,1,0,0:0:0:0:
448,192,90658,1,0,0:0:0:0:
192,192,90750,1,0,0:0:0:0:
320,192,90750,1,0,0:0:0:0:
64,192,90842,1,0,0:0:0:0:
448,192,90842,1,0,0:0:0:0:
192,192,90933,1,0,0:0:0:0:
320,192,90933,1,0,0:0:0:0:
448,192,90933,1,0,0:0:0:0:
64,192,90933,1,0,0:0:0:0:
320,192,91025,1,0,0:0:0:0:
192,192,91025,1,0,0:0:0:0:
320,192,91117,1,0,0:0:0:0:
448,192,91117,1,0,0:0:0:0:
192,192,91208,1,0,0:0:0:0:
64,192,91208,1,0,0:0:0:0:
64,192,91300,1,0,0:0:0:0:
192,192,91300,1,0,0:0:0:0:
320,192,91300,1,0,0:0:0:0:
448,192,91300,1,0,0:0:0:0:
320,192,91392,1,0,0:0:0:0:
448,192,91392,1,0,0:0:0:0:
64,192,91483,1,0,0:0:0:0:
448,192,91483,1,0,0:0:0:0:
320,192,91575,1,0,0:0:0:0:
64,192,91575,1,0,0:0:0:0:
64,192,91667,1,0,0:0:0:0:
192,192,91667,1,0,0:0:0:0:
320,192,91667,1,0,0:0:0:0:
448,192,91667,1,0,0:0:0:0:
192,192,91758,1,0,0:0:0:0:
448,192,91758,1,0,0:0:0:0:
320,192,91850,1,0,0:0:0:0:
448,192,91850,1,0,0:0:0:0:
192,192,91942,1,0,0:0:0:0:
64,192,91942,1,0,0:0:0:0:
64,192,92033,1,0,0:0:0:0:
192,192,92033,1,0,0:0:0:0:
320,192,92033,1,0,0:0:0:0:
448,192,92033,1,0,0:0:0:0:
448,192,92125,1,0,0:0:0:0:
320,192,92125,1,0,0:0:0:0:
64,192,92217,1,0,0:0:0:0:
192,192,92217,1,0,0:0:0:0:
64,192,92308,1,0,0:0:0:0:
448,192,92308,1,0,0:0:0:0:
64,192,92400,1,0,0:0:0:0:
192,192,92400,1,0,0:0:0:0:
320,192,92400,1,0,0:0:0:0:
448,192,92400,1,0,0:0:0:0:
192,192,92492,1,0,0:0:0:0:
320,192,92492,1,0,0:0:0:0:
64,192,92583,1,0,0:0:0:0:
448,192,92583,1,0,0:0:0:0:
192,192,92676,1,0,0:0:0:0:
448,192,92676,1,0,0:0:0:0:
64,192,92767,1,0,0:0:0:0:
192,192,92767,1,0,0:0:0:0:
320,192,92767,1,0,0:0:0:0:
448,192,92767,1,0,0:0:0:0:
320,192,92858,1,0,0:0:0:0:
64,192,92858,1,0,0:0:0:0:
192,192,92951,1,0,0:0:0:0:
64,192,92951,1,0,0:0:0:0:
320,192,93042,1,0,0:0:0:0:
448,192,93042,1,0,0:0:0:0:
64,192,93133,1,0,0:0:0:0:
192,192,93133,1,0,0:0:0:0:
320,192,93133,1,0,0:0:0:0:
448,192,93133,1,0,0:0:0:0:
192,192,93226,1,0,0:0:0:0:
64,192,93226,1,0,0:0:0:0:
64,192,93317,1,0,0:0:0:0:
448,192,93317,1,0,0:0:0:0:
320,192,93408,1,0,0:0:0:0:
192,192,93408,1,0,0:0:0:0:
64,192,93501,1,0,0:0:0:0:
192,192,93501,1,0,0:0:0:0:
320,192,93501,1,0,0:0:0:0:
448,192,93501,1,0,0:0:0:0:
64,192,93592,1,0,0:0:0:0:
448,192,93592,1,0,0:0:0:0:
320,192,93683,1,0,0:0:0:0:
448,192,93683,1,0,0:0:0:0:
192,192,93776,1,0,0:0:0:0:
64,192,93776,1,0,0:0:0:0:
192,192,93867,1,0,0:0:0:0:
64,192,93867,1,0,0:0:0:0:
320,192,93867,1,0,0:0:0:0:
448,192,93867,1,0,0:0:0:0:
320,192,93958,1,0,0:0:0:0:
448,192,93958,1,0,0:0:0:0:
64,192,94051,1,0,0:0:0:0:
320,192,94051,1,0,0:0:0:0:
64,192,94142,1,0,0:0:0:0:
448,192,94142,1,0,0:0:0:0:
64,192,94233,1,0,0:0:0:0:
192,192,94233,1,0,0:0:0:0:
320,192,94233,1,0,0:0:0:0:
448,192,94233,1,0,0:0:0:0:
192,192,94326,1,0,0:0:0:0:
320,192,94326,1,0,0:0:0:0:
448,192,94417,1,0,0:0:0:0:
64,192,94417,1,0,0:0:0:0:
192,192,94508,1,0,0:0:0:0:
448,192,94508,1,0,0:0:0:0:
64,192,94601,1,0,0:0:0:0:
192,192,94601,1,0,0:0:0:0:
320,192,94601,1,0,0:0:0:0:
448,192,94601,1,0,0:0:0:0:
320,192,94692,1,0,0:0:0:0:
64,192,94692,1,0,0:0:0:0:
192,192,94785,1,0,0:0:0:0:
64,192,94785,1,0,0:0:0:0:
320,192,94876,1,0,0:0:0:0:
448,192,94876,1,0,0:0:0:0:
64,192,94967,1,0,0:0:0:0:
192,192,94967,1,0,0:0:0:0:
320,192,94967,1,0,0:0:0:0:
448,192,94967,1,0,0:0:0:0:
192,192,95060,1,0,0:0:0:0:
64,192,95060,1,0,0:0:0:0:
448,192,95151,1,0,0:0:0:0:
320,192,95151,1,0,0:0:0:0:
64,192,95151,1,0,0:0:0:0:
192,192,95151,1,0,0:0:0:0:
320,192,95242,1,0,0:0:0:0:
448,192,95242,1,0,0:0:0:0:
64,192,95335,1,0,0:0:0:0:
192,192,95335,1,0,0:0:0:0:
320,192,95335,1,0,0:0:0:0:
448,192,95335,1,0,0:0:0:0:
192,192,95426,1,0,0:0:0:0:
64,192,95426,1,0,0:0:0:0:
448,192,95517,1,0,0:0:0:0:
64,192,95517,1,0,0:0:0:0:
192,192,95610,1,0,0:0:0:0:
320,192,95610,1,0,0:0:0:0:
64,192,95701,1,0,0:0:0:0:
192,192,95701,1,0,0:0:0:0:
320,192,95701,1,0,0:0:0:0:
448,192,95701,1,0,0:0:0:0:
64,192,95792,1,0,0:0:0:0:
448,192,95792,1,0,0:0:0:0:
320,192,95885,1,0,0:0:0:0:
448,192,95885,1,0,0:0:0:0:
192,192,95976,1,0,0:0:0:0:
64,192,95976,1,0,0:0:0:0:
64,192,96067,1,0,0:0:0:0:
192,192,96067,1,0,0:0:0:0:
320,192,96067,1,0,0:0:0:0:
448,192,96067,1,0,0:0:0:0:
320,192,96160,1,0,0:0:0:0:
448,192,96160,1,0,0:0:0:0:
64,192,96251,1,0,0:0:0:0:
320,192,96251,1,0,0:0:0:0:
64,192,96342,1,0,0:0:0:0:
192,192,96342,1,0,0:0:0:0:
64,192,96435,1,0,0:0:0:0:
192,192,96435,1,0,0:0:0:0:
320,192,96435,1,0,0:0:0:0:
448,192,96435,1,0,0:0:0:0:
320,192,96526,1,0,0:0:0:0:
448,192,96526,1,0,0:0:0:0:
64,192,96618,1,0,0:0:0:0:
320,192,96618,1,0,0:0:0:0:
192,192,96710,1,0,0:0:0:0:
448,192,96710,1,0,0:0:0:0:
64,192,96801,1,0,0:0:0:0:
192,192,96801,1,0,0:0:0:0:
320,192,96801,1,0,0:0:0:0:
448,192,96801,1,0,0:0:0:0:
320,192,96893,1,0,0:0:0:0:
64,192,96893,1,0,0:0:0:0:
192,192,96985,1,0,0:0:0:0:
64,192,96985,1,0,0:0:0:0:
320,192,97076,1,0,0:0:0:0:
448,192,97076,1,0,0:0:0:0:
192,192,97168,1,0,0:0:0:0:
320,192,97168,1,0,0:0:0:0:
448,192,97168,1,0,0:0:0:0:
64,192,97168,1,0,0:0:0:0:
192,192,97260,1,0,0:0:0:0:
64,192,97260,1,0,0:0:0:0:
448,192,97351,1,0,0:0:0:0:
64,192,97351,1,0,0:0:0:0:
320,192,97443,1,0,0:0:0:0:
448,192,97443,1,0,0:0:0:0:
448,192,97535,1,0,0:0:0:0:
320,192,97535,1,0,0:0:0:0:
192,192,97535,1,0,0:0:0:0:
64,192,97535,1,0,0:0:0:0:
64,192,97626,1,0,0:0:0:0:
192,192,97626,1,0,0:0:0:0:
320,192,97718,1,0,0:0:0:0:
64,192,97718,1,0,0:0:0:0:
320,192,97810,1,0,0:0:0:0:
448,192,97810,1,0,0:0:0:0:
64,192,97901,1,0,0:0:0:0:
320,192,97901,1,0,0:0:0:0:
448,192,97901,1,0,0:0:0:0:
192,192,97901,1,0,0:0:0:0:
64,192,97993,1,0,0:0:0:0:
192,192,97993,1,0,0:0:0:0:
64,192,98085,1,0,0:0:0:0:
448,192,98085,1,0,0:0:0:0:
320,192,98176,1,0,0:0:0:0:
448,192,98176,1,0,0:0:0:0:
192,192,98268,1,0,0:0:0:0:
320,192,98268,1,0,0:0:0:0:
64,192,98268,1,0,0:0:0:0:
448,192,98268,1,0,0:0:0:0:
192,192,98360,1,0,0:0:0:0:
64,192,98360,1,0,0:0:0:0:
448,192,98452,1,0,0:0:0:0:
64,192,98452,1,0,0:0:0:0:
192,192,98543,1,0,0:0:0:0:
320,192,98543,1,0,0:0:0:0:
192,192,98635,1,0,0:0:0:0:
320,192,98635,1,0,0:0:0:0:
448,192,98635,1,0,0:0:0:0:
64,192,98635,1,0,0:0:0:0:
64,192,98727,1,0,0:0:0:0:
448,192,98727,1,0,0:0:0:0:
320,192,98818,1,0,0:0:0:0:
448,192,98818,1,0,0:0:0:0:
192,192,98910,1,0,0:0:0:0:
64,192,98910,1,0,0:0:0:0:
192,192,99002,1,0,0:0:0:0:
320,192,99002,1,0,0:0:0:0:
448,192,99002,1,0,0:0:0:0:
64,192,99002,1,0,0:0:0:0:
320,192,99093,1,0,0:0:0:0:
448,192,99093,1,0,0:0:0:0:
64,192,99185,1,0,0:0:0:0:
320,192,99185,1,0,0:0:0:0:
192,192,99277,1,0,0:0:0:0:
64,192,99277,1,0,0:0:0:0:
64,192,99368,1,0,0:0:0:0:
192,192,99368,1,0,0:0:0:0:
320,192,99368,1,0,0:0:0:0:
448,192,99368,1,0,0:0:0:0:
320,192,99460,1,0,0:0:0:0:
448,192,99460,1,0,0:0:0:0:
64,192,99552,1,0,0:0:0:0:
448,192,99552,1,0,0:0:0:0:
320,192,99643,1,0,0:0:0:0:
192,192,99643,1,0,0:0:0:0:
64,192,99735,1,0,0:0:0:0:
192,192,99735,1,0,0:0:0:0:
320,192,99735,1,0,0:0:0:0:
448,192,99735,1,0,0:0:0:0:
64,192,99827,1,0,0:0:0:0:
448,192,99827,1,0,0:0:0:0:
320,192,99918,1,0,0:0:0:0:
192,192,99918,1,0,0:0:0:0:
192,192,100010,1,0,0:0:0:0:
448,192,100010,1,0,0:0:0:0:
64,192,100102,1,0,0:0:0:0:
192,192,100102,1,0,0:0:0:0:
320,192,100102,1,0,0:0:0:0:
448,192,100102,1,0,0:0:0:0:
320,192,100193,1,0,0:0:0:0:
64,192,100193,1,0,0:0:0:0:
320,192,100286,1,0,0:0:0:0:
448,192,100286,1,0,0:0:0:0:
192,192,100377,1,0,0:0:0:0:
64,192,100377,1,0,0:0:0:0:
64,192,100468,1,0,0:0:0:0:
192,192,100468,1,0,0:0:0:0:
448,192,100468,1,0,0:0:0:0:
320,192,100468,1,0,0:0:0:0:
448,192,100652,1,0,0:0:0:0:
320,192,100698,1,0,0:0:0:0:
192,192,100743,1,0,0:0:0:0:
64,192,100790,1,0,0:0:0:0:
320,192,100836,1,0,0:0:0:0:
448,192,100836,1,0,0:0:0:0:
64,192,101018,1,0,0:0:0:0:
192,192,101065,1,0,0:0:0:0:
320,192,101111,1,0,0:0:0:0:
448,192,101111,1,0,0:0:0:0:
192,192,101202,1,0,0:0:0:0:
64,192,101202,1,0,0:0:0:0:
448,192,101202,1,0,0:0:0:0:
320,192,101202,1,0,0:0:0:0:
320,192,101293,1,0,0:0:0:0:
64,192,101293,1,0,0:0:0:0:
192,192,101386,1,0,0:0:0:0:
448,192,101386,1,0,0:0:0:0:
320,192,101477,1,0,0:0:0:0:
448,192,101477,1,0,0:0:0:0:
448,192,101568,1,0,0:0:0:0:
320,192,101568,1,0,0:0:0:0:
192,192,101568,1,0,0:0:0:0:
64,192,101568,1,0,0:0:0:0:
192,192,101661,1,0,0:0:0:0:
64,192,101661,1,0,0:0:0:0:
64,192,101752,1,0,0:0:0:0:
448,192,101752,1,0,0:0:0:0:
448,192,101843,1,0,0:0:0:0:
320,192,101843,1,0,0:0:0:0:
192,192,101936,1,0,0:0:0:0:
64,192,101936,1,0,0:0:0:0:
320,192,101936,1,0,0:0:0:0:
448,192,101936,1,0,0:0:0:0:
192,192,102027,1,0,0:0:0:0:
64,192,102027,1,0,0:0:0:0:
64,192,102120,1,0,0:0:0:0:
320,192,102120,1,0,0:0:0:0:
192,192,102211,1,0,0:0:0:0:
448,192,102211,1,0,0:0:0:0:
320,192,102302,1,0,0:0:0:0:
192,192,102302,1,0,0:0:0:0:
64,192,102302,1,0,0:0:0:0:
448,192,102302,1,0,0:0:0:0:
320,192,102395,1,0,0:0:0:0:
64,192,102395,1,0,0:0:0:0:
320,192,102486,1,0,0:0:0:0:
448,192,102486,1,0,0:0:0:0:
64,192,102577,1,0,0:0:0:0:
448,192,102577,1,0,0:0:0:0:
448,192,102670,1,0,0:0:0:0:
320,192,102670,1,0,0:0:0:0:
192,192,102670,1,0,0:0:0:0:
64,192,102670,1,0,0:0:0:0:
192,192,102761,1,0,0:0:0:0:
320,192,102761,1,0,0:0:0:0:
64,192,102852,1,0,0:0:0:0:
448,192,102852,1,0,0:0:0:0:
192,192,102945,1,0,0:0:0:0:
64,192,102945,1,0,0:0:0:0:
320,192,103036,1,0,0:0:0:0:
448,192,103036,1,0,0:0:0:0:
192,192,103036,1,0,0:0:0:0:
64,192,103036,1,0,0:0:0:0:
320,192,103127,1,0,0:0:0:0:
448,192,103127,1,0,0:0:0:0:
64,192,103220,1,0,0:0:0:0:
448,192,103220,1,0,0:0:0:0:
320,192,103311,1,0,0:0:0:0:
64,192,103311,1,0,0:0:0:0:
192,192,103402,1,0,0:0:0:0:
320,192,103402,1,0,0:0:0:0:
448,192,103402,1,0,0:0:0:0:
64,192,103402,1,0,0:0:0:0:
192,192,103495,1,0,0:0:0:0:
448,192,103495,1,0,0:0:0:0:
320,192,103586,1,0,0:0:0:0:
448,192,103586,1,0,0:0:0:0:
64,192,103677,1,0,0:0:0:0:
192,192,103677,1,0,0:0:0:0:
192,192,103770,1,0,0:0:0:0:
64,192,103770,1,0,0:0:0:0:
320,192,103770,1,0,0:0:0:0:
448,192,103770,1,0,0:0:0:0:
448,192,103861,1,0,0:0:0:0:
320,192,103861,1,0,0:0:0:0:
192,192,103953,1,0,0:0:0:0:
64,192,103953,1,0,0:0:0:0:
64,192,104045,1,0,0:0:0:0:
320,192,104045,1,0,0:0:0:0:
64,192,104136,1,0,0:0:0:0:
192,192,104136,1,0,0:0:0:0:
320,192,104136,1,0,0:0:0:0:
448,192,104136,1,0,0:0:0:0:
192,192,104228,1,0,0:0:0:0:
448,192,104228,1,0,0:0:0:0:
320,192,104320,1,0,0:0:0:0:
448,192,104320,1,0,0:0:0:0:
192,192,104411,1,0,0:0:0:0:
64,192,104411,1,0,0:0:0:0:
320,192,104503,1,0,0:0:0:0:
448,192,104503,1,0,0:0:0:0:
192,192,104503,1,0,0:0:0:0:
64,192,104503,1,0,0:0:0:0:
320,192,104595,1,0,0:0:0:0:
448,192,104595,1,0,0:0:0:0:
64,192,104686,1,0,0:0:0:0:
448,192,104686,1,0,0:0:0:0:
320,192,104778,1,0,0:0:0:0:
192,192,104778,1,0,0:0:0:0:
64,192,104870,1,0,0:0:0:0:
192,192,104870,1,0,0:0:0:0:
320,192,104870,1,0,0:0:0:0:
448,192,104870,1,0,0:0:0:0:
64,192,104961,1,0,0:0:0:0:
448,192,104961,1,0,0:0:0:0:
192,192,105053,1,0,0:0:0:0:
64,192,105053,1,0,0:0:0:0:
320,192,105145,1,0,0:0:0:0:
448,192,105145,1,0,0:0:0:0:
448,192,105236,1,0,0:0:0:0:
320,192,105236,1,0,0:0:0:0:
192,192,105236,1,0,0:0:0:0:
64,192,105236,1,0,0:0:0:0:
64,192,105328,1,0,0:0:0:0:
192,192,105328,1,0,0:0:0:0:
320,192,105420,1,0,0:0:0:0:
64,192,105420,1,0,0:0:0:0:
192,192,105511,1,0,0:0:0:0:
448,192,105511,1,0,0:0:0:0:
64,192,105603,1,0,0:0:0:0:
192,192,105603,1,0,0:0:0:0:
448,192,105603,1,0,0:0:0:0:
320,192,105603,1,0,0:0:0:0:
320,192,105695,1,0,0:0:0:0:
64,192,105695,1,0,0:0:0:0:
192,192,105787,1,0,0:0:0:0:
64,192,105787,1,0,0:0:0:0:
320,192,105878,1,0,0:0:0:0:
448,192,105878,1,0,0:0:0:0:
64,192,105970,1,0,0:0:0:0:
192,192,105970,1,0,0:0:0:0:
448,192,105970,1,0,0:0:0:0:
320,192,105970,1,0,0:0:0:0:
192,192,106062,1,0,0:0:0:0:
64,192,106062,1,0,0:0:0:0:
448,192,106153,1,0,0:0:0:0:
192,192,106153,1,0,0:0:0:0:
64,192,106245,1,0,0:0:0:0:
320,192,106245,1,0,0:0:0:0:
64,192,106337,1,0,0:0:0:0:
320,192,106337,1,0,0:0:0:0:
448,192,106337,1,0,0:0:0:0:
192,192,106337,1,0,0:0:0:0:
192,192,106428,1,0,0:0:0:0:
448,192,106428,1,0,0:0:0:0:
64,192,106520,1,0,0:0:0:0:
448,192,106520,1,0,0:0:0:0:
320,192,106612,1,0,0:0:0:0:
64,192,106612,1,0,0:0:0:0:
64,192,106703,1,0,0:0:0:0:
320,192,106703,1,0,0:0:0:0:
448,192,106703,1,0,0:0:0:0:
192,192,106703,1,0,0:0:0:0:
192,192,106795,1,0,0:0:0:0:
448,192,106795,1,0,0:0:0:0:
320,192,106887,1,0,0:0:0:0:
448,192,106887,1,0,0:0:0:0:
192,192,106978,1,0,0:0:0:0:
64,192,106978,1,0,0:0:0:0:
64,192,107070,1,0,0:0:0:0:
192,192,107070,1,0,0:0:0:0:
320,192,107070,1,0,0:0:0:0:
448,192,107070,1,0,0:0:0:0:
320,192,107162,1,0,0:0:0:0:
448,192,107162,1,0,0:0:0:0:
64,192,107253,1,0,0:0:0:0:
448,192,107253,1,0,0:0:0:0:
192,192,107345,1,0,0:0:0:0:
64,192,107345,1,0,0:0:0:0:
64,192,107437,1,0,0:0:0:0:
192,192,107437,1,0,0:0:0:0:
320,192,107437,1,0,0:0:0:0:
448,192,107437,1,0,0:0:0:0:
320,192,107528,1,0,0:0:0:0:
448,192,107528,1,0,0:0:0:0:
192,192,107621,1,0,0:0:0:0:
64,192,107621,1,0,0:0:0:0:
64,192,107712,1,0,0:0:0:0:
320,192,107712,1,0,0:0:0:0:
320,192,107803,1,0,0:0:0:0:
448,192,107803,1,0,0:0:0:0:
64,192,107803,1,0,0:0:0:0:
192,192,107803,1,0,0:0:0:0:
192,192,107896,1,0,0:0:0:0:
448,192,107896,1,0,0:0:0:0:
320,192,107987,1,0,0:0:0:0:
448,192,107987,1,0,0:0:0:0:
192,192,108078,1,0,0:0:0:0:
64,192,108078,1,0,0:0:0:0:
64,192,108171,1,0,0:0:0:0:
192,192,108171,1,0,0:0:0:0:
320,192,108171,1,0,0:0:0:0:
448,192,108171,1,0,0:0:0:0:
320,192,108262,1,0,0:0:0:0:
448,192,108262,1,0,0:0:0:0:
64,192,108353,1,0,0:0:0:0:
448,192,108353,1,0,0:0:0:0:
320,192,108446,1,0,0:0:0:0:
192,192,108446,1,0,0:0:0:0:
64,192,108537,1,0,0:0:0:0:
192,192,108537,1,0,0:0:0:0:
320,192,108537,1,0,0:0:0:0:
448,192,108537,1,0,0:0:0:0:
448,192,108628,1,0,0:0:0:0:
64,192,108628,1,0,0:0:0:0:
192,192,108721,1,0,0:0:0:0:
64,192,108721,1,0,0:0:0:0:
320,192,108812,1,0,0:0:0:0:
448,192,108812,1,0,0:0:0:0:
64,192,108903,1,0,0:0:0:0:
192,192,108903,1,0,0:0:0:0:
320,192,108903,1,0,0:0:0:0:
448,192,108903,1,0,0:0:0:0:
192,192,108996,1,0,0:0:0:0:
64,192,108996,1,0,0:0:0:0:
64,192,109087,1,0,0:0:0:0:
320,192,109087,1,0,0:0:0:0:
192,192,109178,1,0,0:0:0:0:
448,192,109178,1,0,0:0:0:0:
64,192,109271,1,0,0:0:0:0:
320,192,109271,1,0,0:0:0:0:
448,192,109271,1,0,0:0:0:0:
192,192,109271,1,0,0:0:0:0:
320,192,109362,1,0,0:0:0:0:
64,192,109362,1,0,0:0:0:0:
192,192,109455,1,0,0:0:0:0:
64,192,109455,1,0,0:0:0:0:
320,192,109546,1,0,0:0:0:0:
448,192,109546,1,0,0:0:0:0:
64,192,109637,1,0,0:0:0:0:
192,192,109637,1,0,0:0:0:0:
320,192,109637,1,0,0:0:0:0:
448,192,109637,1,0,0:0:0:0:
64,192,109730,1,0,0:0:0:0:
192,192,109730,1,0,0:0:0:0:
448,192,109821,1,0,0:0:0:0:
64,192,109821,1,0,0:0:0:0:
192,192,109912,1,0,0:0:0:0:
448,192,109912,1,0,0:0:0:0:
64,192,110005,1,0,0:0:0:0:
192,192,110005,1,0,0:0:0:0:
320,192,110005,1,0,0:0:0:0:
448,192,110005,1,0,0:0:0:0:
320,192,110096,1,0,0:0:0:0:
64,192,110096,1,0,0:0:0:0:
192,192,110187,1,0,0:0:0:0:
64,192,110187,1,0,0:0:0:0:
192,192,110280,1,0,0:0:0:0:
320,192,110280,1,0,0:0:0:0:
64,192,110371,1,0,0:0:0:0:
192,192,110371,1,0,0:0:0:0:
320,192,110371,1,0,0:0:0:0:
448,192,110371,1,0,0:0:0:0:
64,192,110462,1,0,0:0:0:0:
448,192,110462,1,0,0:0:0:0:
192,192,110555,1,0,0:0:0:0:
64,192,110555,1,0,0:0:0:0:
320,192,110646,1,0,0:0:0:0:
448,192,110646,1,0,0:0:0:0:
64,192,110737,1,0,0:0:0:0:
448,192,110737,1,0,0:0:0:0:
320,192,110737,1,0,0:0:0:0:
192,192,110737,1,0,0:0:0:0:
192,192,110830,1,0,0:0:0:0:
64,192,110830,1,0,0:0:0:0:
320,192,110921,1,0,0:0:0:0:
192,192,110921,1,0,0:0:0:0:
448,192,111012,1,0,0:0:0:0:
64,192,111012,1,0,0:0:0:0:
448,192,111105,1,0,0:0:0:0:
320,192,111105,1,0,0:0:0:0:
64,192,111105,1,0,0:0:0:0:
192,192,111105,1,0,0:0:0:0:
192,192,111196,1,0,0:0:0:0:
320,192,111196,1,0,0:0:0:0:
64,192,111288,1,0,0:0:0:0:
192,192,111288,1,0,0:0:0:0:
320,192,111288,1,0,0:0:0:0:
448,192,111288,1,0,0:0:0:0:
64,192,111380,1,0,0:0:0:0:
448,192,111380,1,0,0:0:0:0:
64,192,111471,1,0,0:0:0:0:
192,192,111471,1,0,0:0:0:0:
448,192,111471,1,0,0:0:0:0:
320,192,111471,1,0,0:0:0:0:
192,192,111563,1,0,0:0:0:0:
320,192,111655,1,0,0:0:0:0:
448,192,111655,1,0,0:0:0:0:
192,192,111746,1,0,0:0:0:0:
64,192,111746,1,0,0:0:0:0:
320,192,111838,1,0,0:0:0:0:
448,192,111838,1,0,0:0:0:0:
64,192,111930,1,0,0:0:0:0:
192,192,111930,1,0,0:0:0:0:
64,192,112021,1,0,0:0:0:0:
192,192,112021,1,0,0:0:0:0:
320,192,112021,1,0,0:0:0:0:
448,192,112021,1,0,0:0:0:0:
320,192,112113,1,0,0:0:0:0:
448,192,112113,1,0,0:0:0:0:
64,192,112205,1,0,0:0:0:0:
192,192,112205,1,0,0:0:0:0:
448,192,112205,1,0,0:0:0:0:
320,192,112205,1,0,0:0:0:0:
192,192,112296,1,0,0:0:0:0:
64,192,112296,1,0,0:0:0:0:
64,192,112388,1,0,0:0:0:0:
448,192,112388,1,0,0:0:0:0:
320,192,112480,1,0,0:0:0:0:
192,192,112480,1,0,0:0:0:0:
64,192,112571,1,0,0:0:0:0:
192,192,112571,1,0,0:0:0:0:
320,192,112571,1,0,0:0:0:0:
448,192,112571,1,0,0:0:0:0:
64,192,112663,1,0,0:0:0:0:
448,192,112663,1,0,0:0:0:0:
320,192,112755,1,0,0:0:0:0:
448,192,112755,1,0,0:0:0:0:
192,192,112846,1,0,0:0:0:0:
64,192,112846,1,0,0:0:0:0:
64,192,112938,1,0,0:0:0:0:
192,192,112938,1,0,0:0:0:0:
320,192,112938,1,0,0:0:0:0:
448,192,112938,1,0,0:0:0:0:
448,192,113030,1,0,0:0:0:0:
320,192,113030,1,0,0:0:0:0:
192,192,113121,1,0,0:0:0:0:
320,192,113121,1,0,0:0:0:0:
64,192,113213,1,0,0:0:0:0:
448,192,113213,1,0,0:0:0:0:
320,192,113305,1,0,0:0:0:0:
64,192,113305,1,0,0:0:0:0:
192,192,113305,1,0,0:0:0:0:
448,192,113305,1,0,0:0:0:0:
320,192,113397,1,0,0:0:0:0:
192,192,113397,1,0,0:0:0:0:
64,192,113488,1,0,0:0:0:0:
448,192,113488,1,0,0:0:0:0:
192,192,113580,1,0,0:0:0:0:
64,192,113580,1,0,0:0:0:0:
448,192,113672,1,0,0:0:0:0:
192,192,113672,1,0,0:0:0:0:
64,192,113672,1,0,0:0:0:0:
320,192,113672,1,0,0:0:0:0:
320,192,113763,1,0,0:0:0:0:
448,192,113763,1,0,0:0:0:0:
64,192,113855,1,0,0:0:0:0:
192,192,113855,1,0,0:0:0:0:
448,192,113947,1,0,0:0:0:0:
320,192,113947,1,0,0:0:0:0:
64,192,114038,1,0,0:0:0:0:
192,192,114038,1,0,0:0:0:0:
448,192,114038,1,0,0:0:0:0:
320,192,114038,1,0,0:0:0:0:
192,192,114130,1,0,0:0:0:0:
64,192,114130,1,0,0:0:0:0:
64,192,114222,1,0,0:0:0:0:
448,192,114222,1,0,0:0:0:0:
320,192,114313,1,0,0:0:0:0:
192,192,114313,1,0,0:0:0:0:
64,192,114405,1,0,0:0:0:0:
192,192,114405,1,0,0:0:0:0:
448,192,114405,1,0,0:0:0:0:
320,192,114405,1,0,0:0:0:0:
64,192,114497,1,0,0:0:0:0:
448,192,114497,1,0,0:0:0:0:
320,192,114588,1,0,0:0:0:0:
64,192,114588,1,0,0:0:0:0:
320,192,114680,1,0,0:0:0:0:
448,192,114680,1,0,0:0:0:0:
64,192,114772,1,0,0:0:0:0:
192,192,114772,1,0,0:0:0:0:
320,192,114772,1,0,0:0:0:0:
448,192,114772,1,0,0:0:0:0:
192,192,114863,1,0,0:0:0:0:
64,192,114863,1,0,0:0:0:0:
64,192,114955,1,0,0:0:0:0:
448,192,114955,1,0,0:0:0:0:
320,192,115047,1,0,0:0:0:0:
448,192,115047,1,0,0:0:0:0:
320,192,115138,1,0,0:0:0:0:
64,192,115138,1,0,0:0:0:0:
192,192,115138,1,0,0:0:0:0:
448,192,115138,1,0,0:0:0:0:
192,192,115231,1,0,0:0:0:0:
64,192,115231,1,0,0:0:0:0:
64,192,115322,1,0,0:0:0:0:
448,192,115322,1,0,0:0:0:0:
320,192,115413,1,0,0:0:0:0:
192,192,115413,1,0,0:0:0:0:
64,192,115506,1,0,0:0:0:0:
192,192,115506,1,0,0:0:0:0:
320,192,115506,1,0,0:0:0:0:
448,192,115506,1,0,0:0:0:0:
64,192,115597,1,0,0:0:0:0:
448,192,115597,1,0,0:0:0:0:
320,192,115688,1,0,0:0:0:0:
448,192,115688,1,0,0:0:0:0:
192,192,115781,1,0,0:0:0:0:
64,192,115781,1,0,0:0:0:0:
64,192,115872,1,0,0:0:0:0:
192,192,115872,1,0,0:0:0:0:
320,192,115872,1,0,0:0:0:0:
448,192,115872,1,0,0:0:0:0:
320,192,115963,1,0,0:0:0:0:
448,192,115963,1,0,0:0:0:0:
64,192,116056,1,0,0:0:0:0:
448,192,116056,1,0,0:0:0:0:
320,192,116147,1,0,0:0:0:0:
64,192,116147,1,0,0:0:0:0:
192,192,116238,1,0,0:0:0:0:
320,192,116238,1,0,0:0:0:0:
448,192,116238,1,0,0:0:0:0:
64,192,116238,1,0,0:0:0:0:
192,192,116331,1,0,0:0:0:0:
448,192,116331,1,0,0:0:0:0:
320,192,116422,1,0,0:0:0:0:
448,192,116422,1,0,0:0:0:0:
64,192,116513,1,0,0:0:0:0:
192,192,116513,1,0,0:0:0:0:
64,192,116606,1,0,0:0:0:0:
192,192,116606,1,0,0:0:0:0:
320,192,116606,1,0,0:0:0:0:
448,192,116606,1,0,0:0:0:0:
320,192,116697,1,0,0:0:0:0:
448,192,116697,1,0,0:0:0:0:
192,192,116788,1,0,0:0:0:0:
64,192,116788,1,0,0:0:0:0:
64,192,116881,1,0,0:0:0:0:
448,192,116881,1,0,0:0:0:0:
320,192,116972,1,0,0:0:0:0:
64,192,116972,1,0,0:0:0:0:
192,192,116972,1,0,0:0:0:0:
448,192,116972,1,0,0:0:0:0:
192,192,117065,1,0,0:0:0:0:
320,192,117065,1,0,0:0:0:0:
64,192,117156,1,0,0:0:0:0:
448,192,117156,1,0,0:0:0:0:
320,192,117247,1,0,0:0:0:0:
448,192,117247,1,0,0:0:0:0:
64,192,117340,1,0,0:0:0:0:
192,192,117340,1,0,0:0:0:0:
320,192,117340,1,0,0:0:0:0:
448,192,117340,1,0,0:0:0:0:
192,192,117431,1,0,0:0:0:0:
64,192,117431,1,0,0:0:0:0:
320,192,117522,1,0,0:0:0:0:
448,192,117522,1,0,0:0:0:0:
64,192,117615,1,0,0:0:0:0:
448,192,117615,1,0,0:0:0:0:
448,192,117706,1,0,0:0:0:0:
320,192,117706,1,0,0:0:0:0:
192,192,117706,1,0,0:0:0:0:
64,192,117706,1,0,0:0:0:0:
192,192,117797,1,0,0:0:0:0:
320,192,117797,1,0,0:0:0:0:
448,192,117890,1,0,0:0:0:0:
64,192,117890,1,0,0:0:0:0:
192,192,117981,1,0,0:0:0:0:
448,192,117981,1,0,0:0:0:0:
320,192,118072,1,0,0:0:0:0:
448,192,118072,1,0,0:0:0:0:
192,192,118072,1,0,0:0:0:0:
64,192,118072,1,0,0:0:0:0:
64,192,118165,1,0,0:0:0:0:
320,192,118165,1,0,0:0:0:0:
192,192,118256,1,0,0:0:0:0:
64,192,118256,1,0,0:0:0:0:
320,192,118347,1,0,0:0:0:0:
448,192,118347,1,0,0:0:0:0:
64,192,118440,1,0,0:0:0:0:
192,192,118440,1,0,0:0:0:0:
320,192,118440,1,0,0:0:0:0:
448,192,118440,1,0,0:0:0:0:
64,192,118531,1,0,0:0:0:0:
192,192,118531,1,0,0:0:0:0:
64,192,118622,1,0,0:0:0:0:
192,192,118622,1,0,0:0:0:0:
320,192,118622,1,0,0:0:0:0:
448,192,118622,1,0,0:0:0:0:
320,192,118715,1,0,0:0:0:0:
448,192,118715,1,0,0:0:0:0:
64,192,118806,1,0,0:0:0:0:
192,192,118806,1,0,0:0:0:0:
320,192,118806,1,0,0:0:0:0:
448,192,118806,1,0,0:0:0:0:
64,192,118898,1,0,0:0:0:0:
192,192,118898,1,0,0:0:0:0:
448,192,118990,1,0,0:0:0:0:
320,192,118990,1,0,0:0:0:0:
64,192,119081,1,0,0:0:0:0:
448,192,119081,1,0,0:0:0:0:
448,192,119173,1,0,0:0:0:0:
320,192,119173,1,0,0:0:0:0:
192,192,119173,1,0,0:0:0:0:
64,192,119173,1,0,0:0:0:0:
192,192,119265,1,0,0:0:0:0:
320,192,119265,1,0,0:0:0:0:
448,192,119356,1,0,0:0:0:0:
64,192,119356,1,0,0:0:0:0:
192,192,119448,1,0,0:0:0:0:
64,192,119448,1,0,0:0:0:0:
64,192,119540,1,0,0:0:0:0:
192,192,119540,1,0,0:0:0:0:
320,192,119540,1,0,0:0:0:0:
448,192,119540,1,0,0:0:0:0:
320,192,119631,1,0,0:0:0:0:
448,192,119631,1,0,0:0:0:0:
192,192,119723,1,0,0:0:0:0:
320,192,119723,1,0,0:0:0:0:
64,192,119815,1,0,0:0:0:0:
192,192,119815,1,0,0:0:0:0:
64,192,119906,1,0,0:0:0:0:
192,192,119906,1,0,0:0:0:0:
320,192,119906,1,0,0:0:0:0:
448,192,119906,1,0,0:0:0:0:
320,192,119998,1,0,0:0:0:0:
448,192,119998,1,0,0:0:0:0:
64,192,120090,1,0,0:0:0:0:
448,192,120090,1,0,0:0:0:0:
64,192,120181,1,0,0:0:0:0:
192,192,120181,1,0,0:0:0:0:
320,192,120273,1,0,0:0:0:0:
448,192,120273,1,0,0:0:0:0:
192,192,120273,1,0,0:0:0:0:
64,192,120273,1,0,0:0:0:0:
320,192,120365,1,0,0:0:0:0:
448,192,120365,1,0,0:0:0:0:
64,192,120456,1,0,0:0:0:0:
448,192,120456,1,0,0:0:0:0:
320,192,120548,1,0,0:0:0:0:
192,192,120548,1,0,0:0:0:0:
448,192,120640,1,0,0:0:0:0:
320,192,120640,1,0,0:0:0:0:
192,192,120640,1,0,0:0:0:0:
64,192,120640,1,0,0:0:0:0:
64,192,120732,1,0,0:0:0:0:
448,192,120732,1,0,0:0:0:0:
320,192,120823,1,0,0:0:0:0:
448,192,120823,1,0,0:0:0:0:
192,192,120915,1,0,0:0:0:0:
64,192,120915,1,0,0:0:0:0:
64,192,121007,1,0,0:0:0:0:
192,192,121007,1,0,0:0:0:0:
320,192,121007,1,0,0:0:0:0:
448,192,121007,1,0,0:0:0:0:
320,192,121098,1,0,0:0:0:0:
448,192,121098,1,0,0:0:0:0:
192,192,121190,1,0,0:0:0:0:
64,192,121190,1,0,0:0:0:0:
64,192,121282,1,0,0:0:0:0:
448,192,121282,1,0,0:0:0:0:
64,192,121373,1,0,0:0:0:0:
192,192,121373,1,0,0:0:0:0:
448,192,121373,1,0,0:0:0:0:
320,192,121373,1,0,0:0:0:0:
192,192,121465,1,0,0:0:0:0:
320,192,121465,1,0,0:0:0:0:
64,192,121557,1,0,0:0:0:0:
448,192,121557,1,0,0:0:0:0:
320,192,121648,1,0,0:0:0:0:
448,192,121648,1,0,0:0:0:0:
64,192,121740,1,0,0:0:0:0:
192,192,121740,1,0,0:0:0:0:
320,192,121740,1,0,0:0:0:0:
448,192,121740,1,0,0:0:0:0:
192,192,121832,1,0,0:0:0:0:
64,192,121832,1,0,0:0:0:0:
320,192,121923,1,0,0:0:0:0:
64,192,121923,1,0,0:0:0:0:
192,192,122015,1,0,0:0:0:0:
448,192,122015,1,0,0:0:0:0:
64,192,122107,1,0,0:0:0:0:
192,192,122107,1,0,0:0:0:0:
320,192,122107,1,0,0:0:0:0:
448,192,122107,1,0,0:0:0:0:
320,192,122198,1,0,0:0:0:0:
64,192,122198,1,0,0:0:0:0:
320,192,122290,1,0,0:0:0:0:
448,192,122290,1,0,0:0:0:0:
192,192,122382,1,0,0:0:0:0:
64,192,122382,1,0,0:0:0:0:
192,192,122473,1,0,0:0:0:0:
64,192,122473,1,0,0:0:0:0:
320,192,122473,1,0,0:0:0:0:
448,192,122473,1,0,0:0:0:0:
448,192,122566,1,0,0:0:0:0:
320,192,122566,1,0,0:0:0:0:
64,192,122657,1,0,0:0:0:0:
448,192,122657,1,0,0:0:0:0:
192,192,122748,1,0,0:0:0:0:
64,192,122748,1,0,0:0:0:0:
64,192,122841,1,0,0:0:0:0:
192,192,122841,1,0,0:0:0:0:
320,192,122841,1,0,0:0:0:0:
448,192,122841,1,0,0:0:0:0:
320,192,122932,1,0,0:0:0:0:
448,192,122932,1,0,0:0:0:0:
192,192,123023,1,0,0:0:0:0:
320,192,123023,1,0,0:0:0:0:
64,192,123116,1,0,0:0:0:0:
448,192,123116,1,0,0:0:0:0:
192,192,123207,1,0,0:0:0:0:
64,192,123207,1,0,0:0:0:0:
320,192,123207,1,0,0:0:0:0:
448,192,123207,1,0,0:0:0:0:
320,192,123298,1,0,0:0:0:0:
192,192,123298,1,0,0:0:0:0:
64,192,123391,1,0,0:0:0:0:
448,192,123391,1,0,0:0:0:0:
320,192,123482,1,0,0:0:0:0:
64,192,123482,1,0,0:0:0:0:
64,192,123573,1,0,0:0:0:0:
192,192,123573,1,0,0:0:0:0:
320,192,123573,1,0,0:0:0:0:
448,192,123573,1,0,0:0:0:0:
192,192,123666,1,0,0:0:0:0:
448,192,123666,1,0,0:0:0:0:
320,192,123757,1,0,0:0:0:0:
448,192,123757,1,0,0:0:0:0:
192,192,123848,1,0,0:0:0:0:
64,192,123848,1,0,0:0:0:0:
64,192,123941,1,0,0:0:0:0:
192,192,123941,1,0,0:0:0:0:
448,192,123941,1,0,0:0:0:0:
320,192,123941,1,0,0:0:0:0:
192,192,124123,1,0,0:0:0:0:
64,192,124123,1,0,0:0:0:0:
320,192,124216,1,0,0:0:0:0:
448,192,124216,1,0,0:0:0:0:
192,192,124307,1,0,0:0:0:0:
64,192,124307,1,0,0:0:0:0:
320,192,124307,1,0,0:0:0:0:
448,192,124307,1,0,0:0:0:0:
320,192,124491,1,0,0:0:0:0:
448,192,124491,1,0,0:0:0:0:
192,192,124582,1,0,0:0:0:0:
64,192,124582,1,0,0:0:0:0:
64,192,124675,1,0,0:0:0:0:
192,192,124675,1,0,0:0:0:0:
320,192,124675,1,0,0:0:0:0:
448,192,124675,1,0,0:0:0:0:
320,192,124766,1,0,0:0:0:0:
448,192,124766,1,0,0:0:0:0:
64,192,124857,1,0,0:0:0:0:
448,192,124857,1,0,0:0:0:0:
192,192,124950,1,0,0:0:0:0:
64,192,124950,1,0,0:0:0:0:
192,192,125041,1,0,0:0:0:0:
320,192,125041,1,0,0:0:0:0:
448,192,125041,1,0,0:0:0:0:
64,192,125041,1,0,0:0:0:0:
320,192,125132,1,0,0:0:0:0:
448,192,125132,1,0,0:0:0:0:
192,192,125225,1,0,0:0:0:0:
320,192,125225,1,0,0:0:0:0:
64,192,125316,1,0,0:0:0:0:
448,192,125316,1,0,0:0:0:0:
448,192,125407,1,0,0:0:0:0:
320,192,125407,1,0,0:0:0:0:
192,192,125407,1,0,0:0:0:0:
64,192,125407,1,0,0:0:0:0:
192,192,125500,1,0,0:0:0:0:
320,192,125500,1,0,0:0:0:0:
64,192,125591,1,0,0:0:0:0:
320,192,125591,1,0,0:0:0:0:
192,192,125682,1,0,0:0:0:0:
448,192,125682,1,0,0:0:0:0:
320,192,125775,1,0,0:0:0:0:
448,192,125775,1,0,0:0:0:0:
192,192,125775,1,0,0:0:0:0:
64,192,125775,1,0,0:0:0:0:
64,192,125866,1,0,0:0:0:0:
320,192,125866,1,0,0:0:0:0:
192,192,125957,1,0,0:0:0:0:
64,192,125957,1,0,0:0:0:0:
192,192,126050,1,0,0:0:0:0:
320,192,126050,1,0,0:0:0:0:
64,192,126141,1,0,0:0:0:0:
192,192,126141,1,0,0:0:0:0:
320,192,126141,1,0,0:0:0:0:
448,192,126141,1,0,0:0:0:0:
64,192,126233,1,0,0:0:0:0:
448,192,126233,1,0,0:0:0:0:
320,192,126325,1,0,0:0:0:0:
448,192,126325,1,0,0:0:0:0:
192,192,126416,1,0,0:0:0:0:
64,192,126416,1,0,0:0:0:0:
64,192,126508,1,0,0:0:0:0:
192,192,126508,1,0,0:0:0:0:
448,192,126508,1,0,0:0:0:0:
320,192,126508,1,0,0:0:0:0:
320,192,126600,1,0,0:0:0:0:
448,192,126600,1,0,0:0:0:0:
64,192,126691,1,0,0:0:0:0:
320,192,126691,1,0,0:0:0:0:
64,192,126783,1,0,0:0:0:0:
448,192,126783,1,0,0:0:0:0:
320,192,126875,1,0,0:0:0:0:
448,192,126875,1,0,0:0:0:0:
192,192,126875,1,0,0:0:0:0:
64,192,126875,1,0,0:0:0:0:
192,192,126966,1,0,0:0:0:0:
320,192,126966,1,0,0:0:0:0:
64,192,127058,1,0,0:0:0:0:
448,192,127058,1,0,0:0:0:0:
320,192,127150,1,0,0:0:0:0:
448,192,127150,1,0,0:0:0:0:
192,192,127241,1,0,0:0:0:0:
64,192,127241,1,0,0:0:0:0:
320,192,127241,1,0,0:0:0:0:
448,192,127241,1,0,0:0:0:0:
192,192,127333,1,0,0:0:0:0:
64,192,127333,1,0,0:0:0:0:
320,192,127425,1,0,0:0:0:0:
448,192,127425,1,0,0:0:0:0:
320,192,127516,1,0,0:0:0:0:
192,192,127516,1,0,0:0:0:0:
448,192,127608,1,0,0:0:0:0:
320,192,127608,1,0,0:0:0:0:
64,192,127608,1,0,0:0:0:0:
192,192,127608,1,0,0:0:0:0:
64,192,127700,1,0,0:0:0:0:
448,192,127700,1,0,0:0:0:0:
192,192,127791,1,0,0:0:0:0:
64,192,127791,1,0,0:0:0:0:
320,192,127883,1,0,0:0:0:0:
448,192,127883,1,0,0:0:0:0:
64,192,127975,1,0,0:0:0:0:
192,192,127975,1,0,0:0:0:0:
320,192,127975,1,0,0:0:0:0:
448,192,127975,1,0,0:0:0:0:
192,192,128067,1,0,0:0:0:0:
64,192,128067,1,0,0:0:0:0:
64,192,128158,1,0,0:0:0:0:
320,192,128158,1,0,0:0:0:0:
192,192,128250,1,0,0:0:0:0:
448,192,128250,1,0,0:0:0:0:
64,192,128342,1,0,0:0:0:0:
192,192,128342,1,0,0:0:0:0:
448,192,128342,1,0,0:0:0:0:
320,192,128342,1,0,0:0:0:0:
320,192,128433,1,0,0:0:0:0:
64,192,128433,1,0,0:0:0:0:
192,192,128525,1,0,0:0:0:0:
64,192,128525,1,0,0:0:0:0:
192,192,128617,1,0,0:0:0:0:
320,192,128617,1,0,0:0:0:0:
64,192,128708,1,0,0:0:0:0:
192,192,128708,1,0,0:0:0:0:
320,192,128708,1,0,0:0:0:0:
448,192,128708,1,0,0:0:0:0:
64,192,128800,1,0,0:0:0:0:
448,192,128800,1,0,0:0:0:0:
192,192,128892,1,0,0:0:0:0:
320,192,128892,1,0,0:0:0:0:
320,192,128983,1,0,0:0:0:0:
448,192,128983,1,0,0:0:0:0:
64,192,129075,1,0,0:0:0:0:
192,192,129075,1,0,0:0:0:0:
320,192,129075,1,0,0:0:0:0:
448,192,129075,1,0,0:0:0:0:
192,192,129167,1,0,0:0:0:0:
64,192,129167,1,0,0:0:0:0:
64,192,129258,1,0,0:0:0:0:
320,192,129258,1,0,0:0:0:0:
448,192,129350,1,0,0:0:0:0:
320,192,129350,1,0,0:0:0:0:
64,192,129442,1,0,0:0:0:0:
192,192,129442,1,0,0:0:0:0:
320,192,129442,1,0,0:0:0:0:
448,192,129442,1,0,0:0:0:0:
192,192,129533,1,0,0:0:0:0:
64,192,129533,1,0,0:0:0:0:
448,192,129625,1,0,0:0:0:0:
320,192,129625,1,0,0:0:0:0:
64,192,129717,1,0,0:0:0:0:
448,192,129717,1,0,0:0:0:0:
64,192,129808,1,0,0:0:0:0:
192,192,129808,1,0,0:0:0:0:
320,192,129808,1,0,0:0:0:0:
448,192,129808,1,0,0:0:0:0:
320,192,129900,1,0,0:0:0:0:
192,192,129900,1,0,0:0:0:0:
192,192,129992,1,0,0:0:0:0:
448,192,129992,1,0,0:0:0:0:
320,192,130083,1,0,0:0:0:0:
64,192,130083,1,0,0:0:0:0:
64,192,130176,1,0,0:0:0:0:
192,192,130176,1,0,0:0:0:0:
320,192,130176,1,0,0:0:0:0:
448,192,130176,1,0,0:0:0:0:
192,192,130267,1,0,0:0:0:0:
448,192,130267,1,0,0:0:0:0:
448,192,130358,1,0,0:0:0:0:
64,192,130358,1,0,0:0:0:0:
64,192,130451,1,0,0:0:0:0:
192,192,130451,1,0,0:0:0:0:
64,192,130542,1,0,0:0:0:0:
192,192,130542,1,0,0:0:0:0:
320,192,130542,1,0,0:0:0:0:
448,192,130542,1,0,0:0:0:0:
320,192,130633,1,0,0:0:0:0:
448,192,130633,1,0,0:0:0:0:
192,192,130726,1,0,0:0:0:0:
320,192,130726,1,0,0:0:0:0:
64,192,130817,1,0,0:0:0:0:
192,192,130817,1,0,0:0:0:0:
64,192,130908,1,0,0:0:0:0:
192,192,130908,1,0,0:0:0:0:
448,192,130908,1,0,0:0:0:0:
320,192,130908,1,0,0:0:0:0:
320,192,131001,1,0,0:0:0:0:
448,192,131001,1,0,0:0:0:0:
64,192,131092,1,0,0:0:0:0:
320,192,131092,1,0,0:0:0:0:
192,192,131183,1,0,0:0:0:0:
448,192,131183,1,0,0:0:0:0:
64,192,131276,1,0,0:0:0:0:
192,192,131276,1,0,0:0:0:0:
320,192,131276,1,0,0:0:0:0:
448,192,131276,1,0,0:0:0:0:
320,192,131367,1,0,0:0:0:0:
64,192,131367,1,0,0:0:0:0:
192,192,131458,1,0,0:0:0:0:
64,192,131458,1,0,0:0:0:0:
320,192,131551,1,0,0:0:0:0:
448,192,131551,1,0,0:0:0:0:
64,192,131642,1,0,0:0:0:0:
192,192,131642,1,0,0:0:0:0:
320,192,131642,1,0,0:0:0:0:
448,192,131642,1,0,0:0:0:0:
192,192,131733,1,0,0:0:0:0:
64,192,131733,1,0,0:0:0:0:
448,192,131826,1,0,0:0:0:0:
64,192,131826,1,0,0:0:0:0:
320,192,131917,1,0,0:0:0:0:
448,192,131917,1,0,0:0:0:0:
64,192,132010,5,0,0:0:0:0:
320,192,132010,1,0,0:0:0:0:
448,192,132010,1,0,0:0:0:0:
192,192,132010,1,0,0:0:0:0:
192,192,132101,1,0,0:0:0:0:
64,192,132101,1,0,0:0:0:0:
320,192,132192,1,0,0:0:0:0:
64,192,132192,1,0,0:0:0:0:
320,192,132285,1,0,0:0:0:0:
448,192,132285,1,0,0:0:0:0:
64,192,132376,5,0,0:0:0:0:
192,192,132376,1,0,0:0:0:0:
320,192,132376,1,0,0:0:0:0:
448,192,132376,1,0,0:0:0:0:
192,192,132467,1,0,0:0:0:0:
64,192,132467,1,0,0:0:0:0:
64,192,132560,1,0,0:0:0:0:
448,192,132560,1,0,0:0:0:0:
192,192,132651,1,0,0:0:0:0:
320,192,132651,1,0,0:0:0:0:
64,192,132742,5,0,0:0:0:0:
192,192,132742,1,0,0:0:0:0:
320,192,132742,1,0,0:0:0:0:
448,192,132742,1,0,0:0:0:0:
64,192,132835,1,0,0:0:0:0:
448,192,132835,1,0,0:0:0:0:
64,192,132926,1,0,0:0:0:0:
320,192,132926,1,0,0:0:0:0:
192,192,133017,1,0,0:0:0:0:
320,192,133017,1,0,0:0:0:0:
64,192,133110,5,0,0:0:0:0:
320,192,133110,1,0,0:0:0:0:
448,192,133110,1,0,0:0:0:0:
192,192,133110,1,0,0:0:0:0:
448,192,133201,1,0,0:0:0:0:
64,192,133201,1,0,0:0:0:0:
320,192,133292,1,0,0:0:0:0:
448,192,133292,1,0,0:0:0:0:
192,192,133385,1,0,0:0:0:0:
64,192,133385,1,0,0:0:0:0:
64,192,133476,5,0,0:0:0:0:
192,192,133476,1,0,0:0:0:0:
448,192,133476,1,0,0:0:0:0:
320,192,133476,1,0,0:0:0:0:
64,192,133660,1,0,0:0:0:0:
448,192,133843,1,0,0:0:0:0:
320,192,134026,1,0,0:0:0:0:
448,192,134210,1,0,0:0:0:0:
192,192,134393,1,0,0:0:0:0:
448,192,134576,1,0,0:0:0:0:
64,192,134760,1,0,0:0:0:0:
64,192,134943,1,0,0:0:0:0:
192,192,134943,1,0,0:0:0:0:
320,192,134943,1,0,0:0:0:0:
448,192,134943,1,0,0:0:0:0:
320,192,135126,1,0,0:0:0:0:
448,192,135126,1,0,0:0:0:0:
64,192,135310,1,0,0:0:0:0:
192,192,135310,1,0,0:0:0:0:
320,192,135310,1,0,0:0:0:0:
448,192,135310,1,0,0:0:0:0:
192,192,135493,1,0,0:0:0:0:
64,192,135493,1,0,0:0:0:0:
64,192,135677,1,0,0:0:0:0:
192,192,135677,1,0,0:0:0:0:
320,192,135677,1,0,0:0:0:0:
448,192,135677,1,0,0:0:0:0:
448,192,135860,1,0,0:0:0:0:
320,192,135906,1,0,0:0:0:0:
192,192,135952,1,0,0:0:0:0:
64,192,135997,1,0,0:0:0:0:
320,192,136043,1,0,0:0:0:0:
448,192,136043,1,0,0:0:0:0:
64,192,136227,1,0,0:0:0:0:
192,192,136272,1,0,0:0:0:0:
320,192,136318,1,0,0:0:0:0:
448,192,136365,1,0,0:0:0:0:
64,192,136410,1,0,0:0:0:0:
192,192,136410,1,0,0:0:0:0:
320,192,136502,1,0,0:0:0:0:
64,192,136502,1,0,0:0:0:0:
192,192,136593,1,0,0:0:0:0:
448,192,136593,1,0,0:0:0:0:
320,192,136685,1,0,0:0:0:0:
448,192,136685,1,0,0:0:0:0:
64,192,136777,1,0,0:0:0:0:
192,192,136777,1,0,0:0:0:0:
320,192,136777,1,0,0:0:0:0:
448,192,136868,1,0,0:0:0:0:
64,192,136868,1,0,0:0:0:0:
192,192,136960,1,0,0:0:0:0:
448,192,136960,1,0,0:0:0:0:
320,192,137052,1,0,0:0:0:0:
192,192,137052,1,0,0:0:0:0:
64,192,137143,1,0,0:0:0:0:
320,192,137143,1,0,0:0:0:0:
448,192,137143,1,0,0:0:0:0:
192,192,137235,1,0,0:0:0:0:
448,192,137235,1,0,0:0:0:0:
192,192,137327,1,0,0:0:0:0:
64,192,137327,1,0,0:0:0:0:
320,192,137418,1,0,0:0:0:0:
448,192,137418,1,0,0:0:0:0:
192,192,137511,1,0,0:0:0:0:
64,192,137511,1,0,0:0:0:0:
448,192,137511,1,0,0:0:0:0:
320,192,137602,1,0,0:0:0:0:
192,192,137602,1,0,0:0:0:0:
64,192,137693,1,0,0:0:0:0:
448,192,137693,1,0,0:0:0:0:
320,192,137786,1,0,0:0:0:0:
448,192,137786,1,0,0:0:0:0:
192,192,137877,1,0,0:0:0:0:
64,192,137877,1,0,0:0:0:0:
320,192,137877,1,0,0:0:0:0:
448,192,137968,1,0,0:0:0:0:
192,192,137968,1,0,0:0:0:0:
64,192,138061,1,0,0:0:0:0:
320,192,138061,1,0,0:0:0:0:
192,192,138152,1,0,0:0:0:0:
64,192,138152,1,0,0:0:0:0:
192,192,138243,1,0,0:0:0:0:
320,192,138243,1,0,0:0:0:0:
448,192,138243,1,0,0:0:0:0:
64,192,138336,1,0,0:0:0:0:
448,192,138336,1,0,0:0:0:0:
320,192,138427,1,0,0:0:0:0:
448,192,138427,1,0,0:0:0:0:
192,192,138518,1,0,0:0:0:0:
320,192,138518,1,0,0:0:0:0:
64,192,138611,1,0,0:0:0:0:
320,192,138611,1,0,0:0:0:0:
448,192,138611,1,0,0:0:0:0:
64,192,138702,1,0,0:0:0:0:
448,192,138702,1,0,0:0:0:0:
320,192,138793,1,0,0:0:0:0:
192,192,138793,1,0,0:0:0:0:
64,192,138886,1,0,0:0:0:0:
192,192,138886,1,0,0:0:0:0:
320,192,138977,1,0,0:0:0:0:
448,192,138977,1,0,0:0:0:0:
192,192,138977,1,0,0:0:0:0:
64,192,139068,1,0,0:0:0:0:
448,192,139068,1,0,0:0:0:0:
192,192,139161,1,0,0:0:0:0:
64,192,139161,1,0,0:0:0:0:
192,192,139252,1,0,0:0:0:0:
448,192,139252,1,0,0:0:0:0:
64,192,139345,1,0,0:0:0:0:
448,192,139345,1,0,0:0:0:0:
320,192,139345,1,0,0:0:0:0:
192,192,139436,1,0,0:0:0:0:
320,192,139436,1,0,0:0:0:0:
64,192,139527,1,0,0:0:0:0:
192,192,139527,1,0,0:0:0:0:
64,192,139620,1,0,0:0:0:0:
448,192,139620,1,0,0:0:0:0:
192,192,139711,1,0,0:0:0:0:
320,192,139711,1,0,0:0:0:0:
448,192,139711,1,0,0:0:0:0:
320,192,139802,1,0,0:0:0:0:
64,192,139802,1,0,0:0:0:0:
192,192,139895,1,0,0:0:0:0:
448,192,139895,1,0,0:0:0:0:
320,192,139986,1,0,0:0:0:0:
448,192,139986,1,0,0:0:0:0:
64,192,140077,1,0,0:0:0:0:
192,192,140077,1,0,0:0:0:0:
320,192,140077,1,0,0:0:0:0:
448,192,140170,1,0,0:0:0:0:
64,192,140170,1,0,0:0:0:0:
192,192,140261,1,0,0:0:0:0:
320,192,140261,1,0,0:0:0:0:
448,192,140352,1,0,0:0:0:0:
192,192,140352,1,0,0:0:0:0:
64,192,140445,1,0,0:0:0:0:
448,192,140445,1,0,0:0:0:0:
320,192,140445,1,0,0:0:0:0:
192,192,140536,1,0,0:0:0:0:
64,192,140536,1,0,0:0:0:0:
192,192,140627,1,0,0:0:0:0:
448,192,140627,1,0,0:0:0:0:
320,192,140720,1,0,0:0:0:0:
448,192,140720,1,0,0:0:0:0:
192,192,140811,1,0,0:0:0:0:
320,192,140811,1,0,0:0:0:0:
448,192,140811,1,0,0:0:0:0:
64,192,140902,1,0,0:0:0:0:
192,192,140902,1,0,0:0:0:0:
448,192,140995,1,0,0:0:0:0:
64,192,140995,1,0,0:0:0:0:
192,192,141086,1,0,0:0:0:0:
320,192,141086,1,0,0:0:0:0:
64,192,141178,1,0,0:0:0:0:
192,192,141178,1,0,0:0:0:0:
448,192,141178,1,0,0:0:0:0:
64,192,141270,1,0,0:0:0:0:
192,192,141270,1,0,0:0:0:0:
448,192,141361,1,0,0:0:0:0:
320,192,141361,1,0,0:0:0:0:
192,192,141453,1,0,0:0:0:0:
448,192,141453,1,0,0:0:0:0:
64,192,141545,1,0,0:0:0:0:
192,192,141545,1,0,0:0:0:0:
320,192,141545,1,0,0:0:0:0:
448,192,141636,1,0,0:0:0:0:
64,192,141636,1,0,0:0:0:0:
320,192,141728,1,0,0:0:0:0:
192,192,141728,1,0,0:0:0:0:
320,192,141820,1,0,0:0:0:0:
448,192,141820,1,0,0:0:0:0:
64,192,141911,1,0,0:0:0:0:
192,192,141911,1,0,0:0:0:0:
448,192,141911,1,0,0:0:0:0:
320,192,142003,1,0,0:0:0:0:
64,192,142003,1,0,0:0:0:0:
448,192,142095,1,0,0:0:0:0:
320,192,142095,1,0,0:0:0:0:
192,192,142186,1,0,0:0:0:0:
64,192,142186,1,0,0:0:0:0:
64,192,142278,1,0,0:0:0:0:
320,192,142278,1,0,0:0:0:0:
448,192,142278,1,0,0:0:0:0:
320,192,142461,1,0,0:0:0:0:
192,192,142645,1,0,0:0:0:0:
64,192,142645,1,0,0:0:0:0:
448,192,142828,1,0,0:0:0:0:
192,192,143012,1,0,0:0:0:0:
64,192,143012,1,0,0:0:0:0:
320,192,143195,1,0,0:0:0:0:
192,192,143378,1,0,0:0:0:0:
64,192,143378,1,0,0:0:0:0:
448,192,143562,1,0,0:0:0:0:
320,192,143745,1,0,0:0:0:0:
192,192,143745,1,0,0:0:0:0:
64,192,143928,1,0,0:0:0:0:
320,192,144112,1,0,0:0:0:0:
448,192,144112,1,0,0:0:0:0:
192,192,144295,1,0,0:0:0:0:
320,192,144478,1,0,0:0:0:0:
448,192,144478,1,0,0:0:0:0:
64,192,144662,1,0,0:0:0:0:
320,192,144846,1,0,0:0:0:0:
448,192,144846,1,0,0:0:0:0:
192,192,145028,1,0,0:0:0:0:
64,192,145212,1,0,0:0:0:0:
448,192,145212,1,0,0:0:0:0:
320,192,145396,1,0,0:0:0:0:
64,192,145578,1,0,0:0:0:0:
448,192,145578,1,0,0:0:0:0:
192,192,145762,1,0,0:0:0:0:
448,192,145946,1,0,0:0:0:0:
64,192,145946,1,0,0:0:0:0:
320,192,146128,1,0,0:0:0:0:
64,192,146312,1,0,0:0:0:0:
448,192,146312,1,0,0:0:0:0:
192,192,146496,1,0,0:0:0:0:
320,192,146680,1,0,0:0:0:0:
448,192,146680,1,0,0:0:0:0:
64,192,146862,1,0,0:0:0:0:
192,192,147046,1,0,0:0:0:0:
448,192,147046,1,0,0:0:0:0:
320,192,147230,1,0,0:0:0:0:
192,192,147412,1,0,0:0:0:0:
448,192,147412,1,0,0:0:0:0:
64,192,147596,1,0,0:0:0:0:
192,192,147780,1,0,0:0:0:0:
448,192,147780,1,0,0:0:0:0:
320,192,147962,1,0,0:0:0:0:
64,192,148146,1,0,0:0:0:0:
192,192,148146,1,0,0:0:0:0:
320,192,148146,1,0,0:0:0:0:
448,192,148146,1,0,0:0:0:0:
192,192,148237,1,0,0:0:0:0:
64,192,148237,1,0,0:0:0:0:
64,192,148330,1,0,0:0:0:0:
448,192,148330,1,0,0:0:0:0:
320,192,148421,1,0,0:0:0:0:
448,192,148421,1,0,0:0:0:0:
192,192,148512,1,0,0:0:0:0:
64,192,148512,1,0,0:0:0:0:
320,192,148512,1,0,0:0:0:0:
448,192,148512,1,0,0:0:0:0:
192,192,148605,1,0,0:0:0:0:
64,192,148605,1,0,0:0:0:0:
64,192,148696,1,0,0:0:0:0:
320,192,148696,1,0,0:0:0:0:
448,192,148788,1,0,0:0:0:0:
192,192,148788,1,0,0:0:0:0:
64,192,148880,1,0,0:0:0:0:
192,192,148880,1,0,0:0:0:0:
320,192,148880,1,0,0:0:0:0:
448,192,148880,1,0,0:0:0:0:
320,192,148971,1,0,0:0:0:0:
64,192,148971,1,0,0:0:0:0:
192,192,149063,1,0,0:0:0:0:
64,192,149063,1,0,0:0:0:0:
320,192,149155,1,0,0:0:0:0:
448,192,149155,1,0,0:0:0:0:
64,192,149246,1,0,0:0:0:0:
192,192,149246,1,0,0:0:0:0:
320,192,149246,1,0,0:0:0:0:
448,192,149246,1,0,0:0:0:0:
192,192,149338,1,0,0:0:0:0:
64,192,149338,1,0,0:0:0:0:
64,192,149430,1,0,0:0:0:0:
448,192,149430,1,0,0:0:0:0:
320,192,149521,1,0,0:0:0:0:
192,192,149521,1,0,0:0:0:0:
64,192,149613,1,0,0:0:0:0:
192,192,149613,1,0,0:0:0:0:
320,192,149613,1,0,0:0:0:0:
448,192,149613,1,0,0:0:0:0:
64,192,149705,1,0,0:0:0:0:
448,192,149705,1,0,0:0:0:0:
320,192,149796,1,0,0:0:0:0:
448,192,149796,1,0,0:0:0:0:
192,192,149888,1,0,0:0:0:0:
64,192,149888,1,0,0:0:0:0:
64,192,149980,1,0,0:0:0:0:
192,192,149980,1,0,0:0:0:0:
448,192,149980,1,0,0:0:0:0:
320,192,149980,1,0,0:0:0:0:
320,192,150071,1,0,0:0:0:0:
448,192,150071,1,0,0:0:0:0:
192,192,150163,1,0,0:0:0:0:
320,192,150163,1,0,0:0:0:0:
64,192,150255,1,0,0:0:0:0:
448,192,150255,1,0,0:0:0:0:
64,192,150346,1,0,0:0:0:0:
320,192,150346,1,0,0:0:0:0:
448,192,150346,1,0,0:0:0:0:
192,192,150346,1,0,0:0:0:0:
320,192,150438,1,0,0:0:0:0:
192,192,150438,1,0,0:0:0:0:
64,192,150530,1,0,0:0:0:0:
448,192,150530,1,0,0:0:0:0:
192,192,150622,1,0,0:0:0:0:
448,192,150622,1,0,0:0:0:0:
64,192,150713,1,0,0:0:0:0:
192,192,150713,1,0,0:0:0:0:
320,192,150713,1,0,0:0:0:0:
448,192,150713,1,0,0:0:0:0:
320,192,150805,1,0,0:0:0:0:
64,192,150805,1,0,0:0:0:0:
192,192,150897,1,0,0:0:0:0:
64,192,150897,1,0,0:0:0:0:
320,192,150988,1,0,0:0:0:0:
448,192,150988,1,0,0:0:0:0:
320,192,151080,1,0,0:0:0:0:
192,192,151080,1,0,0:0:0:0:
448,192,151080,1,0,0:0:0:0:
64,192,151080,1,0,0:0:0:0:
192,192,151172,1,0,0:0:0:0:
64,192,151172,1,0,0:0:0:0:
64,192,151263,1,0,0:0:0:0:
448,192,151263,1,0,0:0:0:0:
320,192,151355,1,0,0:0:0:0:
448,192,151355,1,0,0:0:0:0:
64,192,151447,1,0,0:0:0:0:
192,192,151447,1,0,0:0:0:0:
320,192,151447,1,0,0:0:0:0:
192,192,151538,1,0,0:0:0:0:
64,192,151538,1,0,0:0:0:0:
448,192,151630,1,0,0:0:0:0:
320,192,151630,1,0,0:0:0:0:
64,192,151722,1,0,0:0:0:0:
448,192,151722,1,0,0:0:0:0:
64,192,151813,1,0,0:0:0:0:
192,192,151813,1,0,0:0:0:0:
448,192,151813,1,0,0:0:0:0:
320,192,151905,1,0,0:0:0:0:
64,192,151905,1,0,0:0:0:0:
192,192,151997,1,0,0:0:0:0:
448,192,151997,1,0,0:0:0:0:
320,192,152088,1,0,0:0:0:0:
448,192,152088,1,0,0:0:0:0:
64,192,152180,1,0,0:0:0:0:
320,192,152180,1,0,0:0:0:0:
448,192,152180,1,0,0:0:0:0:
64,192,152272,1,0,0:0:0:0:
192,192,152272,1,0,0:0:0:0:
320,192,152363,1,0,0:0:0:0:
192,192,152363,1,0,0:0:0:0:
64,192,152456,1,0,0:0:0:0:
448,192,152456,1,0,0:0:0:0:
64,192,152547,1,0,0:0:0:0:
192,192,152547,1,0,0:0:0:0:
448,192,152547,1,0,0:0:0:0:
192,192,152638,1,0,0:0:0:0:
320,192,152638,1,0,0:0:0:0:
64,192,152731,1,0,0:0:0:0:
320,192,152731,1,0,0:0:0:0:
192,192,152822,1,0,0:0:0:0:
64,192,152822,1,0,0:0:0:0:
320,192,152913,1,0,0:0:0:0:
192,192,152913,1,0,0:0:0:0:
448,192,152913,1,0,0:0:0:0:
320,192,153006,1,0,0:0:0:0:
64,192,153006,1,0,0:0:0:0:
192,192,153097,1,0,0:0:0:0:
448,192,153097,1,0,0:0:0:0:
320,192,153188,1,0,0:0:0:0:
448,192,153188,1,0,0:0:0:0:
64,192,153281,1,0,0:0:0:0:
320,192,153281,1,0,0:0:0:0:
448,192,153281,1,0,0:0:0:0:
192,192,153372,1,0,0:0:0:0:
64,192,153372,1,0,0:0:0:0:
192,192,153463,1,0,0:0:0:0:
448,192,153463,1,0,0:0:0:0:
64,192,153556,1,0,0:0:0:0:
320,192,153556,1,0,0:0:0:0:
192,192,153647,1,0,0:0:0:0:
64,192,153647,1,0,0:0:0:0:
448,192,153647,1,0,0:0:0:0:
320,192,153738,1,0,0:0:0:0:
192,192,153738,1,0,0:0:0:0:
64,192,153831,1,0,0:0:0:0:
448,192,153831,1,0,0:0:0:0:
448,192,153922,1,0,0:0:0:0:
320,192,153922,1,0,0:0:0:0:
192,192,154013,1,0,0:0:0:0:
320,192,154013,1,0,0:0:0:0:
64,192,154013,1,0,0:0:0:0:
192,192,154106,1,0,0:0:0:0:
64,192,154106,1,0,0:0:0:0:
448,192,154197,1,0,0:0:0:0:
320,192,154197,1,0,0:0:0:0:
64,192,154290,1,0,0:0:0:0:
448,192,154290,1,0,0:0:0:0:
64,192,154381,1,0,0:0:0:0:
320,192,154381,1,0,0:0:0:0:
192,192,154381,1,0,0:0:0:0:
192,192,154472,1,0,0:0:0:0:
448,192,154472,1,0,0:0:0:0:
320,192,154565,1,0,0:0:0:0:
448,192,154565,1,0,0:0:0:0:
192,192,154656,1,0,0:0:0:0:
64,192,154656,1,0,0:0:0:0:
64,192,154747,1,0,0:0:0:0:
448,192,154747,1,0,0:0:0:0:
320,192,154747,1,0,0:0:0:0:
192,192,154840,1,0,0:0:0:0:
448,192,154840,1,0,0:0:0:0:
320,192,154931,1,0,0:0:0:0:
64,192,154931,1,0,0:0:0:0:
192,192,155022,1,0,0:0:0:0:
64,192,155022,1,0,0:0:0:0:
64,192,155115,1,0,0:0:0:0:
192,192,155115,1,0,0:0:0:0:
448,192,155115,1,0,0:0:0:0:
320,192,155206,1,0,0:0:0:0:
448,192,155206,1,0,0:0:0:0:
64,192,155297,1,0,0:0:0:0:
320,192,155297,1,0,0:0:0:0:
192,192,155390,1,0,0:0:0:0:
64,192,155390,1,0,0:0:0:0:
192,192,155481,1,0,0:0:0:0:
320,192,155481,1,0,0:0:0:0:
448,192,155481,1,0,0:0:0:0:
320,192,155572,1,0,0:0:0:0:
448,192,155572,1,0,0:0:0:0:
64,192,155665,1,0,0:0:0:0:
448,192,155665,1,0,0:0:0:0:
192,192,155756,1,0,0:0:0:0:
64,192,155756,1,0,0:0:0:0:
64,192,155847,1,0,0:0:0:0:
192,192,155847,1,0,0:0:0:0:
320,192,155847,1,0,0:0:0:0:
448,192,155940,1,0,0:0:0:0:
320,192,155940,1,0,0:0:0:0:
64,192,156031,1,0,0:0:0:0:
448,192,156031,1,0,0:0:0:0:
320,192,156123,1,0,0:0:0:0:
192,192,156123,1,0,0:0:0:0:
64,192,156215,1,0,0:0:0:0:
320,192,156215,1,0,0:0:0:0:
448,192,156215,1,0,0:0:0:0:
192,192,156306,1,0,0:0:0:0:
448,192,156306,1,0,0:0:0:0:
64,192,156398,1,0,0:0:0:0:
320,192,156398,1,0,0:0:0:0:
192,192,156490,1,0,0:0:0:0:
64,192,156490,1,0,0:0:0:0:
192,192,156581,1,0,0:0:0:0:
320,192,156581,1,0,0:0:0:0:
448,192,156581,1,0,0:0:0:0:
320,192,156673,1,0,0:0:0:0:
448,192,156673,1,0,0:0:0:0:
64,192,156765,1,0,0:0:0:0:
192,192,156765,1,0,0:0:0:0:
448,192,156856,1,0,0:0:0:0:
192,192,156856,1,0,0:0:0:0:
192,192,156948,1,0,0:0:0:0:
320,192,156948,1,0,0:0:0:0:
448,192,156948,1,0,0:0:0:0:
64,192,157040,1,0,0:0:0:0:
320,192,157040,1,0,0:0:0:0:
192,192,157131,1,0,0:0:0:0:
64,192,157131,1,0,0:0:0:0:
320,192,157223,1,0,0:0:0:0:
448,192,157223,1,0,0:0:0:0:
64,192,157315,1,0,0:0:0:0:
192,192,157315,1,0,0:0:0:0:
448,192,157315,1,0,0:0:0:0:
320,192,157406,1,0,0:0:0:0:
64,192,157406,1,0,0:0:0:0:
192,192,157498,1,0,0:0:0:0:
448,192,157498,1,0,0:0:0:0:
64,192,157590,1,0,0:0:0:0:
320,192,157590,1,0,0:0:0:0:
64,192,157681,1,0,0:0:0:0:
192,192,157681,1,0,0:0:0:0:
448,192,157681,1,0,0:0:0:0:
320,192,157773,1,0,0:0:0:0:
448,192,157773,1,0,0:0:0:0:
192,192,157865,1,0,0:0:0:0:
64,192,157865,1,0,0:0:0:0:
64,192,157957,1,0,0:0:0:0:
320,192,157957,1,0,0:0:0:0:
192,192,158048,1,0,0:0:0:0:
320,192,158048,1,0,0:0:0:0:
448,192,158048,1,0,0:0:0:0:
64,192,158140,1,0,0:0:0:0:
448,192,158140,1,0,0:0:0:0:
320,192,158232,1,0,0:0:0:0:
448,192,158232,1,0,0:0:0:0:
192,192,158323,1,0,0:0:0:0:
64,192,158323,1,0,0:0:0:0:
64,192,158415,1,0,0:0:0:0:
192,192,158415,1,0,0:0:0:0:
320,192,158415,1,0,0:0:0:0:
448,192,158507,1,0,0:0:0:0:
320,192,158507,1,0,0:0:0:0:
192,192,158598,1,0,0:0:0:0:
448,192,158598,1,0,0:0:0:0:
64,192,158690,1,0,0:0:0:0:
320,192,158690,1,0,0:0:0:0:
64,192,158782,1,0,0:0:0:0:
192,192,158782,1,0,0:0:0:0:
448,192,158782,1,0,0:0:0:0:
320,192,158873,1,0,0:0:0:0:
192,192,158873,1,0,0:0:0:0:
448,192,158965,1,0,0:0:0:0:
64,192,158965,1,0,0:0:0:0:
192,192,159057,1,0,0:0:0:0:
64,192,159057,1,0,0:0:0:0:
192,192,159148,1,0,0:0:0:0:
320,192,159148,1,0,0:0:0:0:
448,192,159148,1,0,0:0:0:0:
320,192,159240,1,0,0:0:0:0:
448,192,159240,1,0,0:0:0:0:
64,192,159332,1,0,0:0:0:0:
192,192,159332,1,0,0:0:0:0:
320,192,159423,1,0,0:0:0:0:
192,192,159423,1,0,0:0:0:0:
64,192,159515,1,0,0:0:0:0:
320,192,159515,1,0,0:0:0:0:
448,192,159515,1,0,0:0:0:0:
192,192,159607,1,0,0:0:0:0:
448,192,159607,1,0,0:0:0:0:
320,192,159698,1,0,0:0:0:0:
64,192,159698,1,0,0:0:0:0:
448,192,159791,1,0,0:0:0:0:
192,192,159791,1,0,0:0:0:0:
192,192,159882,1,0,0:0:0:0:
64,192,159882,1,0,0:0:0:0:
320,192,159882,1,0,0:0:0:0:
320,192,159973,1,0,0:0:0:0:
448,192,159973,1,0,0:0:0:0:
64,192,160066,1,0,0:0:0:0:
192,192,160066,1,0,0:0:0:0:
320,192,160157,1,0,0:0:0:0:
448,192,160157,1,0,0:0:0:0:
64,192,160248,1,0,0:0:0:0:
448,192,160248,1,0,0:0:0:0:
192,192,160248,1,0,0:0:0:0:
320,192,160341,1,0,0:0:0:0:
192,192,160341,1,0,0:0:0:0:
64,192,160432,1,0,0:0:0:0:
448,192,160432,1,0,0:0:0:0:
192,192,160523,1,0,0:0:0:0:
64,192,160523,1,0,0:0:0:0:
64,192,160616,1,0,0:0:0:0:
320,192,160616,1,0,0:0:0:0:
448,192,160616,1,0,0:0:0:0:
192,192,160707,1,0,0:0:0:0:
448,192,160707,1,0,0:0:0:0:
320,192,160798,1,0,0:0:0:0:
448,192,160798,1,0,0:0:0:0:
192,192,160891,1,0,0:0:0:0:
64,192,160891,1,0,0:0:0:0:
192,192,160982,1,0,0:0:0:0:
448,192,160982,1,0,0:0:0:0:
320,192,160982,1,0,0:0:0:0:
64,192,161073,1,0,0:0:0:0:
448,192,161073,1,0,0:0:0:0:
320,192,161166,1,0,0:0:0:0:
192,192,161166,1,0,0:0:0:0:
448,192,161257,1,0,0:0:0:0:
192,192,161257,1,0,0:0:0:0:
64,192,161348,1,0,0:0:0:0:
320,192,161348,1,0,0:0:0:0:
448,192,161348,1,0,0:0:0:0:
320,192,161441,1,0,0:0:0:0:
448,192,161441,1,0,0:0:0:0:
192,192,161532,1,0,0:0:0:0:
64,192,161532,1,0,0:0:0:0:
64,192,161625,1,0,0:0:0:0:
320,192,161625,1,0,0:0:0:0:
64,192,161716,1,0,0:0:0:0:
192,192,161716,1,0,0:0:0:0:
448,192,161716,1,0,0:0:0:0:
192,192,161807,1,0,0:0:0:0:
320,192,161807,1,0,0:0:0:0:
64,192,161900,1,0,0:0:0:0:
448,192,161900,1,0,0:0:0:0:
320,192,161991,1,0,0:0:0:0:
448,192,161991,1,0,0:0:0:0:
64,192,162082,1,0,0:0:0:0:
192,192,162082,1,0,0:0:0:0:
320,192,162082,1,0,0:0:0:0:
448,192,162175,1,0,0:0:0:0:
192,192,162175,1,0,0:0:0:0:
64,192,162266,1,0,0:0:0:0:
192,192,162266,1,0,0:0:0:0:
320,192,162357,1,0,0:0:0:0:
448,192,162357,1,0,0:0:0:0:
64,192,162450,1,0,0:0:0:0:
192,192,162450,1,0,0:0:0:0:
448,192,162450,1,0,0:0:0:0:
64,192,162541,1,0,0:0:0:0:
448,192,162541,1,0,0:0:0:0:
320,192,162632,1,0,0:0:0:0:
192,192,162632,1,0,0:0:0:0:
64,192,162725,1,0,0:0:0:0:
448,192,162725,1,0,0:0:0:0:
192,192,162816,1,0,0:0:0:0:
320,192,162816,1,0,0:0:0:0:
448,192,162816,1,0,0:0:0:0:
64,192,162816,1,0,0:0:0:0:
192,192,162907,1,0,0:0:0:0:
320,192,162907,1,0,0:0:0:0:
64,192,163000,1,0,0:0:0:0:
448,192,163000,1,0,0:0:0:0:
192,192,163091,1,0,0:0:0:0:
64,192,163091,1,0,0:0:0:0:
192,192,163182,1,0,0:0:0:0:
320,192,163182,1,0,0:0:0:0:
448,192,163182,1,0,0:0:0:0:
320,192,163275,1,0,0:0:0:0:
448,192,163275,1,0,0:0:0:0:
64,192,163366,1,0,0:0:0:0:
192,192,163366,1,0,0:0:0:0:
64,192,163458,1,0,0:0:0:0:
320,192,163458,1,0,0:0:0:0:
192,192,163550,1,0,0:0:0:0:
448,192,163550,1,0,0:0:0:0:
320,192,163550,1,0,0:0:0:0:
192,192,163641,1,0,0:0:0:0:
320,192,163641,1,0,0:0:0:0:
64,192,163733,1,0,0:0:0:0:
448,192,163733,1,0,0:0:0:0:
320,192,163825,1,0,0:0:0:0:
448,192,163825,1,0,0:0:0:0:
192,192,163916,1,0,0:0:0:0:
64,192,163916,1,0,0:0:0:0:
320,192,163916,1,0,0:0:0:0:
192,192,164008,1,0,0:0:0:0:
64,192,164008,1,0,0:0:0:0:
448,192,164100,1,0,0:0:0:0:
64,192,164100,1,0,0:0:0:0:
192,192,164191,1,0,0:0:0:0:
320,192,164191,1,0,0:0:0:0:
320,192,164283,1,0,0:0:0:0:
448,192,164283,1,0,0:0:0:0:
64,192,164283,1,0,0:0:0:0:
192,192,164375,1,0,0:0:0:0:
64,192,164375,1,0,0:0:0:0:
192,192,164466,1,0,0:0:0:0:
448,192,164466,1,0,0:0:0:0:
320,192,164558,1,0,0:0:0:0:
448,192,164558,1,0,0:0:0:0:
320,192,164650,1,0,0:0:0:0:
64,192,164650,1,0,0:0:0:0:
192,192,164650,1,0,0:0:0:0:
448,192,164741,1,0,0:0:0:0:
192,192,164741,1,0,0:0:0:0:
64,192,164833,1,0,0:0:0:0:
320,192,164833,1,0,0:0:0:0:
320,192,164925,1,0,0:0:0:0:
448,192,164925,1,0,0:0:0:0:
192,192,165016,1,0,0:0:0:0:
64,192,165016,1,0,0:0:0:0:
448,192,165016,1,0,0:0:0:0:
320,192,165108,1,0,0:0:0:0:
64,192,165108,1,0,0:0:0:0:
320,192,165200,1,0,0:0:0:0:
448,192,165200,1,0,0:0:0:0:
192,192,165292,1,0,0:0:0:0:
64,192,165292,1,0,0:0:0:0:
192,192,165383,1,0,0:0:0:0:
320,192,165383,1,0,0:0:0:0:
448,192,165383,1,0,0:0:0:0:
64,192,165475,1,0,0:0:0:0:
320,192,165475,1,0,0:0:0:0:
448,192,165567,1,0,0:0:0:0:
192,192,165567,1,0,0:0:0:0:
320,192,165658,1,0,0:0:0:0:
448,192,165658,1,0,0:0:0:0:
64,192,165750,1,0,0:0:0:0:
320,192,165750,1,0,0:0:0:0:
448,192,165750,1,0,0:0:0:0:
192,192,165842,1,0,0:0:0:0:
64,192,165842,1,0,0:0:0:0:
320,192,165933,1,0,0:0:0:0:
192,192,165933,1,0,0:0:0:0:
64,192,166025,1,0,0:0:0:0:
448,192,166025,1,0,0:0:0:0:
192,192,166117,1,0,0:0:0:0:
320,192,166117,1,0,0:0:0:0:
64,192,166117,1,0,0:0:0:0:
448,192,166208,1,0,0:0:0:0:
320,192,166208,1,0,0:0:0:0:
192,192,166300,1,0,0:0:0:0:
448,192,166300,1,0,0:0:0:0:
320,192,166392,1,0,0:0:0:0:
64,192,166392,1,0,0:0:0:0:
192,192,166483,1,0,0:0:0:0:
320,192,166483,1,0,0:0:0:0:
448,192,166483,1,0,0:0:0:0:
64,192,166575,1,0,0:0:0:0:
192,192,166575,1,0,0:0:0:0:
320,192,166667,1,0,0:0:0:0:
448,192,166667,1,0,0:0:0:0:
64,192,166758,1,0,0:0:0:0:
320,192,166758,1,0,0:0:0:0:
64,192,166850,1,0,0:0:0:0:
192,192,166850,1,0,0:0:0:0:
448,192,166850,1,0,0:0:0:0:
320,192,166942,1,0,0:0:0:0:
448,192,166942,1,0,0:0:0:0:
64,192,167033,1,0,0:0:0:0:
320,192,167033,1,0,0:0:0:0:
192,192,167125,1,0,0:0:0:0:
448,192,167125,1,0,0:0:0:0:
64,192,167217,1,0,0:0:0:0:
192,192,167217,1,0,0:0:0:0:
320,192,167217,1,0,0:0:0:0:
320,192,167308,1,0,0:0:0:0:
448,192,167308,1,0,0:0:0:0:
64,192,167401,1,0,0:0:0:0:
448,192,167401,1,0,0:0:0:0:
320,192,167492,1,0,0:0:0:0:
64,192,167492,1,0,0:0:0:0:
64,192,167583,1,0,0:0:0:0:
320,192,167583,1,0,0:0:0:0:
448,192,167583,1,0,0:0:0:0:
192,192,167676,1,0,0:0:0:0:
448,192,167676,1,0,0:0:0:0:
320,192,167767,1,0,0:0:0:0:
448,192,167767,1,0,0:0:0:0:
192,192,167858,1,0,0:0:0:0:
64,192,167858,1,0,0:0:0:0:
192,192,167951,1,0,0:0:0:0:
320,192,167951,1,0,0:0:0:0:
448,192,167951,1,0,0:0:0:0:
320,192,168042,1,0,0:0:0:0:
64,192,168042,1,0,0:0:0:0:
192,192,168133,1,0,0:0:0:0:
64,192,168133,1,0,0:0:0:0:
320,192,168226,1,0,0:0:0:0:
448,192,168226,1,0,0:0:0:0:
320,192,168317,1,0,0:0:0:0:
192,192,168317,1,0,0:0:0:0:
64,192,168317,1,0,0:0:0:0:
192,192,168408,1,0,0:0:0:0:
448,192,168408,1,0,0:0:0:0:
64,192,168501,1,0,0:0:0:0:
320,192,168501,1,0,0:0:0:0:
192,192,168592,1,0,0:0:0:0:
64,192,168592,1,0,0:0:0:0:
448,192,168683,1,0,0:0:0:0:
320,192,168683,1,0,0:0:0:0:
192,192,168683,1,0,0:0:0:0:
64,192,168776,1,0,0:0:0:0:
448,192,168776,1,0,0:0:0:0:
320,192,168867,1,0,0:0:0:0:
448,192,168867,1,0,0:0:0:0:
192,192,168958,1,0,0:0:0:0:
320,192,168958,1,0,0:0:0:0:
192,192,169051,1,0,0:0:0:0:
64,192,169051,1,0,0:0:0:0:
320,192,169051,1,0,0:0:0:0:
64,192,169142,1,0,0:0:0:0:
448,192,169142,1,0,0:0:0:0:
192,192,169235,1,0,0:0:0:0:
448,192,169235,1,0,0:0:0:0:
320,192,169326,1,0,0:0:0:0:
192,192,169326,1,0,0:0:0:0:
64,192,169417,1,0,0:0:0:0:
192,192,169417,1,0,0:0:0:0:
448,192,169417,1,0,0:0:0:0:
64,192,169510,1,0,0:0:0:0:
320,192,169510,1,0,0:0:0:0:
448,192,169601,1,0,0:0:0:0:
320,192,169601,1,0,0:0:0:0:
192,192,169692,1,0,0:0:0:0:
64,192,169692,1,0,0:0:0:0:
192,192,169785,1,0,0:0:0:0:
320,192,169785,1,0,0:0:0:0:
448,192,169785,1,0,0:0:0:0:
64,192,169876,1,0,0:0:0:0:
448,192,169876,1,0,0:0:0:0:
192,192,169967,1,0,0:0:0:0:
64,192,169967,1,0,0:0:0:0:
192,192,170060,1,0,0:0:0:0:
320,192,170060,1,0,0:0:0:0:
64,192,170151,5,0,0:0:0:0:
448,192,170151,1,0,0:0:0:0:
192,192,170151,1,0,0:0:0:0:
320,192,170242,1,0,0:0:0:0:
448,192,170242,1,0,0:0:0:0:
64,192,170335,1,0,0:0:0:0:
320,192,170335,1,0,0:0:0:0:
192,192,170426,1,0,0:0:0:0:
64,192,170426,1,0,0:0:0:0:
192,192,170517,1,0,0:0:0:0:
320,192,170517,1,0,0:0:0:0:
448,192,170517,1,0,0:0:0:0:
64,192,170610,1,0,0:0:0:0:
448,192,170610,1,0,0:0:0:0:
192,192,170701,1,0,0:0:0:0:
320,192,170701,1,0,0:0:0:0:
448,192,170792,1,0,0:0:0:0:
320,192,170885,1,0,0:0:0:0:
192,192,170885,1,0,0:0:0:0:
64,192,170885,1,0,0:0:0:0:
448,192,170976,1,0,0:0:0:0:
64,192,171068,1,0,0:0:0:0:
192,192,171068,1,0,0:0:0:0:
448,192,171160,1,0,0:0:0:0:
64,192,171251,1,0,0:0:0:0:
320,192,171251,1,0,0:0:0:0:
192,192,171251,1,0,0:0:0:0:
448,192,171343,1,0,0:0:0:0:
320,192,171435,1,0,0:0:0:0:
64,192,171435,1,0,0:0:0:0:
192,192,171526,1,0,0:0:0:0:
448,192,171618,5,0,0:0:0:0:
320,192,171618,1,0,0:0:0:0:
64,192,171710,1,0,0:0:0:0:
192,192,171801,1,0,0:0:0:0:
448,192,171801,1,0,0:0:0:0:
320,192,171893,1,0,0:0:0:0:
192,192,171985,1,0,0:0:0:0:
64,192,171985,1,0,0:0:0:0:
448,192,172076,1,0,0:0:0:0:
320,192,172168,1,0,0:0:0:0:
192,192,172168,1,0,0:0:0:0:
64,192,172260,1,0,0:0:0:0:
320,192,172351,1,0,0:0:0:0:
448,192,172351,1,0,0:0:0:0:
192,192,172443,1,0,0:0:0:0:
448,192,172535,1,0,0:0:0:0:
64,192,172535,1,0,0:0:0:0:
320,192,172626,1,0,0:0:0:0:
192,192,172718,1,0,0:0:0:0:
64,192,172718,1,0,0:0:0:0:
448,192,172810,1,0,0:0:0:0:
320,192,172902,1,0,0:0:0:0:
64,192,172902,1,0,0:0:0:0:
192,192,172993,1,0,0:0:0:0:
320,192,173085,1,0,0:0:0:0:
448,192,173085,1,0,0:0:0:0:
64,192,173177,1,0,0:0:0:0:
192,192,173268,1,0,0:0:0:0:
448,192,173268,1,0,0:0:0:0:
320,192,173360,1,0,0:0:0:0:
192,192,173452,1,0,0:0:0:0:
64,192,173452,1,0,0:0:0:0:
448,192,173543,1,0,0:0:0:0:
320,192,173635,1,0,0:0:0:0:
192,192,173635,1,0,0:0:0:0:
64,192,173727,1,0,0:0:0:0:
320,192,173818,1,0,0:0:0:0:
448,192,173818,1,0,0:0:0:0:
192,192,173910,1,0,0:0:0:0:
448,192,174002,1,0,0:0:0:0:
64,192,174002,1,0,0:0:0:0:
192,192,174093,1,0,0:0:0:0:
320,192,174185,1,0,0:0:0:0:
448,192,174185,1,0,0:0:0:0:
192,192,174277,1,0,0:0:0:0:
64,192,174277,1,0,0:0:0:0:
320,192,174368,1,0,0:0:0:0:
448,192,174368,1,0,0:0:0:0:
192,192,174460,1,0,0:0:0:0:
64,192,174460,1,0,0:0:0:0:
320,192,174552,1,0,0:0:0:0:
448,192,174552,1,0,0:0:0:0:
64,192,174736,1,0,0:0:0:0:
192,192,174918,1,0,0:0:0:0:
448,192,175286,1,0,0:0:0:0:
192,192,175468,1,0,0:0:0:0:
320,192,175652,1,0,0:0:0:0:
64,192,175836,1,0,0:0:0:0:
64,192,176202,1,0,0:0:0:0:
192,192,176386,1,0,0:0:0:0:
448,192,176752,1,0,0:0:0:0:
64,192,177120,1,0,0:0:0:0:
64,192,177486,1,0,0:0:0:0:
320,192,177486,1,0,0:0:0:0:
448,192,177852,1,0,0:0:0:0:
64,192,178220,1,0,0:0:0:0:
192,192,178403,1,0,0:0:0:0:
320,192,178770,1,0,0:0:0:0:
192,192,179136,1,0,0:0:0:0:
64,192,179320,1,0,0:0:0:0:
448,192,179686,1,0,0:0:0:0:
320,192,180053,1,0,0:0:0:0:
64,192,180420,1,0,0:0:0:0:
192,192,180787,1,0,0:0:0:0:
448,192,181153,1,0,0:0:0:0:
320,192,181337,1,0,0:0:0:0:
192,192,181703,1,0,0:0:0:0:
320,192,182071,1,0,0:0:0:0:
192,192,182253,1,0,0:0:0:0:
64,192,182621,1,0,0:0:0:0:
320,192,182987,1,0,0:0:0:0:
192,192,183353,1,0,0:0:0:0:
320,192,183721,1,0,0:0:0:0:
448,192,184087,1,0,0:0:0:0:
192,192,184271,1,0,0:0:0:0:
320,192,184637,1,0,0:0:0:0:
64,192,185005,1,0,0:0:0:0:
192,192,185187,1,0,0:0:0:0:
448,192,185371,1,0,0:0:0:0:
64,192,185555,1,0,0:0:0:0:
320,192,185921,1,0,0:0:0:0:
192,192,186288,1,0,0:0:0:0:
448,192,186288,1,0,0:0:0:0:
64,192,186655,1,0,0:0:0:0:
320,192,186655,1,0,0:0:0:0:
448,192,187021,1,0,0:0:0:0:
320,192,187021,1,0,0:0:0:0:
192,192,187205,1,0,0:0:0:0:
320,192,187205,1,0,0:0:0:0:
192,192,187388,1,0,0:0:0:0:
64,192,187388,1,0,0:0:0:0:
64,192,187571,1,0,0:0:0:0:
320,192,187571,1,0,0:0:0:0:
192,192,187938,1,0,0:0:0:0:
448,192,187938,1,0,0:0:0:0:
320,192,188122,1,0,0:0:0:0:
448,192,188122,1,0,0:0:0:0:
320,192,188488,1,0,0:0:0:0:
192,192,188488,1,0,0:0:0:0:
64,192,188672,1,0,0:0:0:0:
448,192,188672,1,0,0:0:0:0:
192,192,188855,1,0,0:0:0:0:
64,192,188855,1,0,0:0:0:0:
320,192,189038,1,0,0:0:0:0:
448,192,189038,1,0,0:0:0:0:
192,192,189222,1,0,0:0:0:0:
448,192,189222,1,0,0:0:0:0:
64,192,189222,1,0,0:0:0:0:
320,192,189588,1,0,0:0:0:0:
448,192,189588,1,0,0:0:0:0:
192,192,189956,1,0,0:0:0:0:
320,192,189956,1,0,0:0:0:0:
64,192,190138,1,0,0:0:0:0:
448,192,190138,1,0,0:0:0:0:
192,192,190506,1,0,0:0:0:0:
320,192,190506,1,0,0:0:0:0:
320,192,190872,1,0,0:0:0:0:
448,192,190872,1,0,0:0:0:0:
64,192,191056,1,0,0:0:0:0:
320,192,191056,1,0,0:0:0:0:
192,192,191422,1,0,0:0:0:0:
64,192,191422,1,0,0:0:0:0:
192,192,191790,1,0,0:0:0:0:
448,192,191790,1,0,0:0:0:0:
192,192,192156,1,0,0:0:0:0:
64,192,192156,1,0,0:0:0:0:
320,192,192156,1,0,0:0:0:0:
320,192,192522,1,0,0:0:0:0:
448,192,192522,1,0,0:0:0:0:
192,192,192890,1,0,0:0:0:0:
64,192,192890,1,0,0:0:0:0:
64,192,193072,1,0,0:0:0:0:
320,192,193072,1,0,0:0:0:0:
192,192,193256,1,0,0:0:0:0:
448,192,193256,1,0,0:0:0:0:
320,192,193440,1,0,0:0:0:0:
448,192,193440,1,0,0:0:0:0:
192,192,193806,5,0,0:0:0:0:
320,192,193806,1,0,0:0:0:0:
64,192,193990,1,0,0:0:0:0:
320,192,193990,1,0,0:0:0:0:
192,192,194356,1,0,0:0:0:0:
64,192,194356,1,0,0:0:0:0:
64,192,194723,1,0,0:0:0:0:
320,192,194723,1,0,0:0:0:0:
64,192,195090,5,0,0:0:0:0:
192,192,195182,1,0,0:0:0:0:
320,192,195273,1,0,0:0:0:0:
448,192,195365,1,0,0:0:0:0:
64,192,195457,1,0,0:0:0:0:
192,192,195548,1,0,0:0:0:0:
448,192,195640,1,0,0:0:0:0:
320,192,195732,1,0,0:0:0:0:
192,192,195823,1,0,0:0:0:0:
64,192,195915,1,0,0:0:0:0:
448,192,196007,1,0,0:0:0:0:
320,192,196007,1,0,0:0:0:0:
192,192,196098,1,0,0:0:0:0:
64,192,196098,1,0,0:0:0:0:
320,192,196190,1,0,0:0:0:0:
448,192,196190,1,0,0:0:0:0:
192,192,196282,1,0,0:0:0:0:
64,192,196282,1,0,0:0:0:0:
320,192,196373,1,0,0:0:0:0:
448,192,196373,1,0,0:0:0:0:
192,192,196465,1,0,0:0:0:0:
64,192,196465,1,0,0:0:0:0:
320,192,196557,1,0,0:0:0:0:
448,192,196557,1,0,0:0:0:0:
192,192,196648,1,0,0:0:0:0:
64,192,196648,1,0,0:0:0:0:
320,192,196740,1,0,0:0:0:0:
448,192,196740,1,0,0:0:0:0:
192,192,196832,1,0,0:0:0:0:
64,192,196832,1,0,0:0:0:0:
320,192,196923,1,0,0:0:0:0:
448,192,196923,1,0,0:0:0:0:
192,192,197016,1,0,0:0:0:0:
64,192,197016,1,0,0:0:0:0:
320,192,197107,1,0,0:0:0:0:
448,192,197107,1,0,0:0:0:0:
192,192,197198,1,0,0:0:0:0:
64,192,197198,1,0,0:0:0:0:
448,192,197291,1,0,0:0:0:0:
320,192,197291,1,0,0:0:0:0:
192,192,197382,1,0,0:0:0:0:
448,192,197473,1,0,0:0:0:0:
320,192,197473,1,0,0:0:0:0:
64,192,197473,1,0,0:0:0:0:
192,192,197566,1,0,0:0:0:0:
448,192,197657,1,0,0:0:0:0:
192,192,197657,1,0,0:0:0:0:
64,192,197657,1,0,0:0:0:0:
320,192,197748,1,0,0:0:0:0:
320,192,197841,1,0,0:0:0:0:
192,192,197841,1,0,0:0:0:0:
64,192,197841,1,0,0:0:0:0:
64,192,197932,1,0,0:0:0:0:
448,192,198023,1,0,0:0:0:0:
320,192,198023,1,0,0:0:0:0:
192,192,198023,1,0,0:0:0:0:
64,192,198023,1,0,0:0:0:0:
448,192,198391,1,0,0:0:0:0:
320,192,198391,1,0,0:0:0:0:
192,192,198391,1,0,0:0:0:0:
64,192,198573,1,0,0:0:0:0:
192,192,198757,1,0,0:0:0:0:
320,192,198757,1,0,0:0:0:0:
64,192,198757,1,0,0:0:0:0:
192,192,199125,1,0,0:0:0:0:
64,192,199125,1,0,0:0:0:0:
448,192,199125,1,0,0:0:0:0:
320,192,199307,1,0,0:0:0:0:
192,192,199491,1,0,0:0:0:0:
320,192,199491,1,0,0:0:0:0:
448,192,199491,1,0,0:0:0:0:
64,192,199675,1,0,0:0:0:0:
448,192,199675,1,0,0:0:0:0:
192,192,199857,1,0,0:0:0:0:
320,192,199857,1,0,0:0:0:0:
448,192,199857,1,0,0:0:0:0:
64,192,200041,1,0,0:0:0:0:
192,192,200041,1,0,0:0:0:0:
64,192,200225,1,0,0:0:0:0:
192,192,200225,1,0,0:0:0:0:
320,192,200225,1,0,0:0:0:0:
448,192,200407,1,0,0:0:0:0:
320,192,200407,1,0,0:0:0:0:
64,192,200591,1,0,0:0:0:0:
320,192,200591,1,0,0:0:0:0:
448,192,200591,1,0,0:0:0:0:
192,192,200775,1,0,0:0:0:0:
64,192,200775,1,0,0:0:0:0:
192,192,200958,1,0,0:0:0:0:
320,192,200958,1,0,0:0:0:0:
448,192,200958,1,0,0:0:0:0:
64,192,201325,1,0,0:0:0:0:
192,192,201325,1,0,0:0:0:0:
320,192,201325,1,0,0:0:0:0:
320,192,201508,1,0,0:0:0:0:
192,192,201691,1,0,0:0:0:0:
64,192,201691,1,0,0:0:0:0:
448,192,201691,1,0,0:0:0:0:
192,192,202058,1,0,0:0:0:0:
320,192,202058,1,0,0:0:0:0:
448,192,202058,1,0,0:0:0:0:
64,192,202241,1,0,0:0:0:0:
192,192,202425,1,0,0:0:0:0:
320,192,202425,1,0,0:0:0:0:
448,192,202425,1,0,0:0:0:0:
448,192,202608,1,0,0:0:0:0:
64,192,202608,1,0,0:0:0:0:
320,192,202792,1,0,0:0:0:0:
192,192,202792,1,0,0:0:0:0:
64,192,202792,1,0,0:0:0:0:
192,192,202975,1,0,0:0:0:0:
448,192,202975,1,0,0:0:0:0:
64,192,203158,1,0,0:0:0:0:
320,192,203158,1,0,0:0:0:0:
448,192,203158,1,0,0:0:0:0:
64,192,203525,1,0,0:0:0:0:
192,192,203525,1,0,0:0:0:0:
320,192,203525,1,0,0:0:0:0:
192,192,203892,1,0,0:0:0:0:
64,192,203892,1,0,0:0:0:0:
448,192,203892,1,0,0:0:0:0:
320,192,203892,1,0,0:0:0:0:
192,192,204258,1,0,0:0:0:0:
320,192,204258,1,0,0:0:0:0:
448,192,204258,1,0,0:0:0:0:
192,192,204626,1,0,0:0:0:0:
64,192,204626,1,0,0:0:0:0:
320,192,204626,1,0,0:0:0:0:
448,192,204626,1,0,0:0:0:0:
64,192,204992,1,0,0:0:0:0:
320,192,204992,1,0,0:0:0:0:
448,192,204992,1,0,0:0:0:0:
192,192,205358,1,0,0:0:0:0:
320,192,205358,1,0,0:0:0:0:
448,192,205358,1,0,0:0:0:0:
64,192,205358,1,0,0:0:0:0:
64,192,205726,1,0,0:0:0:0:
192,192,205726,1,0,0:0:0:0:
320,192,205726,1,0,0:0:0:0:
192,192,206092,1,0,0:0:0:0:
320,192,206092,1,0,0:0:0:0:
448,192,206092,1,0,0:0:0:0:
64,192,206460,1,0,0:0:0:0:
192,192,206460,1,0,0:0:0:0:
448,192,206460,1,0,0:0:0:0:
192,192,206826,1,0,0:0:0:0:
320,192,206826,1,0,0:0:0:0:
448,192,206826,1,0,0:0:0:0:
448,192,207101,1,0,0:0:0:0:
64,192,207192,1,0,0:0:0:0:
192,192,207192,1,0,0:0:0:0:
320,192,207192,1,0,0:0:0:0:
192,192,207376,1,0,0:0:0:0:
320,192,207376,1,0,0:0:0:0:
64,192,207560,1,0,0:0:0:0:
320,192,207560,1,0,0:0:0:0:
448,192,207560,1,0,0:0:0:0:
64,192,207835,5,0,0:0:0:0:
320,192,207926,1,0,0:0:0:0:
192,192,207926,1,0,0:0:0:0:
448,192,207926,1,0,0:0:0:0:
64,192,208110,1,0,0:0:0:0:
448,192,208110,1,0,0:0:0:0:
320,192,208293,1,0,0:0:0:0:
192,192,208293,1,0,0:0:0:0:
64,192,208293,1,0,0:0:0:0:
64,192,208660,1,0,0:0:0:0:
320,192,208660,1,0,0:0:0:0:
448,192,208660,1,0,0:0:0:0:
192,192,209026,1,0,0:0:0:0:
64,192,209026,1,0,0:0:0:0:
320,192,209026,1,0,0:0:0:0:
448,192,209210,5,0,0:0:0:0:
320,192,209210,1,0,0:0:0:0:
64,192,209393,1,0,0:0:0:0:
448,192,209393,1,0,0:0:0:0:
192,192,209576,1,0,0:0:0:0:
64,192,209576,1,0,0:0:0:0:
192,192,209760,1,0,0:0:0:0:
320,192,209760,1,0,0:0:0:0:
448,192,209760,1,0,0:0:0:0:
64,192,210127,1,0,0:0:0:0:
192,192,210127,1,0,0:0:0:0:
320,192,210127,1,0,0:0:0:0:
448,192,210310,1,0,0:0:0:0:
64,192,210493,1,0,0:0:0:0:
320,192,210493,1,0,0:0:0:0:
448,192,210493,1,0,0:0:0:0:
64,192,210860,1,0,0:0:0:0:
192,192,210860,1,0,0:0:0:0:
320,192,210860,1,0,0:0:0:0:
448,192,211043,1,0,0:0:0:0:
192,192,211043,1,0,0:0:0:0:
64,192,211227,1,0,0:0:0:0:
320,192,211227,1,0,0:0:0:0:
448,192,211227,1,0,0:0:0:0:
192,192,211410,1,0,0:0:0:0:
320,192,211410,1,0,0:0:0:0:
192,192,211593,1,0,0:0:0:0:
320,192,211593,1,0,0:0:0:0:
448,192,211593,1,0,0:0:0:0:
64,192,211777,1,0,0:0:0:0:
448,192,211777,1,0,0:0:0:0:
64,192,211961,1,0,0:0:0:0:
192,192,211961,1,0,0:0:0:0:
320,192,211961,1,0,0:0:0:0:
320,192,212143,1,0,0:0:0:0:
448,192,212143,1,0,0:0:0:0:
64,192,212327,1,0,0:0:0:0:
192,192,212327,1,0,0:0:0:0:
448,192,212327,1,0,0:0:0:0:
64,192,212511,1,0,0:0:0:0:
320,192,212511,1,0,0:0:0:0:
192,192,212693,1,0,0:0:0:0:
320,192,212693,1,0,0:0:0:0:
448,192,212693,1,0,0:0:0:0:
192,192,212877,1,0,0:0:0:0:
64,192,212877,1,0,0:0:0:0:
320,192,213061,1,0,0:0:0:0:
448,192,213061,1,0,0:0:0:0:
64,192,213061,1,0,0:0:0:0:
320,192,213243,1,0,0:0:0:0:
448,192,213243,1,0,0:0:0:0:
64,192,213427,1,0,0:0:0:0:
192,192,213427,1,0,0:0:0:0:
320,192,213427,1,0,0:0:0:0:
64,192,213611,1,0,0:0:0:0:
448,192,213611,1,0,0:0:0:0:
64,192,213795,1,0,0:0:0:0:
192,192,213795,1,0,0:0:0:0:
448,192,213795,1,0,0:0:0:0:
320,192,213977,1,0,0:0:0:0:
448,192,213977,1,0,0:0:0:0:
64,192,214161,1,0,0:0:0:0:
192,192,214161,1,0,0:0:0:0:
320,192,214161,1,0,0:0:0:0:
320,192,214345,1,0,0:0:0:0:
64,192,214345,1,0,0:0:0:0:
192,192,214527,1,0,0:0:0:0:
320,192,214527,1,0,0:0:0:0:
448,192,214527,1,0,0:0:0:0:
192,192,214711,1,0,0:0:0:0:
64,192,214711,1,0,0:0:0:0:
64,192,214895,1,0,0:0:0:0:
320,192,214895,1,0,0:0:0:0:
448,192,214895,1,0,0:0:0:0:
320,192,215077,1,0,0:0:0:0:
448,192,215077,1,0,0:0:0:0:
64,192,215261,1,0,0:0:0:0:
192,192,215261,1,0,0:0:0:0:
320,192,215261,1,0,0:0:0:0:
192,192,215445,1,0,0:0:0:0:
448,192,215445,1,0,0:0:0:0:
64,192,215628,1,0,0:0:0:0:
192,192,215628,1,0,0:0:0:0:
320,192,215628,1,0,0:0:0:0:
448,192,215628,1,0,0:0:0:0:
320,192,215811,1,0,0:0:0:0:
192,192,215811,1,0,0:0:0:0:
64,192,215811,1,0,0:0:0:0:
64,192,215995,1,0,0:0:0:0:
192,192,215995,1,0,0:0:0:0:
320,192,215995,1,0,0:0:0:0:
448,192,215995,1,0,0:0:0:0:
64,192,216178,1,0,0:0:0:0:
320,192,216178,1,0,0:0:0:0:
448,192,216178,1,0,0:0:0:0:
192,192,216361,1,0,0:0:0:0:
64,192,216361,1,0,0:0:0:0:
320,192,216361,1,0,0:0:0:0:
448,192,216361,1,0,0:0:0:0:
192,192,216545,1,0,0:0:0:0:
320,192,216545,1,0,0:0:0:0:
448,192,216545,1,0,0:0:0:0:
64,192,216728,1,0,0:0:0:0:
192,192,216728,1,0,0:0:0:0:
320,192,216728,1,0,0:0:0:0:
448,192,216728,1,0,0:0:0:0:
192,192,216911,1,0,0:0:0:0:
64,192,216911,1,0,0:0:0:0:
448,192,216911,1,0,0:0:0:0:
64,192,217095,1,0,0:0:0:0:
192,192,217095,1,0,0:0:0:0:
320,192,217095,1,0,0:0:0:0:
448,192,217095,1,0,0:0:0:0:
320,192,217278,1,0,0:0:0:0:
64,192,217278,1,0,0:0:0:0:
192,192,217278,1,0,0:0:0:0:
64,192,217462,1,0,0:0:0:0:
192,192,217462,1,0,0:0:0:0:
448,192,217462,1,0,0:0:0:0:
320,192,217462,1,0,0:0:0:0:
64,192,217645,1,0,0:0:0:0:
320,192,217645,1,0,0:0:0:0:
448,192,217645,1,0,0:0:0:0:
64,192,217828,1,0,0:0:0:0:
192,192,217828,1,0,0:0:0:0:
320,192,217828,1,0,0:0:0:0:
448,192,217828,1,0,0:0:0:0:
192,192,218012,1,0,0:0:0:0:
320,192,218012,1,0,0:0:0:0:
448,192,218012,1,0,0:0:0:0:
64,192,218195,1,0,0:0:0:0:
192,192,218195,1,0,0:0:0:0:
320,192,218195,1,0,0:0:0:0:
448,192,218195,1,0,0:0:0:0:
64,192,218378,1,0,0:0:0:0:
320,192,218378,1,0,0:0:0:0:
448,192,218378,1,0,0:0:0:0:
64,192,218562,1,0,0:0:0:0:
192,192,218562,1,0,0:0:0:0:
448,192,218562,1,0,0:0:0:0:
320,192,218562,1,0,0:0:0:0:
192,192,218745,1,0,0:0:0:0:
64,192,218745,1,0,0:0:0:0:
448,192,218745,1,0,0:0:0:0:
64,192,218928,1,0,0:0:0:0:
192,192,218928,1,0,0:0:0:0:
320,192,218928,1,0,0:0:0:0:
448,192,218928,1,0,0:0:0:0:
64,192,219112,1,0,0:0:0:0:
192,192,219112,1,0,0:0:0:0:
320,192,219112,1,0,0:0:0:0:
448,192,219112,1,0,0:0:0:0:
64,192,219296,1,0,0:0:0:0:
192,192,219296,1,0,0:0:0:0:
320,192,219296,1,0,0:0:0:0:
448,192,219296,1,0,0:0:0:0:
192,192,219478,1,0,0:0:0:0:
64,192,219478,1,0,0:0:0:0:
320,192,219478,1,0,0:0:0:0:
64,192,219662,1,0,0:0:0:0:
192,192,219662,1,0,0:0:0:0:
320,192,219662,1,0,0:0:0:0:
448,192,219662,1,0,0:0:0:0:
64,192,219846,1,0,0:0:0:0:
192,192,219846,1,0,0:0:0:0:
448,192,219846,1,0,0:0:0:0:
64,192,220028,1,0,0:0:0:0:
192,192,220028,1,0,0:0:0:0:
320,192,220028,1,0,0:0:0:0:
448,192,220028,1,0,0:0:0:0:
448,192,220212,1,0,0:0:0:0:
320,192,220212,1,0,0:0:0:0:
192,192,220212,1,0,0:0:0:0:
64,192,220396,1,0,0:0:0:0:
192,192,220396,1,0,0:0:0:0:
320,192,220396,1,0,0:0:0:0:
448,192,220396,1,0,0:0:0:0:
64,192,220487,1,0,0:0:0:0:
192,192,220578,1,0,0:0:0:0:
320,192,220578,1,0,0:0:0:0:
448,192,220578,1,0,0:0:0:0:
64,192,220671,1,0,0:0:0:0:
64,192,220762,1,0,0:0:0:0:
192,192,220762,1,0,0:0:0:0:
320,192,220762,1,0,0:0:0:0:
448,192,220762,1,0,0:0:0:0:
320,192,220853,1,0,0:0:0:0:
448,192,220946,1,0,0:0:0:0:
192,192,220946,1,0,0:0:0:0:
64,192,220946,1,0,0:0:0:0:
320,192,221037,1,0,0:0:0:0:
64,192,221130,1,0,0:0:0:0:
192,192,221130,1,0,0:0:0:0:
448,192,221130,1,0,0:0:0:0:
320,192,221130,1,0,0:0:0:0:
64,192,221221,1,0,0:0:0:0:
192,192,221312,1,0,0:0:0:0:
320,192,221312,1,0,0:0:0:0:
448,192,221312,1,0,0:0:0:0:
320,192,221405,1,0,0:0:0:0:
64,192,221496,128,0,221680:0:0:0:0:
320,192,221680,128,0,221862:0:0:0:0:
192,192,221862,128,0,222046:0:0:0:0:
448,192,222046,128,0,222412:0:0:0:0:
64,192,222412,1,0,0:0:0:0:
192,192,222412,1,0,0:0:0:0:
64,192,222596,1,0,0:0:0:0:
192,192,222596,1,0,0:0:0:0:
320,192,222596,1,0,0:0:0:0:
64,192,222780,1,0,0:0:0:0:
192,192,222780,1,0,0:0:0:0:
320,192,222780,1,0,0:0:0:0:
448,192,222780,1,0,0:0:0:0:
64,192,222962,1,0,0:0:0:0:
320,192,222962,1,0,0:0:0:0:
448,192,222962,1,0,0:0:0:0:
192,192,222962,1,0,0:0:0:0:
448,192,223055,1,0,0:0:0:0:
320,192,223055,1,0,0:0:0:0:
64,192,223146,1,0,0:0:0:0:
448,192,223146,1,0,0:0:0:0:
192,192,223146,1,0,0:0:0:0:
320,192,223238,1,0,0:0:0:0:
64,192,223238,1,0,0:0:0:0:
64,192,223330,1,0,0:0:0:0:
192,192,223330,1,0,0:0:0:0:
448,192,223330,1,0,0:0:0:0:
320,192,223330,1,0,0:0:0:0:
192,192,223421,1,0,0:0:0:0:
320,192,223421,1,0,0:0:0:0:
448,192,223513,1,0,0:0:0:0:
64,192,223513,1,0,0:0:0:0:
192,192,223513,1,0,0:0:0:0:
320,192,223605,1,0,0:0:0:0:
448,192,223605,1,0,0:0:0:0:
448,192,223696,1,0,0:0:0:0:
320,192,223696,1,0,0:0:0:0:
192,192,223696,1,0,0:0:0:0:
64,192,223696,1,0,0:0:0:0:
192,192,223788,1,0,0:0:0:0:
64,192,223788,1,0,0:0:0:0:
64,192,223880,1,0,0:0:0:0:
320,192,223880,1,0,0:0:0:0:
448,192,223880,1,0,0:0:0:0:
192,192,223971,1,0,0:0:0:0:
320,192,223971,1,0,0:0:0:0:
64,192,224063,1,0,0:0:0:0:
192,192,224063,1,0,0:0:0:0:
320,192,224063,1,0,0:0:0:0:
448,192,224063,1,0,0:0:0:0:
64,192,224155,1,0,0:0:0:0:
448,192,224155,1,0,0:0:0:0:
320,192,224246,1,0,0:0:0:0:
192,192,224246,1,0,0:0:0:0:
64,192,224246,1,0,0:0:0:0:
192,192,224338,1,0,0:0:0:0:
448,192,224338,1,0,0:0:0:0:
64,192,224430,1,0,0:0:0:0:
192,192,224430,1,0,0:0:0:0:
320,192,224430,1,0,0:0:0:0:
448,192,224430,1,0,0:0:0:0:
448,192,224521,1,0,0:0:0:0:
320,192,224521,1,0,0:0:0:0:
192,192,224613,1,0,0:0:0:0:
64,192,224613,1,0,0:0:0:0:
320,192,224613,1,0,0:0:0:0:
64,192,224705,1,0,0:0:0:0:
448,192,224705,1,0,0:0:0:0:
64,192,224796,1,0,0:0:0:0:
192,192,224796,1,0,0:0:0:0:
448,192,224796,1,0,0:0:0:0:
320,192,224796,1,0,0:0:0:0:
320,192,224888,1,0,0:0:0:0:
192,192,224888,1,0,0:0:0:0:
320,192,224980,1,0,0:0:0:0:
448,192,224980,1,0,0:0:0:0:
64,192,224980,1,0,0:0:0:0:
192,192,225072,1,0,0:0:0:0:
64,192,225072,1,0,0:0:0:0:
64,192,225163,1,0,0:0:0:0:
192,192,225163,1,0,0:0:0:0:
320,192,225163,1,0,0:0:0:0:
448,192,225163,1,0,0:0:0:0:
448,192,225255,1,0,0:0:0:0:
320,192,225255,1,0,0:0:0:0:
192,192,225347,1,0,0:0:0:0:
320,192,225347,1,0,0:0:0:0:
448,192,225347,1,0,0:0:0:0:
192,192,225438,1,0,0:0:0:0:
64,192,225438,1,0,0:0:0:0:
64,192,225530,1,0,0:0:0:0:
320,192,225530,1,0,0:0:0:0:
192,192,225530,1,0,0:0:0:0:
448,192,225530,1,0,0:0:0:0:
448,192,225622,1,0,0:0:0:0:
64,192,225622,1,0,0:0:0:0:
320,192,225713,1,0,0:0:0:0:
448,192,225713,1,0,0:0:0:0:
192,192,225713,1,0,0:0:0:0:
64,192,225805,1,0,0:0:0:0:
320,192,225805,1,0,0:0:0:0:
64,192,225897,1,0,0:0:0:0:
192,192,225897,1,0,0:0:0:0:
448,192,225897,1,0,0:0:0:0:
320,192,225897,1,0,0:0:0:0:
192,192,225988,1,0,0:0:0:0:
448,192,225988,1,0,0:0:0:0:
320,192,226080,1,0,0:0:0:0:
64,192,226080,1,0,0:0:0:0:
192,192,226080,1,0,0:0:0:0:
448,192,226172,1,0,0:0:0:0:
64,192,226172,1,0,0:0:0:0:
64,192,226263,1,0,0:0:0:0:
320,192,226263,1,0,0:0:0:0:
192,192,226263,1,0,0:0:0:0:
448,192,226263,1,0,0:0:0:0:
192,192,226355,1,0,0:0:0:0:
320,192,226355,1,0,0:0:0:0:
64,192,226447,1,0,0:0:0:0:
192,192,226447,1,0,0:0:0:0:
448,192,226447,1,0,0:0:0:0:
448,192,226538,1,0,0:0:0:0:
320,192,226538,1,0,0:0:0:0:
64,192,226630,1,0,0:0:0:0:
192,192,226630,1,0,0:0:0:0:
320,192,226630,1,0,0:0:0:0:
448,192,226630,1,0,0:0:0:0:
64,192,226722,1,0,0:0:0:0:
192,192,226722,1,0,0:0:0:0:
64,192,226813,1,0,0:0:0:0:
320,192,226813,1,0,0:0:0:0:
448,192,226813,1,0,0:0:0:0:
192,192,226906,1,0,0:0:0:0:
448,192,226906,1,0,0:0:0:0:
64,192,226997,1,0,0:0:0:0:
320,192,226997,1,0,0:0:0:0:
448,192,226997,1,0,0:0:0:0:
192,192,226997,1,0,0:0:0:0:
320,192,227088,1,0,0:0:0:0:
64,192,227088,1,0,0:0:0:0:
192,192,227181,1,0,0:0:0:0:
448,192,227181,1,0,0:0:0:0:
320,192,227181,1,0,0:0:0:0:
192,192,227272,1,0,0:0:0:0:
64,192,227272,1,0,0:0:0:0:
64,192,227363,1,0,0:0:0:0:
320,192,227363,1,0,0:0:0:0:
448,192,227363,1,0,0:0:0:0:
192,192,227363,1,0,0:0:0:0:
320,192,227456,1,0,0:0:0:0:
448,192,227456,1,0,0:0:0:0:
64,192,227547,1,0,0:0:0:0:
192,192,227547,1,0,0:0:0:0:
448,192,227547,1,0,0:0:0:0:
320,192,227638,1,0,0:0:0:0:
64,192,227638,1,0,0:0:0:0:
64,192,227731,1,0,0:0:0:0:
192,192,227731,1,0,0:0:0:0:
320,192,227731,1,0,0:0:0:0:
448,192,227731,1,0,0:0:0:0:
192,192,227822,1,0,0:0:0:0:
448,192,227822,1,0,0:0:0:0:
320,192,227913,1,0,0:0:0:0:
448,192,227913,1,0,0:0:0:0:
64,192,227913,1,0,0:0:0:0:
192,192,228006,1,0,0:0:0:0:
64,192,228006,1,0,0:0:0:0:
64,192,228097,1,0,0:0:0:0:
320,192,228097,1,0,0:0:0:0:
192,192,228097,1,0,0:0:0:0:
448,192,228097,1,0,0:0:0:0:
320,192,228188,1,0,0:0:0:0:
448,192,228188,1,0,0:0:0:0:
320,192,228281,1,0,0:0:0:0:
192,192,228281,1,0,0:0:0:0:
64,192,228281,1,0,0:0:0:0:
64,192,228372,1,0,0:0:0:0:
448,192,228372,1,0,0:0:0:0:
64,192,228463,1,0,0:0:0:0:
192,192,228463,1,0,0:0:0:0:
448,192,228463,1,0,0:0:0:0:
320,192,228463,1,0,0:0:0:0:
320,192,228556,1,0,0:0:0:0:
192,192,228556,1,0,0:0:0:0:
64,192,228647,1,0,0:0:0:0:
192,192,228647,1,0,0:0:0:0:
320,192,228647,1,0,0:0:0:0:
448,192,228647,1,0,0:0:0:0:
64,192,228740,1,0,0:0:0:0:
448,192,228740,1,0,0:0:0:0:
64,192,228831,1,0,0:0:0:0:
192,192,228831,1,0,0:0:0:0:
320,192,228831,1,0,0:0:0:0:
448,192,228831,1,0,0:0:0:0:
320,192,228922,1,0,0:0:0:0:
192,192,228922,1,0,0:0:0:0:
64,192,229015,1,0,0:0:0:0:
192,192,229015,1,0,0:0:0:0:
320,192,229015,1,0,0:0:0:0:
448,192,229106,1,0,0:0:0:0:
64,192,229106,1,0,0:0:0:0:
192,192,229197,1,0,0:0:0:0:
320,192,229197,1,0,0:0:0:0:
448,192,229197,1,0,0:0:0:0:
64,192,229197,1,0,0:0:0:0:
192,192,229290,1,0,0:0:0:0:
320,192,229290,1,0,0:0:0:0:
64,192,229381,1,0,0:0:0:0:
320,192,229381,1,0,0:0:0:0:
448,192,229381,1,0,0:0:0:0:
192,192,229472,1,0,0:0:0:0:
64,192,229472,1,0,0:0:0:0:
192,192,229565,1,0,0:0:0:0:
320,192,229565,1,0,0:0:0:0:
448,192,229565,1,0,0:0:0:0:
64,192,229565,1,0,0:0:0:0:
448,192,229656,1,0,0:0:0:0:
320,192,229656,1,0,0:0:0:0:
192,192,229747,1,0,0:0:0:0:
320,192,229747,1,0,0:0:0:0:
448,192,229747,1,0,0:0:0:0:
64,192,229840,1,0,0:0:0:0:
192,192,229840,1,0,0:0:0:0:
64,192,229931,1,0,0:0:0:0:
192,192,229931,1,0,0:0:0:0:
320,192,229931,1,0,0:0:0:0:
448,192,229931,1,0,0:0:0:0:
320,192,230022,1,0,0:0:0:0:
448,192,230022,1,0,0:0:0:0:
64,192,230115,1,0,0:0:0:0:
192,192,230115,1,0,0:0:0:0:
448,192,230115,1,0,0:0:0:0:
320,192,230206,1,0,0:0:0:0:
64,192,230206,1,0,0:0:0:0:
64,192,230297,1,0,0:0:0:0:
192,192,230297,1,0,0:0:0:0:
320,192,230297,1,0,0:0:0:0:
448,192,230297,1,0,0:0:0:0:
192,192,230390,1,0,0:0:0:0:
448,192,230390,1,0,0:0:0:0:
320,192,230481,1,0,0:0:0:0:
192,192,230481,1,0,0:0:0:0:
64,192,230481,1,0,0:0:0:0:
320,192,230573,1,0,0:0:0:0:
448,192,230573,1,0,0:0:0:0:
64,192,230665,1,0,0:0:0:0:
192,192,230665,1,0,0:0:0:0:
448,192,230665,1,0,0:0:0:0:
320,192,230665,1,0,0:0:0:0:
192,192,230756,1,0,0:0:0:0:
64,192,230756,1,0,0:0:0:0:
192,192,230848,1,0,0:0:0:0:
320,192,230848,1,0,0:0:0:0:
448,192,230848,1,0,0:0:0:0:
64,192,230940,1,0,0:0:0:0:
320,192,230940,1,0,0:0:0:0:
192,192,231031,1,0,0:0:0:0:
64,192,231031,1,0,0:0:0:0:
448,192,231031,1,0,0:0:0:0:
320,192,231031,1,0,0:0:0:0:
192,192,231123,1,0,0:0:0:0:
448,192,231123,1,0,0:0:0:0:
64,192,231215,1,0,0:0:0:0:
320,192,231215,1,0,0:0:0:0:
448,192,231215,1,0,0:0:0:0:
192,192,231306,1,0,0:0:0:0:
64,192,231306,1,0,0:0:0:0:
320,192,231398,1,0,0:0:0:0:
448,192,231398,1,0,0:0:0:0:
192,192,231398,1,0,0:0:0:0:
64,192,231398,1,0,0:0:0:0:
320,192,231490,1,0,0:0:0:0:
448,192,231490,1,0,0:0:0:0:
64,192,231581,1,0,0:0:0:0:
320,192,231581,1,0,0:0:0:0:
448,192,231581,1,0,0:0:0:0:
192,192,231673,1,0,0:0:0:0:
64,192,231673,1,0,0:0:0:0:
64,192,231765,1,0,0:0:0:0:
320,192,231765,1,0,0:0:0:0:
448,192,231765,1,0,0:0:0:0:
192,192,231765,1,0,0:0:0:0:
192,192,231856,1,0,0:0:0:0:
320,192,231856,1,0,0:0:0:0:
64,192,231948,1,0,0:0:0:0:
320,192,231948,1,0,0:0:0:0:
448,192,231948,1,0,0:0:0:0:
448,192,232040,1,0,0:0:0:0:
192,192,232040,1,0,0:0:0:0:
64,192,232131,1,0,0:0:0:0:
192,192,232131,1,0,0:0:0:0:
320,192,232131,1,0,0:0:0:0:
448,192,232131,1,0,0:0:0:0:
320,192,232223,1,0,0:0:0:0:
64,192,232223,1,0,0:0:0:0:
192,192,232315,1,0,0:0:0:0:
64,192,232315,1,0,0:0:0:0:
448,192,232315,1,0,0:0:0:0:
320,192,232407,1,0,0:0:0:0:
448,192,232407,1,0,0:0:0:0:
64,192,232498,1,0,0:0:0:0:
192,192,232498,1,0,0:0:0:0:
448,192,232498,1,0,0:0:0:0:
320,192,232498,1,0,0:0:0:0:
192,192,232590,1,0,0:0:0:0:
64,192,232590,1,0,0:0:0:0:
64,192,232682,1,0,0:0:0:0:
448,192,232682,1,0,0:0:0:0:
192,192,232682,1,0,0:0:0:0:
448,192,232773,1,0,0:0:0:0:
320,192,232773,1,0,0:0:0:0:
448,192,232865,1,0,0:0:0:0:
320,192,232865,1,0,0:0:0:0:
192,192,232865,1,0,0:0:0:0:
64,192,232865,1,0,0:0:0:0:
192,192,232957,1,0,0:0:0:0:
64,192,232957,1,0,0:0:0:0:
448,192,233048,1,0,0:0:0:0:
192,192,233048,1,0,0:0:0:0:
320,192,233048,1,0,0:0:0:0:
64,192,233140,1,0,0:0:0:0:
320,192,233140,1,0,0:0:0:0:
448,192,233232,1,0,0:0:0:0:
320,192,233232,1,0,0:0:0:0:
192,192,233232,1,0,0:0:0:0:
64,192,233232,1,0,0:0:0:0:
192,192,233323,1,0,0:0:0:0:
448,192,233323,1,0,0:0:0:0:
320,192,233415,1,0,0:0:0:0:
192,192,233415,1,0,0:0:0:0:
64,192,233415,1,0,0:0:0:0:
448,192,233507,1,0,0:0:0:0:
64,192,233507,1,0,0:0:0:0:
64,192,233598,1,0,0:0:0:0:
192,192,233598,1,0,0:0:0:0:
320,192,233598,1,0,0:0:0:0:
448,192,233598,1,0,0:0:0:0:
192,192,233690,1,0,0:0:0:0:
320,192,233690,1,0,0:0:0:0:
448,192,233782,1,0,0:0:0:0:
192,192,233782,1,0,0:0:0:0:
64,192,233782,1,0,0:0:0:0:
320,192,233873,1,0,0:0:0:0:
448,192,233873,1,0,0:0:0:0:
64,192,233965,1,0,0:0:0:0:
192,192,233965,1,0,0:0:0:0:
320,192,233965,1,0,0:0:0:0:
448,192,233965,1,0,0:0:0:0:
64,192,234057,1,0,0:0:0:0:
192,192,234057,1,0,0:0:0:0:
448,192,234148,1,0,0:0:0:0:
320,192,234195,1,0,0:0:0:0:
64,192,234241,1,0,0:0:0:0:
192,192,234286,1,0,0:0:0:0:
320,192,234332,1,0,0:0:0:0:
448,192,234332,1,0,0:0:0:0:
64,192,234423,1,0,0:0:0:0:
448,192,234423,1,0,0:0:0:0:
192,192,234516,1,0,0:0:0:0:
320,192,234561,1,0,0:0:0:0:
64,192,234607,1,0,0:0:0:0:
448,192,234607,1,0,0:0:0:0:
192,192,234698,1,0,0:0:0:0:
320,192,234698,1,0,0:0:0:0:
448,192,234698,1,0,0:0:0:0:
64,192,234698,1,0,0:0:0:0:
192,192,234791,1,0,0:0:0:0:
320,192,234791,1,0,0:0:0:0:
64,192,234882,1,0,0:0:0:0:
192,192,234882,1,0,0:0:0:0:
448,192,234882,1,0,0:0:0:0:
320,192,234973,1,0,0:0:0:0:
448,192,234973,1,0,0:0:0:0:
448,192,235066,1,0,0:0:0:0:
320,192,235066,1,0,0:0:0:0:
192,192,235066,1,0,0:0:0:0:
64,192,235066,1,0,0:0:0:0:
192,192,235157,1,0,0:0:0:0:
64,192,235157,1,0,0:0:0:0:
320,192,235248,1,0,0:0:0:0:
448,192,235248,1,0,0:0:0:0:
192,192,235248,1,0,0:0:0:0:
64,192,235341,1,0,0:0:0:0:
448,192,235341,1,0,0:0:0:0:
64,192,235432,1,0,0:0:0:0:
192,192,235432,1,0,0:0:0:0:
320,192,235432,1,0,0:0:0:0:
448,192,235432,1,0,0:0:0:0:
320,192,235523,1,0,0:0:0:0:
192,192,235523,1,0,0:0:0:0:
64,192,235616,1,0,0:0:0:0:
192,192,235616,1,0,0:0:0:0:
448,192,235616,1,0,0:0:0:0:
320,192,235707,1,0,0:0:0:0:
448,192,235707,1,0,0:0:0:0:
64,192,235798,1,0,0:0:0:0:
192,192,235798,1,0,0:0:0:0:
320,192,235798,1,0,0:0:0:0:
448,192,235798,1,0,0:0:0:0:
192,192,235891,1,0,0:0:0:0:
64,192,235891,1,0,0:0:0:0:
64,192,235982,1,0,0:0:0:0:
448,192,235982,1,0,0:0:0:0:
320,192,235982,1,0,0:0:0:0:
192,192,236075,1,0,0:0:0:0:
448,192,236075,1,0,0:0:0:0:
64,192,236166,1,0,0:0:0:0:
192,192,236166,1,0,0:0:0:0:
448,192,236166,1,0,0:0:0:0:
320,192,236166,1,0,0:0:0:0:
320,192,236257,1,0,0:0:0:0:
64,192,236257,1,0,0:0:0:0:
192,192,236350,1,0,0:0:0:0:
64,192,236350,1,0,0:0:0:0:
448,192,236350,1,0,0:0:0:0:
320,192,236441,1,0,0:0:0:0:
192,192,236441,1,0,0:0:0:0:
64,192,236532,1,0,0:0:0:0:
192,192,236532,1,0,0:0:0:0:
320,192,236532,1,0,0:0:0:0:
448,192,236532,1,0,0:0:0:0:
64,192,236625,1,0,0:0:0:0:
448,192,236625,1,0,0:0:0:0:
192,192,236716,1,0,0:0:0:0:
320,192,236716,1,0,0:0:0:0:
448,192,236716,1,0,0:0:0:0:
64,192,236807,1,0,0:0:0:0:
320,192,236807,1,0,0:0:0:0:
64,192,236900,1,0,0:0:0:0:
320,192,236900,1,0,0:0:0:0:
192,192,236900,1,0,0:0:0:0:
448,192,236900,1,0,0:0:0:0:
192,192,236991,1,0,0:0:0:0:
448,192,236991,1,0,0:0:0:0:
320,192,237082,1,0,0:0:0:0:
448,192,237082,1,0,0:0:0:0:
64,192,237082,1,0,0:0:0:0:
192,192,237175,1,0,0:0:0:0:
64,192,237175,1,0,0:0:0:0:
64,192,237266,1,0,0:0:0:0:
192,192,237266,1,0,0:0:0:0:
320,192,237266,1,0,0:0:0:0:
448,192,237266,1,0,0:0:0:0:
320,192,237357,1,0,0:0:0:0:
448,192,237357,1,0,0:0:0:0:
64,192,237450,1,0,0:0:0:0:
192,192,237450,1,0,0:0:0:0:
448,192,237450,1,0,0:0:0:0:
320,192,237541,1,0,0:0:0:0:
192,192,237541,1,0,0:0:0:0:
64,192,237632,1,0,0:0:0:0:
192,192,237632,1,0,0:0:0:0:
320,192,237632,1,0,0:0:0:0:
448,192,237632,1,0,0:0:0:0:
64,192,237725,1,0,0:0:0:0:
448,192,237725,1,0,0:0:0:0:
192,192,237816,1,0,0:0:0:0:
320,192,237816,1,0,0:0:0:0:
448,192,237816,1,0,0:0:0:0:
320,192,237908,1,0,0:0:0:0:
64,192,237908,1,0,0:0:0:0:
64,192,238000,1,0,0:0:0:0:
192,192,238000,1,0,0:0:0:0:
448,192,238000,1,0,0:0:0:0:
320,192,238000,1,0,0:0:0:0:
192,192,238091,1,0,0:0:0:0:
448,192,238091,1,0,0:0:0:0:
320,192,238183,1,0,0:0:0:0:
192,192,238183,1,0,0:0:0:0:
64,192,238183,1,0,0:0:0:0:
448,192,238275,1,0,0:0:0:0:
64,192,238275,1,0,0:0:0:0:
64,192,238366,1,0,0:0:0:0:
192,192,238366,1,0,0:0:0:0:
448,192,238366,1,0,0:0:0:0:
320,192,238366,1,0,0:0:0:0:
192,192,238458,1,0,0:0:0:0:
320,192,238458,1,0,0:0:0:0:
320,192,238550,1,0,0:0:0:0:
448,192,238550,1,0,0:0:0:0:
64,192,238550,1,0,0:0:0:0:
192,192,238641,1,0,0:0:0:0:
64,192,238641,1,0,0:0:0:0:
64,192,238733,1,0,0:0:0:0:
192,192,238733,1,0,0:0:0:0:
320,192,238733,1,0,0:0:0:0:
448,192,238733,1,0,0:0:0:0:
320,192,238825,1,0,0:0:0:0:
448,192,238825,1,0,0:0:0:0:
64,192,238916,1,0,0:0:0:0:
192,192,238916,1,0,0:0:0:0:
320,192,238916,1,0,0:0:0:0:
448,192,239008,1,0,0:0:0:0:
64,192,239008,1,0,0:0:0:0:
64,192,239100,1,0,0:0:0:0:
192,192,239100,1,0,0:0:0:0:
448,192,239100,1,0,0:0:0:0:
320,192,239100,1,0,0:0:0:0:
192,192,239191,1,0,0:0:0:0:
320,192,239191,1,0,0:0:0:0:
320,192,239283,1,0,0:0:0:0:
64,192,239283,1,0,0:0:0:0:
448,192,239283,1,0,0:0:0:0:
64,192,239375,1,0,0:0:0:0:
192,192,239375,1,0,0:0:0:0:
64,192,239466,1,0,0:0:0:0:
192,192,239466,1,0,0:0:0:0:
448,192,239466,1,0,0:0:0:0:
320,192,239466,1,0,0:0:0:0:
320,192,239558,1,0,0:0:0:0:
448,192,239558,1,0,0:0:0:0:
192,192,239650,1,0,0:0:0:0:
64,192,239650,1,0,0:0:0:0:
320,192,239650,1,0,0:0:0:0:
448,192,239742,1,0,0:0:0:0:
64,192,239742,1,0,0:0:0:0:
448,192,239833,1,0,0:0:0:0:
320,192,239833,1,0,0:0:0:0:
64,192,239833,1,0,0:0:0:0:
192,192,239833,1,0,0:0:0:0:
320,192,239925,1,0,0:0:0:0:
192,192,239925,1,0,0:0:0:0:
64,192,240017,1,0,0:0:0:0:
192,192,240017,1,0,0:0:0:0:
448,192,240017,1,0,0:0:0:0:
320,192,240108,1,0,0:0:0:0:
448,192,240108,1,0,0:0:0:0:
64,192,240200,1,0,0:0:0:0:
192,192,240200,1,0,0:0:0:0:
320,192,240200,1,0,0:0:0:0:
448,192,240200,1,0,0:0:0:0:
64,192,240292,1,0,0:0:0:0:
192,192,240292,1,0,0:0:0:0:
64,192,240383,1,0,0:0:0:0:
320,192,240383,1,0,0:0:0:0:
448,192,240383,1,0,0:0:0:0:
192,192,240475,1,0,0:0:0:0:
448,192,240475,1,0,0:0:0:0:
64,192,240567,1,0,0:0:0:0:
192,192,240567,1,0,0:0:0:0:
320,192,240567,1,0,0:0:0:0:
448,192,240567,1,0,0:0:0:0:
320,192,240658,1,0,0:0:0:0:
64,192,240658,1,0,0:0:0:0:
192,192,240750,1,0,0:0:0:0:
64,192,240750,1,0,0:0:0:0:
448,192,240750,1,0,0:0:0:0:
320,192,240842,1,0,0:0:0:0:
448,192,240842,1,0,0:0:0:0:
448,192,240933,1,0,0:0:0:0:
320,192,240933,1,0,0:0:0:0:
64,192,240933,1,0,0:0:0:0:
192,192,240933,1,0,0:0:0:0:
64,192,241025,1,0,0:0:0:0:
192,192,241025,1,0,0:0:0:0:
192,192,241117,1,0,0:0:0:0:
320,192,241117,1,0,0:0:0:0:
448,192,241117,1,0,0:0:0:0:
64,192,241208,1,0,0:0:0:0:
448,192,241208,1,0,0:0:0:0:
64,192,241300,1,0,0:0:0:0:
192,192,241300,1,0,0:0:0:0:
320,192,241300,1,0,0:0:0:0:
448,192,241300,1,0,0:0:0:0:
320,192,241392,1,0,0:0:0:0:
192,192,241392,1,0,0:0:0:0:
64,192,241483,1,0,0:0:0:0:
192,192,241483,1,0,0:0:0:0:
448,192,241483,1,0,0:0:0:0:
320,192,241575,1,0,0:0:0:0:
448,192,241575,1,0,0:0:0:0:
64,192,241667,1,0,0:0:0:0:
192,192,241667,1,0,0:0:0:0:
320,192,241667,1,0,0:0:0:0:
448,192,241667,1,0,0:0:0:0:
192,192,241758,1,0,0:0:0:0:
64,192,241758,1,0,0:0:0:0:
64,192,241851,1,0,0:0:0:0:
320,192,241851,1,0,0:0:0:0:
448,192,241851,1,0,0:0:0:0:
192,192,241942,1,0,0:0:0:0:
320,192,241942,1,0,0:0:0:0:
64,192,242033,1,0,0:0:0:0:
192,192,242033,1,0,0:0:0:0:
320,192,242033,1,0,0:0:0:0:
448,192,242033,1,0,0:0:0:0:
64,192,242126,1,0,0:0:0:0:
448,192,242126,1,0,0:0:0:0:
320,192,242217,1,0,0:0:0:0:
192,192,242217,1,0,0:0:0:0:
64,192,242217,1,0,0:0:0:0:
320,192,242308,1,0,0:0:0:0:
448,192,242308,1,0,0:0:0:0:
64,192,242401,1,0,0:0:0:0:
192,192,242401,1,0,0:0:0:0:
320,192,242401,1,0,0:0:0:0:
448,192,242401,1,0,0:0:0:0:
192,192,242492,1,0,0:0:0:0:
64,192,242492,1,0,0:0:0:0:
64,192,242583,1,0,0:0:0:0:
448,192,242583,1,0,0:0:0:0:
320,192,242583,1,0,0:0:0:0:
448,192,242676,1,0,0:0:0:0:
192,192,242676,1,0,0:0:0:0:
64,192,242767,1,0,0:0:0:0:
192,192,242767,1,0,0:0:0:0:
448,192,242767,1,0,0:0:0:0:
320,192,242767,1,0,0:0:0:0:
320,192,242858,1,0,0:0:0:0:
64,192,242858,1,0,0:0:0:0:
192,192,242951,1,0,0:0:0:0:
320,192,242951,1,0,0:0:0:0:
448,192,242951,1,0,0:0:0:0:
192,192,243042,1,0,0:0:0:0:
64,192,243042,1,0,0:0:0:0:
448,192,243133,1,0,0:0:0:0:
320,192,243133,1,0,0:0:0:0:
192,192,243133,1,0,0:0:0:0:
64,192,243133,1,0,0:0:0:0:
320,192,243226,1,0,0:0:0:0:
448,192,243226,1,0,0:0:0:0:
192,192,243317,1,0,0:0:0:0:
64,192,243317,1,0,0:0:0:0:
448,192,243317,1,0,0:0:0:0:
320,192,243408,1,0,0:0:0:0:
64,192,243408,1,0,0:0:0:0:
64,192,243501,1,0,0:0:0:0:
192,192,243501,1,0,0:0:0:0:
448,192,243501,1,0,0:0:0:0:
320,192,243592,1,0,0:0:0:0:
448,192,243685,1,0,0:0:0:0:
64,192,243776,1,0,0:0:0:0:
192,192,243867,1,0,0:0:0:0:
448,192,243960,1,0,0:0:0:0:
64,192,244051,1,0,0:0:0:0:
320,192,244142,1,0,0:0:0:0:
192,192,244235,1,0,0:0:0:0:
64,192,244326,1,0,0:0:0:0:
448,192,244417,1,0,0:0:0:0:
320,192,244510,1,0,0:0:0:0:
192,192,244601,1,0,0:0:0:0:
64,192,244692,1,0,0:0:0:0:
192,192,244785,1,0,0:0:0:0:
320,192,244876,1,0,0:0:0:0:
448,192,244967,1,0,0:0:0:0:
64,192,244967,1,0,0:0:0:0:
192,192,244967,1,0,0:0:0:0:
320,192,245060,1,0,0:0:0:0:
192,192,245151,1,0,0:0:0:0:
64,192,245151,1,0,0:0:0:0:
448,192,245242,1,0,0:0:0:0:
320,192,245335,1,0,0:0:0:0:
64,192,245335,1,0,0:0:0:0:
192,192,245335,1,0,0:0:0:0:
448,192,245426,1,0,0:0:0:0:
64,192,245518,1,0,0:0:0:0:
320,192,245518,1,0,0:0:0:0:
192,192,245610,1,0,0:0:0:0:
320,192,245701,1,0,0:0:0:0:
448,192,245701,1,0,0:0:0:0:
64,192,245793,1,0,0:0:0:0:
448,192,245885,1,0,0:0:0:0:
320,192,245931,1,0,0:0:0:0:
64,192,245976,1,0,0:0:0:0:
192,192,246022,1,0,0:0:0:0:
320,192,246068,1,0,0:0:0:0:
448,192,246068,1,0,0:0:0:0:
448,192,246160,1,0,0:0:0:0:
64,192,246160,1,0,0:0:0:0:
64,192,246251,1,0,0:0:0:0:
192,192,246297,1,0,0:0:0:0:
448,192,246343,1,0,0:0:0:0:
320,192,246343,1,0,0:0:0:0:
64,192,246435,1,0,0:0:0:0:
192,192,246435,1,0,0:0:0:0:
448,192,246435,1,0,0:0:0:0:
320,192,246435,1,0,0:0:0:0:
192,192,246526,1,0,0:0:0:0:
448,192,246526,1,0,0:0:0:0:
64,192,246618,1,0,0:0:0:0:
448,192,246618,1,0,0:0:0:0:
320,192,246618,1,0,0:0:0:0:
192,192,246710,1,0,0:0:0:0:
448,192,246710,1,0,0:0:0:0:
320,192,246801,1,0,0:0:0:0:
448,192,246801,1,0,0:0:0:0:
192,192,246801,1,0,0:0:0:0:
64,192,246801,1,0,0:0:0:0:
64,192,246893,1,0,0:0:0:0:
320,192,246893,1,0,0:0:0:0:
192,192,246985,1,0,0:0:0:0:
64,192,246985,1,0,0:0:0:0:
448,192,246985,1,0,0:0:0:0:
320,192,247076,1,0,0:0:0:0:
448,192,247076,1,0,0:0:0:0:
448,192,247168,1,0,0:0:0:0:
320,192,247168,1,0,0:0:0:0:
192,192,247168,1,0,0:0:0:0:
64,192,247168,1,0,0:0:0:0:
64,192,247260,1,0,0:0:0:0:
192,192,247260,1,0,0:0:0:0:
448,192,247352,1,0,0:0:0:0:
320,192,247352,1,0,0:0:0:0:
64,192,247352,1,0,0:0:0:0:
192,192,247443,1,0,0:0:0:0:
448,192,247443,1,0,0:0:0:0:
448,192,247535,1,0,0:0:0:0:
320,192,247535,1,0,0:0:0:0:
192,192,247535,1,0,0:0:0:0:
64,192,247535,1,0,0:0:0:0:
64,192,247627,1,0,0:0:0:0:
320,192,247627,1,0,0:0:0:0:
192,192,247718,1,0,0:0:0:0:
64,192,247718,1,0,0:0:0:0:
448,192,247718,1,0,0:0:0:0:
320,192,247810,1,0,0:0:0:0:
192,192,247810,1,0,0:0:0:0:
64,192,247902,1,0,0:0:0:0:
320,192,247902,1,0,0:0:0:0:
448,192,247902,1,0,0:0:0:0:
192,192,247902,1,0,0:0:0:0:
64,192,247993,1,0,0:0:0:0:
448,192,247993,1,0,0:0:0:0:
320,192,248085,1,0,0:0:0:0:
64,192,248085,1,0,0:0:0:0:
192,192,248085,1,0,0:0:0:0:
448,192,248177,1,0,0:0:0:0:
320,192,248177,1,0,0:0:0:0:
64,192,248268,1,0,0:0:0:0:
192,192,248268,1,0,0:0:0:0:
320,192,248268,1,0,0:0:0:0:
448,192,248268,1,0,0:0:0:0:
192,192,248360,1,0,0:0:0:0:
64,192,248360,1,0,0:0:0:0:
64,192,248452,1,0,0:0:0:0:
192,192,248452,1,0,0:0:0:0:
448,192,248452,1,0,0:0:0:0:
192,192,248543,1,0,0:0:0:0:
448,192,248543,1,0,0:0:0:0:
64,192,248635,1,0,0:0:0:0:
192,192,248635,1,0,0:0:0:0:
320,192,248635,1,0,0:0:0:0:
448,192,248635,1,0,0:0:0:0:
320,192,248727,1,0,0:0:0:0:
64,192,248727,1,0,0:0:0:0:
192,192,248818,1,0,0:0:0:0:
320,192,248818,1,0,0:0:0:0:
448,192,248818,1,0,0:0:0:0:
64,192,248910,1,0,0:0:0:0:
448,192,248910,1,0,0:0:0:0:
64,192,249002,1,0,0:0:0:0:
192,192,249002,1,0,0:0:0:0:
320,192,249002,1,0,0:0:0:0:
448,192,249002,1,0,0:0:0:0:
320,192,249093,1,0,0:0:0:0:
192,192,249093,1,0,0:0:0:0:
64,192,249186,1,0,0:0:0:0:
320,192,249186,1,0,0:0:0:0:
448,192,249186,1,0,0:0:0:0:
192,192,249277,1,0,0:0:0:0:
64,192,249277,1,0,0:0:0:0:
64,192,249368,1,0,0:0:0:0:
320,192,249368,1,0,0:0:0:0:
192,192,249368,1,0,0:0:0:0:
448,192,249368,1,0,0:0:0:0:
320,192,249461,1,0,0:0:0:0:
448,192,249461,1,0,0:0:0:0:
64,192,249552,1,0,0:0:0:0:
192,192,249552,1,0,0:0:0:0:
448,192,249552,1,0,0:0:0:0:
320,192,249643,1,0,0:0:0:0:
192,192,249643,1,0,0:0:0:0:
64,192,249736,1,0,0:0:0:0:
192,192,249736,1,0,0:0:0:0:
448,192,249736,1,0,0:0:0:0:
320,192,249736,1,0,0:0:0:0:
192,192,249827,1,0,0:0:0:0:
448,192,249827,1,0,0:0:0:0:
192,192,249918,1,0,0:0:0:0:
320,192,249918,1,0,0:0:0:0:
448,192,249918,1,0,0:0:0:0:
64,192,250011,1,0,0:0:0:0:
320,192,250011,1,0,0:0:0:0:
64,192,250102,1,0,0:0:0:0:
192,192,250102,1,0,0:0:0:0:
320,192,250102,1,0,0:0:0:0:
448,192,250102,1,0,0:0:0:0:
320,192,250193,1,0,0:0:0:0:
448,192,250193,1,0,0:0:0:0:
64,192,250286,1,0,0:0:0:0:
192,192,250286,1,0,0:0:0:0:
448,192,250286,1,0,0:0:0:0:
320,192,250377,1,0,0:0:0:0:
64,192,250377,1,0,0:0:0:0:
64,192,250468,1,0,0:0:0:0:
192,192,250468,1,0,0:0:0:0:
320,192,250468,1,0,0:0:0:0:
448,192,250468,1,0,0:0:0:0:
192,192,250561,1,0,0:0:0:0:
320,192,250561,1,0,0:0:0:0:
320,192,250652,1,0,0:0:0:0:
192,192,250652,1,0,0:0:0:0:
64,192,250652,1,0,0:0:0:0:
448,192,250743,1,0,0:0:0:0:
64,192,250743,1,0,0:0:0:0:
192,192,250836,1,0,0:0:0:0:
320,192,250836,1,0,0:0:0:0:
64,192,250836,1,0,0:0:0:0:
448,192,250836,1,0,0:0:0:0:
192,192,250927,1,0,0:0:0:0:
320,192,250927,1,0,0:0:0:0:
448,192,251020,1,0,0:0:0:0:
320,192,251020,1,0,0:0:0:0:
64,192,251020,1,0,0:0:0:0:
192,192,251111,1,0,0:0:0:0:
448,192,251111,1,0,0:0:0:0:
64,192,251202,1,0,0:0:0:0:
192,192,251202,1,0,0:0:0:0:
320,192,251202,1,0,0:0:0:0:
448,192,251202,1,0,0:0:0:0:
320,192,251295,1,0,0:0:0:0:
64,192,251295,1,0,0:0:0:0:
192,192,251386,1,0,0:0:0:0:
64,192,251386,1,0,0:0:0:0:
448,192,251386,1,0,0:0:0:0:
448,192,251477,1,0,0:0:0:0:
64,192,251477,1,0,0:0:0:0:
448,192,251570,1,0,0:0:0:0:
320,192,251570,1,0,0:0:0:0:
64,192,251570,1,0,0:0:0:0:
192,192,251570,1,0,0:0:0:0:
320,192,251661,1,0,0:0:0:0:
64,192,251661,1,0,0:0:0:0:
192,192,251752,1,0,0:0:0:0:
448,192,251752,1,0,0:0:0:0:
64,192,251752,1,0,0:0:0:0:
448,192,251845,1,0,0:0:0:0:
320,192,251845,1,0,0:0:0:0:
64,192,251936,1,0,0:0:0:0:
192,192,251936,1,0,0:0:0:0:
320,192,251936,1,0,0:0:0:0:
448,192,251936,1,0,0:0:0:0:
192,192,252027,1,0,0:0:0:0:
64,192,252027,1,0,0:0:0:0:
448,192,252120,1,0,0:0:0:0:
320,192,252120,1,0,0:0:0:0:
192,192,252120,1,0,0:0:0:0:
64,192,252120,1,0,0:0:0:0:
448,192,252211,1,0,0:0:0:0:
320,192,252211,1,0,0:0:0:0:
192,192,252302,1,0,0:0:0:0:
320,192,252302,1,0,0:0:0:0:
448,192,252302,1,0,0:0:0:0:
64,192,252302,1,0,0:0:0:0:
64,192,252395,1,0,0:0:0:0:
192,192,252395,1,0,0:0:0:0:
320,192,252486,1,0,0:0:0:0:
448,192,252486,1,0,0:0:0:0:
64,192,252486,1,0,0:0:0:0:
192,192,252577,1,0,0:0:0:0:
320,192,252577,1,0,0:0:0:0:
64,192,252670,1,0,0:0:0:0:
192,192,252670,1,0,0:0:0:0:
448,192,252670,1,0,0:0:0:0:
320,192,252670,1,0,0:0:0:0:
64,192,252761,1,0,0:0:0:0:
448,192,252761,1,0,0:0:0:0:
320,192,252853,1,0,0:0:0:0:
192,192,252853,1,0,0:0:0:0:
64,192,252853,1,0,0:0:0:0:
192,192,252945,1,0,0:0:0:0:
448,192,252945,1,0,0:0:0:0:
64,192,253036,1,0,0:0:0:0:
192,192,253036,1,0,0:0:0:0:
320,192,253036,1,0,0:0:0:0:
448,192,253036,1,0,0:0:0:0:
320,192,253128,1,0,0:0:0:0:
448,192,253128,1,0,0:0:0:0:
192,192,253220,1,0,0:0:0:0:
64,192,253220,1,0,0:0:0:0:
448,192,253220,1,0,0:0:0:0:
64,192,253311,1,0,0:0:0:0:
448,192,253311,1,0,0:0:0:0:
64,192,253403,1,0,0:0:0:0:
320,192,253403,1,0,0:0:0:0:
448,192,253403,1,0,0:0:0:0:
192,192,253403,1,0,0:0:0:0:
192,192,253495,1,0,0:0:0:0:
320,192,253495,1,0,0:0:0:0:
64,192,253586,1,0,0:0:0:0:
320,192,253586,1,0,0:0:0:0:
448,192,253586,1,0,0:0:0:0:
64,192,253678,1,0,0:0:0:0:
192,192,253678,1,0,0:0:0:0:
64,192,253770,1,0,0:0:0:0:
192,192,253770,1,0,0:0:0:0:
320,192,253770,1,0,0:0:0:0:
448,192,253770,1,0,0:0:0:0:
448,192,253861,1,0,0:0:0:0:
320,192,253861,1,0,0:0:0:0:
64,192,253953,1,0,0:0:0:0:
192,192,253953,1,0,0:0:0:0:
448,192,253953,1,0,0:0:0:0:
320,192,254045,1,0,0:0:0:0:
192,192,254045,1,0,0:0:0:0:
64,192,254136,1,0,0:0:0:0:
192,192,254136,1,0,0:0:0:0:
320,192,254136,1,0,0:0:0:0:
448,192,254136,1,0,0:0:0:0:
320,192,254228,1,0,0:0:0:0:
64,192,254228,1,0,0:0:0:0:
192,192,254320,1,0,0:0:0:0:
448,192,254320,1,0,0:0:0:0:
64,192,254320,1,0,0:0:0:0:
320,192,254411,1,0,0:0:0:0:
448,192,254411,1,0,0:0:0:0:
448,192,254503,1,0,0:0:0:0:
320,192,254503,1,0,0:0:0:0:
192,192,254503,1,0,0:0:0:0:
64,192,254503,1,0,0:0:0:0:
192,192,254595,1,0,0:0:0:0:
64,192,254595,1,0,0:0:0:0:
64,192,254687,1,0,0:0:0:0:
320,192,254687,1,0,0:0:0:0:
448,192,254687,1,0,0:0:0:0:
192,192,254778,1,0,0:0:0:0:
448,192,254778,1,0,0:0:0:0:
64,192,254870,1,0,0:0:0:0:
192,192,254870,1,0,0:0:0:0:
448,192,254870,1,0,0:0:0:0:
320,192,254870,1,0,0:0:0:0:
320,192,254962,1,0,0:0:0:0:
64,192,254962,1,0,0:0:0:0:
192,192,255053,1,0,0:0:0:0:
64,192,255053,1,0,0:0:0:0:
448,192,255053,1,0,0:0:0:0:
320,192,255145,1,0,0:0:0:0:
448,192,255145,1,0,0:0:0:0:
320,192,255237,1,0,0:0:0:0:
64,192,255237,1,0,0:0:0:0:
192,192,255237,1,0,0:0:0:0:
448,192,255237,1,0,0:0:0:0:
192,192,255328,1,0,0:0:0:0:
64,192,255328,1,0,0:0:0:0:
320,192,255420,1,0,0:0:0:0:
64,192,255420,1,0,0:0:0:0:
448,192,255420,1,0,0:0:0:0:
192,192,255512,1,0,0:0:0:0:
320,192,255512,1,0,0:0:0:0:
64,192,255603,1,0,0:0:0:0:
192,192,255603,1,0,0:0:0:0:
448,192,255603,1,0,0:0:0:0:
320,192,255603,1,0,0:0:0:0:
64,192,255695,1,0,0:0:0:0:
320,192,255695,1,0,0:0:0:0:
320,192,255787,1,0,0:0:0:0:
64,192,255787,1,0,0:0:0:0:
448,192,255787,1,0,0:0:0:0:
320,192,255878,1,0,0:0:0:0:
448,192,255878,1,0,0:0:0:0:
320,192,255970,1,0,0:0:0:0:
64,192,255970,1,0,0:0:0:0:
192,192,255970,1,0,0:0:0:0:
448,192,255970,1,0,0:0:0:0:
192,192,256062,1,0,0:0:0:0:
64,192,256062,1,0,0:0:0:0:
192,192,256153,1,0,0:0:0:0:
448,192,256153,1,0,0:0:0:0:
320,192,256153,1,0,0:0:0:0:
64,192,256245,1,0,0:0:0:0:
448,192,256245,1,0,0:0:0:0:
192,192,256337,1,0,0:0:0:0:
64,192,256337,1,0,0:0:0:0:
320,192,256337,1,0,0:0:0:0:
448,192,256337,1,0,0:0:0:0:
320,192,256428,1,0,0:0:0:0:
192,192,256428,1,0,0:0:0:0:
320,192,256521,1,0,0:0:0:0:
64,192,256521,1,0,0:0:0:0:
448,192,256521,1,0,0:0:0:0:
192,192,256612,1,0,0:0:0:0:
64,192,256612,1,0,0:0:0:0:
64,192,256703,1,0,0:0:0:0:
192,192,256703,1,0,0:0:0:0:
320,192,256703,1,0,0:0:0:0:
448,192,256703,1,0,0:0:0:0:
320,192,256796,1,0,0:0:0:0:
448,192,256796,1,0,0:0:0:0:
192,192,256887,1,0,0:0:0:0:
64,192,256887,1,0,0:0:0:0:
448,192,256887,1,0,0:0:0:0:
320,192,256978,1,0,0:0:0:0:
192,192,256978,1,0,0:0:0:0:
448,192,257071,1,0,0:0:0:0:
320,192,257071,1,0,0:0:0:0:
192,192,257071,1,0,0:0:0:0:
64,192,257071,1,0,0:0:0:0:
64,192,257162,1,0,0:0:0:0:
448,192,257162,1,0,0:0:0:0:
192,192,257253,1,0,0:0:0:0:
64,192,257253,1,0,0:0:0:0:
320,192,257253,1,0,0:0:0:0:
320,192,257346,1,0,0:0:0:0:
448,192,257346,1,0,0:0:0:0:
448,192,257437,1,0,0:0:0:0:
320,192,257437,1,0,0:0:0:0:
192,192,257437,1,0,0:0:0:0:
64,192,257437,1,0,0:0:0:0:
64,192,257528,1,0,0:0:0:0:
192,192,257528,1,0,0:0:0:0:
448,192,257621,1,0,0:0:0:0:
320,192,257666,1,0,0:0:0:0:
64,192,257712,1,0,0:0:0:0:
192,192,257758,1,0,0:0:0:0:
320,192,257803,1,0,0:0:0:0:
448,192,257803,1,0,0:0:0:0:
192,192,257896,1,0,0:0:0:0:
64,192,257896,1,0,0:0:0:0:
448,192,257987,1,0,0:0:0:0:
320,192,258033,1,0,0:0:0:0:
192,192,258078,1,0,0:0:0:0:
64,192,258078,1,0,0:0:0:0:
64,192,258171,1,0,0:0:0:0:
192,192,258171,1,0,0:0:0:0:
320,192,258171,1,0,0:0:0:0:
448,192,258171,1,0,0:0:0:0:
320,192,258262,1,0,0:0:0:0:
448,192,258262,1,0,0:0:0:0:
64,192,258353,1,0,0:0:0:0:
192,192,258353,1,0,0:0:0:0:
448,192,258353,1,0,0:0:0:0:
320,192,258446,1,0,0:0:0:0:
192,192,258446,1,0,0:0:0:0:
64,192,258537,1,0,0:0:0:0:
192,192,258537,1,0,0:0:0:0:
320,192,258537,1,0,0:0:0:0:
448,192,258537,1,0,0:0:0:0:
64,192,258630,1,0,0:0:0:0:
448,192,258630,1,0,0:0:0:0:
320,192,258721,1,0,0:0:0:0:
192,192,258721,1,0,0:0:0:0:
448,192,258721,1,0,0:0:0:0:
64,192,258812,1,0,0:0:0:0:
320,192,258812,1,0,0:0:0:0:
64,192,258905,1,0,0:0:0:0:
192,192,258905,1,0,0:0:0:0:
320,192,258905,1,0,0:0:0:0:
448,192,258905,1,0,0:0:0:0:
192,192,258996,1,0,0:0:0:0:
448,192,258996,1,0,0:0:0:0:
320,192,259087,1,0,0:0:0:0:
448,192,259087,1,0,0:0:0:0:
64,192,259087,1,0,0:0:0:0:
192,192,259180,1,0,0:0:0:0:
64,192,259180,1,0,0:0:0:0:
64,192,259271,1,0,0:0:0:0:
192,192,259271,1,0,0:0:0:0:
320,192,259271,1,0,0:0:0:0:
448,192,259271,1,0,0:0:0:0:
192,192,259362,1,0,0:0:0:0:
448,192,259362,1,0,0:0:0:0:
192,192,259455,1,0,0:0:0:0:
64,192,259455,1,0,0:0:0:0:
320,192,259455,1,0,0:0:0:0:
64,192,259546,1,0,0:0:0:0:
448,192,259546,1,0,0:0:0:0:
64,192,259637,1,0,0:0:0:0:
192,192,259637,1,0,0:0:0:0:
320,192,259637,1,0,0:0:0:0:
448,192,259637,1,0,0:0:0:0:
192,192,259730,1,0,0:0:0:0:
320,192,259730,1,0,0:0:0:0:
64,192,259821,1,0,0:0:0:0:
320,192,259821,1,0,0:0:0:0:
448,192,259821,1,0,0:0:0:0:
448,192,259912,1,0,0:0:0:0:
192,192,259912,1,0,0:0:0:0:
64,192,260005,1,0,0:0:0:0:
320,192,260005,1,0,0:0:0:0:
448,192,260005,1,0,0:0:0:0:
192,192,260005,1,0,0:0:0:0:
320,192,260096,1,0,0:0:0:0:
448,192,260096,1,0,0:0:0:0:
448,192,260187,1,0,0:0:0:0:
64,192,260187,1,0,0:0:0:0:
192,192,260187,1,0,0:0:0:0:
192,192,260280,1,0,0:0:0:0:
320,192,260280,1,0,0:0:0:0:
64,192,260371,1,0,0:0:0:0:
192,192,260371,1,0,0:0:0:0:
448,192,260371,1,0,0:0:0:0:
320,192,260371,1,0,0:0:0:0:
64,192,260463,1,0,0:0:0:0:
448,192,260463,1,0,0:0:0:0:
448,192,260555,1,0,0:0:0:0:
320,192,260555,1,0,0:0:0:0:
192,192,260555,1,0,0:0:0:0:
64,192,260646,1,0,0:0:0:0:
320,192,260646,1,0,0:0:0:0:
64,192,260738,1,0,0:0:0:0:
192,192,260738,1,0,0:0:0:0:
448,192,260738,1,0,0:0:0:0:
320,192,260738,1,0,0:0:0:0:
192,192,260830,1,0,0:0:0:0:
448,192,260830,1,0,0:0:0:0:
192,192,260921,1,0,0:0:0:0:
64,192,260921,1,0,0:0:0:0:
320,192,260921,1,0,0:0:0:0:
448,192,261013,1,0,0:0:0:0:
320,192,261013,1,0,0:0:0:0:
64,192,261105,1,0,0:0:0:0:
192,192,261105,1,0,0:0:0:0:
320,192,261105,1,0,0:0:0:0:
448,192,261105,1,0,0:0:0:0:
192,192,261196,1,0,0:0:0:0:
64,192,261196,1,0,0:0:0:0:
448,192,261288,1,0,0:0:0:0:
320,192,261288,1,0,0:0:0:0:
64,192,261288,1,0,0:0:0:0:
192,192,261380,1,0,0:0:0:0:
320,192,261380,1,0,0:0:0:0:
64,192,261471,1,0,0:0:0:0:
192,192,261471,1,0,0:0:0:0:
320,192,261471,1,0,0:0:0:0:
448,192,261471,1,0,0:0:0:0:
64,192,261563,1,0,0:0:0:0:
448,192,261563,1,0,0:0:0:0:
448,192,261655,1,0,0:0:0:0:
192,192,261655,1,0,0:0:0:0:
320,192,261655,1,0,0:0:0:0:
192,192,261746,1,0,0:0:0:0:
64,192,261746,1,0,0:0:0:0:
320,192,261838,1,0,0:0:0:0:
448,192,261838,1,0,0:0:0:0:
64,192,261838,1,0,0:0:0:0:
192,192,261838,1,0,0:0:0:0:
192,192,261930,1,0,0:0:0:0:
448,192,261930,1,0,0:0:0:0:
64,192,262021,1,0,0:0:0:0:
192,192,262021,1,0,0:0:0:0:
320,192,262021,1,0,0:0:0:0:
448,192,262113,1,0,0:0:0:0:
64,192,262113,1,0,0:0:0:0:
64,192,262205,1,0,0:0:0:0:
192,192,262205,1,0,0:0:0:0:
320,192,262205,1,0,0:0:0:0:
448,192,262205,1,0,0:0:0:0:
192,192,262297,1,0,0:0:0:0:
320,192,262297,1,0,0:0:0:0:
320,192,262388,1,0,0:0:0:0:
448,192,262388,1,0,0:0:0:0:
64,192,262388,1,0,0:0:0:0:
192,192,262480,1,0,0:0:0:0:
64,192,262480,1,0,0:0:0:0:
64,192,262572,1,0,0:0:0:0:
192,192,262572,1,0,0:0:0:0:
320,192,262572,1,0,0:0:0:0:
448,192,262572,1,0,0:0:0:0:
320,192,262663,1,0,0:0:0:0:
448,192,262663,1,0,0:0:0:0:
192,192,262755,1,0,0:0:0:0:
64,192,262755,1,0,0:0:0:0:
448,192,262755,1,0,0:0:0:0:
320,192,262847,1,0,0:0:0:0:
192,192,262847,1,0,0:0:0:0:
448,192,262938,1,0,0:0:0:0:
320,192,262938,1,0,0:0:0:0:
64,192,262938,1,0,0:0:0:0:
192,192,262938,1,0,0:0:0:0:
64,192,263030,1,0,0:0:0:0:
448,192,263030,1,0,0:0:0:0:
192,192,263122,1,0,0:0:0:0:
320,192,263122,1,0,0:0:0:0:
448,192,263122,1,0,0:0:0:0:
64,192,263213,1,0,0:0:0:0:
320,192,263213,1,0,0:0:0:0:
64,192,263305,1,0,0:0:0:0:
320,192,263305,1,0,0:0:0:0:
448,192,263305,1,0,0:0:0:0:
192,192,263305,1,0,0:0:0:0:
192,192,263397,1,0,0:0:0:0:
448,192,263397,1,0,0:0:0:0:
64,192,263488,1,0,0:0:0:0:
192,192,263488,1,0,0:0:0:0:
320,192,263488,1,0,0:0:0:0:
64,192,263580,1,0,0:0:0:0:
448,192,263580,1,0,0:0:0:0:
64,192,263672,1,0,0:0:0:0:
320,192,263672,1,0,0:0:0:0:
192,192,263672,1,0,0:0:0:0:
448,192,263672,1,0,0:0:0:0:
64,192,263763,1,0,0:0:0:0:
192,192,263763,1,0,0:0:0:0:
320,192,263855,1,0,0:0:0:0:
192,192,263855,1,0,0:0:0:0:
448,192,263855,1,0,0:0:0:0:
64,192,263947,1,0,0:0:0:0:
448,192,263947,1,0,0:0:0:0:
448,192,264038,1,0,0:0:0:0:
192,192,264038,1,0,0:0:0:0:
64,192,264038,1,0,0:0:0:0:
320,192,264038,1,0,0:0:0:0:
192,192,264131,1,0,0:0:0:0:
320,192,264131,1,0,0:0:0:0:
448,192,264222,1,0,0:0:0:0:
320,192,264222,1,0,0:0:0:0:
64,192,264222,1,0,0:0:0:0:
64,192,264313,1,0,0:0:0:0:
192,192,264313,1,0,0:0:0:0:
64,192,264406,1,0,0:0:0:0:
192,192,264406,1,0,0:0:0:0:
320,192,264406,1,0,0:0:0:0:
448,192,264406,1,0,0:0:0:0:
320,192,264497,1,0,0:0:0:0:
448,192,264497,1,0,0:0:0:0:
192,192,264588,1,0,0:0:0:0:
64,192,264588,1,0,0:0:0:0:
320,192,264588,1,0,0:0:0:0:
64,192,264681,1,0,0:0:0:0:
448,192,264681,1,0,0:0:0:0:
64,192,264772,1,0,0:0:0:0:
192,192,264772,1,0,0:0:0:0:
448,192,264772,1,0,0:0:0:0:
320,192,264772,1,0,0:0:0:0:
192,192,264863,1,0,0:0:0:0:
320,192,264863,1,0,0:0:0:0:
64,192,264956,1,0,0:0:0:0:
320,192,264956,1,0,0:0:0:0:
448,192,264956,1,0,0:0:0:0:
192,192,265047,1,0,0:0:0:0:
448,192,265047,1,0,0:0:0:0:
64,192,265138,1,0,0:0:0:0:
192,192,265138,1,0,0:0:0:0:
320,192,265138,1,0,0:0:0:0:
448,192,265138,1,0,0:0:0:0:
320,192,265231,1,0,0:0:0:0:
64,192,265231,1,0,0:0:0:0:
320,192,265322,1,0,0:0:0:0:
64,192,265322,1,0,0:0:0:0:
448,192,265322,1,0,0:0:0:0:
192,192,265413,1,0,0:0:0:0:
448,192,265413,1,0,0:0:0:0:
64,192,265506,1,0,0:0:0:0:
192,192,265506,1,0,0:0:0:0:
320,192,265506,1,0,0:0:0:0:
448,192,265506,1,0,0:0:0:0:
192,192,265597,1,0,0:0:0:0:
64,192,265597,1,0,0:0:0:0:
448,192,265688,1,0,0:0:0:0:
192,192,265688,1,0,0:0:0:0:
320,192,265688,1,0,0:0:0:0:
64,192,265781,1,0,0:0:0:0:
320,192,265781,1,0,0:0:0:0:
192,192,265872,1,0,0:0:0:0:
448,192,265872,1,0,0:0:0:0:
320,192,265872,1,0,0:0:0:0:
64,192,265872,1,0,0:0:0:0:
192,192,265965,1,0,0:0:0:0:
448,192,265965,1,0,0:0:0:0:
320,192,266056,1,0,0:0:0:0:
192,192,266056,1,0,0:0:0:0:
64,192,266056,1,0,0:0:0:0:
64,192,266147,1,0,0:0:0:0:
448,192,266147,1,0,0:0:0:0:
192,192,266240,1,0,0:0:0:0:
320,192,266240,1,0,0:0:0:0:
64,192,266240,1,0,0:0:0:0:
448,192,266240,1,0,0:0:0:0:
192,192,266331,1,0,0:0:0:0:
320,192,266331,1,0,0:0:0:0:
64,192,266422,1,0,0:0:0:0:
320,192,266422,1,0,0:0:0:0:
448,192,266422,1,0,0:0:0:0:
320,192,266515,1,0,0:0:0:0:
448,192,266515,1,0,0:0:0:0:
64,192,266606,1,0,0:0:0:0:
192,192,266606,1,0,0:0:0:0:
448,192,266606,1,0,0:0:0:0:
320,192,266606,1,0,0:0:0:0:
192,192,266697,1,0,0:0:0:0:
64,192,266697,1,0,0:0:0:0:
64,192,266790,1,0,0:0:0:0:
320,192,266790,1,0,0:0:0:0:
448,192,266790,1,0,0:0:0:0:
192,192,266881,1,0,0:0:0:0:
320,192,266881,1,0,0:0:0:0:
64,192,266972,1,0,0:0:0:0:
192,192,266972,1,0,0:0:0:0:
320,192,266972,1,0,0:0:0:0:
448,192,266972,1,0,0:0:0:0:
64,192,267065,1,0,0:0:0:0:
192,192,267156,1,0,0:0:0:0:
320,192,267247,1,0,0:0:0:0:
448,192,267340,1,0,0:0:0:0:
64,192,267340,1,0,0:0:0:0:
192,192,267431,1,0,0:0:0:0:
448,192,267522,1,0,0:0:0:0:
320,192,267615,1,0,0:0:0:0:
192,192,267706,1,0,0:0:0:0:
64,192,267706,1,0,0:0:0:0:
448,192,267798,1,0,0:0:0:0:
320,192,267890,1,0,0:0:0:0:
192,192,267981,1,0,0:0:0:0:
64,192,268073,1,0,0:0:0:0:
320,192,268073,1,0,0:0:0:0:
448,192,268165,1,0,0:0:0:0:
64,192,268256,1,0,0:0:0:0:
192,192,268348,1,0,0:0:0:0:
448,192,268440,1,0,0:0:0:0:
64,192,268440,1,0,0:0:0:0:
320,192,268440,1,0,0:0:0:0:
192,192,268531,1,0,0:0:0:0:
448,192,268531,1,0,0:0:0:0:
64,192,268623,1,0,0:0:0:0:
192,192,268623,1,0,0:0:0:0:
448,192,268715,1,0,0:0:0:0:
64,192,268715,1,0,0:0:0:0:
192,192,268806,1,0,0:0:0:0:
320,192,268806,1,0,0:0:0:0:
448,192,268806,1,0,0:0:0:0:
192,192,268898,1,0,0:0:0:0:
320,192,268898,1,0,0:0:0:0:
64,192,268990,1,0,0:0:0:0:
448,192,268990,1,0,0:0:0:0:
192,192,269081,1,0,0:0:0:0:
64,192,269081,1,0,0:0:0:0:
320,192,269173,1,0,0:0:0:0:
448,192,269173,1,0,0:0:0:0:
64,192,269173,1,0,0:0:0:0:
448,192,269265,1,0,0:0:0:0:
320,192,269265,1,0,0:0:0:0:
64,192,269356,1,0,0:0:0:0:
192,192,269402,1,0,0:0:0:0:
320,192,269448,1,0,0:0:0:0:
448,192,269493,1,0,0:0:0:0:
192,192,269540,1,0,0:0:0:0:
64,192,269540,1,0,0:0:0:0:
448,192,269632,1,0,0:0:0:0:
192,192,269632,1,0,0:0:0:0:
64,192,269723,1,0,0:0:0:0:
320,192,269770,1,0,0:0:0:0:
448,192,269815,1,0,0:0:0:0:
192,192,269861,1,0,0:0:0:0:
64,192,269907,1,0,0:0:0:0:
320,192,269907,1,0,0:0:0:0:
448,192,269998,1,0,0:0:0:0:
192,192,269998,1,0,0:0:0:0:
320,192,270090,1,0,0:0:0:0:
448,192,270090,1,0,0:0:0:0:
192,192,270182,1,0,0:0:0:0:
64,192,270182,1,0,0:0:0:0:
64,192,270273,1,0,0:0:0:0:
320,192,270273,1,0,0:0:0:0:
448,192,270273,1,0,0:0:0:0:
192,192,270365,1,0,0:0:0:0:
448,192,270365,1,0,0:0:0:0:
320,192,270457,1,0,0:0:0:0:
64,192,270457,1,0,0:0:0:0:
192,192,270548,1,0,0:0:0:0:
320,192,270548,1,0,0:0:0:0:
64,192,270640,1,0,0:0:0:0:
320,192,270640,1,0,0:0:0:0:
448,192,270640,1,0,0:0:0:0:
192,192,270732,1,0,0:0:0:0:
64,192,270732,1,0,0:0:0:0:
192,192,270823,1,0,0:0:0:0:
448,192,270823,1,0,0:0:0:0:
320,192,270915,1,0,0:0:0:0:
64,192,270915,1,0,0:0:0:0:
64,192,271007,1,0,0:0:0:0:
192,192,271007,1,0,0:0:0:0:
448,192,271007,1,0,0:0:0:0:
320,192,271098,1,0,0:0:0:0:
448,192,271098,1,0,0:0:0:0:
192,192,271190,1,0,0:0:0:0:
448,192,271190,1,0,0:0:0:0:
64,192,271282,1,0,0:0:0:0:
192,192,271282,1,0,0:0:0:0:
64,192,271373,1,0,0:0:0:0:
192,192,271373,1,0,0:0:0:0:
448,192,271373,1,0,0:0:0:0:
320,192,271466,1,0,0:0:0:0:
448,192,271466,1,0,0:0:0:0:
64,192,271557,1,0,0:0:0:0:
192,192,271557,1,0,0:0:0:0:
64,192,271648,1,0,0:0:0:0:
448,192,271648,1,0,0:0:0:0:
64,192,271741,1,0,0:0:0:0:
320,192,271741,1,0,0:0:0:0:
448,192,271741,1,0,0:0:0:0:
192,192,271832,1,0,0:0:0:0:
320,192,271832,1,0,0:0:0:0:
64,192,271923,1,0,0:0:0:0:
448,192,271923,1,0,0:0:0:0:
448,192,272016,1,0,0:0:0:0:
192,192,272016,1,0,0:0:0:0:
320,192,272107,1,0,0:0:0:0:
64,192,272107,1,0,0:0:0:0:
192,192,272107,1,0,0:0:0:0:
320,192,272198,1,0,0:0:0:0:
448,192,272198,1,0,0:0:0:0:
64,192,272291,1,0,0:0:0:0:
448,192,272291,1,0,0:0:0:0:
64,192,272382,1,0,0:0:0:0:
320,192,272382,1,0,0:0:0:0:
192,192,272473,1,0,0:0:0:0:
320,192,272473,1,0,0:0:0:0:
448,192,272473,1,0,0:0:0:0:
64,192,272566,1,0,0:0:0:0:
448,192,272566,1,0,0:0:0:0:
320,192,272657,1,0,0:0:0:0:
64,192,272657,1,0,0:0:0:0:
192,192,272748,1,0,0:0:0:0:
448,192,272748,1,0,0:0:0:0:
320,192,272841,1,0,0:0:0:0:
448,192,272841,1,0,0:0:0:0:
64,192,272841,1,0,0:0:0:0:
192,192,272932,1,0,0:0:0:0:
320,192,272932,1,0,0:0:0:0:
64,192,273023,1,0,0:0:0:0:
448,192,273023,1,0,0:0:0:0:
192,192,273116,1,0,0:0:0:0:
448,192,273116,1,0,0:0:0:0:
320,192,273207,1,0,0:0:0:0:
448,192,273207,1,0,0:0:0:0:
64,192,273207,1,0,0:0:0:0:
320,192,273300,1,0,0:0:0:0:
192,192,273300,1,0,0:0:0:0:
64,192,273391,1,0,0:0:0:0:
448,192,273391,1,0,0:0:0:0:
320,192,273482,1,0,0:0:0:0:
64,192,273482,1,0,0:0:0:0:
192,192,273575,1,0,0:0:0:0:
320,192,273575,1,0,0:0:0:0:
448,192,273575,1,0,0:0:0:0:
64,192,273666,1,0,0:0:0:0:
192,192,273666,1,0,0:0:0:0:
64,192,273757,1,0,0:0:0:0:
448,192,273757,1,0,0:0:0:0:
320,192,273850,1,0,0:0:0:0:
448,192,273850,1,0,0:0:0:0:
192,192,273941,1,0,0:0:0:0:
320,192,273941,1,0,0:0:0:0:
64,192,273941,1,0,0:0:0:0:
448,192,274032,1,0,0:0:0:0:
192,192,274032,1,0,0:0:0:0:
64,192,274125,1,0,0:0:0:0:
320,192,274125,1,0,0:0:0:0:
64,192,274216,1,0,0:0:0:0:
192,192,274216,1,0,0:0:0:0:
192,192,274307,1,0,0:0:0:0:
448,192,274307,1,0,0:0:0:0:
64,192,274307,1,0,0:0:0:0:
320,192,274400,1,0,0:0:0:0:
448,192,274400,1,0,0:0:0:0:
64,192,274491,1,0,0:0:0:0:
320,192,274491,1,0,0:0:0:0:
192,192,274582,1,0,0:0:0:0:
448,192,274582,1,0,0:0:0:0:
320,192,274675,1,0,0:0:0:0:
64,192,274675,1,0,0:0:0:0:
448,192,274675,1,0,0:0:0:0:
192,192,274766,1,0,0:0:0:0:
64,192,274766,1,0,0:0:0:0:
192,192,274857,1,0,0:0:0:0:
448,192,274857,1,0,0:0:0:0:
320,192,274950,1,0,0:0:0:0:
64,192,274950,1,0,0:0:0:0:
64,192,275041,1,0,0:0:0:0:
448,192,275041,1,0,0:0:0:0:
192,192,275041,1,0,0:0:0:0:
320,192,275133,1,0,0:0:0:0:
448,192,275133,1,0,0:0:0:0:
320,192,275225,1,0,0:0:0:0:
192,192,275225,1,0,0:0:0:0:
64,192,275316,1,0,0:0:0:0:
448,192,275316,1,0,0:0:0:0:
320,192,275408,1,0,0:0:0:0:
192,192,275408,1,0,0:0:0:0:
64,192,275408,1,0,0:0:0:0:
448,192,275500,1,0,0:0:0:0:
192,192,275500,1,0,0:0:0:0:
320,192,275591,1,0,0:0:0:0:
448,192,275591,1,0,0:0:0:0:
64,192,275683,1,0,0:0:0:0:
192,192,275683,1,0,0:0:0:0:
64,192,275775,1,0,0:0:0:0:
192,192,275775,1,0,0:0:0:0:
448,192,275775,1,0,0:0:0:0:
192,192,275958,1,0,0:0:0:0:
320,192,276141,1,0,0:0:0:0:
448,192,276141,1,0,0:0:0:0:
192,192,276325,1,0,0:0:0:0:
320,192,276508,1,0,0:0:0:0:
448,192,276508,1,0,0:0:0:0:
64,192,276691,1,0,0:0:0:0:
320,192,276875,1,0,0:0:0:0:
448,192,276875,1,0,0:0:0:0:
64,192,277058,1,0,0:0:0:0:
192,192,277242,1,0,0:0:0:0:
448,192,277242,1,0,0:0:0:0:
320,192,277425,1,0,0:0:0:0:
192,192,277608,1,0,0:0:0:0:
64,192,277608,1,0,0:0:0:0:
448,192,277792,1,0,0:0:0:0:
320,192,277975,1,0,0:0:0:0:
64,192,277975,1,0,0:0:0:0:
192,192,278158,1,0,0:0:0:0:
448,192,278342,1,0,0:0:0:0:
320,192,278342,1,0,0:0:0:0:
64,192,278525,1,0,0:0:0:0:
192,192,278708,1,0,0:0:0:0:
448,192,278708,1,0,0:0:0:0:
320,192,278892,1,0,0:0:0:0:
192,192,279076,1,0,0:0:0:0:
64,192,279076,1,0,0:0:0:0:
448,192,279258,1,0,0:0:0:0:
320,192,279442,1,0,0:0:0:0:
192,192,279442,1,0,0:0:0:0:
64,192,279626,1,0,0:0:0:0:
320,192,279808,1,0,0:0:0:0:
448,192,279808,1,0,0:0:0:0:
192,192,279992,1,0,0:0:0:0:
64,192,280176,1,0,0:0:0:0:
320,192,280176,1,0,0:0:0:0:
192,192,280358,1,0,0:0:0:0:
448,192,280542,1,0,0:0:0:0:
64,192,280542,1,0,0:0:0:0:
320,192,280726,1,0,0:0:0:0:
192,192,280910,1,0,0:0:0:0:
64,192,280910,1,0,0:0:0:0:
448,192,281092,1,0,0:0:0:0:
320,192,281276,1,0,0:0:0:0:
192,192,281276,1,0,0:0:0:0:
64,192,281460,1,0,0:0:0:0:
64,192,281642,1,0,0:0:0:0:
192,192,281642,1,0,0:0:0:0:
320,192,281642,1,0,0:0:0:0:
448,192,281642,1,0,0:0:0:0:
320,192,281735,1,0,0:0:0:0:
448,192,281735,1,0,0:0:0:0:
64,192,281826,1,0,0:0:0:0:
192,192,281826,1,0,0:0:0:0:
448,192,281826,1,0,0:0:0:0:
320,192,281917,1,0,0:0:0:0:
64,192,281917,1,0,0:0:0:0:
192,192,282010,1,0,0:0:0:0:
64,192,282010,1,0,0:0:0:0:
320,192,282010,1,0,0:0:0:0:
448,192,282010,1,0,0:0:0:0:
192,192,282101,1,0,0:0:0:0:
448,192,282101,1,0,0:0:0:0:
448,192,282192,1,0,0:0:0:0:
320,192,282192,1,0,0:0:0:0:
64,192,282192,1,0,0:0:0:0:
192,192,282285,1,0,0:0:0:0:
320,192,282285,1,0,0:0:0:0:
64,192,282376,1,0,0:0:0:0:
320,192,282376,1,0,0:0:0:0:
448,192,282376,1,0,0:0:0:0:
192,192,282376,1,0,0:0:0:0:
192,192,282467,1,0,0:0:0:0:
448,192,282467,1,0,0:0:0:0:
320,192,282560,1,0,0:0:0:0:
448,192,282560,1,0,0:0:0:0:
64,192,282560,1,0,0:0:0:0:
192,192,282651,1,0,0:0:0:0:
64,192,282651,1,0,0:0:0:0:
64,192,282743,1,0,0:0:0:0:
192,192,282743,1,0,0:0:0:0:
320,192,282743,1,0,0:0:0:0:
448,192,282743,1,0,0:0:0:0:
192,192,282835,1,0,0:0:0:0:
448,192,282835,1,0,0:0:0:0:
320,192,282926,1,0,0:0:0:0:
192,192,282926,1,0,0:0:0:0:
64,192,282926,1,0,0:0:0:0:
64,192,283018,1,0,0:0:0:0:
448,192,283018,1,0,0:0:0:0:
64,192,283110,1,0,0:0:0:0:
192,192,283110,1,0,0:0:0:0:
320,192,283110,1,0,0:0:0:0:
448,192,283110,1,0,0:0:0:0:
192,192,283201,1,0,0:0:0:0:
320,192,283201,1,0,0:0:0:0:
64,192,283293,1,0,0:0:0:0:
448,192,283293,1,0,0:0:0:0:
320,192,283293,1,0,0:0:0:0:
192,192,283385,1,0,0:0:0:0:
64,192,283385,1,0,0:0:0:0:
64,192,283476,1,0,0:0:0:0:
192,192,283476,1,0,0:0:0:0:
320,192,283476,1,0,0:0:0:0:
448,192,283476,1,0,0:0:0:0:
320,192,283568,1,0,0:0:0:0:
448,192,283568,1,0,0:0:0:0:
64,192,283660,1,0,0:0:0:0:
448,192,283660,1,0,0:0:0:0:
192,192,283660,1,0,0:0:0:0:
320,192,283751,1,0,0:0:0:0:
64,192,283751,1,0,0:0:0:0:
64,192,283843,1,0,0:0:0:0:
192,192,283843,1,0,0:0:0:0:
320,192,283843,1,0,0:0:0:0:
448,192,283843,1,0,0:0:0:0:
64,192,283935,1,0,0:0:0:0:
192,192,283935,1,0,0:0:0:0:
64,192,284026,1,0,0:0:0:0:
448,192,284026,1,0,0:0:0:0:
320,192,284026,1,0,0:0:0:0:
320,192,284118,1,0,0:0:0:0:
448,192,284118,1,0,0:0:0:0:
64,192,284210,1,0,0:0:0:0:
192,192,284210,1,0,0:0:0:0:
320,192,284210,1,0,0:0:0:0:
448,192,284210,1,0,0:0:0:0:
448,192,284301,1,0,0:0:0:0:
64,192,284301,1,0,0:0:0:0:
448,192,284393,1,0,0:0:0:0:
192,192,284393,1,0,0:0:0:0:
320,192,284393,1,0,0:0:0:0:
320,192,284485,1,0,0:0:0:0:
64,192,284485,1,0,0:0:0:0:
64,192,284577,1,0,0:0:0:0:
192,192,284577,1,0,0:0:0:0:
448,192,284577,1,0,0:0:0:0:
320,192,284577,1,0,0:0:0:0:
192,192,284668,1,0,0:0:0:0:
64,192,284668,1,0,0:0:0:0:
64,192,284760,1,0,0:0:0:0:
448,192,284760,1,0,0:0:0:0:
192,192,284852,1,0,0:0:0:0:
320,192,284852,1,0,0:0:0:0:
320,192,284943,1,0,0:0:0:0:
448,192,284943,1,0,0:0:0:0:
192,192,284943,1,0,0:0:0:0:
64,192,284943,1,0,0:0:0:0:
64,192,285035,1,0,0:0:0:0:
448,192,285035,1,0,0:0:0:0:
320,192,285127,1,0,0:0:0:0:
448,192,285127,1,0,0:0:0:0:
192,192,285218,1,0,0:0:0:0:
320,192,285218,1,0,0:0:0:0:
64,192,285310,1,0,0:0:0:0:
192,192,285310,1,0,0:0:0:0:
320,192,285310,1,0,0:0:0:0:
448,192,285310,1,0,0:0:0:0:
192,192,285402,1,0,0:0:0:0:
64,192,285402,1,0,0:0:0:0:
448,192,285493,1,0,0:0:0:0:
320,192,285493,1,0,0:0:0:0:
192,192,285585,1,0,0:0:0:0:
448,192,285585,1,0,0:0:0:0:
320,192,285677,1,0,0:0:0:0:
192,192,285677,1,0,0:0:0:0:
64,192,285677,1,0,0:0:0:0:
448,192,285677,1,0,0:0:0:0:
320,192,285768,1,0,0:0:0:0:
64,192,285768,1,0,0:0:0:0:
192,192,285860,1,0,0:0:0:0:
448,192,285860,1,0,0:0:0:0:
448,192,285952,1,0,0:0:0:0:
320,192,285952,1,0,0:0:0:0:
64,192,286043,1,0,0:0:0:0:
192,192,286043,1,0,0:0:0:0:
320,192,286043,1,0,0:0:0:0:
448,192,286043,1,0,0:0:0:0:
192,192,286135,1,0,0:0:0:0:
64,192,286135,1,0,0:0:0:0:
64,192,286227,1,0,0:0:0:0:
320,192,286227,1,0,0:0:0:0:
192,192,286318,1,0,0:0:0:0:
320,192,286318,1,0,0:0:0:0:
192,192,286411,1,0,0:0:0:0:
320,192,286411,1,0,0:0:0:0:
448,192,286411,1,0,0:0:0:0:
64,192,286411,1,0,0:0:0:0:
64,192,286502,1,0,0:0:0:0:
448,192,286502,1,0,0:0:0:0:
192,192,286593,1,0,0:0:0:0:
448,192,286593,1,0,0:0:0:0:
192,192,286686,1,0,0:0:0:0:
64,192,286686,1,0,0:0:0:0:
64,192,286777,1,0,0:0:0:0:
192,192,286777,1,0,0:0:0:0:
320,192,286777,1,0,0:0:0:0:
448,192,286777,1,0,0:0:0:0:
320,192,286868,1,0,0:0:0:0:
448,192,286868,1,0,0:0:0:0:
64,192,286961,1,0,0:0:0:0:
192,192,286961,1,0,0:0:0:0:
64,192,287052,1,0,0:0:0:0:
448,192,287052,1,0,0:0:0:0:
64,192,287143,1,0,0:0:0:0:
192,192,287143,1,0,0:0:0:0:
448,192,287143,1,0,0:0:0:0:
320,192,287143,1,0,0:0:0:0:
320,192,287236,1,0,0:0:0:0:
448,192,287236,1,0,0:0:0:0:
192,192,287327,1,0,0:0:0:0:
64,192,287327,1,0,0:0:0:0:
64,192,287418,1,0,0:0:0:0:
320,192,287418,1,0,0:0:0:0:
64,192,287511,1,0,0:0:0:0:
192,192,287511,1,0,0:0:0:0:
320,192,287511,1,0,0:0:0:0:
448,192,287511,1,0,0:0:0:0:
192,192,287602,1,0,0:0:0:0:
448,192,287602,1,0,0:0:0:0:
320,192,287693,1,0,0:0:0:0:
448,192,287693,1,0,0:0:0:0:
192,192,287786,1,0,0:0:0:0:
320,192,287786,1,0,0:0:0:0:
64,192,287877,1,0,0:0:0:0:
192,192,287877,1,0,0:0:0:0:
320,192,287877,1,0,0:0:0:0:
448,192,287877,1,0,0:0:0:0:
64,192,287968,1,0,0:0:0:0:
448,192,287968,1,0,0:0:0:0:
192,192,288061,1,0,0:0:0:0:
64,192,288061,1,0,0:0:0:0:
320,192,288152,1,0,0:0:0:0:
448,192,288152,1,0,0:0:0:0:
64,192,288245,1,0,0:0:0:0:
192,192,288245,1,0,0:0:0:0:
320,192,288245,1,0,0:0:0:0:
448,192,288245,1,0,0:0:0:0:
192,192,288336,1,0,0:0:0:0:
448,192,288336,1,0,0:0:0:0:
320,192,288427,1,0,0:0:0:0:
64,192,288427,1,0,0:0:0:0:
192,192,288520,1,0,0:0:0:0:
64,192,288520,1,0,0:0:0:0:
64,192,288611,1,0,0:0:0:0:
320,192,288611,1,0,0:0:0:0:
192,192,288611,1,0,0:0:0:0:
448,192,288611,1,0,0:0:0:0:
192,192,288702,1,0,0:0:0:0:
320,192,288702,1,0,0:0:0:0:
64,192,288795,1,0,0:0:0:0:
448,192,288795,1,0,0:0:0:0:
192,192,288886,1,0,0:0:0:0:
320,192,288886,1,0,0:0:0:0:
64,192,288977,1,0,0:0:0:0:
192,192,288977,1,0,0:0:0:0:
320,192,288977,1,0,0:0:0:0:
448,192,288977,1,0,0:0:0:0:
64,192,289070,1,0,0:0:0:0:
448,192,289070,1,0,0:0:0:0:
320,192,289161,1,0,0:0:0:0:
448,192,289161,1,0,0:0:0:0:
192,192,289252,1,0,0:0:0:0:
64,192,289252,1,0,0:0:0:0:
64,192,289345,1,0,0:0:0:0:
192,192,289345,1,0,0:0:0:0:
448,192,289345,1,0,0:0:0:0:
320,192,289345,1,0,0:0:0:0:
320,192,289436,1,0,0:0:0:0:
448,192,289436,1,0,0:0:0:0:
192,192,289527,1,0,0:0:0:0:
448,192,289527,1,0,0:0:0:0:
320,192,289620,1,0,0:0:0:0:
192,192,289620,1,0,0:0:0:0:
64,192,289711,1,0,0:0:0:0:
192,192,289711,1,0,0:0:0:0:
448,192,289711,1,0,0:0:0:0:
320,192,289711,1,0,0:0:0:0:
64,192,289802,1,0,0:0:0:0:
448,192,289802,1,0,0:0:0:0:
192,192,289895,1,0,0:0:0:0:
64,192,289895,1,0,0:0:0:0:
320,192,289986,1,0,0:0:0:0:
448,192,289986,1,0,0:0:0:0:
64,192,290078,1,0,0:0:0:0:
448,192,290078,1,0,0:0:0:0:
320,192,290078,1,0,0:0:0:0:
192,192,290078,1,0,0:0:0:0:
192,192,290170,1,0,0:0:0:0:
64,192,290170,1,0,0:0:0:0:
64,192,290261,1,0,0:0:0:0:
320,192,290261,1,0,0:0:0:0:
192,192,290353,1,0,0:0:0:0:
448,192,290353,1,0,0:0:0:0:
320,192,290445,1,0,0:0:0:0:
448,192,290445,1,0,0:0:0:0:
192,192,290445,1,0,0:0:0:0:
64,192,290445,1,0,0:0:0:0:
192,192,290536,1,0,0:0:0:0:
64,192,290536,1,0,0:0:0:0:
320,192,290628,1,0,0:0:0:0:
448,192,290628,1,0,0:0:0:0:
64,192,290720,1,0,0:0:0:0:
448,192,290720,1,0,0:0:0:0:
448,192,290811,1,0,0:0:0:0:
320,192,290811,1,0,0:0:0:0:
192,192,290811,1,0,0:0:0:0:
64,192,290811,1,0,0:0:0:0:
64,192,290903,1,0,0:0:0:0:
192,192,290903,1,0,0:0:0:0:
320,192,290995,1,0,0:0:0:0:
192,192,290995,1,0,0:0:0:0:
64,192,291086,1,0,0:0:0:0:
448,192,291086,1,0,0:0:0:0:
64,192,291178,1,0,0:0:0:0:
192,192,291178,1,0,0:0:0:0:
320,192,291178,1,0,0:0:0:0:
448,192,291178,1,0,0:0:0:0:
320,192,291270,1,0,0:0:0:0:
448,192,291270,1,0,0:0:0:0:
192,192,291361,1,0,0:0:0:0:
320,192,291361,1,0,0:0:0:0:
64,192,291453,1,0,0:0:0:0:
448,192,291453,1,0,0:0:0:0:
192,192,291545,1,0,0:0:0:0:
320,192,291545,1,0,0:0:0:0:
448,192,291545,1,0,0:0:0:0:
64,192,291545,1,0,0:0:0:0:
192,192,291636,1,0,0:0:0:0:
64,192,291636,1,0,0:0:0:0:
448,192,291728,1,0,0:0:0:0:
192,192,291728,1,0,0:0:0:0:
320,192,291820,1,0,0:0:0:0:
448,192,291820,1,0,0:0:0:0:
64,192,291912,1,0,0:0:0:0:
192,192,291912,1,0,0:0:0:0:
320,192,291912,1,0,0:0:0:0:
448,192,291912,1,0,0:0:0:0:
64,192,292003,1,0,0:0:0:0:
192,192,292003,1,0,0:0:0:0:
64,192,292095,1,0,0:0:0:0:
448,192,292095,1,0,0:0:0:0:
192,192,292187,1,0,0:0:0:0:
320,192,292187,1,0,0:0:0:0:
192,192,292278,1,0,0:0:0:0:
320,192,292278,1,0,0:0:0:0:
448,192,292278,1,0,0:0:0:0:
64,192,292278,1,0,0:0:0:0:
192,192,292370,1,0,0:0:0:0:
448,192,292370,1,0,0:0:0:0:
320,192,292462,1,0,0:0:0:0:
448,192,292462,1,0,0:0:0:0:
192,192,292553,1,0,0:0:0:0:
64,192,292553,1,0,0:0:0:0:
448,192,292645,1,0,0:0:0:0:
320,192,292645,1,0,0:0:0:0:
192,192,292645,1,0,0:0:0:0:
64,192,292645,1,0,0:0:0:0:
320,192,292737,1,0,0:0:0:0:
64,192,292737,1,0,0:0:0:0:
192,192,292828,1,0,0:0:0:0:
64,192,292828,1,0,0:0:0:0:
320,192,292920,1,0,0:0:0:0:
448,192,292920,1,0,0:0:0:0:
64,192,293012,1,0,0:0:0:0:
320,192,293012,1,0,0:0:0:0:
448,192,293012,1,0,0:0:0:0:
192,192,293012,1,0,0:0:0:0:
192,192,293103,1,0,0:0:0:0:
64,192,293103,1,0,0:0:0:0:
320,192,293195,1,0,0:0:0:0:
448,192,293195,1,0,0:0:0:0:
192,192,293287,1,0,0:0:0:0:
64,192,293287,1,0,0:0:0:0:
64,192,293378,1,0,0:0:0:0:
192,192,293378,1,0,0:0:0:0:
320,192,293378,1,0,0:0:0:0:
448,192,293378,1,0,0:0:0:0:
320,192,293470,1,0,0:0:0:0:
448,192,293470,1,0,0:0:0:0:
64,192,293562,1,0,0:0:0:0:
448,192,293562,1,0,0:0:0:0:
192,192,293653,1,0,0:0:0:0:
320,192,293653,1,0,0:0:0:0:
64,192,293746,1,0,0:0:0:0:
192,192,293746,1,0,0:0:0:0:
448,192,293746,1,0,0:0:0:0:
320,192,293746,1,0,0:0:0:0:
64,192,293837,1,0,0:0:0:0:
320,192,293837,1,0,0:0:0:0:
192,192,293928,1,0,0:0:0:0:
64,192,293928,1,0,0:0:0:0:
320,192,294021,1,0,0:0:0:0:
448,192,294021,1,0,0:0:0:0:
64,192,294112,1,0,0:0:0:0:
192,192,294112,1,0,0:0:0:0:
320,192,294112,1,0,0:0:0:0:
448,192,294112,1,0,0:0:0:0:
192,192,294203,1,0,0:0:0:0:
64,192,294203,1,0,0:0:0:0:
64,192,294296,1,0,0:0:0:0:
448,192,294296,1,0,0:0:0:0:
320,192,294387,1,0,0:0:0:0:
448,192,294387,1,0,0:0:0:0:
64,192,294478,1,0,0:0:0:0:
192,192,294478,1,0,0:0:0:0:
320,192,294478,1,0,0:0:0:0:
448,192,294478,1,0,0:0:0:0:
320,192,294571,1,0,0:0:0:0:
192,192,294571,1,0,0:0:0:0:
64,192,294662,1,0,0:0:0:0:
448,192,294662,1,0,0:0:0:0:
192,192,294753,1,0,0:0:0:0:
64,192,294753,1,0,0:0:0:0:
64,192,294846,1,0,0:0:0:0:
192,192,294846,1,0,0:0:0:0:
320,192,294846,1,0,0:0:0:0:
448,192,294846,1,0,0:0:0:0:
320,192,294937,1,0,0:0:0:0:
448,192,294937,1,0,0:0:0:0:
192,192,295028,1,0,0:0:0:0:
64,192,295028,1,0,0:0:0:0:
192,192,295121,1,0,0:0:0:0:
320,192,295121,1,0,0:0:0:0:
64,192,295212,1,0,0:0:0:0:
192,192,295212,1,0,0:0:0:0:
320,192,295212,1,0,0:0:0:0:
448,192,295212,1,0,0:0:0:0:
64,192,295303,1,0,0:0:0:0:
448,192,295303,1,0,0:0:0:0:
192,192,295396,1,0,0:0:0:0:
448,192,295396,1,0,0:0:0:0:
320,192,295487,1,0,0:0:0:0:
192,192,295487,1,0,0:0:0:0:
448,192,295578,1,0,0:0:0:0:
320,192,295578,1,0,0:0:0:0:
192,192,295578,1,0,0:0:0:0:
64,192,295578,1,0,0:0:0:0:
64,192,295671,1,0,0:0:0:0:
320,192,295671,1,0,0:0:0:0:
192,192,295762,1,0,0:0:0:0:
448,192,295762,1,0,0:0:0:0:
320,192,295855,1,0,0:0:0:0:
448,192,295855,1,0,0:0:0:0:
448,192,295946,1,0,0:0:0:0:
320,192,295946,1,0,0:0:0:0:
192,192,295946,1,0,0:0:0:0:
64,192,295946,1,0,0:0:0:0:
192,192,296037,1,0,0:0:0:0:
64,192,296037,1,0,0:0:0:0:
448,192,296130,1,0,0:0:0:0:
64,192,296130,1,0,0:0:0:0:
192,192,296221,1,0,0:0:0:0:
320,192,296221,1,0,0:0:0:0:
64,192,296312,1,0,0:0:0:0:
192,192,296312,1,0,0:0:0:0:
320,192,296312,1,0,0:0:0:0:
448,192,296312,1,0,0:0:0:0:
64,192,296405,1,0,0:0:0:0:
448,192,296405,1,0,0:0:0:0:
320,192,296496,1,0,0:0:0:0:
448,192,296496,1,0,0:0:0:0:
192,192,296587,1,0,0:0:0:0:
320,192,296587,1,0,0:0:0:0:
448,192,296680,1,0,0:0:0:0:
320,192,296680,1,0,0:0:0:0:
192,192,296680,1,0,0:0:0:0:
64,192,296680,1,0,0:0:0:0:
64,192,296771,1,0,0:0:0:0:
192,192,296771,1,0,0:0:0:0:
64,192,296862,1,0,0:0:0:0:
448,192,296862,1,0,0:0:0:0:
448,192,296955,1,0,0:0:0:0:
320,192,296955,1,0,0:0:0:0:
192,192,297046,1,0,0:0:0:0:
64,192,297046,1,0,0:0:0:0:
320,192,297046,1,0,0:0:0:0:
448,192,297046,1,0,0:0:0:0:
192,192,297137,1,0,0:0:0:0:
64,192,297137,1,0,0:0:0:0:
448,192,297230,1,0,0:0:0:0:
64,192,297230,1,0,0:0:0:0:
320,192,297321,1,0,0:0:0:0:
448,192,297321,1,0,0:0:0:0:
64,192,297412,1,0,0:0:0:0:
320,192,297412,1,0,0:0:0:0:
192,192,297412,1,0,0:0:0:0:
448,192,297412,1,0,0:0:0:0:
192,192,297505,1,0,0:0:0:0:
64,192,297505,1,0,0:0:0:0:
320,192,297596,1,0,0:0:0:0:
192,192,297596,1,0,0:0:0:0:
64,192,297688,1,0,0:0:0:0:
448,192,297688,1,0,0:0:0:0:
64,192,297780,1,0,0:0:0:0:
192,192,297780,1,0,0:0:0:0:
320,192,297780,1,0,0:0:0:0:
448,192,297780,1,0,0:0:0:0:
320,192,297871,1,0,0:0:0:0:
448,192,297871,1,0,0:0:0:0:
64,192,297963,1,0,0:0:0:0:
192,192,297963,1,0,0:0:0:0:
64,192,298055,1,0,0:0:0:0:
320,192,298055,1,0,0:0:0:0:
64,192,298146,1,0,0:0:0:0:
192,192,298146,1,0,0:0:0:0:
320,192,298146,1,0,0:0:0:0:
448,192,298146,1,0,0:0:0:0:
192,192,298238,1,0,0:0:0:0:
448,192,298238,1,0,0:0:0:0:
320,192,298330,1,0,0:0:0:0:
448,192,298330,1,0,0:0:0:0:
64,192,298421,1,0,0:0:0:0:
320,192,298421,1,0,0:0:0:0:
64,192,298513,1,0,0:0:0:0:
192,192,298513,1,0,0:0:0:0:
320,192,298513,1,0,0:0:0:0:
448,192,298513,1,0,0:0:0:0:
192,192,298605,1,0,0:0:0:0:
320,192,298605,1,0,0:0:0:0:
448,192,298696,1,0,0:0:0:0:
64,192,298696,1,0,0:0:0:0:
192,192,298788,1,0,0:0:0:0:
64,192,298788,1,0,0:0:0:0:
320,192,298880,1,0,0:0:0:0:
192,192,298880,1,0,0:0:0:0:
448,192,298880,1,0,0:0:0:0:
64,192,298880,1,0,0:0:0:0:
448,192,298971,1,0,0:0:0:0:
192,192,298971,1,0,0:0:0:0:
320,192,299063,1,0,0:0:0:0:
448,192,299063,1,0,0:0:0:0:
192,192,299155,1,0,0:0:0:0:
64,192,299155,1,0,0:0:0:0:
64,192,299246,1,0,0:0:0:0:
192,192,299246,1,0,0:0:0:0:
320,192,299246,1,0,0:0:0:0:
448,192,299246,1,0,0:0:0:0:
64,192,299338,1,0,0:0:0:0:
448,192,299338,1,0,0:0:0:0:
320,192,299430,1,0,0:0:0:0:
192,192,299430,1,0,0:0:0:0:
64,192,299522,1,0,0:0:0:0:
320,192,299522,1,0,0:0:0:0:
64,192,299613,1,0,0:0:0:0:
320,192,299613,1,0,0:0:0:0:
448,192,299613,1,0,0:0:0:0:
192,192,299613,1,0,0:0:0:0:
192,192,299705,1,0,0:0:0:0:
448,192,299705,1,0,0:0:0:0:
320,192,299797,1,0,0:0:0:0:
448,192,299797,1,0,0:0:0:0:
320,192,299888,1,0,0:0:0:0:
192,192,299888,1,0,0:0:0:0:
64,192,299980,1,0,0:0:0:0:
320,192,299980,1,0,0:0:0:0:
448,192,299980,1,0,0:0:0:0:
192,192,299980,1,0,0:0:0:0:
64,192,300072,1,0,0:0:0:0:
448,192,300072,1,0,0:0:0:0:
192,192,300163,1,0,0:0:0:0:
64,192,300163,1,0,0:0:0:0:
320,192,300255,1,0,0:0:0:0:
192,192,300255,1,0,0:0:0:0:
192,192,300347,1,0,0:0:0:0:
64,192,300347,1,0,0:0:0:0:
320,192,300347,1,0,0:0:0:0:
448,192,300347,1,0,0:0:0:0:
64,192,300438,1,0,0:0:0:0:
320,192,300438,1,0,0:0:0:0:
192,192,300530,1,0,0:0:0:0:
448,192,300530,1,0,0:0:0:0:
320,192,300622,1,0,0:0:0:0:
448,192,300622,1,0,0:0:0:0:
64,192,300713,1,0,0:0:0:0:
192,192,300713,1,0,0:0:0:0:
320,192,300713,1,0,0:0:0:0:
448,192,300713,1,0,0:0:0:0:
192,192,300805,1,0,0:0:0:0:
64,192,300805,1,0,0:0:0:0:
448,192,300897,1,0,0:0:0:0:
320,192,300897,1,0,0:0:0:0:
64,192,300988,1,0,0:0:0:0:
320,192,300988,1,0,0:0:0:0:
64,192,301080,1,0,0:0:0:0:
320,192,301080,1,0,0:0:0:0:
448,192,301080,1,0,0:0:0:0:
192,192,301080,1,0,0:0:0:0:
192,192,301172,1,0,0:0:0:0:
448,192,301172,1,0,0:0:0:0:
320,192,301263,1,0,0:0:0:0:
448,192,301263,1,0,0:0:0:0:
192,192,301356,1,0,0:0:0:0:
64,192,301356,1,0,0:0:0:0:
64,192,301447,1,0,0:0:0:0:
192,192,301447,1,0,0:0:0:0:
320,192,301447,1,0,0:0:0:0:
448,192,301447,1,0,0:0:0:0:
64,192,301538,1,0,0:0:0:0:
320,192,301538,1,0,0:0:0:0:
192,192,301631,1,0,0:0:0:0:
448,192,301631,1,0,0:0:0:0:
320,192,301722,1,0,0:0:0:0:
448,192,301722,1,0,0:0:0:0:
64,192,301813,1,0,0:0:0:0:
320,192,301813,1,0,0:0:0:0:
448,192,301813,1,0,0:0:0:0:
192,192,301813,1,0,0:0:0:0:
192,192,301906,1,0,0:0:0:0:
64,192,301906,1,0,0:0:0:0:
64,192,301997,1,0,0:0:0:0:
320,192,301997,1,0,0:0:0:0:
320,192,302088,1,0,0:0:0:0:
192,192,302088,1,0,0:0:0:0:
64,192,302181,1,0,0:0:0:0:
320,192,302181,1,0,0:0:0:0:
448,192,302181,1,0,0:0:0:0:
192,192,302181,1,0,0:0:0:0:
64,192,302272,1,0,0:0:0:0:
448,192,302272,1,0,0:0:0:0:
192,192,302363,1,0,0:0:0:0:
320,192,302363,1,0,0:0:0:0:
64,192,302456,1,0,0:0:0:0:
320,192,302456,1,0,0:0:0:0:
64,192,302547,1,0,0:0:0:0:
192,192,302547,1,0,0:0:0:0:
320,192,302547,1,0,0:0:0:0:
448,192,302547,1,0,0:0:0:0:
448,192,302638,1,0,0:0:0:0:
192,192,302638,1,0,0:0:0:0:
320,192,302731,1,0,0:0:0:0:
448,192,302731,1,0,0:0:0:0:
192,192,302822,1,0,0:0:0:0:
64,192,302822,1,0,0:0:0:0:
64,192,302913,1,0,0:0:0:0:
192,192,302913,1,0,0:0:0:0:
448,192,302913,1,0,0:0:0:0:
320,192,302913,1,0,0:0:0:0:
320,192,303006,1,0,0:0:0:0:
448,192,303006,1,0,0:0:0:0:
64,192,303097,1,0,0:0:0:0:
448,192,303097,1,0,0:0:0:0:
320,192,303190,1,0,0:0:0:0:
64,192,303190,1,0,0:0:0:0:
192,192,303281,1,0,0:0:0:0:
64,192,303281,1,0,0:0:0:0:
320,192,303281,1,0,0:0:0:0:
448,192,303281,1,0,0:0:0:0:
192,192,303372,1,0,0:0:0:0:
448,192,303372,1,0,0:0:0:0:
320,192,303465,1,0,0:0:0:0:
448,192,303465,1,0,0:0:0:0:
192,192,303556,1,0,0:0:0:0:
64,192,303556,1,0,0:0:0:0:
192,192,303647,1,0,0:0:0:0:
64,192,303647,1,0,0:0:0:0:
320,192,303647,1,0,0:0:0:0:
448,192,303647,1,0,0:0:0:0:
192,192,303740,1,0,0:0:0:0:
320,192,303740,1,0,0:0:0:0:
64,192,303831,1,0,0:0:0:0:
448,192,303831,1,0,0:0:0:0:
320,192,303922,1,0,0:0:0:0:
448,192,303922,1,0,0:0:0:0:
64,192,304015,1,0,0:0:0:0:
192,192,304015,1,0,0:0:0:0:
320,192,304015,1,0,0:0:0:0:
448,192,304015,1,0,0:0:0:0:
192,192,304106,1,0,0:0:0:0:
64,192,304106,1,0,0:0:0:0:
64,192,304197,1,0,0:0:0:0:
320,192,304197,1,0,0:0:0:0:
192,192,304290,1,0,0:0:0:0:
448,192,304290,1,0,0:0:0:0:
448,192,304381,1,0,0:0:0:0:
192,192,304381,1,0,0:0:0:0:
320,192,304381,1,0,0:0:0:0:
64,192,304381,1,0,0:0:0:0:
320,192,304472,1,0,0:0:0:0:
448,192,304472,1,0,0:0:0:0:
192,192,304565,1,0,0:0:0:0:
64,192,304565,1,0,0:0:0:0:
64,192,304656,1,0,0:0:0:0:
320,192,304656,1,0,0:0:0:0:
448,192,304747,1,0,0:0:0:0:
320,192,304747,1,0,0:0:0:0:
192,192,304747,1,0,0:0:0:0:
64,192,304747,1,0,0:0:0:0:
192,192,304840,1,0,0:0:0:0:
448,192,304840,1,0,0:0:0:0:
320,192,304931,1,0,0:0:0:0:
192,192,304931,1,0,0:0:0:0:
64,192,305023,1,0,0:0:0:0:
448,192,305023,1,0,0:0:0:0:
64,192,305115,1,0,0:0:0:0:
192,192,305115,1,0,0:0:0:0:
320,192,305115,1,0,0:0:0:0:
448,192,305115,1,0,0:0:0:0:
320,192,305206,1,0,0:0:0:0:
192,192,305206,1,0,0:0:0:0:
64,192,305298,1,0,0:0:0:0:
448,192,305298,1,0,0:0:0:0:
320,192,305390,1,0,0:0:0:0:
64,192,305390,1,0,0:0:0:0:
64,192,305481,1,0,0:0:0:0:
448,192,305481,1,0,0:0:0:0:
320,192,305481,1,0,0:0:0:0:
192,192,305481,1,0,0:0:0:0:
192,192,305573,1,0,0:0:0:0:
448,192,305573,1,0,0:0:0:0:
320,192,305665,1,0,0:0:0:0:
448,192,305665,1,0,0:0:0:0:
192,192,305756,1,0,0:0:0:0:
64,192,305756,1,0,0:0:0:0:
64,192,305848,1,0,0:0:0:0:
192,192,305848,1,0,0:0:0:0:
320,192,305848,1,0,0:0:0:0:
448,192,305848,1,0,0:0:0:0:
320,192,305940,1,0,0:0:0:0:
192,192,305940,1,0,0:0:0:0:
64,192,306031,1,0,0:0:0:0:
448,192,306031,1,0,0:0:0:0:
320,192,306123,1,0,0:0:0:0:
448,192,306123,1,0,0:0:0:0:
64,192,306215,1,0,0:0:0:0:
192,192,306215,1,0,0:0:0:0:
320,192,306215,1,0,0:0:0:0:
448,192,306215,1,0,0:0:0:0:
192,192,306306,1,0,0:0:0:0:
64,192,306306,1,0,0:0:0:0:
64,192,306398,1,0,0:0:0:0:
320,192,306398,1,0,0:0:0:0:
192,192,306490,1,0,0:0:0:0:
448,192,306490,1,0,0:0:0:0:
64,192,306581,1,0,0:0:0:0:
192,192,306581,1,0,0:0:0:0:
320,192,306581,1,0,0:0:0:0:
448,192,306581,1,0,0:0:0:0:
320,192,306673,1,0,0:0:0:0:
448,192,306673,1,0,0:0:0:0:
192,192,306765,1,0,0:0:0:0:
64,192,306765,1,0,0:0:0:0:
320,192,306857,1,0,0:0:0:0:
64,192,306857,1,0,0:0:0:0:
64,192,306948,1,0,0:0:0:0:
192,192,306948,1,0,0:0:0:0:
320,192,306948,1,0,0:0:0:0:
448,192,306948,1,0,0:0:0:0:
192,192,307040,1,0,0:0:0:0:
320,192,307040,1,0,0:0:0:0:
64,192,307132,1,0,0:0:0:0:
448,192,307132,1,0,0:0:0:0:
192,192,307223,1,0,0:0:0:0:
320,192,307223,1,0,0:0:0:0:
448,192,307315,1,0,0:0:0:0:
320,192,307315,1,0,0:0:0:0:
192,192,307315,1,0,0:0:0:0:
64,192,307315,1,0,0:0:0:0:
320,192,307407,1,0,0:0:0:0:
448,192,307407,1,0,0:0:0:0:
64,192,307498,1,0,0:0:0:0:
192,192,307498,1,0,0:0:0:0:
64,192,307590,1,0,0:0:0:0:
448,192,307590,1,0,0:0:0:0:
192,192,307682,1,0,0:0:0:0:
64,192,307682,1,0,0:0:0:0:
320,192,307682,1,0,0:0:0:0:
448,192,307682,1,0,0:0:0:0:
192,192,307773,1,0,0:0:0:0:
320,192,307773,1,0,0:0:0:0:
448,192,307865,1,0,0:0:0:0:
320,192,307865,1,0,0:0:0:0:
64,192,307957,1,0,0:0:0:0:
192,192,307957,1,0,0:0:0:0:
192,192,308048,1,0,0:0:0:0:
320,192,308048,1,0,0:0:0:0:
448,192,308048,1,0,0:0:0:0:
64,192,308140,1,0,0:0:0:0:
448,192,308140,1,0,0:0:0:0:
320,192,308232,1,0,0:0:0:0:
192,192,308232,1,0,0:0:0:0:
64,192,308323,1,0,0:0:0:0:
320,192,308323,1,0,0:0:0:0:
64,192,308415,1,0,0:0:0:0:
192,192,308415,1,0,0:0:0:0:
448,192,308415,1,0,0:0:0:0:
320,192,308507,1,0,0:0:0:0:
448,192,308507,1,0,0:0:0:0:
192,192,308598,1,0,0:0:0:0:
320,192,308598,1,0,0:0:0:0:
64,192,308691,1,0,0:0:0:0:
448,192,308691,1,0,0:0:0:0:
64,192,308782,1,0,0:0:0:0:
192,192,308782,1,0,0:0:0:0:
320,192,308782,1,0,0:0:0:0:
192,192,308873,1,0,0:0:0:0:
448,192,308873,1,0,0:0:0:0:
320,192,308966,1,0,0:0:0:0:
448,192,308966,1,0,0:0:0:0:
192,192,309057,1,0,0:0:0:0:
64,192,309057,1,0,0:0:0:0:
64,192,309148,1,0,0:0:0:0:
320,192,309148,1,0,0:0:0:0:
192,192,309148,1,0,0:0:0:0:
448,192,309241,1,0,0:0:0:0:
320,192,309241,1,0,0:0:0:0:
64,192,309332,1,0,0:0:0:0:
320,192,309332,1,0,0:0:0:0:
192,192,309423,1,0,0:0:0:0:
448,192,309423,1,0,0:0:0:0:
320,192,309516,1,0,0:0:0:0:
448,192,309516,1,0,0:0:0:0:
64,192,309516,1,0,0:0:0:0:
192,192,309607,1,0,0:0:0:0:
320,192,309607,1,0,0:0:0:0:
192,192,309698,1,0,0:0:0:0:
64,192,309698,1,0,0:0:0:0:
64,192,309791,1,0,0:0:0:0:
320,192,309791,1,0,0:0:0:0:
320,192,309882,1,0,0:0:0:0:
448,192,309882,1,0,0:0:0:0:
192,192,309882,1,0,0:0:0:0:
64,192,309973,1,0,0:0:0:0:
448,192,309973,1,0,0:0:0:0:
192,192,310066,1,0,0:0:0:0:
64,192,310066,1,0,0:0:0:0:
192,192,310157,1,0,0:0:0:0:
320,192,310157,1,0,0:0:0:0:
320,192,310248,1,0,0:0:0:0:
448,192,310248,1,0,0:0:0:0:
64,192,310248,1,0,0:0:0:0:
192,192,310341,1,0,0:0:0:0:
448,192,310341,1,0,0:0:0:0:
320,192,310432,1,0,0:0:0:0:
64,192,310432,1,0,0:0:0:0:
192,192,310525,1,0,0:0:0:0:
320,192,310525,1,0,0:0:0:0:
64,192,310616,1,0,0:0:0:0:
192,192,310616,1,0,0:0:0:0:
448,192,310616,1,0,0:0:0:0:
320,192,310707,1,0,0:0:0:0:
448,192,310707,1,0,0:0:0:0:
192,192,310800,1,0,0:0:0:0:
64,192,310800,1,0,0:0:0:0:
64,192,310891,1,0,0:0:0:0:
320,192,310891,1,0,0:0:0:0:
64,192,310982,1,0,0:0:0:0:
448,192,310982,1,0,0:0:0:0:
320,192,310982,1,0,0:0:0:0:
192,192,311075,1,0,0:0:0:0:
320,192,311075,1,0,0:0:0:0:
64,192,311166,1,0,0:0:0:0:
448,192,311166,1,0,0:0:0:0:
192,192,311257,1,0,0:0:0:0:
320,192,311257,1,0,0:0:0:0:
192,192,311350,1,0,0:0:0:0:
320,192,311350,1,0,0:0:0:0:
448,192,311350,1,0,0:0:0:0:
64,192,311441,1,0,0:0:0:0:
448,192,311441,1,0,0:0:0:0:
320,192,311532,1,0,0:0:0:0:
64,192,311532,1,0,0:0:0:0:
192,192,311625,1,0,0:0:0:0:
448,192,311625,1,0,0:0:0:0:
192,192,311716,1,0,0:0:0:0:
320,192,311716,1,0,0:0:0:0:
64,192,311716,1,0,0:0:0:0:
448,192,311807,1,0,0:0:0:0:
320,192,311807,1,0,0:0:0:0:
64,192,311900,1,0,0:0:0:0:
448,192,311900,1,0,0:0:0:0:
192,192,311991,1,0,0:0:0:0:
320,192,311991,1,0,0:0:0:0:
192,192,312082,1,0,0:0:0:0:
448,192,312082,1,0,0:0:0:0:
64,192,312082,1,0,0:0:0:0:
320,192,312175,1,0,0:0:0:0:
448,192,312175,1,0,0:0:0:0:
64,192,312266,1,0,0:0:0:0:
320,192,312266,1,0,0:0:0:0:
192,192,312358,1,0,0:0:0:0:
448,192,312358,1,0,0:0:0:0:
64,192,312450,1,0,0:0:0:0:
192,192,312450,1,0,0:0:0:0:
320,192,312450,1,0,0:0:0:0:
448,192,312541,1,0,0:0:0:0:
320,192,312541,1,0,0:0:0:0:
64,192,312633,1,0,0:0:0:0:
448,192,312633,1,0,0:0:0:0:
192,192,312725,1,0,0:0:0:0:
64,192,312725,1,0,0:0:0:0:
192,192,312816,1,0,0:0:0:0:
320,192,312816,1,0,0:0:0:0:
448,192,312816,1,0,0:0:0:0:
64,192,312908,1,0,0:0:0:0:
448,192,312908,1,0,0:0:0:0:
192,192,313000,1,0,0:0:0:0:
320,192,313000,1,0,0:0:0:0:
64,192,313091,1,0,0:0:0:0:
320,192,313091,1,0,0:0:0:0:
448,192,313183,1,0,0:0:0:0:
320,192,313183,1,0,0:0:0:0:
192,192,313183,1,0,0:0:0:0:
64,192,313275,1,0,0:0:0:0:
448,192,313275,1,0,0:0:0:0:
320,192,313366,1,0,0:0:0:0:
64,192,313366,1,0,0:0:0:0:
192,192,313458,1,0,0:0:0:0:
448,192,313458,1,0,0:0:0:0:
192,192,313550,1,0,0:0:0:0:
320,192,313550,1,0,0:0:0:0:
64,192,313550,1,0,0:0:0:0:
64,192,313733,1,0,0:0:0:0:
192,192,313733,1,0,0:0:0:0:
448,192,313733,1,0,0:0:0:0:
192,192,313916,1,0,0:0:0:0:
448,192,313916,1,0,0:0:0:0:
320,192,313916,1,0,0:0:0:0:
64,192,314008,1,0,0:0:0:0:
192,192,314100,1,0,0:0:0:0:
448,192,314100,1,0,0:0:0:0:
320,192,314191,1,0,0:0:0:0:
192,192,314283,1,0,0:0:0:0:
64,192,314283,1,0,0:0:0:0:
448,192,314283,1,0,0:0:0:0:
320,192,314375,1,0,0:0:0:0:
192,192,314467,1,0,0:0:0:0:
64,192,314467,1,0,0:0:0:0:
448,192,314558,1,0,0:0:0:0:
320,192,314650,1,0,0:0:0:0:
192,192,314650,1,0,0:0:0:0:
64,192,314650,1,0,0:0:0:0:
448,192,314742,1,0,0:0:0:0:
64,192,314833,1,0,0:0:0:0:
320,192,314833,1,0,0:0:0:0:
192,192,314925,1,0,0:0:0:0:
64,192,315017,1,0,0:0:0:0:
448,192,315017,1,0,0:0:0:0:
320,192,315108,1,0,0:0:0:0:
448,192,315200,1,0,0:0:0:0:
192,192,315200,1,0,0:0:0:0:
64,192,315292,1,0,0:0:0:0:
192,192,315383,1,0,0:0:0:0:
320,192,315383,1,0,0:0:0:0:
448,192,315383,1,0,0:0:0:0:
64,192,315475,1,0,0:0:0:0:
320,192,315567,1,0,0:0:0:0:
448,192,315567,1,0,0:0:0:0:
192,192,315658,1,0,0:0:0:0:
64,192,315750,1,0,0:0:0:0:
320,192,315750,1,0,0:0:0:0:
448,192,315750,1,0,0:0:0:0:
192,192,315842,1,0,0:0:0:0:
448,192,315933,1,0,0:0:0:0:
64,192,315933,1,0,0:0:0:0:
320,192,316025,1,0,0:0:0:0:
192,192,316117,1,0,0:0:0:0:
64,192,316117,1,0,0:0:0:0:
448,192,316208,1,0,0:0:0:0:
320,192,316301,1,0,0:0:0:0:
192,192,316301,1,0,0:0:0:0:
64,192,316301,1,0,0:0:0:0:
448,192,316392,1,0,0:0:0:0:
320,192,316483,1,0,0:0:0:0:
192,192,316483,1,0,0:0:0:0:
64,192,316576,1,0,0:0:0:0:
192,192,316667,1,0,0:0:0:0:
448,192,316667,1,0,0:0:0:0:
320,192,316758,1,0,0:0:0:0:
64,192,316851,1,0,0:0:0:0:
192,192,316851,1,0,0:0:0:0:
448,192,316851,1,0,0:0:0:0:
320,192,316942,1,0,0:0:0:0:
64,192,317033,1,0,0:0:0:0:
448,192,317033,1,0,0:0:0:0:
192,192,317126,1,0,0:0:0:0:
320,192,317217,1,0,0:0:0:0:
448,192,317217,1,0,0:0:0:0:
64,192,317217,1,0,0:0:0:0:
192,192,317308,1,0,0:0:0:0:
320,192,317401,1,0,0:0:0:0:
448,192,317401,1,0,0:0:0:0:
64,192,317492,1,0,0:0:0:0:
192,192,317583,1,0,0:0:0:0:
320,192,317583,1,0,0:0:0:0:
448,192,317583,1,0,0:0:0:0:
64,192,317676,1,0,0:0:0:0:
192,192,317767,1,0,0:0:0:0:
448,192,317767,1,0,0:0:0:0:
320,192,317858,1,0,0:0:0:0:
192,192,317951,1,0,0:0:0:0:
64,192,317951,1,0,0:0:0:0:
448,192,317951,1,0,0:0:0:0:
320,192,318042,1,0,0:0:0:0:
192,192,318135,1,0,0:0:0:0:
64,192,318135,1,0,0:0:0:0:
448,192,318226,1,0,0:0:0:0:
64,192,318317,1,0,0:0:0:0:
192,192,318317,1,0,0:0:0:0:
320,192,318317,1,0,0:0:0:0:
448,192,318410,1,0,0:0:0:0:
320,192,318501,1,0,0:0:0:0:
192,192,318501,1,0,0:0:0:0:
64,192,318501,1,0,0:0:0:0:
448,192,318592,1,0,0:0:0:0:
320,192,318685,1,0,0:0:0:0:
192,192,318685,1,0,0:0:0:0:
64,192,318685,1,0,0:0:0:0:
448,192,318776,1,0,0:0:0:0:
64,192,318867,1,0,0:0:0:0:
320,192,318867,1,0,0:0:0:0:
192,192,318960,1,0,0:0:0:0:
320,192,319051,1,0,0:0:0:0:
448,192,319051,1,0,0:0:0:0:
64,192,319051,1,0,0:0:0:0:
192,192,319142,1,0,0:0:0:0:
448,192,319235,1,0,0:0:0:0:
320,192,319280,1,0,0:0:0:0:
192,192,319326,1,0,0:0:0:0:
64,192,319372,1,0,0:0:0:0:
448,192,319417,1,0,0:0:0:0:
320,192,319463,1,0,0:0:0:0:
64,192,319510,1,0,0:0:0:0:
192,192,319555,1,0,0:0:0:0:
320,192,319601,1,0,0:0:0:0:
448,192,319647,1,0,0:0:0:0:
64,192,319692,1,0,0:0:0:0:
192,192,319692,1,0,0:0:0:0:
320,192,319785,1,0,0:0:0:0:
448,192,319785,1,0,0:0:0:0:
64,192,319785,1,0,0:0:0:0:
192,192,319968,1,0,0:0:0:0:
192,192,320151,1,0,0:0:0:0:
320,192,320151,1,0,0:0:0:0:
448,192,320151,1,0,0:0:0:0:
64,192,320151,1,0,0:0:0:0:
448,192,320335,1,0,0:0:0:0:
320,192,320518,1,0,0:0:0:0:
192,192,320518,1,0,0:0:0:0:
64,192,320518,1,0,0:0:0:0:
192,192,320701,1,0,0:0:0:0:
64,192,320885,1,0,0:0:0:0:
192,192,320885,1,0,0:0:0:0:
320,192,320885,1,0,0:0:0:0:
448,192,320885,1,0,0:0:0:0:
448,192,321068,1,0,0:0:0:0:
320,192,321251,1,0,0:0:0:0:
448,192,321251,1,0,0:0:0:0:
64,192,321251,1,0,0:0:0:0:
192,192,321435,1,0,0:0:0:0:
64,192,321618,1,0,0:0:0:0:
192,192,321618,1,0,0:0:0:0:
448,192,321618,1,0,0:0:0:0:
320,192,321618,1,0,0:0:0:0:
320,192,321802,1,0,0:0:0:0:
192,192,321985,1,0,0:0:0:0:
448,192,321985,1,0,0:0:0:0:
64,192,321985,1,0,0:0:0:0:
192,192,322168,1,0,0:0:0:0:
192,192,322352,1,0,0:0:0:0:
320,192,322352,1,0,0:0:0:0:
448,192,322352,1,0,0:0:0:0:
64,192,322352,1,0,0:0:0:0:
448,192,322535,1,0,0:0:0:0:
320,192,322718,1,0,0:0:0:0:
448,192,322718,1,0,0:0:0:0:
192,192,322718,1,0,0:0:0:0:
64,192,322902,1,0,0:0:0:0:
64,192,323085,1,0,0:0:0:0:
320,192,323085,1,0,0:0:0:0:
192,192,323085,1,0,0:0:0:0:
448,192,323085,1,0,0:0:0:0:
320,192,323268,1,0,0:0:0:0:
64,192,323452,1,0,0:0:0:0:
192,192,323452,1,0,0:0:0:0:
448,192,323452,1,0,0:0:0:0:
192,192,323636,1,0,0:0:0:0:
64,192,323818,1,0,0:0:0:0:
192,192,323818,1,0,0:0:0:0:
320,192,323818,1,0,0:0:0:0:
448,192,323818,1,0,0:0:0:0:
320,192,324002,1,0,0:0:0:0:
64,192,324186,1,0,0:0:0:0:
192,192,324186,1,0,0:0:0:0:
448,192,324186,1,0,0:0:0:0:
64,192,324368,1,0,0:0:0:0:
64,192,324552,1,0,0:0:0:0:
192,192,324552,1,0,0:0:0:0:
448,192,324552,1,0,0:0:0:0:
320,192,324552,1,0,0:0:0:0:
448,192,324736,1,0,0:0:0:0:
64,192,324918,1,0,0:0:0:0:
320,192,324918,1,0,0:0:0:0:
448,192,324918,1,0,0:0:0:0:
192,192,325102,1,0,0:0:0:0:
64,192,325286,1,0,0:0:0:0:
192,192,325286,1,0,0:0:0:0:
320,192,325286,1,0,0:0:0:0:
448,192,325286,1,0,0:0:0:0:
64,192,325470,1,0,0:0:0:0:
448,192,325470,1,0,0:0:0:0:
320,192,325470,1,0,0:0:0:0:
448,192,325652,1,0,0:0:0:0:
320,192,325652,1,0,0:0:0:0:
192,192,325652,1,0,0:0:0:0:
64,192,325652,1,0,0:0:0:0:
192,192,325836,1,0,0:0:0:0:
320,192,325836,1,0,0:0:0:0:
64,192,325836,1,0,0:0:0:0:
64,192,326020,1,0,0:0:0:0:
192,192,326020,1,0,0:0:0:0:
320,192,326020,1,0,0:0:0:0:
448,192,326020,1,0,0:0:0:0:
192,192,326202,1,0,0:0:0:0:
64,192,326202,1,0,0:0:0:0:
448,192,326202,1,0,0:0:0:0:
64,192,326386,1,0,0:0:0:0:
192,192,326386,1,0,0:0:0:0:
320,192,326386,1,0,0:0:0:0:
448,192,326386,1,0,0:0:0:0:
320,192,326570,1,0,0:0:0:0:
448,192,326570,1,0,0:0:0:0:
64,192,326570,1,0,0:0:0:0:
64,192,326752,1,0,0:0:0:0:
192,192,326752,1,0,0:0:0:0:
320,192,326752,1,0,0:0:0:0:
448,192,326752,1,0,0:0:0:0:
64,192,326936,1,0,0:0:0:0:
320,192,326936,1,0,0:0:0:0:
192,192,326936,1,0,0:0:0:0:
64,192,327120,1,0,0:0:0:0:
192,192,327120,1,0,0:0:0:0:
320,192,327120,1,0,0:0:0:0:
448,192,327120,1,0,0:0:0:0:
192,192,327303,1,0,0:0:0:0:
64,192,327303,1,0,0:0:0:0:
448,192,327303,1,0,0:0:0:0:
64,192,327486,1,0,0:0:0:0:
192,192,327486,1,0,0:0:0:0:
320,192,327486,1,0,0:0:0:0:
448,192,327486,1,0,0:0:0:0:
320,192,327670,1,0,0:0:0:0:
448,192,327670,1,0,0:0:0:0:
192,192,327670,1,0,0:0:0:0:
64,192,327853,1,0,0:0:0:0:
192,192,327853,1,0,0:0:0:0:
320,192,327853,1,0,0:0:0:0:
448,192,327853,1,0,0:0:0:0:
448,192,328036,1,0,0:0:0:0:
320,192,328036,1,0,0:0:0:0:
64,192,328036,1,0,0:0:0:0:
64,192,328220,1,0,0:0:0:0:
192,192,328220,1,0,0:0:0:0:
320,192,328220,1,0,0:0:0:0:
448,192,328220,1,0,0:0:0:0:
192,192,328403,1,0,0:0:0:0:
64,192,328403,1,0,0:0:0:0:
320,192,328403,1,0,0:0:0:0:
320,192,328586,1,0,0:0:0:0:
448,192,328586,1,0,0:0:0:0:
192,192,328678,1,0,0:0:0:0:
64,192,328678,1,0,0:0:0:0:
320,192,328770,1,0,0:0:0:0:
448,192,328770,1,0,0:0:0:0:
192,192,328861,1,0,0:0:0:0:
64,192,328861,1,0,0:0:0:0:
320,192,328953,1,0,0:0:0:0:
448,192,328953,1,0,0:0:0:0:
192,192,329045,1,0,0:0:0:0:
64,192,329045,1,0,0:0:0:0:
320,192,329137,1,0,0:0:0:0:
448,192,329137,1,0,0:0:0:0:
192,192,329228,1,0,0:0:0:0:
64,192,329228,1,0,0:0:0:0:
320,192,329320,1,0,0:0:0:0:
448,192,329320,1,0,0:0:0:0:
192,192,329412,1,0,0:0:0:0:
64,192,329412,1,0,0:0:0:0:
320,192,329503,1,0,0:0:0:0:
448,192,329503,1,0,0:0:0:0:
192,192,329595,1,0,0:0:0:0:
64,192,329595,1,0,0:0:0:0:
320,192,329687,1,0,0:0:0:0:
448,192,329687,1,0,0:0:0:0:
192,192,329778,1,0,0:0:0:0:
64,192,329778,1,0,0:0:0:0:
320,192,329870,1,0,0:0:0:0:
448,192,329870,1,0,0:0:0:0:
192,192,329962,1,0,0:0:0:0:
64,192,329962,1,0,0:0:0:0:
448,192,330053,1,0,0:0:0:0:
320,192,330100,1,0,0:0:0:0:
192,192,330145,1,0,0:0:0:0:
64,192,330191,1,0,0:0:0:0:
448,192,330237,1,0,0:0:0:0:
320,192,330282,1,0,0:0:0:0:
192,192,330328,1,0,0:0:0:0:
64,192,330375,1,0,0:0:0:0:
448,192,330420,1,0,0:0:0:0:
320,192,330466,1,0,0:0:0:0:
64,192,330512,1,0,0:0:0:0:
192,192,330557,1,0,0:0:0:0:
448,192,330603,1,0,0:0:0:0:
320,192,330650,1,0,0:0:0:0:
64,192,330695,1,0,0:0:0:0:
192,192,330741,1,0,0:0:0:0:
448,192,330787,1,0,0:0:0:0:
320,192,330832,1,0,0:0:0:0:
192,192,330878,1,0,0:0:0:0:
64,192,330925,1,0,0:0:0:0:
320,192,331062,1,0,0:0:0:0:
192,192,331108,1,0,0:0:0:0:
64,192,331153,1,0,0:0:0:0:
448,192,331200,1,0,0:0:0:0:
192,192,331337,1,0,0:0:0:0:
64,192,331383,1,0,0:0:0:0:
448,192,331428,1,0,0:0:0:0:
320,192,331475,1,0,0:0:0:0:
192,192,331521,1,0,0:0:0:0:
64,192,331521,1,0,0:0:0:0:
