osu file format v14

[General]
AudioFilename: audio 0.700x.mp3
AudioLeadIn: 0
PreviewTime: 254185
Countdown: 0
SampleSet: Normal
StackLeniency: 0.7
Mode: 3
LetterboxInBreaks: 0
SpecialStyle: 0
WidescreenStoryboard: 0

[Editor]
DistanceSpacing: 0.8
BeatDivisor: 4
GridSize: 16
TimelineZoom: 1.7

[Metadata]
Title:Tactical Railroad
TitleUnicode:Tactical Railroad
Artist:DJ Sharpnel
ArtistUnicode:DJ Sharpnel
Creator:YoungBurger14
Version:0.7x
Source:
Tags:レール・ウォーズ -nihonkoku yuuteddou kouantai- opening 茅原実里 chihara minori remix electronic japanese ver2.0 colossalcom2016 limited srpx-0002 srpx-0004 comiket c86 コミケット86 hardcore jcore j-core bootleg -日本國有鉄道公安隊- 向かい風に打たれながら mukai kaze ni utare nagara jack chord chordjack speedjack
BeatmapID:4536761
BeatmapSetID:2153117

[Difficulty]
HPDrainRate:7
CircleSize:4
OverallDifficulty:8
ApproachRate:2.5
SliderMultiplier:1.4
SliderTickRate:1

[Events]
//Background and Video events
0,0,"Tactical Railroad.jpg",0,0
//Break Periods
//Storyboard Layer 0 (Background)
//Storyboard Layer 1 (Fail)
//Storyboard Layer 2 (Pass)
//Storyboard Layer 3 (Foreground)
//Storyboard Layer 4 (Overlay)
//Storyboard Sound Samples

[TimingPoints]
1654,419.141428571429,4,1,0,30,1,0
102247,-100,4,1,0,30,0,1
172662,-100,4,1,0,30,0,0
254814,-100,4,1,0,30,0,1
325231,-100,4,1,0,30,0,0

[HitObjects]
64,192,1654,5,0,0:0:0:0:
192,192,1654,1,0,0:0:0:0:
320,192,1654,1,0,0:0:0:0:
448,192,1654,1,0,0:0:0:0:
64,192,1862,1,0,0:0:0:0:
192,192,1862,1,0,0:0:0:0:
64,192,2072,1,0,0:0:0:0:
192,192,2072,1,0,0:0:0:0:
320,192,2072,1,0,0:0:0:0:
448,192,2072,1,0,0:0:0:0:
64,192,2282,1,0,0:0:0:0:
448,192,2282,1,0,0:0:0:0:
320,192,2491,1,0,0:0:0:0:
448,192,2491,1,0,0:0:0:0:
192,192,2491,1,0,0:0:0:0:
64,192,2491,1,0,0:0:0:0:
192,192,2701,1,0,0:0:0:0:
320,192,2701,1,0,0:0:0:0:
64,192,2911,1,0,0:0:0:0:
192,192,2911,1,0,0:0:0:0:
320,192,2911,1,0,0:0:0:0:
448,192,2911,1,0,0:0:0:0:
192,192,3120,1,0,0:0:0:0:
448,192,3120,1,0,0:0:0:0:
192,192,3330,1,0,0:0:0:0:
320,192,3330,1,0,0:0:0:0:
448,192,3330,1,0,0:0:0:0:
64,192,3330,1,0,0:0:0:0:
64,192,3540,1,0,0:0:0:0:
320,192,3540,1,0,0:0:0:0:
64,192,3748,1,0,0:0:0:0:
192,192,3748,1,0,0:0:0:0:
320,192,3748,1,0,0:0:0:0:
448,192,3748,1,0,0:0:0:0:
448,192,3958,1,0,0:0:0:0:
320,192,3958,1,0,0:0:0:0:
64,192,4168,1,0,0:0:0:0:
192,192,4168,1,0,0:0:0:0:
448,192,4168,1,0,0:0:0:0:
320,192,4168,1,0,0:0:0:0:
192,192,4378,1,0,0:0:0:0:
64,192,4378,1,0,0:0:0:0:
64,192,4587,1,0,0:0:0:0:
192,192,4587,1,0,0:0:0:0:
320,192,4587,1,0,0:0:0:0:
448,192,4587,1,0,0:0:0:0:
64,192,4797,1,0,0:0:0:0:
448,192,4797,1,0,0:0:0:0:
192,192,5007,1,0,0:0:0:0:
64,192,5007,1,0,0:0:0:0:
320,192,5007,1,0,0:0:0:0:
448,192,5007,1,0,0:0:0:0:
64,192,5215,1,0,0:0:0:0:
320,192,5215,1,0,0:0:0:0:
64,192,5425,1,0,0:0:0:0:
192,192,5425,1,0,0:0:0:0:
448,192,5425,1,0,0:0:0:0:
320,192,5425,1,0,0:0:0:0:
192,192,5635,1,0,0:0:0:0:
320,192,5635,1,0,0:0:0:0:
64,192,5844,1,0,0:0:0:0:
192,192,5844,1,0,0:0:0:0:
320,192,5844,1,0,0:0:0:0:
448,192,5844,1,0,0:0:0:0:
448,192,6054,1,0,0:0:0:0:
64,192,6054,1,0,0:0:0:0:
64,192,6264,1,0,0:0:0:0:
192,192,6264,1,0,0:0:0:0:
448,192,6264,1,0,0:0:0:0:
320,192,6264,1,0,0:0:0:0:
320,192,6474,1,0,0:0:0:0:
448,192,6474,1,0,0:0:0:0:
64,192,6682,1,0,0:0:0:0:
192,192,6682,1,0,0:0:0:0:
320,192,6682,1,0,0:0:0:0:
448,192,6682,1,0,0:0:0:0:
64,192,6892,1,0,0:0:0:0:
192,192,6892,1,0,0:0:0:0:
64,192,7102,1,0,0:0:0:0:
320,192,7102,1,0,0:0:0:0:
448,192,7102,1,0,0:0:0:0:
192,192,7102,1,0,0:0:0:0:
64,192,7311,1,0,0:0:0:0:
320,192,7311,1,0,0:0:0:0:
64,192,7521,1,0,0:0:0:0:
192,192,7521,1,0,0:0:0:0:
320,192,7521,1,0,0:0:0:0:
448,192,7521,1,0,0:0:0:0:
192,192,7731,1,0,0:0:0:0:
448,192,7731,1,0,0:0:0:0:
64,192,7940,1,0,0:0:0:0:
192,192,7940,1,0,0:0:0:0:
320,192,7940,1,0,0:0:0:0:
448,192,7940,1,0,0:0:0:0:
320,192,8150,1,0,0:0:0:0:
448,192,8150,1,0,0:0:0:0:
64,192,8360,1,0,0:0:0:0:
192,192,8360,1,0,0:0:0:0:
320,192,8360,1,0,0:0:0:0:
448,192,8360,1,0,0:0:0:0:
192,192,8570,1,0,0:0:0:0:
64,192,8570,1,0,0:0:0:0:
64,192,8778,1,0,0:0:0:0:
192,192,8778,1,0,0:0:0:0:
320,192,8778,1,0,0:0:0:0:
448,192,8778,1,0,0:0:0:0:
320,192,8988,1,0,0:0:0:0:
448,192,8988,1,0,0:0:0:0:
64,192,9198,1,0,0:0:0:0:
192,192,9198,1,0,0:0:0:0:
320,192,9198,1,0,0:0:0:0:
448,192,9198,1,0,0:0:0:0:
192,192,9407,1,0,0:0:0:0:
320,192,9407,1,0,0:0:0:0:
64,192,9617,1,0,0:0:0:0:
192,192,9617,1,0,0:0:0:0:
448,192,9617,1,0,0:0:0:0:
320,192,9617,1,0,0:0:0:0:
192,192,9827,1,0,0:0:0:0:
64,192,9827,1,0,0:0:0:0:
64,192,10035,1,0,0:0:0:0:
192,192,10035,1,0,0:0:0:0:
320,192,10035,1,0,0:0:0:0:
448,192,10035,1,0,0:0:0:0:
448,192,10245,1,0,0:0:0:0:
64,192,10245,1,0,0:0:0:0:
64,192,10455,1,0,0:0:0:0:
192,192,10455,1,0,0:0:0:0:
320,192,10455,1,0,0:0:0:0:
448,192,10455,1,0,0:0:0:0:
192,192,10665,1,0,0:0:0:0:
320,192,10665,1,0,0:0:0:0:
64,192,10874,1,0,0:0:0:0:
192,192,10874,1,0,0:0:0:0:
320,192,10874,1,0,0:0:0:0:
448,192,10874,1,0,0:0:0:0:
320,192,11084,1,0,0:0:0:0:
448,192,11084,1,0,0:0:0:0:
64,192,11294,1,0,0:0:0:0:
192,192,11294,1,0,0:0:0:0:
448,192,11294,1,0,0:0:0:0:
320,192,11294,1,0,0:0:0:0:
192,192,11502,1,0,0:0:0:0:
64,192,11502,1,0,0:0:0:0:
64,192,11712,1,0,0:0:0:0:
192,192,11712,1,0,0:0:0:0:
320,192,11712,1,0,0:0:0:0:
448,192,11712,1,0,0:0:0:0:
64,192,11922,1,0,0:0:0:0:
448,192,11922,1,0,0:0:0:0:
64,192,12131,1,0,0:0:0:0:
192,192,12131,1,0,0:0:0:0:
320,192,12131,1,0,0:0:0:0:
448,192,12131,1,0,0:0:0:0:
320,192,12341,1,0,0:0:0:0:
192,192,12341,1,0,0:0:0:0:
64,192,12551,1,0,0:0:0:0:
192,192,12551,1,0,0:0:0:0:
448,192,12551,1,0,0:0:0:0:
320,192,12551,1,0,0:0:0:0:
64,192,12761,1,0,0:0:0:0:
320,192,12761,1,0,0:0:0:0:
192,192,12970,1,0,0:0:0:0:
320,192,12970,1,0,0:0:0:0:
64,192,12970,1,0,0:0:0:0:
448,192,12970,1,0,0:0:0:0:
192,192,13180,1,0,0:0:0:0:
448,192,13180,1,0,0:0:0:0:
64,192,13390,1,0,0:0:0:0:
320,192,13390,1,0,0:0:0:0:
448,192,13390,1,0,0:0:0:0:
192,192,13390,1,0,0:0:0:0:
64,192,13598,1,0,0:0:0:0:
192,192,13598,1,0,0:0:0:0:
448,192,13808,1,0,0:0:0:0:
320,192,13808,1,0,0:0:0:0:
192,192,13808,1,0,0:0:0:0:
64,192,13808,1,0,0:0:0:0:
320,192,14018,1,0,0:0:0:0:
448,192,14018,1,0,0:0:0:0:
448,192,14227,1,0,0:0:0:0:
320,192,14227,1,0,0:0:0:0:
64,192,14227,1,0,0:0:0:0:
192,192,14227,1,0,0:0:0:0:
64,192,14437,1,0,0:0:0:0:
192,192,14490,1,0,0:0:0:0:
320,192,14542,1,0,0:0:0:0:
448,192,14594,1,0,0:0:0:0:
192,192,14647,1,0,0:0:0:0:
64,192,14647,1,0,0:0:0:0:
448,192,14857,1,0,0:0:0:0:
320,192,14908,1,0,0:0:0:0:
192,192,14961,1,0,0:0:0:0:
64,192,14961,1,0,0:0:0:0:
64,192,15065,5,0,0:0:0:0:
192,192,15065,1,0,0:0:0:0:
320,192,15065,1,0,0:0:0:0:
448,192,15171,1,0,0:0:0:0:
320,192,15171,1,0,0:0:0:0:
64,192,15275,1,0,0:0:0:0:
192,192,15275,1,0,0:0:0:0:
64,192,15380,1,0,0:0:0:0:
320,192,15380,1,0,0:0:0:0:
192,192,15485,1,0,0:0:0:0:
320,192,15485,1,0,0:0:0:0:
448,192,15485,1,0,0:0:0:0:
64,192,15590,1,0,0:0:0:0:
448,192,15590,1,0,0:0:0:0:
320,192,15694,1,0,0:0:0:0:
64,192,15694,1,0,0:0:0:0:
192,192,15800,1,0,0:0:0:0:
448,192,15800,1,0,0:0:0:0:
64,192,15904,1,0,0:0:0:0:
192,192,15904,1,0,0:0:0:0:
448,192,15904,1,0,0:0:0:0:
320,192,16008,1,0,0:0:0:0:
64,192,16008,1,0,0:0:0:0:
192,192,16114,1,0,0:0:0:0:
320,192,16114,1,0,0:0:0:0:
64,192,16218,1,0,0:0:0:0:
448,192,16218,1,0,0:0:0:0:
192,192,16322,1,0,0:0:0:0:
320,192,16322,1,0,0:0:0:0:
448,192,16322,1,0,0:0:0:0:
64,192,16428,1,0,0:0:0:0:
192,192,16428,1,0,0:0:0:0:
64,192,16532,1,0,0:0:0:0:
320,192,16532,1,0,0:0:0:0:
192,192,16638,1,0,0:0:0:0:
448,192,16638,1,0,0:0:0:0:
64,192,16742,1,0,0:0:0:0:
448,192,16742,1,0,0:0:0:0:
320,192,16742,1,0,0:0:0:0:
320,192,16847,1,0,0:0:0:0:
192,192,16847,1,0,0:0:0:0:
64,192,16952,1,0,0:0:0:0:
448,192,16952,1,0,0:0:0:0:
320,192,17057,1,0,0:0:0:0:
448,192,17057,1,0,0:0:0:0:
64,192,17161,1,0,0:0:0:0:
192,192,17161,1,0,0:0:0:0:
320,192,17161,1,0,0:0:0:0:
448,192,17267,1,0,0:0:0:0:
64,192,17267,1,0,0:0:0:0:
192,192,17371,1,0,0:0:0:0:
320,192,17371,1,0,0:0:0:0:
64,192,17475,1,0,0:0:0:0:
320,192,17475,1,0,0:0:0:0:
192,192,17581,1,0,0:0:0:0:
448,192,17581,1,0,0:0:0:0:
64,192,17581,1,0,0:0:0:0:
320,192,17685,1,0,0:0:0:0:
448,192,17685,1,0,0:0:0:0:
192,192,17790,1,0,0:0:0:0:
64,192,17790,1,0,0:0:0:0:
192,192,17895,1,0,0:0:0:0:
448,192,17895,1,0,0:0:0:0:
64,192,18000,1,0,0:0:0:0:
320,192,18000,1,0,0:0:0:0:
448,192,18000,1,0,0:0:0:0:
320,192,18104,1,0,0:0:0:0:
192,192,18104,1,0,0:0:0:0:
64,192,18210,1,0,0:0:0:0:
448,192,18210,1,0,0:0:0:0:
320,192,18314,1,0,0:0:0:0:
448,192,18314,1,0,0:0:0:0:
64,192,18418,1,0,0:0:0:0:
192,192,18418,1,0,0:0:0:0:
320,192,18418,1,0,0:0:0:0:
192,192,18524,1,0,0:0:0:0:
448,192,18524,1,0,0:0:0:0:
64,192,18628,1,0,0:0:0:0:
320,192,18628,1,0,0:0:0:0:
192,192,18734,1,0,0:0:0:0:
64,192,18734,1,0,0:0:0:0:
320,192,18838,1,0,0:0:0:0:
448,192,18838,1,0,0:0:0:0:
192,192,18838,1,0,0:0:0:0:
64,192,18942,1,0,0:0:0:0:
448,192,18942,1,0,0:0:0:0:
320,192,19048,1,0,0:0:0:0:
192,192,19048,1,0,0:0:0:0:
192,192,19152,1,0,0:0:0:0:
448,192,19152,1,0,0:0:0:0:
320,192,19257,1,0,0:0:0:0:
448,192,19257,1,0,0:0:0:0:
64,192,19257,1,0,0:0:0:0:
192,192,19362,1,0,0:0:0:0:
320,192,19362,1,0,0:0:0:0:
64,192,19467,1,0,0:0:0:0:
448,192,19467,1,0,0:0:0:0:
448,192,19571,1,0,0:0:0:0:
192,192,19571,1,0,0:0:0:0:
192,192,19677,1,0,0:0:0:0:
64,192,19677,1,0,0:0:0:0:
320,192,19677,1,0,0:0:0:0:
320,192,19781,1,0,0:0:0:0:
64,192,19781,1,0,0:0:0:0:
192,192,19885,1,0,0:0:0:0:
448,192,19885,1,0,0:0:0:0:
320,192,19991,1,0,0:0:0:0:
448,192,19991,1,0,0:0:0:0:
64,192,20095,1,0,0:0:0:0:
192,192,20095,1,0,0:0:0:0:
448,192,20095,1,0,0:0:0:0:
320,192,20200,1,0,0:0:0:0:
64,192,20200,1,0,0:0:0:0:
192,192,20305,1,0,0:0:0:0:
320,192,20305,1,0,0:0:0:0:
64,192,20410,1,0,0:0:0:0:
448,192,20410,1,0,0:0:0:0:
320,192,20514,1,0,0:0:0:0:
448,192,20514,1,0,0:0:0:0:
64,192,20514,1,0,0:0:0:0:
192,192,20620,1,0,0:0:0:0:
320,192,20620,1,0,0:0:0:0:
192,192,20724,1,0,0:0:0:0:
448,192,20724,1,0,0:0:0:0:
64,192,20830,1,0,0:0:0:0:
320,192,20830,1,0,0:0:0:0:
320,192,20934,1,0,0:0:0:0:
448,192,20934,1,0,0:0:0:0:
192,192,20934,1,0,0:0:0:0:
64,192,21038,1,0,0:0:0:0:
192,192,21038,1,0,0:0:0:0:
64,192,21144,1,0,0:0:0:0:
320,192,21144,1,0,0:0:0:0:
192,192,21248,1,0,0:0:0:0:
448,192,21248,1,0,0:0:0:0:
64,192,21352,1,0,0:0:0:0:
192,192,21352,1,0,0:0:0:0:
320,192,21352,1,0,0:0:0:0:
320,192,21458,1,0,0:0:0:0:
448,192,21458,1,0,0:0:0:0:
64,192,21562,1,0,0:0:0:0:
192,192,21562,1,0,0:0:0:0:
448,192,21562,1,0,0:0:0:0:
320,192,21667,1,0,0:0:0:0:
64,192,21667,1,0,0:0:0:0:
320,192,21772,1,0,0:0:0:0:
448,192,21772,1,0,0:0:0:0:
192,192,21772,1,0,0:0:0:0:
64,192,21877,1,0,0:0:0:0:
448,192,21877,1,0,0:0:0:0:
320,192,21981,1,0,0:0:0:0:
64,192,21981,1,0,0:0:0:0:
192,192,22087,1,0,0:0:0:0:
448,192,22087,1,0,0:0:0:0:
64,192,22191,1,0,0:0:0:0:
192,192,22191,1,0,0:0:0:0:
320,192,22191,1,0,0:0:0:0:
320,192,22295,1,0,0:0:0:0:
448,192,22295,1,0,0:0:0:0:
192,192,22401,1,0,0:0:0:0:
64,192,22401,1,0,0:0:0:0:
64,192,22505,1,0,0:0:0:0:
320,192,22505,1,0,0:0:0:0:
192,192,22610,1,0,0:0:0:0:
320,192,22610,1,0,0:0:0:0:
448,192,22610,1,0,0:0:0:0:
192,192,22715,1,0,0:0:0:0:
448,192,22715,1,0,0:0:0:0:
64,192,22820,1,0,0:0:0:0:
320,192,22820,1,0,0:0:0:0:
64,192,22924,1,0,0:0:0:0:
192,192,22924,1,0,0:0:0:0:
320,192,23030,1,0,0:0:0:0:
448,192,23030,1,0,0:0:0:0:
192,192,23030,1,0,0:0:0:0:
64,192,23134,1,0,0:0:0:0:
320,192,23134,1,0,0:0:0:0:
192,192,23240,1,0,0:0:0:0:
448,192,23240,1,0,0:0:0:0:
320,192,23344,1,0,0:0:0:0:
448,192,23344,1,0,0:0:0:0:
64,192,23448,1,0,0:0:0:0:
192,192,23448,1,0,0:0:0:0:
320,192,23448,1,0,0:0:0:0:
448,192,23554,1,0,0:0:0:0:
64,192,23554,1,0,0:0:0:0:
320,192,23658,1,0,0:0:0:0:
192,192,23658,1,0,0:0:0:0:
192,192,23762,1,0,0:0:0:0:
448,192,23762,1,0,0:0:0:0:
64,192,23868,1,0,0:0:0:0:
448,192,23868,1,0,0:0:0:0:
320,192,23868,1,0,0:0:0:0:
192,192,23972,1,0,0:0:0:0:
64,192,23972,1,0,0:0:0:0:
320,192,24077,1,0,0:0:0:0:
192,192,24077,1,0,0:0:0:0:
64,192,24182,1,0,0:0:0:0:
448,192,24182,1,0,0:0:0:0:
192,192,24287,1,0,0:0:0:0:
320,192,24287,1,0,0:0:0:0:
448,192,24287,1,0,0:0:0:0:
64,192,24391,1,0,0:0:0:0:
320,192,24391,1,0,0:0:0:0:
448,192,24497,1,0,0:0:0:0:
64,192,24497,1,0,0:0:0:0:
192,192,24601,1,0,0:0:0:0:
320,192,24601,1,0,0:0:0:0:
192,192,24705,1,0,0:0:0:0:
320,192,24705,1,0,0:0:0:0:
448,192,24705,1,0,0:0:0:0:
64,192,24811,1,0,0:0:0:0:
448,192,24811,1,0,0:0:0:0:
192,192,24915,1,0,0:0:0:0:
64,192,24915,1,0,0:0:0:0:
192,192,25020,1,0,0:0:0:0:
320,192,25020,1,0,0:0:0:0:
64,192,25125,1,0,0:0:0:0:
192,192,25125,1,0,0:0:0:0:
448,192,25125,1,0,0:0:0:0:
64,192,25230,1,0,0:0:0:0:
320,192,25230,1,0,0:0:0:0:
192,192,25335,1,0,0:0:0:0:
448,192,25335,1,0,0:0:0:0:
320,192,25440,1,0,0:0:0:0:
448,192,25440,1,0,0:0:0:0:
192,192,25544,1,0,0:0:0:0:
64,192,25544,1,0,0:0:0:0:
320,192,25544,1,0,0:0:0:0:
448,192,25650,1,0,0:0:0:0:
64,192,25650,1,0,0:0:0:0:
192,192,25754,1,0,0:0:0:0:
448,192,25754,1,0,0:0:0:0:
320,192,25858,1,0,0:0:0:0:
192,192,25858,1,0,0:0:0:0:
64,192,25964,1,0,0:0:0:0:
320,192,25964,1,0,0:0:0:0:
448,192,25964,1,0,0:0:0:0:
192,192,26068,1,0,0:0:0:0:
448,192,26068,1,0,0:0:0:0:
192,192,26172,1,0,0:0:0:0:
64,192,26172,1,0,0:0:0:0:
320,192,26278,1,0,0:0:0:0:
192,192,26278,1,0,0:0:0:0:
64,192,26382,1,0,0:0:0:0:
448,192,26382,1,0,0:0:0:0:
320,192,26382,1,0,0:0:0:0:
192,192,26487,1,0,0:0:0:0:
448,192,26487,1,0,0:0:0:0:
64,192,26592,1,0,0:0:0:0:
192,192,26592,1,0,0:0:0:0:
320,192,26697,1,0,0:0:0:0:
448,192,26697,1,0,0:0:0:0:
192,192,26801,1,0,0:0:0:0:
320,192,26801,1,0,0:0:0:0:
64,192,26801,1,0,0:0:0:0:
448,192,26907,1,0,0:0:0:0:
192,192,26907,1,0,0:0:0:0:
448,192,27011,1,0,0:0:0:0:
320,192,27011,1,0,0:0:0:0:
64,192,27011,1,0,0:0:0:0:
192,192,27115,1,0,0:0:0:0:
320,192,27115,1,0,0:0:0:0:
64,192,27221,1,0,0:0:0:0:
192,192,27221,1,0,0:0:0:0:
320,192,27221,1,0,0:0:0:0:
448,192,27325,1,0,0:0:0:0:
64,192,27325,1,0,0:0:0:0:
192,192,27431,1,0,0:0:0:0:
320,192,27431,1,0,0:0:0:0:
320,192,27535,1,0,0:0:0:0:
64,192,27535,1,0,0:0:0:0:
64,192,27640,1,0,0:0:0:0:
192,192,27640,1,0,0:0:0:0:
448,192,27640,1,0,0:0:0:0:
320,192,27745,1,0,0:0:0:0:
448,192,27745,1,0,0:0:0:0:
64,192,27850,1,0,0:0:0:0:
192,192,27902,1,0,0:0:0:0:
320,192,27954,1,0,0:0:0:0:
448,192,28007,1,0,0:0:0:0:
64,192,28060,1,0,0:0:0:0:
192,192,28111,1,0,0:0:0:0:
448,192,28164,1,0,0:0:0:0:
320,192,28217,1,0,0:0:0:0:
192,192,28268,1,0,0:0:0:0:
64,192,28321,1,0,0:0:0:0:
320,192,28374,1,0,0:0:0:0:
448,192,28374,1,0,0:0:0:0:
64,192,28478,1,0,0:0:0:0:
192,192,28478,1,0,0:0:0:0:
320,192,28478,1,0,0:0:0:0:
448,192,28478,1,0,0:0:0:0:
64,192,28582,1,0,0:0:0:0:
192,192,28582,1,0,0:0:0:0:
64,192,28688,1,0,0:0:0:0:
448,192,28688,1,0,0:0:0:0:
320,192,28792,1,0,0:0:0:0:
448,192,28792,1,0,0:0:0:0:
64,192,28897,1,0,0:0:0:0:
192,192,28897,1,0,0:0:0:0:
320,192,28897,1,0,0:0:0:0:
448,192,28897,1,0,0:0:0:0:
192,192,29002,1,0,0:0:0:0:
64,192,29002,1,0,0:0:0:0:
192,192,29107,1,0,0:0:0:0:
320,192,29107,1,0,0:0:0:0:
64,192,29211,1,0,0:0:0:0:
448,192,29211,1,0,0:0:0:0:
64,192,29317,1,0,0:0:0:0:
192,192,29317,1,0,0:0:0:0:
320,192,29317,1,0,0:0:0:0:
448,192,29317,1,0,0:0:0:0:
320,192,29421,1,0,0:0:0:0:
448,192,29421,1,0,0:0:0:0:
192,192,29527,1,0,0:0:0:0:
64,192,29527,1,0,0:0:0:0:
64,192,29631,1,0,0:0:0:0:
448,192,29631,1,0,0:0:0:0:
192,192,29735,1,0,0:0:0:0:
64,192,29735,1,0,0:0:0:0:
448,192,29735,1,0,0:0:0:0:
320,192,29735,1,0,0:0:0:0:
320,192,29841,1,0,0:0:0:0:
448,192,29841,1,0,0:0:0:0:
192,192,29945,1,0,0:0:0:0:
320,192,29945,1,0,0:0:0:0:
64,192,30050,1,0,0:0:0:0:
448,192,30050,1,0,0:0:0:0:
64,192,30155,1,0,0:0:0:0:
320,192,30155,1,0,0:0:0:0:
448,192,30155,1,0,0:0:0:0:
192,192,30155,1,0,0:0:0:0:
192,192,30260,1,0,0:0:0:0:
64,192,30260,1,0,0:0:0:0:
448,192,30364,1,0,0:0:0:0:
320,192,30364,1,0,0:0:0:0:
64,192,30470,1,0,0:0:0:0:
320,192,30470,1,0,0:0:0:0:
64,192,30574,1,0,0:0:0:0:
192,192,30574,1,0,0:0:0:0:
320,192,30574,1,0,0:0:0:0:
448,192,30574,1,0,0:0:0:0:
192,192,30678,1,0,0:0:0:0:
448,192,30678,1,0,0:0:0:0:
320,192,30784,1,0,0:0:0:0:
448,192,30784,1,0,0:0:0:0:
64,192,30888,1,0,0:0:0:0:
192,192,30888,1,0,0:0:0:0:
64,192,30992,1,0,0:0:0:0:
192,192,30992,1,0,0:0:0:0:
320,192,30992,1,0,0:0:0:0:
448,192,30992,1,0,0:0:0:0:
320,192,31098,1,0,0:0:0:0:
448,192,31098,1,0,0:0:0:0:
64,192,31202,1,0,0:0:0:0:
448,192,31202,1,0,0:0:0:0:
192,192,31307,1,0,0:0:0:0:
64,192,31307,1,0,0:0:0:0:
64,192,31412,1,0,0:0:0:0:
320,192,31412,1,0,0:0:0:0:
448,192,31412,1,0,0:0:0:0:
192,192,31412,1,0,0:0:0:0:
320,192,31517,1,0,0:0:0:0:
448,192,31517,1,0,0:0:0:0:
64,192,31622,1,0,0:0:0:0:
320,192,31622,1,0,0:0:0:0:
192,192,31727,1,0,0:0:0:0:
448,192,31727,1,0,0:0:0:0:
320,192,31831,1,0,0:0:0:0:
448,192,31831,1,0,0:0:0:0:
192,192,31831,1,0,0:0:0:0:
64,192,31831,1,0,0:0:0:0:
192,192,31937,1,0,0:0:0:0:
64,192,31937,1,0,0:0:0:0:
448,192,32041,1,0,0:0:0:0:
64,192,32041,1,0,0:0:0:0:
448,192,32145,1,0,0:0:0:0:
192,192,32145,1,0,0:0:0:0:
320,192,32251,1,0,0:0:0:0:
448,192,32251,1,0,0:0:0:0:
192,192,32251,1,0,0:0:0:0:
64,192,32251,1,0,0:0:0:0:
64,192,32355,1,0,0:0:0:0:
320,192,32355,1,0,0:0:0:0:
192,192,32460,1,0,0:0:0:0:
320,192,32460,1,0,0:0:0:0:
64,192,32565,1,0,0:0:0:0:
192,192,32565,1,0,0:0:0:0:
320,192,32670,1,0,0:0:0:0:
448,192,32670,1,0,0:0:0:0:
192,192,32670,1,0,0:0:0:0:
64,192,32670,1,0,0:0:0:0:
320,192,32774,1,0,0:0:0:0:
448,192,32774,1,0,0:0:0:0:
64,192,32880,1,0,0:0:0:0:
448,192,32880,1,0,0:0:0:0:
192,192,32984,1,0,0:0:0:0:
320,192,32984,1,0,0:0:0:0:
64,192,33088,1,0,0:0:0:0:
192,192,33088,1,0,0:0:0:0:
320,192,33088,1,0,0:0:0:0:
448,192,33088,1,0,0:0:0:0:
192,192,33194,1,0,0:0:0:0:
64,192,33194,1,0,0:0:0:0:
192,192,33298,1,0,0:0:0:0:
448,192,33298,1,0,0:0:0:0:
64,192,33402,1,0,0:0:0:0:
320,192,33402,1,0,0:0:0:0:
64,192,33508,1,0,0:0:0:0:
192,192,33508,1,0,0:0:0:0:
320,192,33508,1,0,0:0:0:0:
448,192,33508,1,0,0:0:0:0:
320,192,33612,1,0,0:0:0:0:
448,192,33612,1,0,0:0:0:0:
192,192,33718,1,0,0:0:0:0:
64,192,33718,1,0,0:0:0:0:
64,192,33822,1,0,0:0:0:0:
320,192,33822,1,0,0:0:0:0:
64,192,33927,1,0,0:0:0:0:
192,192,33927,1,0,0:0:0:0:
320,192,33927,1,0,0:0:0:0:
448,192,33927,1,0,0:0:0:0:
192,192,34032,1,0,0:0:0:0:
448,192,34032,1,0,0:0:0:0:
320,192,34137,1,0,0:0:0:0:
448,192,34137,1,0,0:0:0:0:
192,192,34241,1,0,0:0:0:0:
64,192,34241,1,0,0:0:0:0:
64,192,34347,1,0,0:0:0:0:
192,192,34347,1,0,0:0:0:0:
320,192,34347,1,0,0:0:0:0:
448,192,34347,1,0,0:0:0:0:
320,192,34451,1,0,0:0:0:0:
192,192,34451,1,0,0:0:0:0:
64,192,34555,1,0,0:0:0:0:
448,192,34555,1,0,0:0:0:0:
320,192,34661,1,0,0:0:0:0:
448,192,34661,1,0,0:0:0:0:
64,192,34765,1,0,0:0:0:0:
192,192,34765,1,0,0:0:0:0:
448,192,34765,1,0,0:0:0:0:
320,192,34765,1,0,0:0:0:0:
64,192,34870,1,0,0:0:0:0:
192,192,34870,1,0,0:0:0:0:
64,192,34975,1,0,0:0:0:0:
448,192,34975,1,0,0:0:0:0:
192,192,35080,1,0,0:0:0:0:
320,192,35080,1,0,0:0:0:0:
64,192,35184,1,0,0:0:0:0:
192,192,35184,1,0,0:0:0:0:
320,192,35184,1,0,0:0:0:0:
448,192,35184,1,0,0:0:0:0:
64,192,35394,1,0,0:0:0:0:
320,192,35394,1,0,0:0:0:0:
448,192,35394,1,0,0:0:0:0:
64,192,35604,1,0,0:0:0:0:
192,192,35604,1,0,0:0:0:0:
320,192,35604,1,0,0:0:0:0:
448,192,35604,1,0,0:0:0:0:
320,192,35814,1,0,0:0:0:0:
448,192,35814,1,0,0:0:0:0:
192,192,35814,1,0,0:0:0:0:
64,192,36022,1,0,0:0:0:0:
192,192,36022,1,0,0:0:0:0:
320,192,36022,1,0,0:0:0:0:
448,192,36022,1,0,0:0:0:0:
192,192,36232,1,0,0:0:0:0:
64,192,36232,1,0,0:0:0:0:
320,192,36232,1,0,0:0:0:0:
64,192,36442,1,0,0:0:0:0:
192,192,36442,1,0,0:0:0:0:
320,192,36442,1,0,0:0:0:0:
448,192,36442,1,0,0:0:0:0:
64,192,36651,1,0,0:0:0:0:
448,192,36651,1,0,0:0:0:0:
320,192,36651,1,0,0:0:0:0:
320,192,36861,1,0,0:0:0:0:
192,192,36861,1,0,0:0:0:0:
448,192,36861,1,0,0:0:0:0:
64,192,36861,1,0,0:0:0:0:
320,192,37071,1,0,0:0:0:0:
448,192,37071,1,0,0:0:0:0:
64,192,37071,1,0,0:0:0:0:
64,192,37280,1,0,0:0:0:0:
192,192,37280,1,0,0:0:0:0:
448,192,37280,1,0,0:0:0:0:
320,192,37280,1,0,0:0:0:0:
64,192,37490,1,0,0:0:0:0:
320,192,37490,1,0,0:0:0:0:
448,192,37490,1,0,0:0:0:0:
64,192,37700,1,0,0:0:0:0:
320,192,37700,1,0,0:0:0:0:
448,192,37700,1,0,0:0:0:0:
192,192,37700,1,0,0:0:0:0:
192,192,37910,1,0,0:0:0:0:
64,192,37910,1,0,0:0:0:0:
320,192,37910,1,0,0:0:0:0:
64,192,38118,1,0,0:0:0:0:
320,192,38118,1,0,0:0:0:0:
448,192,38118,1,0,0:0:0:0:
192,192,38118,1,0,0:0:0:0:
320,192,38328,1,0,0:0:0:0:
448,192,38328,1,0,0:0:0:0:
192,192,38328,1,0,0:0:0:0:
192,192,38538,1,0,0:0:0:0:
64,192,38538,1,0,0:0:0:0:
320,192,38642,1,0,0:0:0:0:
448,192,38642,1,0,0:0:0:0:
192,192,38747,1,0,0:0:0:0:
64,192,38747,1,0,0:0:0:0:
320,192,38852,1,0,0:0:0:0:
448,192,38852,1,0,0:0:0:0:
192,192,38957,1,0,0:0:0:0:
64,192,38957,1,0,0:0:0:0:
320,192,39061,1,0,0:0:0:0:
448,192,39061,1,0,0:0:0:0:
192,192,39167,1,0,0:0:0:0:
64,192,39167,1,0,0:0:0:0:
320,192,39271,1,0,0:0:0:0:
448,192,39271,1,0,0:0:0:0:
64,192,39375,1,0,0:0:0:0:
192,192,39375,1,0,0:0:0:0:
320,192,39481,1,0,0:0:0:0:
448,192,39481,1,0,0:0:0:0:
192,192,39585,1,0,0:0:0:0:
64,192,39585,1,0,0:0:0:0:
320,192,39690,1,0,0:0:0:0:
448,192,39690,1,0,0:0:0:0:
192,192,39795,1,0,0:0:0:0:
64,192,39795,1,0,0:0:0:0:
320,192,39900,1,0,0:0:0:0:
448,192,39900,1,0,0:0:0:0:
192,192,40005,1,0,0:0:0:0:
64,192,40005,1,0,0:0:0:0:
320,192,40110,1,0,0:0:0:0:
448,192,40110,1,0,0:0:0:0:
64,192,40214,5,0,0:0:0:0:
192,192,40267,1,0,0:0:0:0:
320,192,40320,1,0,0:0:0:0:
448,192,40371,1,0,0:0:0:0:
64,192,40424,1,0,0:0:0:0:
192,192,40477,1,0,0:0:0:0:
448,192,40528,1,0,0:0:0:0:
320,192,40581,1,0,0:0:0:0:
192,192,40634,1,0,0:0:0:0:
64,192,40685,1,0,0:0:0:0:
448,192,40738,1,0,0:0:0:0:
320,192,40791,1,0,0:0:0:0:
64,192,40842,1,0,0:0:0:0:
192,192,40895,1,0,0:0:0:0:
320,192,40948,1,0,0:0:0:0:
448,192,41000,1,0,0:0:0:0:
64,192,41052,1,0,0:0:0:0:
192,192,41105,1,0,0:0:0:0:
320,192,41157,1,0,0:0:0:0:
448,192,41210,1,0,0:0:0:0:
192,192,41367,1,0,0:0:0:0:
320,192,41420,1,0,0:0:0:0:
448,192,41471,1,0,0:0:0:0:
64,192,41524,1,0,0:0:0:0:
320,192,41681,1,0,0:0:0:0:
448,192,41734,1,0,0:0:0:0:
64,192,41785,1,0,0:0:0:0:
192,192,41838,1,0,0:0:0:0:
320,192,41891,1,0,0:0:0:0:
448,192,41891,1,0,0:0:0:0:
64,192,42101,1,0,0:0:0:0:
320,192,42310,1,0,0:0:0:0:
448,192,42310,1,0,0:0:0:0:
192,192,42310,1,0,0:0:0:0:
64,192,42310,1,0,0:0:0:0:
192,192,42520,1,0,0:0:0:0:
64,192,42730,1,0,0:0:0:0:
320,192,42730,1,0,0:0:0:0:
448,192,42938,1,0,0:0:0:0:
64,192,43148,1,0,0:0:0:0:
320,192,43148,1,0,0:0:0:0:
192,192,43148,1,0,0:0:0:0:
448,192,43148,1,0,0:0:0:0:
192,192,43358,1,0,0:0:0:0:
448,192,43567,1,0,0:0:0:0:
320,192,43567,1,0,0:0:0:0:
64,192,43777,1,0,0:0:0:0:
192,192,43987,1,0,0:0:0:0:
320,192,43987,1,0,0:0:0:0:
448,192,43987,1,0,0:0:0:0:
64,192,43987,1,0,0:0:0:0:
448,192,44195,1,0,0:0:0:0:
320,192,44405,1,0,0:0:0:0:
192,192,44405,1,0,0:0:0:0:
64,192,44615,1,0,0:0:0:0:
192,192,44825,1,0,0:0:0:0:
448,192,44825,1,0,0:0:0:0:
64,192,44825,1,0,0:0:0:0:
320,192,44825,1,0,0:0:0:0:
320,192,45034,1,0,0:0:0:0:
64,192,45244,1,0,0:0:0:0:
448,192,45244,1,0,0:0:0:0:
192,192,45454,1,0,0:0:0:0:
320,192,45662,1,0,0:0:0:0:
448,192,45662,1,0,0:0:0:0:
64,192,45662,1,0,0:0:0:0:
192,192,45662,1,0,0:0:0:0:
64,192,45872,1,0,0:0:0:0:
320,192,46082,1,0,0:0:0:0:
448,192,46291,1,0,0:0:0:0:
64,192,46501,1,0,0:0:0:0:
192,192,46501,1,0,0:0:0:0:
320,192,46501,1,0,0:0:0:0:
448,192,46501,1,0,0:0:0:0:
320,192,46711,1,0,0:0:0:0:
64,192,46921,1,0,0:0:0:0:
192,192,47130,1,0,0:0:0:0:
320,192,47340,1,0,0:0:0:0:
448,192,47340,1,0,0:0:0:0:
192,192,47340,1,0,0:0:0:0:
64,192,47340,1,0,0:0:0:0:
64,192,47550,1,0,0:0:0:0:
192,192,47758,1,0,0:0:0:0:
448,192,47968,1,0,0:0:0:0:
64,192,48178,1,0,0:0:0:0:
320,192,48178,1,0,0:0:0:0:
192,192,48178,1,0,0:0:0:0:
448,192,48178,1,0,0:0:0:0:
192,192,48387,1,0,0:0:0:0:
320,192,48597,1,0,0:0:0:0:
448,192,48597,1,0,0:0:0:0:
64,192,48807,1,0,0:0:0:0:
320,192,49017,1,0,0:0:0:0:
448,192,49017,1,0,0:0:0:0:
192,192,49017,1,0,0:0:0:0:
64,192,49017,1,0,0:0:0:0:
192,192,49225,1,0,0:0:0:0:
64,192,49435,1,0,0:0:0:0:
448,192,49435,1,0,0:0:0:0:
320,192,49645,1,0,0:0:0:0:
448,192,49854,1,0,0:0:0:0:
192,192,49854,1,0,0:0:0:0:
64,192,49854,1,0,0:0:0:0:
320,192,49854,1,0,0:0:0:0:
192,192,50064,1,0,0:0:0:0:
448,192,50064,1,0,0:0:0:0:
64,192,50274,1,0,0:0:0:0:
192,192,50482,1,0,0:0:0:0:
320,192,50482,1,0,0:0:0:0:
320,192,50692,1,0,0:0:0:0:
448,192,50692,1,0,0:0:0:0:
192,192,50692,1,0,0:0:0:0:
64,192,50692,1,0,0:0:0:0:
64,192,50902,1,0,0:0:0:0:
320,192,50902,1,0,0:0:0:0:
192,192,51112,1,0,0:0:0:0:
448,192,51112,1,0,0:0:0:0:
64,192,51321,1,0,0:0:0:0:
448,192,51531,1,0,0:0:0:0:
64,192,51531,1,0,0:0:0:0:
320,192,51531,1,0,0:0:0:0:
192,192,51531,1,0,0:0:0:0:
320,192,51741,1,0,0:0:0:0:
192,192,51950,1,0,0:0:0:0:
64,192,51950,1,0,0:0:0:0:
448,192,52160,1,0,0:0:0:0:
192,192,52370,1,0,0:0:0:0:
64,192,52370,1,0,0:0:0:0:
320,192,52370,1,0,0:0:0:0:
448,192,52370,1,0,0:0:0:0:
320,192,52578,1,0,0:0:0:0:
448,192,52788,1,0,0:0:0:0:
192,192,52788,1,0,0:0:0:0:
64,192,52998,1,0,0:0:0:0:
192,192,53208,1,0,0:0:0:0:
320,192,53208,1,0,0:0:0:0:
448,192,53208,1,0,0:0:0:0:
64,192,53208,1,0,0:0:0:0:
448,192,53417,1,0,0:0:0:0:
192,192,53417,1,0,0:0:0:0:
64,192,53627,1,0,0:0:0:0:
448,192,53837,1,0,0:0:0:0:
320,192,53837,1,0,0:0:0:0:
320,192,54045,1,0,0:0:0:0:
192,192,54045,1,0,0:0:0:0:
64,192,54045,1,0,0:0:0:0:
64,192,54255,1,0,0:0:0:0:
448,192,54255,1,0,0:0:0:0:
320,192,54465,1,0,0:0:0:0:
192,192,54465,1,0,0:0:0:0:
64,192,54674,1,0,0:0:0:0:
320,192,54674,1,0,0:0:0:0:
448,192,54674,1,0,0:0:0:0:
192,192,54884,1,0,0:0:0:0:
448,192,54884,1,0,0:0:0:0:
64,192,55094,1,0,0:0:0:0:
320,192,55094,1,0,0:0:0:0:
64,192,55304,1,0,0:0:0:0:
448,192,55304,1,0,0:0:0:0:
192,192,55304,1,0,0:0:0:0:
320,192,55408,1,0,0:0:0:0:
448,192,55408,1,0,0:0:0:0:
64,192,55512,1,0,0:0:0:0:
320,192,55512,1,0,0:0:0:0:
192,192,55618,1,0,0:0:0:0:
64,192,55618,1,0,0:0:0:0:
192,192,55722,1,0,0:0:0:0:
320,192,55722,1,0,0:0:0:0:
448,192,55722,1,0,0:0:0:0:
64,192,55827,1,0,0:0:0:0:
448,192,55827,1,0,0:0:0:0:
320,192,55932,1,0,0:0:0:0:
448,192,55932,1,0,0:0:0:0:
192,192,56037,1,0,0:0:0:0:
320,192,56037,1,0,0:0:0:0:
64,192,56141,1,0,0:0:0:0:
320,192,56141,1,0,0:0:0:0:
448,192,56141,1,0,0:0:0:0:
192,192,56247,1,0,0:0:0:0:
64,192,56247,1,0,0:0:0:0:
64,192,56351,1,0,0:0:0:0:
320,192,56351,1,0,0:0:0:0:
448,192,56455,1,0,0:0:0:0:
192,192,56455,1,0,0:0:0:0:
64,192,56561,1,0,0:0:0:0:
192,192,56561,1,0,0:0:0:0:
320,192,56561,1,0,0:0:0:0:
448,192,56665,1,0,0:0:0:0:
320,192,56665,1,0,0:0:0:0:
64,192,56770,1,0,0:0:0:0:
448,192,56770,1,0,0:0:0:0:
192,192,56875,1,0,0:0:0:0:
320,192,56875,1,0,0:0:0:0:
64,192,56980,1,0,0:0:0:0:
192,192,56980,1,0,0:0:0:0:
448,192,56980,1,0,0:0:0:0:
320,192,57085,1,0,0:0:0:0:
448,192,57085,1,0,0:0:0:0:
192,192,57190,1,0,0:0:0:0:
64,192,57190,1,0,0:0:0:0:
64,192,57294,1,0,0:0:0:0:
320,192,57294,1,0,0:0:0:0:
192,192,57400,1,0,0:0:0:0:
320,192,57400,1,0,0:0:0:0:
448,192,57400,1,0,0:0:0:0:
448,192,57504,1,0,0:0:0:0:
64,192,57504,1,0,0:0:0:0:
320,192,57608,1,0,0:0:0:0:
192,192,57608,1,0,0:0:0:0:
320,192,57714,1,0,0:0:0:0:
64,192,57714,1,0,0:0:0:0:
64,192,57818,1,0,0:0:0:0:
320,192,57818,1,0,0:0:0:0:
448,192,57818,1,0,0:0:0:0:
64,192,57922,1,0,0:0:0:0:
192,192,57922,1,0,0:0:0:0:
320,192,58028,1,0,0:0:0:0:
448,192,58028,1,0,0:0:0:0:
64,192,58132,1,0,0:0:0:0:
448,192,58132,1,0,0:0:0:0:
64,192,58237,1,0,0:0:0:0:
192,192,58237,1,0,0:0:0:0:
320,192,58237,1,0,0:0:0:0:
192,192,58342,1,0,0:0:0:0:
448,192,58342,1,0,0:0:0:0:
64,192,58447,1,0,0:0:0:0:
320,192,58447,1,0,0:0:0:0:
448,192,58551,1,0,0:0:0:0:
64,192,58551,1,0,0:0:0:0:
192,192,58657,1,0,0:0:0:0:
320,192,58657,1,0,0:0:0:0:
448,192,58657,1,0,0:0:0:0:
320,192,58761,1,0,0:0:0:0:
192,192,58761,1,0,0:0:0:0:
64,192,58865,1,0,0:0:0:0:
448,192,58865,1,0,0:0:0:0:
192,192,58971,1,0,0:0:0:0:
64,192,58971,1,0,0:0:0:0:
448,192,59075,1,0,0:0:0:0:
320,192,59075,1,0,0:0:0:0:
192,192,59075,1,0,0:0:0:0:
64,192,59181,1,0,0:0:0:0:
320,192,59181,1,0,0:0:0:0:
192,192,59285,1,0,0:0:0:0:
448,192,59285,1,0,0:0:0:0:
320,192,59390,1,0,0:0:0:0:
448,192,59390,1,0,0:0:0:0:
192,192,59495,1,0,0:0:0:0:
320,192,59495,1,0,0:0:0:0:
448,192,59495,1,0,0:0:0:0:
64,192,59600,1,0,0:0:0:0:
192,192,59600,1,0,0:0:0:0:
64,192,59704,1,0,0:0:0:0:
320,192,59704,1,0,0:0:0:0:
192,192,59810,1,0,0:0:0:0:
320,192,59810,1,0,0:0:0:0:
64,192,59914,5,0,0:0:0:0:
320,192,59914,1,0,0:0:0:0:
448,192,59914,1,0,0:0:0:0:
192,192,60018,1,0,0:0:0:0:
448,192,60018,1,0,0:0:0:0:
320,192,60124,1,0,0:0:0:0:
64,192,60124,1,0,0:0:0:0:
64,192,60228,1,0,0:0:0:0:
192,192,60228,1,0,0:0:0:0:
64,192,60332,1,0,0:0:0:0:
192,192,60332,1,0,0:0:0:0:
320,192,60332,1,0,0:0:0:0:
448,192,60438,1,0,0:0:0:0:
320,192,60438,1,0,0:0:0:0:
192,192,60542,1,0,0:0:0:0:
64,192,60542,1,0,0:0:0:0:
192,192,60647,1,0,0:0:0:0:
448,192,60647,1,0,0:0:0:0:
448,192,60752,1,0,0:0:0:0:
192,192,60752,1,0,0:0:0:0:
320,192,60752,1,0,0:0:0:0:
64,192,60857,1,0,0:0:0:0:
320,192,60857,1,0,0:0:0:0:
192,192,60961,1,0,0:0:0:0:
64,192,60961,1,0,0:0:0:0:
448,192,61067,1,0,0:0:0:0:
320,192,61067,1,0,0:0:0:0:
64,192,61171,1,0,0:0:0:0:
448,192,61171,1,0,0:0:0:0:
192,192,61171,1,0,0:0:0:0:
192,192,61277,1,0,0:0:0:0:
320,192,61277,1,0,0:0:0:0:
448,192,61381,1,0,0:0:0:0:
64,192,61381,1,0,0:0:0:0:
64,192,61485,1,0,0:0:0:0:
320,192,61485,1,0,0:0:0:0:
448,192,61591,5,0,0:0:0:0:
320,192,61591,1,0,0:0:0:0:
192,192,61591,1,0,0:0:0:0:
64,192,61695,1,0,0:0:0:0:
448,192,61695,1,0,0:0:0:0:
320,192,61800,1,0,0:0:0:0:
192,192,61800,1,0,0:0:0:0:
64,192,61800,1,0,0:0:0:0:
192,192,61905,1,0,0:0:0:0:
320,192,61905,1,0,0:0:0:0:
64,192,62010,1,0,0:0:0:0:
320,192,62010,1,0,0:0:0:0:
448,192,62010,1,0,0:0:0:0:
192,192,62114,1,0,0:0:0:0:
64,192,62114,1,0,0:0:0:0:
192,192,62220,1,0,0:0:0:0:
448,192,62220,1,0,0:0:0:0:
320,192,62324,1,0,0:0:0:0:
448,192,62324,1,0,0:0:0:0:
320,192,62428,1,0,0:0:0:0:
192,192,62428,1,0,0:0:0:0:
64,192,62428,1,0,0:0:0:0:
448,192,62534,1,0,0:0:0:0:
64,192,62534,1,0,0:0:0:0:
192,192,62638,1,0,0:0:0:0:
320,192,62638,1,0,0:0:0:0:
64,192,62742,1,0,0:0:0:0:
320,192,62742,1,0,0:0:0:0:
64,192,62848,1,0,0:0:0:0:
192,192,62848,1,0,0:0:0:0:
448,192,62848,1,0,0:0:0:0:
320,192,62952,1,0,0:0:0:0:
448,192,62952,1,0,0:0:0:0:
320,192,63057,1,0,0:0:0:0:
64,192,63057,1,0,0:0:0:0:
192,192,63162,1,0,0:0:0:0:
64,192,63162,1,0,0:0:0:0:
320,192,63267,1,0,0:0:0:0:
192,192,63267,1,0,0:0:0:0:
448,192,63267,1,0,0:0:0:0:
64,192,63372,1,0,0:0:0:0:
320,192,63372,1,0,0:0:0:0:
192,192,63477,1,0,0:0:0:0:
448,192,63477,1,0,0:0:0:0:
320,192,63581,1,0,0:0:0:0:
448,192,63581,1,0,0:0:0:0:
64,192,63687,1,0,0:0:0:0:
320,192,63687,1,0,0:0:0:0:
448,192,63687,1,0,0:0:0:0:
192,192,63791,1,0,0:0:0:0:
64,192,63791,1,0,0:0:0:0:
192,192,63895,1,0,0:0:0:0:
320,192,63895,1,0,0:0:0:0:
64,192,64001,1,0,0:0:0:0:
448,192,64001,1,0,0:0:0:0:
64,192,64105,1,0,0:0:0:0:
192,192,64105,1,0,0:0:0:0:
448,192,64105,1,0,0:0:0:0:
320,192,64210,1,0,0:0:0:0:
192,192,64210,1,0,0:0:0:0:
64,192,64315,1,0,0:0:0:0:
448,192,64315,1,0,0:0:0:0:
320,192,64420,1,0,0:0:0:0:
192,192,64420,1,0,0:0:0:0:
64,192,64524,1,0,0:0:0:0:
192,192,64524,1,0,0:0:0:0:
320,192,64524,1,0,0:0:0:0:
64,192,64630,1,0,0:0:0:0:
448,192,64630,1,0,0:0:0:0:
192,192,64734,1,0,0:0:0:0:
448,192,64734,1,0,0:0:0:0:
320,192,64838,1,0,0:0:0:0:
192,192,64838,1,0,0:0:0:0:
192,192,64944,1,0,0:0:0:0:
320,192,64944,1,0,0:0:0:0:
448,192,64944,1,0,0:0:0:0:
64,192,65048,1,0,0:0:0:0:
448,192,65048,1,0,0:0:0:0:
320,192,65152,1,0,0:0:0:0:
64,192,65152,1,0,0:0:0:0:
192,192,65258,1,0,0:0:0:0:
448,192,65258,1,0,0:0:0:0:
64,192,65362,1,0,0:0:0:0:
320,192,65362,1,0,0:0:0:0:
448,192,65362,1,0,0:0:0:0:
192,192,65467,1,0,0:0:0:0:
320,192,65467,1,0,0:0:0:0:
64,192,65572,1,0,0:0:0:0:
448,192,65572,1,0,0:0:0:0:
320,192,65677,1,0,0:0:0:0:
448,192,65677,1,0,0:0:0:0:
64,192,65782,1,0,0:0:0:0:
192,192,65782,1,0,0:0:0:0:
320,192,65782,1,0,0:0:0:0:
448,192,65887,1,0,0:0:0:0:
64,192,65887,1,0,0:0:0:0:
192,192,65991,1,0,0:0:0:0:
448,192,65991,1,0,0:0:0:0:
320,192,66097,1,0,0:0:0:0:
64,192,66097,1,0,0:0:0:0:
64,192,66201,1,0,0:0:0:0:
448,192,66201,1,0,0:0:0:0:
192,192,66201,1,0,0:0:0:0:
320,192,66305,1,0,0:0:0:0:
448,192,66305,1,0,0:0:0:0:
192,192,66411,1,0,0:0:0:0:
320,192,66411,1,0,0:0:0:0:
64,192,66515,1,0,0:0:0:0:
448,192,66515,1,0,0:0:0:0:
192,192,66620,1,0,0:0:0:0:
448,192,66620,1,0,0:0:0:0:
320,192,66620,1,0,0:0:0:0:
192,192,66725,1,0,0:0:0:0:
64,192,66725,1,0,0:0:0:0:
320,192,66830,1,0,0:0:0:0:
64,192,66830,1,0,0:0:0:0:
192,192,66934,1,0,0:0:0:0:
448,192,66934,1,0,0:0:0:0:
64,192,67040,1,0,0:0:0:0:
320,192,67040,1,0,0:0:0:0:
448,192,67040,1,0,0:0:0:0:
192,192,67144,1,0,0:0:0:0:
320,192,67144,1,0,0:0:0:0:
64,192,67248,1,0,0:0:0:0:
320,192,67248,1,0,0:0:0:0:
192,192,67354,1,0,0:0:0:0:
448,192,67354,1,0,0:0:0:0:
192,192,67458,1,0,0:0:0:0:
64,192,67458,1,0,0:0:0:0:
320,192,67458,1,0,0:0:0:0:
192,192,67562,1,0,0:0:0:0:
320,192,67562,1,0,0:0:0:0:
64,192,67668,1,0,0:0:0:0:
448,192,67668,1,0,0:0:0:0:
192,192,67772,1,0,0:0:0:0:
320,192,67772,1,0,0:0:0:0:
448,192,67878,1,0,0:0:0:0:
64,192,67878,1,0,0:0:0:0:
320,192,67878,1,0,0:0:0:0:
192,192,67982,1,0,0:0:0:0:
448,192,67982,1,0,0:0:0:0:
64,192,68087,1,0,0:0:0:0:
192,192,68087,1,0,0:0:0:0:
320,192,68192,1,0,0:0:0:0:
448,192,68192,1,0,0:0:0:0:
448,192,68297,1,0,0:0:0:0:
192,192,68297,1,0,0:0:0:0:
64,192,68297,1,0,0:0:0:0:
320,192,68401,1,0,0:0:0:0:
192,192,68401,1,0,0:0:0:0:
448,192,68507,1,0,0:0:0:0:
64,192,68507,1,0,0:0:0:0:
320,192,68507,1,0,0:0:0:0:
192,192,68611,1,0,0:0:0:0:
64,192,68611,1,0,0:0:0:0:
192,192,68715,5,0,0:0:0:0:
320,192,68715,1,0,0:0:0:0:
448,192,68715,1,0,0:0:0:0:
64,192,68821,1,0,0:0:0:0:
320,192,68821,1,0,0:0:0:0:
192,192,68925,1,0,0:0:0:0:
448,192,68925,1,0,0:0:0:0:
320,192,69030,1,0,0:0:0:0:
448,192,69030,1,0,0:0:0:0:
64,192,69135,1,0,0:0:0:0:
448,192,69135,1,0,0:0:0:0:
320,192,69135,1,0,0:0:0:0:
192,192,69240,1,0,0:0:0:0:
64,192,69240,1,0,0:0:0:0:
192,192,69344,1,0,0:0:0:0:
448,192,69344,1,0,0:0:0:0:
320,192,69450,1,0,0:0:0:0:
64,192,69450,1,0,0:0:0:0:
64,192,69554,1,0,0:0:0:0:
448,192,69554,1,0,0:0:0:0:
192,192,69554,1,0,0:0:0:0:
320,192,69658,1,0,0:0:0:0:
448,192,69658,1,0,0:0:0:0:
320,192,69764,1,0,0:0:0:0:
192,192,69764,1,0,0:0:0:0:
64,192,69868,1,0,0:0:0:0:
448,192,69868,1,0,0:0:0:0:
64,192,69974,1,0,0:0:0:0:
192,192,69974,1,0,0:0:0:0:
320,192,69974,1,0,0:0:0:0:
448,192,70078,1,0,0:0:0:0:
320,192,70078,1,0,0:0:0:0:
192,192,70182,1,0,0:0:0:0:
448,192,70182,1,0,0:0:0:0:
192,192,70288,1,0,0:0:0:0:
64,192,70288,1,0,0:0:0:0:
64,192,70392,1,0,0:0:0:0:
448,192,70392,1,0,0:0:0:0:
320,192,70392,1,0,0:0:0:0:
192,192,70497,1,0,0:0:0:0:
448,192,70497,1,0,0:0:0:0:
320,192,70602,1,0,0:0:0:0:
192,192,70602,1,0,0:0:0:0:
64,192,70707,1,0,0:0:0:0:
448,192,70707,1,0,0:0:0:0:
64,192,70811,1,0,0:0:0:0:
192,192,70811,1,0,0:0:0:0:
448,192,70811,1,0,0:0:0:0:
320,192,70917,1,0,0:0:0:0:
64,192,70917,1,0,0:0:0:0:
192,192,71021,1,0,0:0:0:0:
448,192,71021,1,0,0:0:0:0:
320,192,71125,1,0,0:0:0:0:
448,192,71125,1,0,0:0:0:0:
64,192,71231,1,0,0:0:0:0:
192,192,71231,1,0,0:0:0:0:
320,192,71231,1,0,0:0:0:0:
448,192,71335,1,0,0:0:0:0:
64,192,71335,1,0,0:0:0:0:
192,192,71440,1,0,0:0:0:0:
320,192,71440,1,0,0:0:0:0:
192,192,71545,1,0,0:0:0:0:
448,192,71545,1,0,0:0:0:0:
64,192,71650,1,0,0:0:0:0:
320,192,71650,1,0,0:0:0:0:
448,192,71650,1,0,0:0:0:0:
320,192,71754,1,0,0:0:0:0:
448,192,71754,1,0,0:0:0:0:
64,192,71860,1,0,0:0:0:0:
192,192,71860,1,0,0:0:0:0:
64,192,71964,1,0,0:0:0:0:
320,192,71964,1,0,0:0:0:0:
192,192,72070,1,0,0:0:0:0:
320,192,72070,1,0,0:0:0:0:
448,192,72070,1,0,0:0:0:0:
448,192,72174,1,0,0:0:0:0:
64,192,72174,1,0,0:0:0:0:
192,192,72278,1,0,0:0:0:0:
320,192,72278,1,0,0:0:0:0:
64,192,72384,1,0,0:0:0:0:
320,192,72384,1,0,0:0:0:0:
64,192,72488,1,0,0:0:0:0:
448,192,72488,1,0,0:0:0:0:
192,192,72488,1,0,0:0:0:0:
320,192,72592,1,0,0:0:0:0:
448,192,72592,1,0,0:0:0:0:
64,192,72698,1,0,0:0:0:0:
320,192,72698,1,0,0:0:0:0:
192,192,72802,1,0,0:0:0:0:
64,192,72802,1,0,0:0:0:0:
192,192,72907,1,0,0:0:0:0:
320,192,72907,1,0,0:0:0:0:
448,192,72907,1,0,0:0:0:0:
64,192,73012,1,0,0:0:0:0:
448,192,73012,1,0,0:0:0:0:
192,192,73117,1,0,0:0:0:0:
448,192,73117,1,0,0:0:0:0:
320,192,73221,1,0,0:0:0:0:
64,192,73221,1,0,0:0:0:0:
192,192,73327,1,0,0:0:0:0:
320,192,73327,1,0,0:0:0:0:
448,192,73327,1,0,0:0:0:0:
64,192,73431,1,0,0:0:0:0:
448,192,73431,1,0,0:0:0:0:
64,192,73535,1,0,0:0:0:0:
320,192,73535,1,0,0:0:0:0:
192,192,73641,1,0,0:0:0:0:
448,192,73641,1,0,0:0:0:0:
64,192,73745,5,0,0:0:0:0:
192,192,73745,1,0,0:0:0:0:
320,192,73745,1,0,0:0:0:0:
320,192,73850,1,0,0:0:0:0:
448,192,73850,1,0,0:0:0:0:
64,192,73955,1,0,0:0:0:0:
448,192,73955,1,0,0:0:0:0:
192,192,74060,1,0,0:0:0:0:
320,192,74060,1,0,0:0:0:0:
448,192,74165,1,0,0:0:0:0:
320,192,74165,1,0,0:0:0:0:
64,192,74165,1,0,0:0:0:0:
192,192,74270,1,0,0:0:0:0:
64,192,74270,1,0,0:0:0:0:
448,192,74374,1,0,0:0:0:0:
192,192,74374,1,0,0:0:0:0:
64,192,74480,1,0,0:0:0:0:
320,192,74480,1,0,0:0:0:0:
192,192,74584,1,0,0:0:0:0:
320,192,74584,1,0,0:0:0:0:
448,192,74584,1,0,0:0:0:0:
320,192,74688,1,0,0:0:0:0:
448,192,74688,1,0,0:0:0:0:
448,192,74794,1,0,0:0:0:0:
64,192,74794,1,0,0:0:0:0:
64,192,74898,1,0,0:0:0:0:
192,192,74898,1,0,0:0:0:0:
192,192,75002,5,0,0:0:0:0:
320,192,75002,1,0,0:0:0:0:
448,192,75002,1,0,0:0:0:0:
64,192,75108,1,0,0:0:0:0:
320,192,75108,1,0,0:0:0:0:
192,192,75212,1,0,0:0:0:0:
64,192,75212,1,0,0:0:0:0:
448,192,75212,1,0,0:0:0:0:
320,192,75317,1,0,0:0:0:0:
448,192,75317,1,0,0:0:0:0:
64,192,75422,5,0,0:0:0:0:
192,192,75422,1,0,0:0:0:0:
320,192,75422,1,0,0:0:0:0:
64,192,75527,1,0,0:0:0:0:
448,192,75527,1,0,0:0:0:0:
192,192,75631,1,0,0:0:0:0:
320,192,75631,1,0,0:0:0:0:
64,192,75737,1,0,0:0:0:0:
320,192,75737,1,0,0:0:0:0:
192,192,75841,1,0,0:0:0:0:
448,192,75841,1,0,0:0:0:0:
64,192,75841,1,0,0:0:0:0:
320,192,75945,1,0,0:0:0:0:
448,192,75945,1,0,0:0:0:0:
64,192,76051,1,0,0:0:0:0:
320,192,76051,1,0,0:0:0:0:
192,192,76155,1,0,0:0:0:0:
448,192,76155,1,0,0:0:0:0:
320,192,76261,1,0,0:0:0:0:
192,192,76261,1,0,0:0:0:0:
64,192,76261,1,0,0:0:0:0:
64,192,76365,1,0,0:0:0:0:
448,192,76365,1,0,0:0:0:0:
320,192,76470,1,0,0:0:0:0:
448,192,76470,1,0,0:0:0:0:
192,192,76575,1,0,0:0:0:0:
64,192,76575,1,0,0:0:0:0:
64,192,76680,1,0,0:0:0:0:
448,192,76680,1,0,0:0:0:0:
320,192,76680,1,0,0:0:0:0:
192,192,76784,1,0,0:0:0:0:
448,192,76784,1,0,0:0:0:0:
320,192,76890,1,0,0:0:0:0:
64,192,76890,1,0,0:0:0:0:
192,192,76994,1,0,0:0:0:0:
64,192,76994,1,0,0:0:0:0:
320,192,77098,1,0,0:0:0:0:
192,192,77098,1,0,0:0:0:0:
448,192,77098,1,0,0:0:0:0:
64,192,77204,1,0,0:0:0:0:
320,192,77204,1,0,0:0:0:0:
192,192,77308,1,0,0:0:0:0:
448,192,77308,1,0,0:0:0:0:
320,192,77412,1,0,0:0:0:0:
448,192,77412,1,0,0:0:0:0:
192,192,77518,1,0,0:0:0:0:
64,192,77518,1,0,0:0:0:0:
320,192,77518,1,0,0:0:0:0:
448,192,77622,1,0,0:0:0:0:
64,192,77622,1,0,0:0:0:0:
192,192,77727,1,0,0:0:0:0:
320,192,77727,1,0,0:0:0:0:
448,192,77832,1,0,0:0:0:0:
320,192,77832,1,0,0:0:0:0:
192,192,77937,1,0,0:0:0:0:
64,192,77937,1,0,0:0:0:0:
448,192,77937,1,0,0:0:0:0:
320,192,78041,1,0,0:0:0:0:
64,192,78041,1,0,0:0:0:0:
192,192,78147,1,0,0:0:0:0:
320,192,78147,1,0,0:0:0:0:
64,192,78251,1,0,0:0:0:0:
448,192,78251,1,0,0:0:0:0:
192,192,78357,1,0,0:0:0:0:
320,192,78357,1,0,0:0:0:0:
448,192,78357,1,0,0:0:0:0:
64,192,78461,1,0,0:0:0:0:
320,192,78461,1,0,0:0:0:0:
192,192,78565,1,0,0:0:0:0:
64,192,78565,1,0,0:0:0:0:
320,192,78671,1,0,0:0:0:0:
448,192,78671,1,0,0:0:0:0:
64,192,78775,1,0,0:0:0:0:
192,192,78775,1,0,0:0:0:0:
448,192,78775,1,0,0:0:0:0:
320,192,78880,1,0,0:0:0:0:
64,192,78880,1,0,0:0:0:0:
192,192,78985,1,0,0:0:0:0:
320,192,78985,1,0,0:0:0:0:
448,192,79090,1,0,0:0:0:0:
64,192,79090,1,0,0:0:0:0:
192,192,79194,1,0,0:0:0:0:
320,192,79194,1,0,0:0:0:0:
448,192,79194,1,0,0:0:0:0:
64,192,79300,1,0,0:0:0:0:
320,192,79300,1,0,0:0:0:0:
192,192,79404,1,0,0:0:0:0:
64,192,79404,1,0,0:0:0:0:
448,192,79508,1,0,0:0:0:0:
192,192,79508,1,0,0:0:0:0:
64,192,79614,1,0,0:0:0:0:
320,192,79614,1,0,0:0:0:0:
448,192,79614,1,0,0:0:0:0:
192,192,79718,1,0,0:0:0:0:
64,192,79718,1,0,0:0:0:0:
448,192,79822,1,0,0:0:0:0:
320,192,79822,1,0,0:0:0:0:
192,192,79928,1,0,0:0:0:0:
448,192,79928,1,0,0:0:0:0:
320,192,80032,1,0,0:0:0:0:
192,192,80032,1,0,0:0:0:0:
64,192,80032,1,0,0:0:0:0:
448,192,80137,1,0,0:0:0:0:
320,192,80137,1,0,0:0:0:0:
64,192,80242,1,0,0:0:0:0:
192,192,80242,1,0,0:0:0:0:
64,192,80347,1,0,0:0:0:0:
320,192,80347,1,0,0:0:0:0:
192,192,80452,1,0,0:0:0:0:
320,192,80452,1,0,0:0:0:0:
448,192,80452,1,0,0:0:0:0:
64,192,80557,1,0,0:0:0:0:
448,192,80557,1,0,0:0:0:0:
64,192,80661,1,0,0:0:0:0:
320,192,80661,1,0,0:0:0:0:
192,192,80767,1,0,0:0:0:0:
320,192,80767,1,0,0:0:0:0:
64,192,80871,1,0,0:0:0:0:
192,192,80871,1,0,0:0:0:0:
448,192,80871,1,0,0:0:0:0:
320,192,80975,1,0,0:0:0:0:
448,192,80975,1,0,0:0:0:0:
192,192,81081,1,0,0:0:0:0:
64,192,81081,1,0,0:0:0:0:
64,192,81185,1,0,0:0:0:0:
320,192,81185,1,0,0:0:0:0:
192,192,81290,1,0,0:0:0:0:
64,192,81290,1,0,0:0:0:0:
448,192,81290,1,0,0:0:0:0:
448,192,81500,1,0,0:0:0:0:
320,192,81552,1,0,0:0:0:0:
192,192,81604,1,0,0:0:0:0:
64,192,81657,1,0,0:0:0:0:
320,192,81710,1,0,0:0:0:0:
448,192,81710,1,0,0:0:0:0:
64,192,81918,1,0,0:0:0:0:
192,192,81971,1,0,0:0:0:0:
320,192,82024,1,0,0:0:0:0:
448,192,82075,1,0,0:0:0:0:
64,192,82128,5,0,0:0:0:0:
192,192,82128,1,0,0:0:0:0:
320,192,82232,1,0,0:0:0:0:
192,192,82338,1,0,0:0:0:0:
448,192,82442,1,0,0:0:0:0:
320,192,82548,1,0,0:0:0:0:
64,192,82548,1,0,0:0:0:0:
192,192,82652,1,0,0:0:0:0:
320,192,82757,1,0,0:0:0:0:
448,192,82757,1,0,0:0:0:0:
64,192,82862,1,0,0:0:0:0:
448,192,82967,1,0,0:0:0:0:
64,192,83071,1,0,0:0:0:0:
192,192,83177,1,0,0:0:0:0:
448,192,83177,1,0,0:0:0:0:
320,192,83281,1,0,0:0:0:0:
192,192,83385,1,0,0:0:0:0:
64,192,83385,1,0,0:0:0:0:
448,192,83491,1,0,0:0:0:0:
192,192,83595,1,0,0:0:0:0:
448,192,83700,1,0,0:0:0:0:
320,192,83805,1,0,0:0:0:0:
64,192,83805,1,0,0:0:0:0:
192,192,83910,1,0,0:0:0:0:
448,192,84014,1,0,0:0:0:0:
320,192,84120,1,0,0:0:0:0:
192,192,84224,1,0,0:0:0:0:
64,192,84224,1,0,0:0:0:0:
448,192,84328,1,0,0:0:0:0:
320,192,84434,1,0,0:0:0:0:
192,192,84538,1,0,0:0:0:0:
64,192,84644,1,0,0:0:0:0:
448,192,84644,1,0,0:0:0:0:
448,192,84748,1,0,0:0:0:0:
320,192,84852,1,0,0:0:0:0:
64,192,84852,1,0,0:0:0:0:
64,192,84958,1,0,0:0:0:0:
320,192,85062,1,0,0:0:0:0:
448,192,85062,1,0,0:0:0:0:
192,192,85062,1,0,0:0:0:0:
448,192,85167,1,0,0:0:0:0:
192,192,85272,1,0,0:0:0:0:
64,192,85272,1,0,0:0:0:0:
64,192,85377,1,0,0:0:0:0:
320,192,85377,1,0,0:0:0:0:
192,192,85481,1,0,0:0:0:0:
320,192,85481,1,0,0:0:0:0:
448,192,85481,1,0,0:0:0:0:
64,192,85587,1,0,0:0:0:0:
448,192,85587,1,0,0:0:0:0:
192,192,85691,1,0,0:0:0:0:
64,192,85691,1,0,0:0:0:0:
320,192,85795,1,0,0:0:0:0:
448,192,85795,1,0,0:0:0:0:
192,192,85901,1,0,0:0:0:0:
64,192,85901,1,0,0:0:0:0:
448,192,85901,1,0,0:0:0:0:
320,192,86005,1,0,0:0:0:0:
192,192,86005,1,0,0:0:0:0:
64,192,86110,1,0,0:0:0:0:
448,192,86110,1,0,0:0:0:0:
320,192,86215,1,0,0:0:0:0:
64,192,86215,1,0,0:0:0:0:
192,192,86320,1,0,0:0:0:0:
320,192,86320,1,0,0:0:0:0:
448,192,86320,1,0,0:0:0:0:
192,192,86424,1,0,0:0:0:0:
448,192,86424,1,0,0:0:0:0:
320,192,86530,1,0,0:0:0:0:
448,192,86530,1,0,0:0:0:0:
192,192,86634,1,0,0:0:0:0:
64,192,86634,1,0,0:0:0:0:
64,192,86738,1,0,0:0:0:0:
192,192,86738,1,0,0:0:0:0:
320,192,86738,1,0,0:0:0:0:
448,192,86844,1,0,0:0:0:0:
320,192,86844,1,0,0:0:0:0:
64,192,86948,1,0,0:0:0:0:
448,192,86948,1,0,0:0:0:0:
320,192,87054,1,0,0:0:0:0:
192,192,87054,1,0,0:0:0:0:
192,192,87158,1,0,0:0:0:0:
320,192,87158,1,0,0:0:0:0:
448,192,87158,1,0,0:0:0:0:
64,192,87262,1,0,0:0:0:0:
448,192,87262,1,0,0:0:0:0:
192,192,87368,1,0,0:0:0:0:
64,192,87368,1,0,0:0:0:0:
320,192,87472,1,0,0:0:0:0:
448,192,87472,1,0,0:0:0:0:
64,192,87577,1,0,0:0:0:0:
320,192,87577,1,0,0:0:0:0:
448,192,87577,1,0,0:0:0:0:
192,192,87682,1,0,0:0:0:0:
64,192,87682,1,0,0:0:0:0:
64,192,87787,1,0,0:0:0:0:
320,192,87787,1,0,0:0:0:0:
448,192,87891,1,0,0:0:0:0:
192,192,87891,1,0,0:0:0:0:
64,192,87997,1,0,0:0:0:0:
192,192,87997,1,0,0:0:0:0:
320,192,87997,1,0,0:0:0:0:
320,192,88101,1,0,0:0:0:0:
448,192,88101,1,0,0:0:0:0:
192,192,88205,1,0,0:0:0:0:
64,192,88205,1,0,0:0:0:0:
320,192,88311,1,0,0:0:0:0:
448,192,88311,1,0,0:0:0:0:
64,192,88415,1,0,0:0:0:0:
192,192,88415,1,0,0:0:0:0:
448,192,88415,1,0,0:0:0:0:
64,192,88520,1,0,0:0:0:0:
320,192,88520,1,0,0:0:0:0:
64,192,88625,1,0,0:0:0:0:
192,192,88625,1,0,0:0:0:0:
320,192,88625,1,0,0:0:0:0:
192,192,88730,1,0,0:0:0:0:
448,192,88730,1,0,0:0:0:0:
64,192,88834,1,0,0:0:0:0:
192,192,88834,1,0,0:0:0:0:
448,192,88834,1,0,0:0:0:0:
320,192,88940,1,0,0:0:0:0:
448,192,88940,1,0,0:0:0:0:
192,192,89044,1,0,0:0:0:0:
64,192,89044,1,0,0:0:0:0:
448,192,89150,1,0,0:0:0:0:
192,192,89150,1,0,0:0:0:0:
64,192,89254,1,0,0:0:0:0:
320,192,89254,1,0,0:0:0:0:
448,192,89254,1,0,0:0:0:0:
192,192,89358,1,0,0:0:0:0:
64,192,89358,1,0,0:0:0:0:
320,192,89464,1,0,0:0:0:0:
448,192,89464,1,0,0:0:0:0:
64,192,89568,1,0,0:0:0:0:
320,192,89568,1,0,0:0:0:0:
192,192,89672,1,0,0:0:0:0:
320,192,89672,1,0,0:0:0:0:
448,192,89672,1,0,0:0:0:0:
192,192,89778,1,0,0:0:0:0:
448,192,89778,1,0,0:0:0:0:
320,192,89882,1,0,0:0:0:0:
64,192,89882,1,0,0:0:0:0:
192,192,89987,1,0,0:0:0:0:
64,192,89987,1,0,0:0:0:0:
64,192,90092,1,0,0:0:0:0:
192,192,90092,1,0,0:0:0:0:
448,192,90092,1,0,0:0:0:0:
320,192,90197,1,0,0:0:0:0:
448,192,90197,1,0,0:0:0:0:
64,192,90301,1,0,0:0:0:0:
320,192,90301,1,0,0:0:0:0:
192,192,90407,1,0,0:0:0:0:
64,192,90407,1,0,0:0:0:0:
64,192,90511,1,0,0:0:0:0:
320,192,90511,1,0,0:0:0:0:
448,192,90511,1,0,0:0:0:0:
192,192,90615,1,0,0:0:0:0:
320,192,90615,1,0,0:0:0:0:
64,192,90721,1,0,0:0:0:0:
448,192,90721,1,0,0:0:0:0:
320,192,90825,1,0,0:0:0:0:
448,192,90825,1,0,0:0:0:0:
192,192,90930,1,0,0:0:0:0:
448,192,90930,1,0,0:0:0:0:
320,192,90930,1,0,0:0:0:0:
192,192,91035,1,0,0:0:0:0:
64,192,91035,1,0,0:0:0:0:
64,192,91140,1,0,0:0:0:0:
320,192,91140,1,0,0:0:0:0:
448,192,91245,1,0,0:0:0:0:
192,192,91245,1,0,0:0:0:0:
192,192,91350,1,0,0:0:0:0:
64,192,91350,1,0,0:0:0:0:
320,192,91350,1,0,0:0:0:0:
320,192,91454,1,0,0:0:0:0:
448,192,91454,1,0,0:0:0:0:
192,192,91560,1,0,0:0:0:0:
64,192,91560,1,0,0:0:0:0:
320,192,91664,1,0,0:0:0:0:
64,192,91664,1,0,0:0:0:0:
64,192,91768,1,0,0:0:0:0:
192,192,91768,1,0,0:0:0:0:
448,192,91768,1,0,0:0:0:0:
192,192,91874,1,0,0:0:0:0:
320,192,91874,1,0,0:0:0:0:
64,192,91978,1,0,0:0:0:0:
448,192,91978,1,0,0:0:0:0:
320,192,92082,1,0,0:0:0:0:
192,192,92082,1,0,0:0:0:0:
192,192,92188,1,0,0:0:0:0:
320,192,92188,1,0,0:0:0:0:
448,192,92188,1,0,0:0:0:0:
64,192,92292,1,0,0:0:0:0:
448,192,92292,1,0,0:0:0:0:
320,192,92397,1,0,0:0:0:0:
64,192,92397,1,0,0:0:0:0:
192,192,92502,1,0,0:0:0:0:
448,192,92502,1,0,0:0:0:0:
64,192,92607,1,0,0:0:0:0:
192,192,92607,1,0,0:0:0:0:
320,192,92607,1,0,0:0:0:0:
320,192,92711,1,0,0:0:0:0:
448,192,92711,1,0,0:0:0:0:
192,192,92817,1,0,0:0:0:0:
64,192,92817,1,0,0:0:0:0:
192,192,92921,1,0,0:0:0:0:
320,192,92921,1,0,0:0:0:0:
64,192,93025,1,0,0:0:0:0:
320,192,93025,1,0,0:0:0:0:
448,192,93025,1,0,0:0:0:0:
64,192,93131,1,0,0:0:0:0:
448,192,93131,1,0,0:0:0:0:
192,192,93235,1,0,0:0:0:0:
320,192,93235,1,0,0:0:0:0:
192,192,93341,1,0,0:0:0:0:
64,192,93341,1,0,0:0:0:0:
64,192,93445,1,0,0:0:0:0:
320,192,93445,1,0,0:0:0:0:
448,192,93445,1,0,0:0:0:0:
320,192,93550,1,0,0:0:0:0:
448,192,93550,1,0,0:0:0:0:
64,192,93655,1,0,0:0:0:0:
320,192,93655,1,0,0:0:0:0:
192,192,93760,1,0,0:0:0:0:
448,192,93760,1,0,0:0:0:0:
64,192,93864,1,0,0:0:0:0:
192,192,93864,1,0,0:0:0:0:
320,192,93864,1,0,0:0:0:0:
448,192,93970,1,0,0:0:0:0:
320,192,93970,1,0,0:0:0:0:
192,192,94074,1,0,0:0:0:0:
64,192,94074,1,0,0:0:0:0:
320,192,94178,1,0,0:0:0:0:
192,192,94178,1,0,0:0:0:0:
64,192,94284,1,0,0:0:0:0:
192,192,94284,1,0,0:0:0:0:
448,192,94284,1,0,0:0:0:0:
64,192,94388,1,0,0:0:0:0:
448,192,94388,1,0,0:0:0:0:
192,192,94492,1,0,0:0:0:0:
320,192,94492,1,0,0:0:0:0:
64,192,94598,1,0,0:0:0:0:
320,192,94598,1,0,0:0:0:0:
64,192,94702,1,0,0:0:0:0:
320,192,94702,1,0,0:0:0:0:
448,192,94702,1,0,0:0:0:0:
192,192,94807,1,0,0:0:0:0:
448,192,94807,1,0,0:0:0:0:
320,192,94912,1,0,0:0:0:0:
64,192,94912,1,0,0:0:0:0:
192,192,95017,1,0,0:0:0:0:
64,192,95017,1,0,0:0:0:0:
192,192,95121,1,0,0:0:0:0:
320,192,95121,1,0,0:0:0:0:
448,192,95121,1,0,0:0:0:0:
320,192,95227,1,0,0:0:0:0:
448,192,95227,1,0,0:0:0:0:
64,192,95331,1,0,0:0:0:0:
448,192,95331,1,0,0:0:0:0:
320,192,95437,1,0,0:0:0:0:
192,192,95437,1,0,0:0:0:0:
64,192,95541,1,0,0:0:0:0:
192,192,95541,1,0,0:0:0:0:
448,192,95541,1,0,0:0:0:0:
320,192,95645,1,0,0:0:0:0:
64,192,95645,1,0,0:0:0:0:
448,192,95751,1,0,0:0:0:0:
320,192,95751,1,0,0:0:0:0:
192,192,95855,1,0,0:0:0:0:
64,192,95855,1,0,0:0:0:0:
192,192,95960,1,0,0:0:0:0:
320,192,95960,1,0,0:0:0:0:
448,192,95960,1,0,0:0:0:0:
64,192,96065,1,0,0:0:0:0:
448,192,96065,1,0,0:0:0:0:
192,192,96170,1,0,0:0:0:0:
448,192,96170,1,0,0:0:0:0:
320,192,96274,1,0,0:0:0:0:
64,192,96274,1,0,0:0:0:0:
64,192,96380,1,0,0:0:0:0:
448,192,96380,1,0,0:0:0:0:
192,192,96380,1,0,0:0:0:0:
320,192,96484,1,0,0:0:0:0:
448,192,96484,1,0,0:0:0:0:
64,192,96588,1,0,0:0:0:0:
320,192,96588,1,0,0:0:0:0:
192,192,96694,1,0,0:0:0:0:
64,192,96694,1,0,0:0:0:0:
64,192,96798,1,0,0:0:0:0:
192,192,96798,1,0,0:0:0:0:
320,192,96798,1,0,0:0:0:0:
448,192,96902,1,0,0:0:0:0:
320,192,96902,1,0,0:0:0:0:
64,192,97008,1,0,0:0:0:0:
448,192,97008,1,0,0:0:0:0:
320,192,97112,1,0,0:0:0:0:
192,192,97112,1,0,0:0:0:0:
64,192,97217,1,0,0:0:0:0:
192,192,97217,1,0,0:0:0:0:
448,192,97217,1,0,0:0:0:0:
320,192,97322,1,0,0:0:0:0:
448,192,97322,1,0,0:0:0:0:
192,192,97427,1,0,0:0:0:0:
64,192,97427,1,0,0:0:0:0:
64,192,97532,1,0,0:0:0:0:
320,192,97532,1,0,0:0:0:0:
64,192,97637,1,0,0:0:0:0:
320,192,97637,1,0,0:0:0:0:
448,192,97637,1,0,0:0:0:0:
192,192,97741,1,0,0:0:0:0:
448,192,97741,1,0,0:0:0:0:
320,192,97847,1,0,0:0:0:0:
448,192,97847,1,0,0:0:0:0:
192,192,97951,1,0,0:0:0:0:
64,192,97951,1,0,0:0:0:0:
192,192,98055,1,0,0:0:0:0:
320,192,98055,1,0,0:0:0:0:
448,192,98055,1,0,0:0:0:0:
448,192,98161,1,0,0:0:0:0:
320,192,98161,1,0,0:0:0:0:
192,192,98265,1,0,0:0:0:0:
320,192,98265,1,0,0:0:0:0:
64,192,98370,1,0,0:0:0:0:
448,192,98370,1,0,0:0:0:0:
64,192,98475,1,0,0:0:0:0:
320,192,98475,1,0,0:0:0:0:
448,192,98475,1,0,0:0:0:0:
192,192,98580,1,0,0:0:0:0:
320,192,98580,1,0,0:0:0:0:
192,192,98684,1,0,0:0:0:0:
64,192,98684,1,0,0:0:0:0:
320,192,98790,1,0,0:0:0:0:
448,192,98790,1,0,0:0:0:0:
192,192,98894,5,0,0:0:0:0:
64,192,98894,1,0,0:0:0:0:
320,192,98894,1,0,0:0:0:0:
192,192,98998,1,0,0:0:0:0:
64,192,98998,1,0,0:0:0:0:
64,192,99104,1,0,0:0:0:0:
448,192,99104,1,0,0:0:0:0:
320,192,99208,1,0,0:0:0:0:
448,192,99208,1,0,0:0:0:0:
64,192,99312,1,0,0:0:0:0:
192,192,99312,1,0,0:0:0:0:
448,192,99312,1,0,0:0:0:0:
320,192,99418,1,0,0:0:0:0:
192,192,99418,1,0,0:0:0:0:
64,192,99522,1,0,0:0:0:0:
448,192,99522,1,0,0:0:0:0:
320,192,99628,1,0,0:0:0:0:
192,192,99628,1,0,0:0:0:0:
64,192,99732,1,0,0:0:0:0:
192,192,99732,1,0,0:0:0:0:
320,192,99732,1,0,0:0:0:0:
448,192,99837,1,0,0:0:0:0:
320,192,99837,1,0,0:0:0:0:
64,192,99942,1,0,0:0:0:0:
448,192,99942,1,0,0:0:0:0:
192,192,100047,1,0,0:0:0:0:
64,192,100047,1,0,0:0:0:0:
64,192,100151,1,0,0:0:0:0:
320,192,100151,1,0,0:0:0:0:
448,192,100151,1,0,0:0:0:0:
192,192,100257,1,0,0:0:0:0:
448,192,100257,1,0,0:0:0:0:
320,192,100361,1,0,0:0:0:0:
192,192,100361,1,0,0:0:0:0:
64,192,100465,1,0,0:0:0:0:
320,192,100465,1,0,0:0:0:0:
448,192,100571,128,0,100780:0:0:0:0:
192,192,100780,128,0,100990:0:0:0:0:
320,192,100990,128,0,101200:0:0:0:0:
64,192,101200,128,0,101618:0:0:0:0:
320,192,101618,1,0,0:0:0:0:
448,192,101618,1,0,0:0:0:0:
192,192,101828,1,0,0:0:0:0:
320,192,101828,1,0,0:0:0:0:
448,192,101828,1,0,0:0:0:0:
64,192,102038,1,0,0:0:0:0:
192,192,102038,1,0,0:0:0:0:
448,192,102038,1,0,0:0:0:0:
320,192,102038,1,0,0:0:0:0:
192,192,102247,1,0,0:0:0:0:
64,192,102247,1,0,0:0:0:0:
320,192,102247,1,0,0:0:0:0:
448,192,102247,1,0,0:0:0:0:
64,192,102352,1,0,0:0:0:0:
192,192,102352,1,0,0:0:0:0:
64,192,102457,1,0,0:0:0:0:
448,192,102457,1,0,0:0:0:0:
320,192,102561,1,0,0:0:0:0:
448,192,102561,1,0,0:0:0:0:
64,192,102667,1,0,0:0:0:0:
192,192,102667,1,0,0:0:0:0:
448,192,102667,1,0,0:0:0:0:
320,192,102667,1,0,0:0:0:0:
192,192,102771,1,0,0:0:0:0:
64,192,102771,1,0,0:0:0:0:
448,192,102875,1,0,0:0:0:0:
192,192,102875,1,0,0:0:0:0:
64,192,102981,1,0,0:0:0:0:
320,192,102981,1,0,0:0:0:0:
64,192,103085,1,0,0:0:0:0:
192,192,103085,1,0,0:0:0:0:
320,192,103085,1,0,0:0:0:0:
448,192,103085,1,0,0:0:0:0:
448,192,103190,1,0,0:0:0:0:
192,192,103190,1,0,0:0:0:0:
320,192,103295,1,0,0:0:0:0:
448,192,103295,1,0,0:0:0:0:
192,192,103400,1,0,0:0:0:0:
64,192,103400,1,0,0:0:0:0:
64,192,103504,1,0,0:0:0:0:
192,192,103504,1,0,0:0:0:0:
320,192,103504,1,0,0:0:0:0:
448,192,103504,1,0,0:0:0:0:
320,192,103610,1,0,0:0:0:0:
448,192,103610,1,0,0:0:0:0:
192,192,103714,1,0,0:0:0:0:
320,192,103714,1,0,0:0:0:0:
64,192,103820,1,0,0:0:0:0:
448,192,103820,1,0,0:0:0:0:
192,192,103924,1,0,0:0:0:0:
320,192,103924,1,0,0:0:0:0:
448,192,103924,1,0,0:0:0:0:
64,192,103924,1,0,0:0:0:0:
320,192,104028,1,0,0:0:0:0:
192,192,104028,1,0,0:0:0:0:
320,192,104134,1,0,0:0:0:0:
448,192,104134,1,0,0:0:0:0:
192,192,104238,1,0,0:0:0:0:
64,192,104238,1,0,0:0:0:0:
64,192,104342,1,0,0:0:0:0:
192,192,104342,1,0,0:0:0:0:
320,192,104342,1,0,0:0:0:0:
448,192,104342,1,0,0:0:0:0:
320,192,104448,1,0,0:0:0:0:
448,192,104448,1,0,0:0:0:0:
64,192,104552,1,0,0:0:0:0:
448,192,104552,1,0,0:0:0:0:
320,192,104657,1,0,0:0:0:0:
64,192,104657,1,0,0:0:0:0:
64,192,104762,1,0,0:0:0:0:
192,192,104762,1,0,0:0:0:0:
320,192,104762,1,0,0:0:0:0:
448,192,104762,1,0,0:0:0:0:
192,192,104867,1,0,0:0:0:0:
448,192,104867,1,0,0:0:0:0:
320,192,104971,1,0,0:0:0:0:
448,192,104971,1,0,0:0:0:0:
192,192,105077,1,0,0:0:0:0:
64,192,105077,1,0,0:0:0:0:
64,192,105181,1,0,0:0:0:0:
192,192,105181,1,0,0:0:0:0:
320,192,105181,1,0,0:0:0:0:
448,192,105181,1,0,0:0:0:0:
448,192,105285,1,0,0:0:0:0:
320,192,105285,1,0,0:0:0:0:
64,192,105391,1,0,0:0:0:0:
192,192,105391,1,0,0:0:0:0:
64,192,105495,1,0,0:0:0:0:
448,192,105495,1,0,0:0:0:0:
64,192,105600,1,0,0:0:0:0:
192,192,105600,1,0,0:0:0:0:
320,192,105600,1,0,0:0:0:0:
448,192,105600,1,0,0:0:0:0:
192,192,105705,1,0,0:0:0:0:
320,192,105705,1,0,0:0:0:0:
64,192,105810,1,0,0:0:0:0:
448,192,105810,1,0,0:0:0:0:
192,192,105915,1,0,0:0:0:0:
448,192,105915,1,0,0:0:0:0:
64,192,106020,1,0,0:0:0:0:
192,192,106020,1,0,0:0:0:0:
320,192,106020,1,0,0:0:0:0:
448,192,106020,1,0,0:0:0:0:
320,192,106124,1,0,0:0:0:0:
64,192,106124,1,0,0:0:0:0:
192,192,106230,1,0,0:0:0:0:
64,192,106230,1,0,0:0:0:0:
320,192,106334,1,0,0:0:0:0:
448,192,106334,1,0,0:0:0:0:
64,192,106438,1,0,0:0:0:0:
192,192,106438,1,0,0:0:0:0:
320,192,106438,1,0,0:0:0:0:
448,192,106438,1,0,0:0:0:0:
192,192,106544,1,0,0:0:0:0:
64,192,106544,1,0,0:0:0:0:
64,192,106648,1,0,0:0:0:0:
448,192,106648,1,0,0:0:0:0:
320,192,106752,1,0,0:0:0:0:
192,192,106752,1,0,0:0:0:0:
64,192,106858,1,0,0:0:0:0:
192,192,106858,1,0,0:0:0:0:
320,192,106858,1,0,0:0:0:0:
448,192,106858,1,0,0:0:0:0:
64,192,106962,1,0,0:0:0:0:
448,192,106962,1,0,0:0:0:0:
320,192,107067,1,0,0:0:0:0:
448,192,107067,1,0,0:0:0:0:
192,192,107172,1,0,0:0:0:0:
64,192,107172,1,0,0:0:0:0:
192,192,107277,1,0,0:0:0:0:
64,192,107277,1,0,0:0:0:0:
320,192,107277,1,0,0:0:0:0:
448,192,107277,1,0,0:0:0:0:
320,192,107381,1,0,0:0:0:0:
448,192,107381,1,0,0:0:0:0:
64,192,107487,1,0,0:0:0:0:
320,192,107487,1,0,0:0:0:0:
64,192,107591,1,0,0:0:0:0:
448,192,107591,1,0,0:0:0:0:
64,192,107695,1,0,0:0:0:0:
192,192,107695,1,0,0:0:0:0:
320,192,107695,1,0,0:0:0:0:
448,192,107695,1,0,0:0:0:0:
192,192,107801,1,0,0:0:0:0:
320,192,107801,1,0,0:0:0:0:
448,192,107905,1,0,0:0:0:0:
64,192,107905,1,0,0:0:0:0:
192,192,108010,1,0,0:0:0:0:
448,192,108010,1,0,0:0:0:0:
64,192,108115,1,0,0:0:0:0:
192,192,108115,1,0,0:0:0:0:
320,192,108115,1,0,0:0:0:0:
448,192,108115,1,0,0:0:0:0:
320,192,108220,1,0,0:0:0:0:
64,192,108220,1,0,0:0:0:0:
192,192,108325,1,0,0:0:0:0:
64,192,108325,1,0,0:0:0:0:
320,192,108430,1,0,0:0:0:0:
448,192,108430,1,0,0:0:0:0:
64,192,108534,1,0,0:0:0:0:
192,192,108534,1,0,0:0:0:0:
320,192,108534,1,0,0:0:0:0:
448,192,108534,1,0,0:0:0:0:
192,192,108640,1,0,0:0:0:0:
64,192,108640,1,0,0:0:0:0:
448,192,108744,1,0,0:0:0:0:
320,192,108744,1,0,0:0:0:0:
64,192,108744,1,0,0:0:0:0:
192,192,108744,1,0,0:0:0:0:
320,192,108848,1,0,0:0:0:0:
448,192,108848,1,0,0:0:0:0:
64,192,108954,1,0,0:0:0:0:
192,192,108954,1,0,0:0:0:0:
320,192,108954,1,0,0:0:0:0:
448,192,108954,1,0,0:0:0:0:
192,192,109058,1,0,0:0:0:0:
64,192,109058,1,0,0:0:0:0:
448,192,109162,1,0,0:0:0:0:
64,192,109162,1,0,0:0:0:0:
192,192,109268,1,0,0:0:0:0:
320,192,109268,1,0,0:0:0:0:
64,192,109372,1,0,0:0:0:0:
192,192,109372,1,0,0:0:0:0:
320,192,109372,1,0,0:0:0:0:
448,192,109372,1,0,0:0:0:0:
64,192,109477,1,0,0:0:0:0:
448,192,109477,1,0,0:0:0:0:
320,192,109582,1,0,0:0:0:0:
448,192,109582,1,0,0:0:0:0:
192,192,109687,1,0,0:0:0:0:
64,192,109687,1,0,0:0:0:0:
64,192,109791,1,0,0:0:0:0:
192,192,109791,1,0,0:0:0:0:
320,192,109791,1,0,0:0:0:0:
448,192,109791,1,0,0:0:0:0:
320,192,109897,1,0,0:0:0:0:
448,192,109897,1,0,0:0:0:0:
64,192,110001,1,0,0:0:0:0:
320,192,110001,1,0,0:0:0:0:
64,192,110105,1,0,0:0:0:0:
192,192,110105,1,0,0:0:0:0:
64,192,110211,1,0,0:0:0:0:
192,192,110211,1,0,0:0:0:0:
320,192,110211,1,0,0:0:0:0:
448,192,110211,1,0,0:0:0:0:
320,192,110315,1,0,0:0:0:0:
448,192,110315,1,0,0:0:0:0:
64,192,110421,1,0,0:0:0:0:
320,192,110421,1,0,0:0:0:0:
192,192,110525,1,0,0:0:0:0:
448,192,110525,1,0,0:0:0:0:
64,192,110630,1,0,0:0:0:0:
192,192,110630,1,0,0:0:0:0:
320,192,110630,1,0,0:0:0:0:
448,192,110630,1,0,0:0:0:0:
320,192,110735,1,0,0:0:0:0:
64,192,110735,1,0,0:0:0:0:
192,192,110840,1,0,0:0:0:0:
64,192,110840,1,0,0:0:0:0:
320,192,110944,1,0,0:0:0:0:
448,192,110944,1,0,0:0:0:0:
192,192,111050,1,0,0:0:0:0:
320,192,111050,1,0,0:0:0:0:
448,192,111050,1,0,0:0:0:0:
64,192,111050,1,0,0:0:0:0:
192,192,111154,1,0,0:0:0:0:
64,192,111154,1,0,0:0:0:0:
448,192,111258,1,0,0:0:0:0:
64,192,111258,1,0,0:0:0:0:
320,192,111364,1,0,0:0:0:0:
448,192,111364,1,0,0:0:0:0:
448,192,111468,1,0,0:0:0:0:
320,192,111468,1,0,0:0:0:0:
192,192,111468,1,0,0:0:0:0:
64,192,111468,1,0,0:0:0:0:
64,192,111572,1,0,0:0:0:0:
192,192,111572,1,0,0:0:0:0:
320,192,111678,1,0,0:0:0:0:
64,192,111678,1,0,0:0:0:0:
320,192,111782,1,0,0:0:0:0:
448,192,111782,1,0,0:0:0:0:
64,192,111887,1,0,0:0:0:0:
320,192,111887,1,0,0:0:0:0:
448,192,111887,1,0,0:0:0:0:
192,192,111887,1,0,0:0:0:0:
64,192,111992,1,0,0:0:0:0:
192,192,111992,1,0,0:0:0:0:
64,192,112097,1,0,0:0:0:0:
448,192,112097,1,0,0:0:0:0:
320,192,112201,1,0,0:0:0:0:
448,192,112201,1,0,0:0:0:0:
192,192,112307,1,0,0:0:0:0:
320,192,112307,1,0,0:0:0:0:
64,192,112307,1,0,0:0:0:0:
448,192,112307,1,0,0:0:0:0:
192,192,112411,1,0,0:0:0:0:
64,192,112411,1,0,0:0:0:0:
448,192,112517,1,0,0:0:0:0:
64,192,112517,1,0,0:0:0:0:
192,192,112621,1,0,0:0:0:0:
320,192,112621,1,0,0:0:0:0:
192,192,112725,1,0,0:0:0:0:
320,192,112725,1,0,0:0:0:0:
448,192,112725,1,0,0:0:0:0:
64,192,112725,1,0,0:0:0:0:
64,192,112831,1,0,0:0:0:0:
448,192,112831,1,0,0:0:0:0:
320,192,112935,1,0,0:0:0:0:
448,192,112935,1,0,0:0:0:0:
192,192,113040,1,0,0:0:0:0:
64,192,113040,1,0,0:0:0:0:
192,192,113145,1,0,0:0:0:0:
320,192,113145,1,0,0:0:0:0:
448,192,113145,1,0,0:0:0:0:
64,192,113145,1,0,0:0:0:0:
320,192,113250,1,0,0:0:0:0:
448,192,113250,1,0,0:0:0:0:
64,192,113354,1,0,0:0:0:0:
320,192,113354,1,0,0:0:0:0:
192,192,113460,1,0,0:0:0:0:
64,192,113460,1,0,0:0:0:0:
64,192,113564,1,0,0:0:0:0:
192,192,113564,1,0,0:0:0:0:
320,192,113564,1,0,0:0:0:0:
448,192,113564,1,0,0:0:0:0:
320,192,113668,1,0,0:0:0:0:
448,192,113668,1,0,0:0:0:0:
64,192,113774,1,0,0:0:0:0:
448,192,113774,1,0,0:0:0:0:
320,192,113878,1,0,0:0:0:0:
192,192,113878,1,0,0:0:0:0:
64,192,113982,1,0,0:0:0:0:
192,192,113982,1,0,0:0:0:0:
320,192,113982,1,0,0:0:0:0:
448,192,113982,1,0,0:0:0:0:
64,192,114088,1,0,0:0:0:0:
448,192,114088,1,0,0:0:0:0:
320,192,114192,1,0,0:0:0:0:
192,192,114192,1,0,0:0:0:0:
192,192,114297,1,0,0:0:0:0:
448,192,114297,1,0,0:0:0:0:
64,192,114402,1,0,0:0:0:0:
192,192,114402,1,0,0:0:0:0:
320,192,114402,1,0,0:0:0:0:
448,192,114402,1,0,0:0:0:0:
320,192,114507,1,0,0:0:0:0:
64,192,114507,1,0,0:0:0:0:
320,192,114612,1,0,0:0:0:0:
448,192,114612,1,0,0:0:0:0:
192,192,114717,1,0,0:0:0:0:
64,192,114717,1,0,0:0:0:0:
64,192,114821,1,0,0:0:0:0:
192,192,114821,1,0,0:0:0:0:
448,192,114821,1,0,0:0:0:0:
320,192,114821,1,0,0:0:0:0:
448,192,115031,1,0,0:0:0:0:
320,192,115084,1,0,0:0:0:0:
192,192,115135,1,0,0:0:0:0:
64,192,115188,1,0,0:0:0:0:
320,192,115241,1,0,0:0:0:0:
448,192,115241,1,0,0:0:0:0:
64,192,115450,1,0,0:0:0:0:
192,192,115502,1,0,0:0:0:0:
320,192,115555,1,0,0:0:0:0:
448,192,115555,1,0,0:0:0:0:
192,192,115660,1,0,0:0:0:0:
64,192,115660,1,0,0:0:0:0:
448,192,115660,1,0,0:0:0:0:
320,192,115660,1,0,0:0:0:0:
320,192,115764,1,0,0:0:0:0:
64,192,115764,1,0,0:0:0:0:
192,192,115870,1,0,0:0:0:0:
448,192,115870,1,0,0:0:0:0:
320,192,115974,1,0,0:0:0:0:
448,192,115974,1,0,0:0:0:0:
448,192,116078,1,0,0:0:0:0:
320,192,116078,1,0,0:0:0:0:
192,192,116078,1,0,0:0:0:0:
64,192,116078,1,0,0:0:0:0:
192,192,116184,1,0,0:0:0:0:
64,192,116184,1,0,0:0:0:0:
64,192,116288,1,0,0:0:0:0:
448,192,116288,1,0,0:0:0:0:
448,192,116392,1,0,0:0:0:0:
320,192,116392,1,0,0:0:0:0:
192,192,116498,1,0,0:0:0:0:
64,192,116498,1,0,0:0:0:0:
320,192,116498,1,0,0:0:0:0:
448,192,116498,1,0,0:0:0:0:
192,192,116602,1,0,0:0:0:0:
64,192,116602,1,0,0:0:0:0:
64,192,116708,1,0,0:0:0:0:
320,192,116708,1,0,0:0:0:0:
192,192,116812,1,0,0:0:0:0:
448,192,116812,1,0,0:0:0:0:
320,192,116917,1,0,0:0:0:0:
192,192,116917,1,0,0:0:0:0:
64,192,116917,1,0,0:0:0:0:
448,192,116917,1,0,0:0:0:0:
320,192,117022,1,0,0:0:0:0:
64,192,117022,1,0,0:0:0:0:
320,192,117127,1,0,0:0:0:0:
448,192,117127,1,0,0:0:0:0:
64,192,117231,1,0,0:0:0:0:
448,192,117231,1,0,0:0:0:0:
448,192,117337,1,0,0:0:0:0:
320,192,117337,1,0,0:0:0:0:
192,192,117337,1,0,0:0:0:0:
64,192,117337,1,0,0:0:0:0:
192,192,117441,1,0,0:0:0:0:
320,192,117441,1,0,0:0:0:0:
64,192,117545,1,0,0:0:0:0:
448,192,117545,1,0,0:0:0:0:
192,192,117651,1,0,0:0:0:0:
64,192,117651,1,0,0:0:0:0:
320,192,117755,1,0,0:0:0:0:
448,192,117755,1,0,0:0:0:0:
192,192,117755,1,0,0:0:0:0:
64,192,117755,1,0,0:0:0:0:
320,192,117860,1,0,0:0:0:0:
448,192,117860,1,0,0:0:0:0:
64,192,117965,1,0,0:0:0:0:
448,192,117965,1,0,0:0:0:0:
320,192,118070,1,0,0:0:0:0:
64,192,118070,1,0,0:0:0:0:
192,192,118174,1,0,0:0:0:0:
320,192,118174,1,0,0:0:0:0:
448,192,118174,1,0,0:0:0:0:
64,192,118174,1,0,0:0:0:0:
192,192,118280,1,0,0:0:0:0:
448,192,118280,1,0,0:0:0:0:
320,192,118384,1,0,0:0:0:0:
448,192,118384,1,0,0:0:0:0:
64,192,118488,1,0,0:0:0:0:
192,192,118488,1,0,0:0:0:0:
192,192,118594,1,0,0:0:0:0:
64,192,118594,1,0,0:0:0:0:
320,192,118594,1,0,0:0:0:0:
448,192,118594,1,0,0:0:0:0:
448,192,118698,1,0,0:0:0:0:
320,192,118698,1,0,0:0:0:0:
192,192,118804,1,0,0:0:0:0:
64,192,118804,1,0,0:0:0:0:
64,192,118908,1,0,0:0:0:0:
320,192,118908,1,0,0:0:0:0:
64,192,119012,1,0,0:0:0:0:
192,192,119012,1,0,0:0:0:0:
320,192,119012,1,0,0:0:0:0:
448,192,119012,1,0,0:0:0:0:
192,192,119118,1,0,0:0:0:0:
448,192,119118,1,0,0:0:0:0:
320,192,119222,1,0,0:0:0:0:
448,192,119222,1,0,0:0:0:0:
192,192,119327,1,0,0:0:0:0:
64,192,119327,1,0,0:0:0:0:
320,192,119432,1,0,0:0:0:0:
448,192,119432,1,0,0:0:0:0:
192,192,119432,1,0,0:0:0:0:
64,192,119432,1,0,0:0:0:0:
320,192,119537,1,0,0:0:0:0:
448,192,119537,1,0,0:0:0:0:
64,192,119641,1,0,0:0:0:0:
448,192,119641,1,0,0:0:0:0:
320,192,119747,1,0,0:0:0:0:
192,192,119747,1,0,0:0:0:0:
64,192,119851,1,0,0:0:0:0:
192,192,119851,1,0,0:0:0:0:
320,192,119851,1,0,0:0:0:0:
448,192,119851,1,0,0:0:0:0:
64,192,119955,1,0,0:0:0:0:
448,192,119955,1,0,0:0:0:0:
192,192,120061,1,0,0:0:0:0:
64,192,120061,1,0,0:0:0:0:
320,192,120165,1,0,0:0:0:0:
448,192,120165,1,0,0:0:0:0:
448,192,120270,1,0,0:0:0:0:
320,192,120270,1,0,0:0:0:0:
192,192,120270,1,0,0:0:0:0:
64,192,120270,1,0,0:0:0:0:
64,192,120375,1,0,0:0:0:0:
192,192,120375,1,0,0:0:0:0:
320,192,120480,1,0,0:0:0:0:
64,192,120480,1,0,0:0:0:0:
192,192,120584,1,0,0:0:0:0:
448,192,120584,1,0,0:0:0:0:
64,192,120690,1,0,0:0:0:0:
192,192,120690,1,0,0:0:0:0:
448,192,120690,1,0,0:0:0:0:
320,192,120690,1,0,0:0:0:0:
320,192,120794,1,0,0:0:0:0:
64,192,120794,1,0,0:0:0:0:
192,192,120900,1,0,0:0:0:0:
64,192,120900,1,0,0:0:0:0:
320,192,121004,1,0,0:0:0:0:
448,192,121004,1,0,0:0:0:0:
64,192,121108,1,0,0:0:0:0:
192,192,121108,1,0,0:0:0:0:
448,192,121108,1,0,0:0:0:0:
320,192,121108,1,0,0:0:0:0:
192,192,121214,1,0,0:0:0:0:
64,192,121214,1,0,0:0:0:0:
448,192,121318,1,0,0:0:0:0:
192,192,121318,1,0,0:0:0:0:
64,192,121422,1,0,0:0:0:0:
320,192,121422,1,0,0:0:0:0:
64,192,121528,1,0,0:0:0:0:
320,192,121528,1,0,0:0:0:0:
448,192,121528,1,0,0:0:0:0:
192,192,121528,1,0,0:0:0:0:
192,192,121632,1,0,0:0:0:0:
448,192,121632,1,0,0:0:0:0:
64,192,121737,1,0,0:0:0:0:
448,192,121737,1,0,0:0:0:0:
320,192,121842,1,0,0:0:0:0:
64,192,121842,1,0,0:0:0:0:
64,192,121947,1,0,0:0:0:0:
320,192,121947,1,0,0:0:0:0:
448,192,121947,1,0,0:0:0:0:
192,192,121947,1,0,0:0:0:0:
192,192,122051,1,0,0:0:0:0:
448,192,122051,1,0,0:0:0:0:
320,192,122157,1,0,0:0:0:0:
448,192,122157,1,0,0:0:0:0:
192,192,122261,1,0,0:0:0:0:
64,192,122261,1,0,0:0:0:0:
64,192,122365,1,0,0:0:0:0:
192,192,122365,1,0,0:0:0:0:
320,192,122365,1,0,0:0:0:0:
448,192,122365,1,0,0:0:0:0:
320,192,122471,1,0,0:0:0:0:
448,192,122471,1,0,0:0:0:0:
64,192,122575,1,0,0:0:0:0:
448,192,122575,1,0,0:0:0:0:
192,192,122680,1,0,0:0:0:0:
64,192,122680,1,0,0:0:0:0:
64,192,122785,1,0,0:0:0:0:
192,192,122785,1,0,0:0:0:0:
320,192,122785,1,0,0:0:0:0:
448,192,122785,1,0,0:0:0:0:
320,192,122890,1,0,0:0:0:0:
448,192,122890,1,0,0:0:0:0:
192,192,122995,1,0,0:0:0:0:
64,192,122995,1,0,0:0:0:0:
64,192,123100,1,0,0:0:0:0:
320,192,123100,1,0,0:0:0:0:
320,192,123204,1,0,0:0:0:0:
448,192,123204,1,0,0:0:0:0:
64,192,123204,1,0,0:0:0:0:
192,192,123204,1,0,0:0:0:0:
192,192,123310,1,0,0:0:0:0:
448,192,123310,1,0,0:0:0:0:
320,192,123414,1,0,0:0:0:0:
448,192,123414,1,0,0:0:0:0:
192,192,123518,1,0,0:0:0:0:
64,192,123518,1,0,0:0:0:0:
64,192,123624,1,0,0:0:0:0:
192,192,123624,1,0,0:0:0:0:
320,192,123624,1,0,0:0:0:0:
448,192,123624,1,0,0:0:0:0:
320,192,123728,1,0,0:0:0:0:
448,192,123728,1,0,0:0:0:0:
64,192,123832,1,0,0:0:0:0:
448,192,123832,1,0,0:0:0:0:
320,192,123938,1,0,0:0:0:0:
192,192,123938,1,0,0:0:0:0:
64,192,124042,1,0,0:0:0:0:
192,192,124042,1,0,0:0:0:0:
320,192,124042,1,0,0:0:0:0:
448,192,124042,1,0,0:0:0:0:
448,192,124147,1,0,0:0:0:0:
64,192,124147,1,0,0:0:0:0:
192,192,124252,1,0,0:0:0:0:
64,192,124252,1,0,0:0:0:0:
320,192,124357,1,0,0:0:0:0:
448,192,124357,1,0,0:0:0:0:
64,192,124461,1,0,0:0:0:0:
192,192,124461,1,0,0:0:0:0:
320,192,124461,1,0,0:0:0:0:
448,192,124461,1,0,0:0:0:0:
192,192,124567,1,0,0:0:0:0:
64,192,124567,1,0,0:0:0:0:
64,192,124671,1,0,0:0:0:0:
320,192,124671,1,0,0:0:0:0:
192,192,124775,1,0,0:0:0:0:
448,192,124775,1,0,0:0:0:0:
64,192,124881,1,0,0:0:0:0:
320,192,124881,1,0,0:0:0:0:
448,192,124881,1,0,0:0:0:0:
192,192,124881,1,0,0:0:0:0:
320,192,124985,1,0,0:0:0:0:
64,192,124985,1,0,0:0:0:0:
192,192,125091,1,0,0:0:0:0:
64,192,125091,1,0,0:0:0:0:
320,192,125195,1,0,0:0:0:0:
448,192,125195,1,0,0:0:0:0:
64,192,125300,1,0,0:0:0:0:
192,192,125300,1,0,0:0:0:0:
320,192,125300,1,0,0:0:0:0:
448,192,125300,1,0,0:0:0:0:
64,192,125405,1,0,0:0:0:0:
192,192,125405,1,0,0:0:0:0:
448,192,125510,1,0,0:0:0:0:
64,192,125510,1,0,0:0:0:0:
192,192,125614,1,0,0:0:0:0:
448,192,125614,1,0,0:0:0:0:
64,192,125720,1,0,0:0:0:0:
192,192,125720,1,0,0:0:0:0:
320,192,125720,1,0,0:0:0:0:
448,192,125720,1,0,0:0:0:0:
320,192,125824,1,0,0:0:0:0:
64,192,125824,1,0,0:0:0:0:
192,192,125928,1,0,0:0:0:0:
64,192,125928,1,0,0:0:0:0:
192,192,126034,1,0,0:0:0:0:
320,192,126034,1,0,0:0:0:0:
64,192,126138,1,0,0:0:0:0:
192,192,126138,1,0,0:0:0:0:
320,192,126138,1,0,0:0:0:0:
448,192,126138,1,0,0:0:0:0:
64,192,126242,1,0,0:0:0:0:
448,192,126242,1,0,0:0:0:0:
192,192,126348,1,0,0:0:0:0:
64,192,126348,1,0,0:0:0:0:
320,192,126452,1,0,0:0:0:0:
448,192,126452,1,0,0:0:0:0:
64,192,126557,1,0,0:0:0:0:
448,192,126557,1,0,0:0:0:0:
320,192,126557,1,0,0:0:0:0:
192,192,126557,1,0,0:0:0:0:
192,192,126662,1,0,0:0:0:0:
64,192,126662,1,0,0:0:0:0:
320,192,126767,1,0,0:0:0:0:
192,192,126767,1,0,0:0:0:0:
448,192,126871,1,0,0:0:0:0:
64,192,126871,1,0,0:0:0:0:
448,192,126977,1,0,0:0:0:0:
320,192,126977,1,0,0:0:0:0:
64,192,126977,1,0,0:0:0:0:
192,192,126977,1,0,0:0:0:0:
192,192,127081,1,0,0:0:0:0:
320,192,127081,1,0,0:0:0:0:
64,192,127187,1,0,0:0:0:0:
192,192,127187,1,0,0:0:0:0:
320,192,127187,1,0,0:0:0:0:
448,192,127187,1,0,0:0:0:0:
64,192,127291,1,0,0:0:0:0:
448,192,127291,1,0,0:0:0:0:
64,192,127395,1,0,0:0:0:0:
192,192,127395,1,0,0:0:0:0:
448,192,127395,1,0,0:0:0:0:
320,192,127395,1,0,0:0:0:0:
192,192,127501,1,0,0:0:0:0:
320,192,127605,1,0,0:0:0:0:
448,192,127605,1,0,0:0:0:0:
192,192,127710,1,0,0:0:0:0:
64,192,127710,1,0,0:0:0:0:
320,192,127815,1,0,0:0:0:0:
448,192,127815,1,0,0:0:0:0:
64,192,127920,1,0,0:0:0:0:
192,192,127920,1,0,0:0:0:0:
64,192,128024,1,0,0:0:0:0:
192,192,128024,1,0,0:0:0:0:
320,192,128024,1,0,0:0:0:0:
448,192,128024,1,0,0:0:0:0:
320,192,128130,1,0,0:0:0:0:
448,192,128130,1,0,0:0:0:0:
64,192,128234,1,0,0:0:0:0:
192,192,128234,1,0,0:0:0:0:
448,192,128234,1,0,0:0:0:0:
320,192,128234,1,0,0:0:0:0:
192,192,128338,1,0,0:0:0:0:
64,192,128338,1,0,0:0:0:0:
64,192,128444,1,0,0:0:0:0:
448,192,128444,1,0,0:0:0:0:
320,192,128548,1,0,0:0:0:0:
192,192,128548,1,0,0:0:0:0:
64,192,128652,1,0,0:0:0:0:
192,192,128652,1,0,0:0:0:0:
320,192,128652,1,0,0:0:0:0:
448,192,128652,1,0,0:0:0:0:
64,192,128758,1,0,0:0:0:0:
448,192,128758,1,0,0:0:0:0:
320,192,128862,1,0,0:0:0:0:
448,192,128862,1,0,0:0:0:0:
192,192,128967,1,0,0:0:0:0:
64,192,128967,1,0,0:0:0:0:
64,192,129072,1,0,0:0:0:0:
192,192,129072,1,0,0:0:0:0:
320,192,129072,1,0,0:0:0:0:
448,192,129072,1,0,0:0:0:0:
448,192,129177,1,0,0:0:0:0:
320,192,129177,1,0,0:0:0:0:
192,192,129281,1,0,0:0:0:0:
320,192,129281,1,0,0:0:0:0:
64,192,129387,1,0,0:0:0:0:
448,192,129387,1,0,0:0:0:0:
320,192,129491,1,0,0:0:0:0:
64,192,129491,1,0,0:0:0:0:
192,192,129491,1,0,0:0:0:0:
448,192,129491,1,0,0:0:0:0:
320,192,129597,1,0,0:0:0:0:
192,192,129597,1,0,0:0:0:0:
64,192,129701,1,0,0:0:0:0:
448,192,129701,1,0,0:0:0:0:
192,192,129805,1,0,0:0:0:0:
64,192,129805,1,0,0:0:0:0:
448,192,129911,1,0,0:0:0:0:
192,192,129911,1,0,0:0:0:0:
64,192,129911,1,0,0:0:0:0:
320,192,129911,1,0,0:0:0:0:
320,192,130015,1,0,0:0:0:0:
448,192,130015,1,0,0:0:0:0:
64,192,130120,1,0,0:0:0:0:
192,192,130120,1,0,0:0:0:0:
448,192,130225,1,0,0:0:0:0:
320,192,130225,1,0,0:0:0:0:
64,192,130330,1,0,0:0:0:0:
192,192,130330,1,0,0:0:0:0:
448,192,130330,1,0,0:0:0:0:
320,192,130330,1,0,0:0:0:0:
192,192,130434,1,0,0:0:0:0:
64,192,130434,1,0,0:0:0:0:
64,192,130540,1,0,0:0:0:0:
448,192,130540,1,0,0:0:0:0:
320,192,130644,1,0,0:0:0:0:
192,192,130644,1,0,0:0:0:0:
64,192,130748,1,0,0:0:0:0:
192,192,130748,1,0,0:0:0:0:
448,192,130748,1,0,0:0:0:0:
320,192,130748,1,0,0:0:0:0:
64,192,130854,1,0,0:0:0:0:
448,192,130854,1,0,0:0:0:0:
320,192,130958,1,0,0:0:0:0:
64,192,130958,1,0,0:0:0:0:
320,192,131062,1,0,0:0:0:0:
448,192,131062,1,0,0:0:0:0:
64,192,131168,1,0,0:0:0:0:
192,192,131168,1,0,0:0:0:0:
320,192,131168,1,0,0:0:0:0:
448,192,131168,1,0,0:0:0:0:
192,192,131272,1,0,0:0:0:0:
64,192,131272,1,0,0:0:0:0:
64,192,131377,1,0,0:0:0:0:
448,192,131377,1,0,0:0:0:0:
320,192,131482,1,0,0:0:0:0:
448,192,131482,1,0,0:0:0:0:
320,192,131587,1,0,0:0:0:0:
64,192,131587,1,0,0:0:0:0:
192,192,131587,1,0,0:0:0:0:
448,192,131587,1,0,0:0:0:0:
192,192,131692,1,0,0:0:0:0:
64,192,131692,1,0,0:0:0:0:
64,192,131797,1,0,0:0:0:0:
448,192,131797,1,0,0:0:0:0:
320,192,131901,1,0,0:0:0:0:
192,192,131901,1,0,0:0:0:0:
64,192,132007,1,0,0:0:0:0:
192,192,132007,1,0,0:0:0:0:
320,192,132007,1,0,0:0:0:0:
448,192,132007,1,0,0:0:0:0:
64,192,132111,1,0,0:0:0:0:
448,192,132111,1,0,0:0:0:0:
320,192,132215,1,0,0:0:0:0:
448,192,132215,1,0,0:0:0:0:
192,192,132321,1,0,0:0:0:0:
64,192,132321,1,0,0:0:0:0:
64,192,132425,1,0,0:0:0:0:
192,192,132425,1,0,0:0:0:0:
320,192,132425,1,0,0:0:0:0:
448,192,132425,1,0,0:0:0:0:
320,192,132530,1,0,0:0:0:0:
448,192,132530,1,0,0:0:0:0:
64,192,132635,1,0,0:0:0:0:
448,192,132635,1,0,0:0:0:0:
320,192,132740,1,0,0:0:0:0:
64,192,132740,1,0,0:0:0:0:
192,192,132844,1,0,0:0:0:0:
320,192,132844,1,0,0:0:0:0:
448,192,132844,1,0,0:0:0:0:
64,192,132844,1,0,0:0:0:0:
192,192,132950,1,0,0:0:0:0:
448,192,132950,1,0,0:0:0:0:
320,192,133054,1,0,0:0:0:0:
448,192,133054,1,0,0:0:0:0:
64,192,133158,1,0,0:0:0:0:
192,192,133158,1,0,0:0:0:0:
64,192,133264,1,0,0:0:0:0:
192,192,133264,1,0,0:0:0:0:
320,192,133264,1,0,0:0:0:0:
448,192,133264,1,0,0:0:0:0:
320,192,133368,1,0,0:0:0:0:
448,192,133368,1,0,0:0:0:0:
192,192,133472,1,0,0:0:0:0:
64,192,133472,1,0,0:0:0:0:
64,192,133578,1,0,0:0:0:0:
448,192,133578,1,0,0:0:0:0:
320,192,133682,1,0,0:0:0:0:
64,192,133682,1,0,0:0:0:0:
192,192,133682,1,0,0:0:0:0:
448,192,133682,1,0,0:0:0:0:
192,192,133788,1,0,0:0:0:0:
320,192,133788,1,0,0:0:0:0:
64,192,133892,1,0,0:0:0:0:
448,192,133892,1,0,0:0:0:0:
320,192,133997,1,0,0:0:0:0:
448,192,133997,1,0,0:0:0:0:
64,192,134102,1,0,0:0:0:0:
192,192,134102,1,0,0:0:0:0:
320,192,134102,1,0,0:0:0:0:
448,192,134102,1,0,0:0:0:0:
192,192,134207,1,0,0:0:0:0:
64,192,134207,1,0,0:0:0:0:
320,192,134311,1,0,0:0:0:0:
448,192,134311,1,0,0:0:0:0:
64,192,134417,1,0,0:0:0:0:
448,192,134417,1,0,0:0:0:0:
448,192,134521,1,0,0:0:0:0:
320,192,134521,1,0,0:0:0:0:
192,192,134521,1,0,0:0:0:0:
64,192,134521,1,0,0:0:0:0:
192,192,134625,1,0,0:0:0:0:
320,192,134625,1,0,0:0:0:0:
448,192,134731,1,0,0:0:0:0:
64,192,134731,1,0,0:0:0:0:
192,192,134835,1,0,0:0:0:0:
448,192,134835,1,0,0:0:0:0:
320,192,134940,1,0,0:0:0:0:
448,192,134940,1,0,0:0:0:0:
192,192,134940,1,0,0:0:0:0:
64,192,134940,1,0,0:0:0:0:
64,192,135045,1,0,0:0:0:0:
320,192,135045,1,0,0:0:0:0:
192,192,135150,1,0,0:0:0:0:
64,192,135150,1,0,0:0:0:0:
320,192,135254,1,0,0:0:0:0:
448,192,135254,1,0,0:0:0:0:
64,192,135360,1,0,0:0:0:0:
192,192,135360,1,0,0:0:0:0:
320,192,135360,1,0,0:0:0:0:
448,192,135360,1,0,0:0:0:0:
64,192,135464,1,0,0:0:0:0:
192,192,135464,1,0,0:0:0:0:
64,192,135568,1,0,0:0:0:0:
192,192,135568,1,0,0:0:0:0:
320,192,135568,1,0,0:0:0:0:
448,192,135568,1,0,0:0:0:0:
320,192,135674,1,0,0:0:0:0:
448,192,135674,1,0,0:0:0:0:
64,192,135778,1,0,0:0:0:0:
192,192,135778,1,0,0:0:0:0:
320,192,135778,1,0,0:0:0:0:
448,192,135778,1,0,0:0:0:0:
64,192,135884,1,0,0:0:0:0:
192,192,135884,1,0,0:0:0:0:
448,192,135988,1,0,0:0:0:0:
320,192,135988,1,0,0:0:0:0:
64,192,136092,1,0,0:0:0:0:
448,192,136092,1,0,0:0:0:0:
448,192,136198,1,0,0:0:0:0:
320,192,136198,1,0,0:0:0:0:
192,192,136198,1,0,0:0:0:0:
64,192,136198,1,0,0:0:0:0:
192,192,136302,1,0,0:0:0:0:
320,192,136302,1,0,0:0:0:0:
448,192,136407,1,0,0:0:0:0:
64,192,136407,1,0,0:0:0:0:
192,192,136512,1,0,0:0:0:0:
64,192,136512,1,0,0:0:0:0:
64,192,136617,1,0,0:0:0:0:
192,192,136617,1,0,0:0:0:0:
320,192,136617,1,0,0:0:0:0:
448,192,136617,1,0,0:0:0:0:
320,192,136721,1,0,0:0:0:0:
448,192,136721,1,0,0:0:0:0:
192,192,136827,1,0,0:0:0:0:
320,192,136827,1,0,0:0:0:0:
64,192,136931,1,0,0:0:0:0:
192,192,136931,1,0,0:0:0:0:
64,192,137035,1,0,0:0:0:0:
192,192,137035,1,0,0:0:0:0:
320,192,137035,1,0,0:0:0:0:
448,192,137035,1,0,0:0:0:0:
320,192,137141,1,0,0:0:0:0:
448,192,137141,1,0,0:0:0:0:
64,192,137245,1,0,0:0:0:0:
448,192,137245,1,0,0:0:0:0:
64,192,137350,1,0,0:0:0:0:
192,192,137350,1,0,0:0:0:0:
320,192,137455,1,0,0:0:0:0:
448,192,137455,1,0,0:0:0:0:
192,192,137455,1,0,0:0:0:0:
64,192,137455,1,0,0:0:0:0:
320,192,137560,1,0,0:0:0:0:
448,192,137560,1,0,0:0:0:0:
64,192,137664,1,0,0:0:0:0:
448,192,137664,1,0,0:0:0:0:
320,192,137770,1,0,0:0:0:0:
192,192,137770,1,0,0:0:0:0:
448,192,137874,1,0,0:0:0:0:
320,192,137874,1,0,0:0:0:0:
192,192,137874,1,0,0:0:0:0:
64,192,137874,1,0,0:0:0:0:
64,192,137980,1,0,0:0:0:0:
448,192,137980,1,0,0:0:0:0:
320,192,138084,1,0,0:0:0:0:
448,192,138084,1,0,0:0:0:0:
192,192,138188,1,0,0:0:0:0:
64,192,138188,1,0,0:0:0:0:
64,192,138294,1,0,0:0:0:0:
192,192,138294,1,0,0:0:0:0:
320,192,138294,1,0,0:0:0:0:
448,192,138294,1,0,0:0:0:0:
320,192,138398,1,0,0:0:0:0:
448,192,138398,1,0,0:0:0:0:
192,192,138502,1,0,0:0:0:0:
64,192,138502,1,0,0:0:0:0:
64,192,138608,1,0,0:0:0:0:
448,192,138608,1,0,0:0:0:0:
64,192,138712,1,0,0:0:0:0:
192,192,138712,1,0,0:0:0:0:
448,192,138712,1,0,0:0:0:0:
320,192,138712,1,0,0:0:0:0:
192,192,138817,1,0,0:0:0:0:
320,192,138817,1,0,0:0:0:0:
64,192,138922,1,0,0:0:0:0:
448,192,138922,1,0,0:0:0:0:
320,192,139027,1,0,0:0:0:0:
448,192,139027,1,0,0:0:0:0:
64,192,139131,1,0,0:0:0:0:
192,192,139131,1,0,0:0:0:0:
320,192,139131,1,0,0:0:0:0:
448,192,139131,1,0,0:0:0:0:
192,192,139237,1,0,0:0:0:0:
64,192,139237,1,0,0:0:0:0:
320,192,139341,1,0,0:0:0:0:
64,192,139341,1,0,0:0:0:0:
192,192,139445,1,0,0:0:0:0:
448,192,139445,1,0,0:0:0:0:
64,192,139551,1,0,0:0:0:0:
192,192,139551,1,0,0:0:0:0:
320,192,139551,1,0,0:0:0:0:
448,192,139551,1,0,0:0:0:0:
320,192,139655,1,0,0:0:0:0:
64,192,139655,1,0,0:0:0:0:
320,192,139760,1,0,0:0:0:0:
448,192,139760,1,0,0:0:0:0:
192,192,139865,1,0,0:0:0:0:
64,192,139865,1,0,0:0:0:0:
192,192,139970,1,0,0:0:0:0:
64,192,139970,1,0,0:0:0:0:
320,192,139970,1,0,0:0:0:0:
448,192,139970,1,0,0:0:0:0:
448,192,140075,1,0,0:0:0:0:
320,192,140075,1,0,0:0:0:0:
64,192,140180,1,0,0:0:0:0:
448,192,140180,1,0,0:0:0:0:
192,192,140284,1,0,0:0:0:0:
64,192,140284,1,0,0:0:0:0:
64,192,140390,1,0,0:0:0:0:
192,192,140390,1,0,0:0:0:0:
320,192,140390,1,0,0:0:0:0:
448,192,140390,1,0,0:0:0:0:
320,192,140494,1,0,0:0:0:0:
448,192,140494,1,0,0:0:0:0:
192,192,140598,1,0,0:0:0:0:
320,192,140598,1,0,0:0:0:0:
64,192,140704,1,0,0:0:0:0:
448,192,140704,1,0,0:0:0:0:
192,192,140808,1,0,0:0:0:0:
64,192,140808,1,0,0:0:0:0:
320,192,140808,1,0,0:0:0:0:
448,192,140808,1,0,0:0:0:0:
320,192,140912,1,0,0:0:0:0:
192,192,140912,1,0,0:0:0:0:
64,192,141018,1,0,0:0:0:0:
448,192,141018,1,0,0:0:0:0:
320,192,141122,1,0,0:0:0:0:
64,192,141122,1,0,0:0:0:0:
64,192,141227,1,0,0:0:0:0:
192,192,141227,1,0,0:0:0:0:
320,192,141227,1,0,0:0:0:0:
448,192,141227,1,0,0:0:0:0:
192,192,141332,1,0,0:0:0:0:
448,192,141332,1,0,0:0:0:0:
320,192,141437,1,0,0:0:0:0:
448,192,141437,1,0,0:0:0:0:
192,192,141541,1,0,0:0:0:0:
64,192,141541,1,0,0:0:0:0:
64,192,141647,1,0,0:0:0:0:
192,192,141647,1,0,0:0:0:0:
448,192,141647,1,0,0:0:0:0:
320,192,141647,1,0,0:0:0:0:
192,192,141855,1,0,0:0:0:0:
64,192,141855,1,0,0:0:0:0:
320,192,141961,1,0,0:0:0:0:
448,192,141961,1,0,0:0:0:0:
192,192,142065,1,0,0:0:0:0:
64,192,142065,1,0,0:0:0:0:
320,192,142065,1,0,0:0:0:0:
448,192,142065,1,0,0:0:0:0:
320,192,142275,1,0,0:0:0:0:
448,192,142275,1,0,0:0:0:0:
192,192,142380,1,0,0:0:0:0:
64,192,142380,1,0,0:0:0:0:
64,192,142485,1,0,0:0:0:0:
192,192,142485,1,0,0:0:0:0:
320,192,142485,1,0,0:0:0:0:
448,192,142485,1,0,0:0:0:0:
320,192,142590,1,0,0:0:0:0:
448,192,142590,1,0,0:0:0:0:
64,192,142694,1,0,0:0:0:0:
448,192,142694,1,0,0:0:0:0:
192,192,142800,1,0,0:0:0:0:
64,192,142800,1,0,0:0:0:0:
192,192,142904,1,0,0:0:0:0:
320,192,142904,1,0,0:0:0:0:
448,192,142904,1,0,0:0:0:0:
64,192,142904,1,0,0:0:0:0:
320,192,143008,1,0,0:0:0:0:
448,192,143008,1,0,0:0:0:0:
192,192,143114,1,0,0:0:0:0:
320,192,143114,1,0,0:0:0:0:
64,192,143218,1,0,0:0:0:0:
448,192,143218,1,0,0:0:0:0:
448,192,143322,1,0,0:0:0:0:
320,192,143322,1,0,0:0:0:0:
192,192,143322,1,0,0:0:0:0:
64,192,143322,1,0,0:0:0:0:
192,192,143428,1,0,0:0:0:0:
320,192,143428,1,0,0:0:0:0:
64,192,143532,1,0,0:0:0:0:
320,192,143532,1,0,0:0:0:0:
192,192,143637,1,0,0:0:0:0:
448,192,143637,1,0,0:0:0:0:
320,192,143742,1,0,0:0:0:0:
448,192,143742,1,0,0:0:0:0:
192,192,143742,1,0,0:0:0:0:
64,192,143742,1,0,0:0:0:0:
64,192,143847,1,0,0:0:0:0:
320,192,143847,1,0,0:0:0:0:
192,192,143951,1,0,0:0:0:0:
64,192,143951,1,0,0:0:0:0:
192,192,144057,1,0,0:0:0:0:
320,192,144057,1,0,0:0:0:0:
64,192,144161,1,0,0:0:0:0:
192,192,144161,1,0,0:0:0:0:
320,192,144161,1,0,0:0:0:0:
448,192,144161,1,0,0:0:0:0:
64,192,144267,1,0,0:0:0:0:
448,192,144267,1,0,0:0:0:0:
320,192,144371,1,0,0:0:0:0:
448,192,144371,1,0,0:0:0:0:
192,192,144475,1,0,0:0:0:0:
64,192,144475,1,0,0:0:0:0:
64,192,144581,1,0,0:0:0:0:
192,192,144581,1,0,0:0:0:0:
448,192,144581,1,0,0:0:0:0:
320,192,144581,1,0,0:0:0:0:
320,192,144685,1,0,0:0:0:0:
448,192,144685,1,0,0:0:0:0:
64,192,144790,1,0,0:0:0:0:
320,192,144790,1,0,0:0:0:0:
64,192,144895,1,0,0:0:0:0:
448,192,144895,1,0,0:0:0:0:
320,192,145000,1,0,0:0:0:0:
448,192,145000,1,0,0:0:0:0:
192,192,145000,1,0,0:0:0:0:
64,192,145000,1,0,0:0:0:0:
192,192,145104,1,0,0:0:0:0:
320,192,145104,1,0,0:0:0:0:
64,192,145210,1,0,0:0:0:0:
448,192,145210,1,0,0:0:0:0:
320,192,145314,1,0,0:0:0:0:
448,192,145314,1,0,0:0:0:0:
192,192,145418,1,0,0:0:0:0:
64,192,145418,1,0,0:0:0:0:
320,192,145418,1,0,0:0:0:0:
448,192,145418,1,0,0:0:0:0:
192,192,145524,1,0,0:0:0:0:
64,192,145524,1,0,0:0:0:0:
320,192,145628,1,0,0:0:0:0:
448,192,145628,1,0,0:0:0:0:
320,192,145732,1,0,0:0:0:0:
192,192,145732,1,0,0:0:0:0:
448,192,145838,1,0,0:0:0:0:
320,192,145838,1,0,0:0:0:0:
64,192,145838,1,0,0:0:0:0:
192,192,145838,1,0,0:0:0:0:
64,192,145942,1,0,0:0:0:0:
448,192,145942,1,0,0:0:0:0:
192,192,146047,1,0,0:0:0:0:
64,192,146047,1,0,0:0:0:0:
320,192,146152,1,0,0:0:0:0:
448,192,146152,1,0,0:0:0:0:
64,192,146257,1,0,0:0:0:0:
192,192,146257,1,0,0:0:0:0:
320,192,146257,1,0,0:0:0:0:
448,192,146257,1,0,0:0:0:0:
192,192,146362,1,0,0:0:0:0:
64,192,146362,1,0,0:0:0:0:
64,192,146467,1,0,0:0:0:0:
320,192,146467,1,0,0:0:0:0:
192,192,146571,1,0,0:0:0:0:
448,192,146571,1,0,0:0:0:0:
64,192,146677,1,0,0:0:0:0:
192,192,146677,1,0,0:0:0:0:
448,192,146677,1,0,0:0:0:0:
320,192,146677,1,0,0:0:0:0:
320,192,146781,1,0,0:0:0:0:
64,192,146781,1,0,0:0:0:0:
192,192,146885,1,0,0:0:0:0:
64,192,146885,1,0,0:0:0:0:
192,192,146991,1,0,0:0:0:0:
320,192,146991,1,0,0:0:0:0:
64,192,147095,1,0,0:0:0:0:
192,192,147095,1,0,0:0:0:0:
320,192,147095,1,0,0:0:0:0:
448,192,147095,1,0,0:0:0:0:
64,192,147200,1,0,0:0:0:0:
448,192,147200,1,0,0:0:0:0:
192,192,147305,1,0,0:0:0:0:
320,192,147305,1,0,0:0:0:0:
320,192,147410,1,0,0:0:0:0:
448,192,147410,1,0,0:0:0:0:
64,192,147514,1,0,0:0:0:0:
192,192,147514,1,0,0:0:0:0:
320,192,147514,1,0,0:0:0:0:
448,192,147514,1,0,0:0:0:0:
192,192,147620,1,0,0:0:0:0:
64,192,147620,1,0,0:0:0:0:
64,192,147724,1,0,0:0:0:0:
320,192,147724,1,0,0:0:0:0:
448,192,147828,1,0,0:0:0:0:
320,192,147828,1,0,0:0:0:0:
64,192,147934,1,0,0:0:0:0:
192,192,147934,1,0,0:0:0:0:
320,192,147934,1,0,0:0:0:0:
448,192,147934,1,0,0:0:0:0:
192,192,148038,1,0,0:0:0:0:
64,192,148038,1,0,0:0:0:0:
448,192,148142,1,0,0:0:0:0:
320,192,148142,1,0,0:0:0:0:
64,192,148248,1,0,0:0:0:0:
448,192,148248,1,0,0:0:0:0:
64,192,148352,1,0,0:0:0:0:
192,192,148352,1,0,0:0:0:0:
320,192,148352,1,0,0:0:0:0:
448,192,148352,1,0,0:0:0:0:
320,192,148457,1,0,0:0:0:0:
192,192,148457,1,0,0:0:0:0:
192,192,148562,1,0,0:0:0:0:
448,192,148562,1,0,0:0:0:0:
320,192,148667,1,0,0:0:0:0:
64,192,148667,1,0,0:0:0:0:
64,192,148772,1,0,0:0:0:0:
192,192,148772,1,0,0:0:0:0:
320,192,148772,1,0,0:0:0:0:
448,192,148772,1,0,0:0:0:0:
192,192,148877,1,0,0:0:0:0:
448,192,148877,1,0,0:0:0:0:
448,192,148981,1,0,0:0:0:0:
64,192,148981,1,0,0:0:0:0:
64,192,149087,1,0,0:0:0:0:
192,192,149087,1,0,0:0:0:0:
64,192,149191,1,0,0:0:0:0:
192,192,149191,1,0,0:0:0:0:
320,192,149191,1,0,0:0:0:0:
448,192,149191,1,0,0:0:0:0:
320,192,149295,1,0,0:0:0:0:
448,192,149295,1,0,0:0:0:0:
192,192,149401,1,0,0:0:0:0:
320,192,149401,1,0,0:0:0:0:
64,192,149505,1,0,0:0:0:0:
192,192,149505,1,0,0:0:0:0:
64,192,149610,1,0,0:0:0:0:
192,192,149610,1,0,0:0:0:0:
448,192,149610,1,0,0:0:0:0:
320,192,149610,1,0,0:0:0:0:
320,192,149715,1,0,0:0:0:0:
448,192,149715,1,0,0:0:0:0:
64,192,149820,1,0,0:0:0:0:
320,192,149820,1,0,0:0:0:0:
192,192,149924,1,0,0:0:0:0:
448,192,149924,1,0,0:0:0:0:
64,192,150030,1,0,0:0:0:0:
192,192,150030,1,0,0:0:0:0:
320,192,150030,1,0,0:0:0:0:
448,192,150030,1,0,0:0:0:0:
320,192,150134,1,0,0:0:0:0:
64,192,150134,1,0,0:0:0:0:
192,192,150238,1,0,0:0:0:0:
64,192,150238,1,0,0:0:0:0:
320,192,150344,1,0,0:0:0:0:
448,192,150344,1,0,0:0:0:0:
64,192,150448,1,0,0:0:0:0:
192,192,150448,1,0,0:0:0:0:
320,192,150448,1,0,0:0:0:0:
448,192,150448,1,0,0:0:0:0:
192,192,150552,1,0,0:0:0:0:
64,192,150552,1,0,0:0:0:0:
448,192,150658,1,0,0:0:0:0:
64,192,150658,1,0,0:0:0:0:
320,192,150762,1,0,0:0:0:0:
448,192,150762,1,0,0:0:0:0:
64,192,150868,5,0,0:0:0:0:
320,192,150868,1,0,0:0:0:0:
448,192,150868,1,0,0:0:0:0:
192,192,150868,1,0,0:0:0:0:
192,192,150972,1,0,0:0:0:0:
64,192,150972,1,0,0:0:0:0:
320,192,151077,1,0,0:0:0:0:
64,192,151077,1,0,0:0:0:0:
320,192,151182,1,0,0:0:0:0:
448,192,151182,1,0,0:0:0:0:
64,192,151287,5,0,0:0:0:0:
192,192,151287,1,0,0:0:0:0:
320,192,151287,1,0,0:0:0:0:
448,192,151287,1,0,0:0:0:0:
192,192,151391,1,0,0:0:0:0:
64,192,151391,1,0,0:0:0:0:
64,192,151497,1,0,0:0:0:0:
448,192,151497,1,0,0:0:0:0:
192,192,151601,1,0,0:0:0:0:
320,192,151601,1,0,0:0:0:0:
64,192,151705,5,0,0:0:0:0:
192,192,151705,1,0,0:0:0:0:
320,192,151705,1,0,0:0:0:0:
448,192,151705,1,0,0:0:0:0:
64,192,151811,1,0,0:0:0:0:
448,192,151811,1,0,0:0:0:0:
64,192,151915,1,0,0:0:0:0:
320,192,151915,1,0,0:0:0:0:
192,192,152020,1,0,0:0:0:0:
320,192,152020,1,0,0:0:0:0:
64,192,152125,5,0,0:0:0:0:
320,192,152125,1,0,0:0:0:0:
448,192,152125,1,0,0:0:0:0:
192,192,152125,1,0,0:0:0:0:
448,192,152230,1,0,0:0:0:0:
64,192,152230,1,0,0:0:0:0:
320,192,152334,1,0,0:0:0:0:
448,192,152334,1,0,0:0:0:0:
192,192,152440,1,0,0:0:0:0:
64,192,152440,1,0,0:0:0:0:
64,192,152544,5,0,0:0:0:0:
192,192,152544,1,0,0:0:0:0:
448,192,152544,1,0,0:0:0:0:
320,192,152544,1,0,0:0:0:0:
64,192,152754,1,0,0:0:0:0:
448,192,152964,1,0,0:0:0:0:
320,192,153172,1,0,0:0:0:0:
448,192,153382,1,0,0:0:0:0:
192,192,153592,1,0,0:0:0:0:
448,192,153801,1,0,0:0:0:0:
64,192,154011,1,0,0:0:0:0:
64,192,154221,1,0,0:0:0:0:
192,192,154221,1,0,0:0:0:0:
320,192,154221,1,0,0:0:0:0:
448,192,154221,1,0,0:0:0:0:
320,192,154430,1,0,0:0:0:0:
448,192,154430,1,0,0:0:0:0:
64,192,154640,1,0,0:0:0:0:
192,192,154640,1,0,0:0:0:0:
320,192,154640,1,0,0:0:0:0:
448,192,154640,1,0,0:0:0:0:
192,192,154850,1,0,0:0:0:0:
64,192,154850,1,0,0:0:0:0:
64,192,155060,1,0,0:0:0:0:
192,192,155060,1,0,0:0:0:0:
320,192,155060,1,0,0:0:0:0:
448,192,155060,1,0,0:0:0:0:
448,192,155268,1,0,0:0:0:0:
320,192,155321,1,0,0:0:0:0:
192,192,155374,1,0,0:0:0:0:
64,192,155425,1,0,0:0:0:0:
320,192,155478,1,0,0:0:0:0:
448,192,155478,1,0,0:0:0:0:
64,192,155688,1,0,0:0:0:0:
192,192,155740,1,0,0:0:0:0:
320,192,155792,1,0,0:0:0:0:
448,192,155845,1,0,0:0:0:0:
64,192,155897,1,0,0:0:0:0:
192,192,155897,1,0,0:0:0:0:
320,192,156002,1,0,0:0:0:0:
64,192,156002,1,0,0:0:0:0:
192,192,156107,1,0,0:0:0:0:
448,192,156107,1,0,0:0:0:0:
320,192,156211,1,0,0:0:0:0:
448,192,156211,1,0,0:0:0:0:
64,192,156317,1,0,0:0:0:0:
192,192,156317,1,0,0:0:0:0:
320,192,156317,1,0,0:0:0:0:
448,192,156421,1,0,0:0:0:0:
64,192,156421,1,0,0:0:0:0:
192,192,156525,1,0,0:0:0:0:
448,192,156525,1,0,0:0:0:0:
320,192,156631,1,0,0:0:0:0:
192,192,156631,1,0,0:0:0:0:
64,192,156735,1,0,0:0:0:0:
320,192,156735,1,0,0:0:0:0:
448,192,156735,1,0,0:0:0:0:
192,192,156840,1,0,0:0:0:0:
448,192,156840,1,0,0:0:0:0:
192,192,156945,1,0,0:0:0:0:
64,192,156945,1,0,0:0:0:0:
320,192,157050,1,0,0:0:0:0:
448,192,157050,1,0,0:0:0:0:
192,192,157155,1,0,0:0:0:0:
64,192,157155,1,0,0:0:0:0:
448,192,157155,1,0,0:0:0:0:
320,192,157260,1,0,0:0:0:0:
192,192,157260,1,0,0:0:0:0:
64,192,157364,1,0,0:0:0:0:
448,192,157364,1,0,0:0:0:0:
320,192,157470,1,0,0:0:0:0:
448,192,157470,1,0,0:0:0:0:
192,192,157574,1,0,0:0:0:0:
64,192,157574,1,0,0:0:0:0:
320,192,157574,1,0,0:0:0:0:
448,192,157678,1,0,0:0:0:0:
192,192,157678,1,0,0:0:0:0:
64,192,157784,1,0,0:0:0:0:
320,192,157784,1,0,0:0:0:0:
192,192,157888,1,0,0:0:0:0:
64,192,157888,1,0,0:0:0:0:
192,192,157992,1,0,0:0:0:0:
320,192,157992,1,0,0:0:0:0:
448,192,157992,1,0,0:0:0:0:
64,192,158098,1,0,0:0:0:0:
448,192,158098,1,0,0:0:0:0:
320,192,158202,1,0,0:0:0:0:
448,192,158202,1,0,0:0:0:0:
192,192,158307,1,0,0:0:0:0:
320,192,158307,1,0,0:0:0:0:
64,192,158412,1,0,0:0:0:0:
320,192,158412,1,0,0:0:0:0:
448,192,158412,1,0,0:0:0:0:
64,192,158517,1,0,0:0:0:0:
448,192,158517,1,0,0:0:0:0:
320,192,158621,1,0,0:0:0:0:
192,192,158621,1,0,0:0:0:0:
64,192,158727,1,0,0:0:0:0:
192,192,158727,1,0,0:0:0:0:
320,192,158831,1,0,0:0:0:0:
448,192,158831,1,0,0:0:0:0:
192,192,158831,1,0,0:0:0:0:
64,192,158935,1,0,0:0:0:0:
448,192,158935,1,0,0:0:0:0:
192,192,159041,1,0,0:0:0:0:
64,192,159041,1,0,0:0:0:0:
192,192,159145,1,0,0:0:0:0:
448,192,159145,1,0,0:0:0:0:
64,192,159251,1,0,0:0:0:0:
448,192,159251,1,0,0:0:0:0:
320,192,159251,1,0,0:0:0:0:
192,192,159355,1,0,0:0:0:0:
320,192,159355,1,0,0:0:0:0:
64,192,159460,1,0,0:0:0:0:
192,192,159460,1,0,0:0:0:0:
64,192,159565,1,0,0:0:0:0:
448,192,159565,1,0,0:0:0:0:
192,192,159670,1,0,0:0:0:0:
320,192,159670,1,0,0:0:0:0:
448,192,159670,1,0,0:0:0:0:
320,192,159774,1,0,0:0:0:0:
64,192,159774,1,0,0:0:0:0:
192,192,159880,1,0,0:0:0:0:
448,192,159880,1,0,0:0:0:0:
320,192,159984,1,0,0:0:0:0:
448,192,159984,1,0,0:0:0:0:
64,192,160088,1,0,0:0:0:0:
192,192,160088,1,0,0:0:0:0:
320,192,160088,1,0,0:0:0:0:
448,192,160194,1,0,0:0:0:0:
64,192,160194,1,0,0:0:0:0:
192,192,160298,1,0,0:0:0:0:
320,192,160298,1,0,0:0:0:0:
448,192,160402,1,0,0:0:0:0:
192,192,160402,1,0,0:0:0:0:
64,192,160508,1,0,0:0:0:0:
448,192,160508,1,0,0:0:0:0:
320,192,160508,1,0,0:0:0:0:
192,192,160612,1,0,0:0:0:0:
64,192,160612,1,0,0:0:0:0:
192,192,160717,1,0,0:0:0:0:
448,192,160717,1,0,0:0:0:0:
320,192,160822,1,0,0:0:0:0:
448,192,160822,1,0,0:0:0:0:
192,192,160927,1,0,0:0:0:0:
320,192,160927,1,0,0:0:0:0:
448,192,160927,1,0,0:0:0:0:
64,192,161031,1,0,0:0:0:0:
192,192,161031,1,0,0:0:0:0:
448,192,161137,1,0,0:0:0:0:
64,192,161137,1,0,0:0:0:0:
192,192,161241,1,0,0:0:0:0:
320,192,161241,1,0,0:0:0:0:
64,192,161347,1,0,0:0:0:0:
192,192,161347,1,0,0:0:0:0:
448,192,161347,1,0,0:0:0:0:
64,192,161451,1,0,0:0:0:0:
192,192,161451,1,0,0:0:0:0:
448,192,161555,1,0,0:0:0:0:
320,192,161555,1,0,0:0:0:0:
192,192,161661,1,0,0:0:0:0:
448,192,161661,1,0,0:0:0:0:
64,192,161765,1,0,0:0:0:0:
192,192,161765,1,0,0:0:0:0:
320,192,161765,1,0,0:0:0:0:
448,192,161870,1,0,0:0:0:0:
64,192,161870,1,0,0:0:0:0:
320,192,161975,1,0,0:0:0:0:
192,192,161975,1,0,0:0:0:0:
320,192,162080,1,0,0:0:0:0:
448,192,162080,1,0,0:0:0:0:
64,192,162184,1,0,0:0:0:0:
192,192,162184,1,0,0:0:0:0:
448,192,162184,1,0,0:0:0:0:
320,192,162290,1,0,0:0:0:0:
64,192,162290,1,0,0:0:0:0:
448,192,162394,1,0,0:0:0:0:
320,192,162394,1,0,0:0:0:0:
192,192,162498,1,0,0:0:0:0:
64,192,162498,1,0,0:0:0:0:
64,192,162604,1,0,0:0:0:0:
320,192,162604,1,0,0:0:0:0:
448,192,162604,1,0,0:0:0:0:
320,192,162812,1,0,0:0:0:0:
192,192,163022,1,0,0:0:0:0:
64,192,163022,1,0,0:0:0:0:
448,192,163232,1,0,0:0:0:0:
192,192,163442,1,0,0:0:0:0:
64,192,163442,1,0,0:0:0:0:
320,192,163651,1,0,0:0:0:0:
192,192,163861,1,0,0:0:0:0:
64,192,163861,1,0,0:0:0:0:
448,192,164071,1,0,0:0:0:0:
320,192,164280,1,0,0:0:0:0:
192,192,164280,1,0,0:0:0:0:
64,192,164490,1,0,0:0:0:0:
320,192,164700,1,0,0:0:0:0:
448,192,164700,1,0,0:0:0:0:
192,192,164908,1,0,0:0:0:0:
320,192,165118,1,0,0:0:0:0:
448,192,165118,1,0,0:0:0:0:
64,192,165328,1,0,0:0:0:0:
320,192,165538,1,0,0:0:0:0:
448,192,165538,1,0,0:0:0:0:
192,192,165747,1,0,0:0:0:0:
64,192,165957,1,0,0:0:0:0:
448,192,165957,1,0,0:0:0:0:
320,192,166167,1,0,0:0:0:0:
64,192,166375,1,0,0:0:0:0:
448,192,166375,1,0,0:0:0:0:
192,192,166585,1,0,0:0:0:0:
448,192,166795,1,0,0:0:0:0:
64,192,166795,1,0,0:0:0:0:
320,192,167004,1,0,0:0:0:0:
64,192,167214,1,0,0:0:0:0:
448,192,167214,1,0,0:0:0:0:
192,192,167424,1,0,0:0:0:0:
320,192,167634,1,0,0:0:0:0:
448,192,167634,1,0,0:0:0:0:
64,192,167842,1,0,0:0:0:0:
192,192,168052,1,0,0:0:0:0:
448,192,168052,1,0,0:0:0:0:
320,192,168262,1,0,0:0:0:0:
192,192,168471,1,0,0:0:0:0:
448,192,168471,1,0,0:0:0:0:
64,192,168681,1,0,0:0:0:0:
192,192,168891,1,0,0:0:0:0:
448,192,168891,1,0,0:0:0:0:
320,192,169100,1,0,0:0:0:0:
64,192,169310,1,0,0:0:0:0:
192,192,169310,1,0,0:0:0:0:
320,192,169310,1,0,0:0:0:0:
448,192,169310,1,0,0:0:0:0:
192,192,169414,1,0,0:0:0:0:
64,192,169414,1,0,0:0:0:0:
64,192,169520,1,0,0:0:0:0:
448,192,169520,1,0,0:0:0:0:
320,192,169624,1,0,0:0:0:0:
448,192,169624,1,0,0:0:0:0:
192,192,169728,1,0,0:0:0:0:
64,192,169728,1,0,0:0:0:0:
320,192,169728,1,0,0:0:0:0:
448,192,169728,1,0,0:0:0:0:
192,192,169834,1,0,0:0:0:0:
64,192,169834,1,0,0:0:0:0:
64,192,169938,1,0,0:0:0:0:
320,192,169938,1,0,0:0:0:0:
448,192,170044,1,0,0:0:0:0:
192,192,170044,1,0,0:0:0:0:
64,192,170148,1,0,0:0:0:0:
192,192,170148,1,0,0:0:0:0:
320,192,170148,1,0,0:0:0:0:
448,192,170148,1,0,0:0:0:0:
320,192,170252,1,0,0:0:0:0:
64,192,170252,1,0,0:0:0:0:
192,192,170358,1,0,0:0:0:0:
64,192,170358,1,0,0:0:0:0:
320,192,170462,1,0,0:0:0:0:
448,192,170462,1,0,0:0:0:0:
64,192,170567,1,0,0:0:0:0:
192,192,170567,1,0,0:0:0:0:
320,192,170567,1,0,0:0:0:0:
448,192,170567,1,0,0:0:0:0:
192,192,170672,1,0,0:0:0:0:
64,192,170672,1,0,0:0:0:0:
64,192,170777,1,0,0:0:0:0:
448,192,170777,1,0,0:0:0:0:
320,192,170881,1,0,0:0:0:0:
192,192,170881,1,0,0:0:0:0:
64,192,170987,1,0,0:0:0:0:
192,192,170987,1,0,0:0:0:0:
320,192,170987,1,0,0:0:0:0:
448,192,170987,1,0,0:0:0:0:
64,192,171091,1,0,0:0:0:0:
448,192,171091,1,0,0:0:0:0:
320,192,171195,1,0,0:0:0:0:
448,192,171195,1,0,0:0:0:0:
192,192,171301,1,0,0:0:0:0:
64,192,171301,1,0,0:0:0:0:
64,192,171405,1,0,0:0:0:0:
192,192,171405,1,0,0:0:0:0:
448,192,171405,1,0,0:0:0:0:
320,192,171405,1,0,0:0:0:0:
320,192,171510,1,0,0:0:0:0:
448,192,171510,1,0,0:0:0:0:
192,192,171615,1,0,0:0:0:0:
320,192,171615,1,0,0:0:0:0:
64,192,171720,1,0,0:0:0:0:
448,192,171720,1,0,0:0:0:0:
64,192,171824,1,0,0:0:0:0:
320,192,171824,1,0,0:0:0:0:
448,192,171824,1,0,0:0:0:0:
192,192,171824,1,0,0:0:0:0:
320,192,171930,1,0,0:0:0:0:
192,192,171930,1,0,0:0:0:0:
64,192,172034,1,0,0:0:0:0:
448,192,172034,1,0,0:0:0:0:
192,192,172140,1,0,0:0:0:0:
448,192,172140,1,0,0:0:0:0:
64,192,172244,1,0,0:0:0:0:
192,192,172244,1,0,0:0:0:0:
320,192,172244,1,0,0:0:0:0:
448,192,172244,1,0,0:0:0:0:
320,192,172348,1,0,0:0:0:0:
64,192,172348,1,0,0:0:0:0:
192,192,172454,1,0,0:0:0:0:
64,192,172454,1,0,0:0:0:0:
320,192,172558,1,0,0:0:0:0:
448,192,172558,1,0,0:0:0:0:
320,192,172662,1,0,0:0:0:0:
192,192,172662,1,0,0:0:0:0:
448,192,172662,1,0,0:0:0:0:
64,192,172662,1,0,0:0:0:0:
192,192,172768,1,0,0:0:0:0:
64,192,172768,1,0,0:0:0:0:
64,192,172872,1,0,0:0:0:0:
448,192,172872,1,0,0:0:0:0:
320,192,172977,1,0,0:0:0:0:
448,192,172977,1,0,0:0:0:0:
64,192,173082,1,0,0:0:0:0:
192,192,173082,1,0,0:0:0:0:
320,192,173082,1,0,0:0:0:0:
192,192,173187,1,0,0:0:0:0:
64,192,173187,1,0,0:0:0:0:
448,192,173291,1,0,0:0:0:0:
320,192,173291,1,0,0:0:0:0:
64,192,173397,1,0,0:0:0:0:
448,192,173397,1,0,0:0:0:0:
64,192,173501,1,0,0:0:0:0:
192,192,173501,1,0,0:0:0:0:
448,192,173501,1,0,0:0:0:0:
320,192,173605,1,0,0:0:0:0:
64,192,173605,1,0,0:0:0:0:
192,192,173711,1,0,0:0:0:0:
448,192,173711,1,0,0:0:0:0:
320,192,173815,1,0,0:0:0:0:
448,192,173815,1,0,0:0:0:0:
64,192,173920,1,0,0:0:0:0:
320,192,173920,1,0,0:0:0:0:
448,192,173920,1,0,0:0:0:0:
64,192,174025,1,0,0:0:0:0:
192,192,174025,1,0,0:0:0:0:
320,192,174130,1,0,0:0:0:0:
192,192,174130,1,0,0:0:0:0:
64,192,174235,1,0,0:0:0:0:
448,192,174235,1,0,0:0:0:0:
64,192,174340,1,0,0:0:0:0:
192,192,174340,1,0,0:0:0:0:
448,192,174340,1,0,0:0:0:0:
192,192,174444,1,0,0:0:0:0:
320,192,174444,1,0,0:0:0:0:
64,192,174550,1,0,0:0:0:0:
320,192,174550,1,0,0:0:0:0:
192,192,174654,1,0,0:0:0:0:
64,192,174654,1,0,0:0:0:0:
320,192,174758,1,0,0:0:0:0:
192,192,174758,1,0,0:0:0:0:
448,192,174758,1,0,0:0:0:0:
320,192,174864,1,0,0:0:0:0:
64,192,174864,1,0,0:0:0:0:
192,192,174968,1,0,0:0:0:0:
448,192,174968,1,0,0:0:0:0:
320,192,175072,1,0,0:0:0:0:
448,192,175072,1,0,0:0:0:0:
64,192,175178,1,0,0:0:0:0:
320,192,175178,1,0,0:0:0:0:
448,192,175178,1,0,0:0:0:0:
192,192,175282,1,0,0:0:0:0:
64,192,175282,1,0,0:0:0:0:
192,192,175387,1,0,0:0:0:0:
448,192,175387,1,0,0:0:0:0:
64,192,175492,1,0,0:0:0:0:
320,192,175492,1,0,0:0:0:0:
192,192,175597,1,0,0:0:0:0:
64,192,175597,1,0,0:0:0:0:
448,192,175597,1,0,0:0:0:0:
320,192,175701,1,0,0:0:0:0:
192,192,175701,1,0,0:0:0:0:
64,192,175807,1,0,0:0:0:0:
448,192,175807,1,0,0:0:0:0:
448,192,175911,1,0,0:0:0:0:
320,192,175911,1,0,0:0:0:0:
192,192,176015,1,0,0:0:0:0:
320,192,176015,1,0,0:0:0:0:
64,192,176015,1,0,0:0:0:0:
192,192,176121,1,0,0:0:0:0:
64,192,176121,1,0,0:0:0:0:
448,192,176225,1,0,0:0:0:0:
320,192,176225,1,0,0:0:0:0:
64,192,176331,1,0,0:0:0:0:
448,192,176331,1,0,0:0:0:0:
64,192,176435,1,0,0:0:0:0:
320,192,176435,1,0,0:0:0:0:
192,192,176435,1,0,0:0:0:0:
192,192,176540,1,0,0:0:0:0:
448,192,176540,1,0,0:0:0:0:
320,192,176645,1,0,0:0:0:0:
448,192,176645,1,0,0:0:0:0:
192,192,176750,1,0,0:0:0:0:
64,192,176750,1,0,0:0:0:0:
64,192,176854,1,0,0:0:0:0:
448,192,176854,1,0,0:0:0:0:
320,192,176854,1,0,0:0:0:0:
192,192,176960,1,0,0:0:0:0:
448,192,176960,1,0,0:0:0:0:
320,192,177064,1,0,0:0:0:0:
64,192,177064,1,0,0:0:0:0:
192,192,177168,1,0,0:0:0:0:
64,192,177168,1,0,0:0:0:0:
64,192,177274,1,0,0:0:0:0:
192,192,177274,1,0,0:0:0:0:
448,192,177274,1,0,0:0:0:0:
320,192,177378,1,0,0:0:0:0:
448,192,177378,1,0,0:0:0:0:
64,192,177482,1,0,0:0:0:0:
320,192,177482,1,0,0:0:0:0:
192,192,177588,1,0,0:0:0:0:
64,192,177588,1,0,0:0:0:0:
192,192,177692,1,0,0:0:0:0:
320,192,177692,1,0,0:0:0:0:
448,192,177692,1,0,0:0:0:0:
320,192,177797,1,0,0:0:0:0:
448,192,177797,1,0,0:0:0:0:
64,192,177902,1,0,0:0:0:0:
448,192,177902,1,0,0:0:0:0:
192,192,178007,1,0,0:0:0:0:
64,192,178007,1,0,0:0:0:0:
64,192,178111,1,0,0:0:0:0:
192,192,178111,1,0,0:0:0:0:
320,192,178111,1,0,0:0:0:0:
448,192,178217,1,0,0:0:0:0:
320,192,178217,1,0,0:0:0:0:
64,192,178321,1,0,0:0:0:0:
448,192,178321,1,0,0:0:0:0:
320,192,178427,1,0,0:0:0:0:
192,192,178427,1,0,0:0:0:0:
64,192,178531,1,0,0:0:0:0:
320,192,178531,1,0,0:0:0:0:
448,192,178531,1,0,0:0:0:0:
192,192,178635,1,0,0:0:0:0:
448,192,178635,1,0,0:0:0:0:
64,192,178741,1,0,0:0:0:0:
320,192,178741,1,0,0:0:0:0:
192,192,178845,1,0,0:0:0:0:
64,192,178845,1,0,0:0:0:0:
192,192,178950,1,0,0:0:0:0:
320,192,178950,1,0,0:0:0:0:
448,192,178950,1,0,0:0:0:0:
320,192,179055,1,0,0:0:0:0:
448,192,179055,1,0,0:0:0:0:
64,192,179160,1,0,0:0:0:0:
192,192,179160,1,0,0:0:0:0:
448,192,179264,1,0,0:0:0:0:
192,192,179264,1,0,0:0:0:0:
192,192,179370,1,0,0:0:0:0:
320,192,179370,1,0,0:0:0:0:
448,192,179370,1,0,0:0:0:0:
64,192,179474,1,0,0:0:0:0:
320,192,179474,1,0,0:0:0:0:
192,192,179578,1,0,0:0:0:0:
64,192,179578,1,0,0:0:0:0:
320,192,179684,1,0,0:0:0:0:
448,192,179684,1,0,0:0:0:0:
64,192,179788,1,0,0:0:0:0:
192,192,179788,1,0,0:0:0:0:
448,192,179788,1,0,0:0:0:0:
320,192,179892,1,0,0:0:0:0:
64,192,179892,1,0,0:0:0:0:
192,192,179998,1,0,0:0:0:0:
448,192,179998,1,0,0:0:0:0:
64,192,180102,1,0,0:0:0:0:
320,192,180102,1,0,0:0:0:0:
64,192,180207,1,0,0:0:0:0:
192,192,180207,1,0,0:0:0:0:
448,192,180207,1,0,0:0:0:0:
320,192,180312,1,0,0:0:0:0:
448,192,180312,1,0,0:0:0:0:
192,192,180417,1,0,0:0:0:0:
64,192,180417,1,0,0:0:0:0:
64,192,180522,1,0,0:0:0:0:
320,192,180522,1,0,0:0:0:0:
192,192,180627,1,0,0:0:0:0:
320,192,180627,1,0,0:0:0:0:
448,192,180627,1,0,0:0:0:0:
64,192,180731,1,0,0:0:0:0:
448,192,180731,1,0,0:0:0:0:
320,192,180837,1,0,0:0:0:0:
448,192,180837,1,0,0:0:0:0:
192,192,180941,1,0,0:0:0:0:
64,192,180941,1,0,0:0:0:0:
64,192,181045,1,0,0:0:0:0:
192,192,181045,1,0,0:0:0:0:
320,192,181045,1,0,0:0:0:0:
448,192,181151,1,0,0:0:0:0:
320,192,181151,1,0,0:0:0:0:
192,192,181255,1,0,0:0:0:0:
448,192,181255,1,0,0:0:0:0:
64,192,181360,1,0,0:0:0:0:
320,192,181360,1,0,0:0:0:0:
64,192,181465,1,0,0:0:0:0:
192,192,181465,1,0,0:0:0:0:
448,192,181465,1,0,0:0:0:0:
320,192,181570,1,0,0:0:0:0:
192,192,181570,1,0,0:0:0:0:
448,192,181674,1,0,0:0:0:0:
64,192,181674,1,0,0:0:0:0:
192,192,181780,1,0,0:0:0:0:
64,192,181780,1,0,0:0:0:0:
192,192,181884,1,0,0:0:0:0:
320,192,181884,1,0,0:0:0:0:
448,192,181884,1,0,0:0:0:0:
320,192,181988,1,0,0:0:0:0:
448,192,181988,1,0,0:0:0:0:
64,192,182094,1,0,0:0:0:0:
192,192,182094,1,0,0:0:0:0:
320,192,182198,1,0,0:0:0:0:
192,192,182198,1,0,0:0:0:0:
64,192,182302,1,0,0:0:0:0:
320,192,182302,1,0,0:0:0:0:
448,192,182302,1,0,0:0:0:0:
192,192,182408,1,0,0:0:0:0:
448,192,182408,1,0,0:0:0:0:
320,192,182512,1,0,0:0:0:0:
64,192,182512,1,0,0:0:0:0:
448,192,182618,1,0,0:0:0:0:
192,192,182618,1,0,0:0:0:0:
192,192,182722,1,0,0:0:0:0:
64,192,182722,1,0,0:0:0:0:
320,192,182722,1,0,0:0:0:0:
320,192,182827,1,0,0:0:0:0:
448,192,182827,1,0,0:0:0:0:
64,192,182932,1,0,0:0:0:0:
192,192,182932,1,0,0:0:0:0:
320,192,183037,1,0,0:0:0:0:
448,192,183037,1,0,0:0:0:0:
64,192,183141,1,0,0:0:0:0:
448,192,183141,1,0,0:0:0:0:
192,192,183141,1,0,0:0:0:0:
320,192,183247,1,0,0:0:0:0:
192,192,183247,1,0,0:0:0:0:
64,192,183351,1,0,0:0:0:0:
448,192,183351,1,0,0:0:0:0:
192,192,183455,1,0,0:0:0:0:
64,192,183455,1,0,0:0:0:0:
64,192,183561,1,0,0:0:0:0:
320,192,183561,1,0,0:0:0:0:
448,192,183561,1,0,0:0:0:0:
192,192,183665,1,0,0:0:0:0:
448,192,183665,1,0,0:0:0:0:
320,192,183770,1,0,0:0:0:0:
448,192,183770,1,0,0:0:0:0:
192,192,183875,1,0,0:0:0:0:
64,192,183875,1,0,0:0:0:0:
192,192,183980,1,0,0:0:0:0:
448,192,183980,1,0,0:0:0:0:
320,192,183980,1,0,0:0:0:0:
64,192,184084,1,0,0:0:0:0:
448,192,184084,1,0,0:0:0:0:
320,192,184190,1,0,0:0:0:0:
192,192,184190,1,0,0:0:0:0:
448,192,184294,1,0,0:0:0:0:
192,192,184294,1,0,0:0:0:0:
64,192,184398,1,0,0:0:0:0:
320,192,184398,1,0,0:0:0:0:
448,192,184398,1,0,0:0:0:0:
320,192,184504,1,0,0:0:0:0:
448,192,184504,1,0,0:0:0:0:
192,192,184608,1,0,0:0:0:0:
64,192,184608,1,0,0:0:0:0:
64,192,184714,1,0,0:0:0:0:
320,192,184714,1,0,0:0:0:0:
64,192,184818,1,0,0:0:0:0:
192,192,184818,1,0,0:0:0:0:
448,192,184818,1,0,0:0:0:0:
192,192,184922,1,0,0:0:0:0:
320,192,184922,1,0,0:0:0:0:
64,192,185028,1,0,0:0:0:0:
448,192,185028,1,0,0:0:0:0:
320,192,185132,1,0,0:0:0:0:
448,192,185132,1,0,0:0:0:0:
64,192,185237,1,0,0:0:0:0:
192,192,185237,1,0,0:0:0:0:
320,192,185237,1,0,0:0:0:0:
448,192,185342,1,0,0:0:0:0:
192,192,185342,1,0,0:0:0:0:
64,192,185447,1,0,0:0:0:0:
192,192,185447,1,0,0:0:0:0:
320,192,185551,1,0,0:0:0:0:
448,192,185551,1,0,0:0:0:0:
64,192,185657,1,0,0:0:0:0:
192,192,185657,1,0,0:0:0:0:
448,192,185657,1,0,0:0:0:0:
64,192,185761,1,0,0:0:0:0:
448,192,185761,1,0,0:0:0:0:
320,192,185865,1,0,0:0:0:0:
192,192,185865,1,0,0:0:0:0:
64,192,185971,1,0,0:0:0:0:
448,192,185971,1,0,0:0:0:0:
192,192,186075,1,0,0:0:0:0:
320,192,186075,1,0,0:0:0:0:
448,192,186075,1,0,0:0:0:0:
64,192,186075,1,0,0:0:0:0:
192,192,186180,1,0,0:0:0:0:
320,192,186180,1,0,0:0:0:0:
64,192,186285,1,0,0:0:0:0:
448,192,186285,1,0,0:0:0:0:
192,192,186390,1,0,0:0:0:0:
64,192,186390,1,0,0:0:0:0:
192,192,186494,1,0,0:0:0:0:
320,192,186494,1,0,0:0:0:0:
448,192,186494,1,0,0:0:0:0:
320,192,186600,1,0,0:0:0:0:
448,192,186600,1,0,0:0:0:0:
64,192,186704,1,0,0:0:0:0:
192,192,186704,1,0,0:0:0:0:
64,192,186810,1,0,0:0:0:0:
320,192,186810,1,0,0:0:0:0:
192,192,186914,1,0,0:0:0:0:
448,192,186914,1,0,0:0:0:0:
320,192,186914,1,0,0:0:0:0:
192,192,187018,1,0,0:0:0:0:
320,192,187018,1,0,0:0:0:0:
64,192,187124,1,0,0:0:0:0:
448,192,187124,1,0,0:0:0:0:
320,192,187228,1,0,0:0:0:0:
448,192,187228,1,0,0:0:0:0:
192,192,187332,1,0,0:0:0:0:
64,192,187332,1,0,0:0:0:0:
320,192,187332,1,0,0:0:0:0:
192,192,187438,1,0,0:0:0:0:
64,192,187438,1,0,0:0:0:0:
448,192,187542,1,0,0:0:0:0:
64,192,187542,1,0,0:0:0:0:
192,192,187647,1,0,0:0:0:0:
320,192,187647,1,0,0:0:0:0:
320,192,187752,1,0,0:0:0:0:
448,192,187752,1,0,0:0:0:0:
64,192,187752,1,0,0:0:0:0:
192,192,187857,1,0,0:0:0:0:
64,192,187857,1,0,0:0:0:0:
192,192,187961,1,0,0:0:0:0:
448,192,187961,1,0,0:0:0:0:
320,192,188067,1,0,0:0:0:0:
448,192,188067,1,0,0:0:0:0:
320,192,188171,1,0,0:0:0:0:
64,192,188171,1,0,0:0:0:0:
192,192,188171,1,0,0:0:0:0:
448,192,188275,1,0,0:0:0:0:
192,192,188275,1,0,0:0:0:0:
64,192,188381,1,0,0:0:0:0:
320,192,188381,1,0,0:0:0:0:
320,192,188485,1,0,0:0:0:0:
448,192,188485,1,0,0:0:0:0:
192,192,188590,1,0,0:0:0:0:
64,192,188590,1,0,0:0:0:0:
448,192,188590,1,0,0:0:0:0:
320,192,188695,1,0,0:0:0:0:
64,192,188695,1,0,0:0:0:0:
320,192,188800,1,0,0:0:0:0:
448,192,188800,1,0,0:0:0:0:
192,192,188905,1,0,0:0:0:0:
64,192,188905,1,0,0:0:0:0:
192,192,189010,1,0,0:0:0:0:
320,192,189010,1,0,0:0:0:0:
448,192,189010,1,0,0:0:0:0:
64,192,189114,1,0,0:0:0:0:
320,192,189114,1,0,0:0:0:0:
448,192,189220,1,0,0:0:0:0:
192,192,189220,1,0,0:0:0:0:
320,192,189324,1,0,0:0:0:0:
448,192,189324,1,0,0:0:0:0:
64,192,189428,1,0,0:0:0:0:
320,192,189428,1,0,0:0:0:0:
448,192,189428,1,0,0:0:0:0:
192,192,189534,1,0,0:0:0:0:
64,192,189534,1,0,0:0:0:0:
320,192,189638,1,0,0:0:0:0:
192,192,189638,1,0,0:0:0:0:
64,192,189742,1,0,0:0:0:0:
448,192,189742,1,0,0:0:0:0:
192,192,189848,1,0,0:0:0:0:
320,192,189848,1,0,0:0:0:0:
64,192,189848,1,0,0:0:0:0:
448,192,189952,1,0,0:0:0:0:
320,192,189952,1,0,0:0:0:0:
192,192,190057,1,0,0:0:0:0:
448,192,190057,1,0,0:0:0:0:
320,192,190162,1,0,0:0:0:0:
64,192,190162,1,0,0:0:0:0:
192,192,190267,1,0,0:0:0:0:
320,192,190267,1,0,0:0:0:0:
448,192,190267,1,0,0:0:0:0:
64,192,190371,1,0,0:0:0:0:
192,192,190371,1,0,0:0:0:0:
320,192,190477,1,0,0:0:0:0:
448,192,190477,1,0,0:0:0:0:
64,192,190581,1,0,0:0:0:0:
320,192,190581,1,0,0:0:0:0:
64,192,190685,1,0,0:0:0:0:
192,192,190685,1,0,0:0:0:0:
448,192,190685,1,0,0:0:0:0:
320,192,190791,1,0,0:0:0:0:
448,192,190791,1,0,0:0:0:0:
64,192,190895,1,0,0:0:0:0:
320,192,190895,1,0,0:0:0:0:
192,192,191000,1,0,0:0:0:0:
448,192,191000,1,0,0:0:0:0:
64,192,191105,1,0,0:0:0:0:
192,192,191105,1,0,0:0:0:0:
320,192,191105,1,0,0:0:0:0:
320,192,191210,1,0,0:0:0:0:
448,192,191210,1,0,0:0:0:0:
64,192,191315,1,0,0:0:0:0:
448,192,191315,1,0,0:0:0:0:
320,192,191420,1,0,0:0:0:0:
64,192,191420,1,0,0:0:0:0:
64,192,191524,1,0,0:0:0:0:
320,192,191524,1,0,0:0:0:0:
448,192,191524,1,0,0:0:0:0:
192,192,191630,1,0,0:0:0:0:
448,192,191630,1,0,0:0:0:0:
320,192,191734,1,0,0:0:0:0:
448,192,191734,1,0,0:0:0:0:
192,192,191838,1,0,0:0:0:0:
64,192,191838,1,0,0:0:0:0:
192,192,191944,1,0,0:0:0:0:
320,192,191944,1,0,0:0:0:0:
448,192,191944,1,0,0:0:0:0:
320,192,192048,1,0,0:0:0:0:
64,192,192048,1,0,0:0:0:0:
192,192,192152,1,0,0:0:0:0:
64,192,192152,1,0,0:0:0:0:
320,192,192258,1,0,0:0:0:0:
448,192,192258,1,0,0:0:0:0:
320,192,192362,1,0,0:0:0:0:
192,192,192362,1,0,0:0:0:0:
64,192,192362,1,0,0:0:0:0:
192,192,192467,1,0,0:0:0:0:
448,192,192467,1,0,0:0:0:0:
64,192,192572,1,0,0:0:0:0:
320,192,192572,1,0,0:0:0:0:
192,192,192677,1,0,0:0:0:0:
64,192,192677,1,0,0:0:0:0:
448,192,192781,1,0,0:0:0:0:
320,192,192781,1,0,0:0:0:0:
192,192,192781,1,0,0:0:0:0:
64,192,192887,1,0,0:0:0:0:
448,192,192887,1,0,0:0:0:0:
320,192,192991,1,0,0:0:0:0:
448,192,192991,1,0,0:0:0:0:
192,192,193095,1,0,0:0:0:0:
320,192,193095,1,0,0:0:0:0:
192,192,193201,1,0,0:0:0:0:
64,192,193201,1,0,0:0:0:0:
320,192,193201,1,0,0:0:0:0:
64,192,193305,1,0,0:0:0:0:
448,192,193305,1,0,0:0:0:0:
192,192,193411,1,0,0:0:0:0:
448,192,193411,1,0,0:0:0:0:
320,192,193515,1,0,0:0:0:0:
192,192,193515,1,0,0:0:0:0:
64,192,193620,1,0,0:0:0:0:
192,192,193620,1,0,0:0:0:0:
448,192,193620,1,0,0:0:0:0:
64,192,193725,1,0,0:0:0:0:
320,192,193725,1,0,0:0:0:0:
448,192,193830,1,0,0:0:0:0:
320,192,193830,1,0,0:0:0:0:
192,192,193934,1,0,0:0:0:0:
64,192,193934,1,0,0:0:0:0:
192,192,194040,1,0,0:0:0:0:
320,192,194040,1,0,0:0:0:0:
448,192,194040,1,0,0:0:0:0:
64,192,194144,1,0,0:0:0:0:
448,192,194144,1,0,0:0:0:0:
192,192,194248,1,0,0:0:0:0:
64,192,194248,1,0,0:0:0:0:
192,192,194354,1,0,0:0:0:0:
320,192,194354,1,0,0:0:0:0:
64,192,194458,5,0,0:0:0:0:
448,192,194458,1,0,0:0:0:0:
192,192,194458,1,0,0:0:0:0:
320,192,194562,1,0,0:0:0:0:
448,192,194562,1,0,0:0:0:0:
64,192,194668,1,0,0:0:0:0:
320,192,194668,1,0,0:0:0:0:
192,192,194772,1,0,0:0:0:0:
64,192,194772,1,0,0:0:0:0:
192,192,194877,1,0,0:0:0:0:
320,192,194877,1,0,0:0:0:0:
448,192,194877,1,0,0:0:0:0:
64,192,194982,1,0,0:0:0:0:
448,192,194982,1,0,0:0:0:0:
192,192,195087,1,0,0:0:0:0:
320,192,195087,1,0,0:0:0:0:
448,192,195191,1,0,0:0:0:0:
320,192,195297,1,0,0:0:0:0:
192,192,195297,1,0,0:0:0:0:
64,192,195297,1,0,0:0:0:0:
448,192,195401,1,0,0:0:0:0:
64,192,195507,1,0,0:0:0:0:
192,192,195507,1,0,0:0:0:0:
448,192,195611,1,0,0:0:0:0:
64,192,195715,1,0,0:0:0:0:
320,192,195715,1,0,0:0:0:0:
192,192,195715,1,0,0:0:0:0:
448,192,195821,1,0,0:0:0:0:
320,192,195925,1,0,0:0:0:0:
64,192,195925,1,0,0:0:0:0:
192,192,196030,1,0,0:0:0:0:
448,192,196135,5,0,0:0:0:0:
320,192,196135,1,0,0:0:0:0:
64,192,196240,1,0,0:0:0:0:
192,192,196344,1,0,0:0:0:0:
448,192,196344,1,0,0:0:0:0:
320,192,196450,1,0,0:0:0:0:
192,192,196554,1,0,0:0:0:0:
64,192,196554,1,0,0:0:0:0:
448,192,196658,1,0,0:0:0:0:
320,192,196764,1,0,0:0:0:0:
192,192,196764,1,0,0:0:0:0:
64,192,196868,1,0,0:0:0:0:
320,192,196972,1,0,0:0:0:0:
448,192,196972,1,0,0:0:0:0:
192,192,197078,1,0,0:0:0:0:
448,192,197182,1,0,0:0:0:0:
64,192,197182,1,0,0:0:0:0:
320,192,197287,1,0,0:0:0:0:
192,192,197392,1,0,0:0:0:0:
64,192,197392,1,0,0:0:0:0:
448,192,197497,1,0,0:0:0:0:
320,192,197602,1,0,0:0:0:0:
64,192,197602,1,0,0:0:0:0:
192,192,197707,1,0,0:0:0:0:
320,192,197811,1,0,0:0:0:0:
448,192,197811,1,0,0:0:0:0:
64,192,197917,1,0,0:0:0:0:
192,192,198021,1,0,0:0:0:0:
448,192,198021,1,0,0:0:0:0:
320,192,198125,1,0,0:0:0:0:
192,192,198231,1,0,0:0:0:0:
64,192,198231,1,0,0:0:0:0:
448,192,198335,1,0,0:0:0:0:
320,192,198440,1,0,0:0:0:0:
192,192,198440,1,0,0:0:0:0:
64,192,198545,1,0,0:0:0:0:
320,192,198650,1,0,0:0:0:0:
448,192,198650,1,0,0:0:0:0:
192,192,198754,1,0,0:0:0:0:
448,192,198860,1,0,0:0:0:0:
64,192,198860,1,0,0:0:0:0:
192,192,198964,1,0,0:0:0:0:
320,192,199068,1,0,0:0:0:0:
448,192,199068,1,0,0:0:0:0:
192,192,199174,1,0,0:0:0:0:
64,192,199174,1,0,0:0:0:0:
320,192,199278,1,0,0:0:0:0:
448,192,199278,1,0,0:0:0:0:
192,192,199382,1,0,0:0:0:0:
64,192,199382,1,0,0:0:0:0:
320,192,199488,1,0,0:0:0:0:
448,192,199488,1,0,0:0:0:0:
64,192,199698,1,0,0:0:0:0:
192,192,199907,1,0,0:0:0:0:
448,192,200327,1,0,0:0:0:0:
192,192,200535,1,0,0:0:0:0:
320,192,200745,1,0,0:0:0:0:
64,192,200955,1,0,0:0:0:0:
64,192,201374,1,0,0:0:0:0:
192,192,201584,1,0,0:0:0:0:
448,192,202002,1,0,0:0:0:0:
64,192,202422,1,0,0:0:0:0:
64,192,202841,1,0,0:0:0:0:
320,192,202841,1,0,0:0:0:0:
448,192,203260,1,0,0:0:0:0:
64,192,203680,1,0,0:0:0:0:
192,192,203890,1,0,0:0:0:0:
320,192,204308,1,0,0:0:0:0:
192,192,204727,1,0,0:0:0:0:
64,192,204937,1,0,0:0:0:0:
448,192,205355,1,0,0:0:0:0:
320,192,205775,1,0,0:0:0:0:
64,192,206194,1,0,0:0:0:0:
192,192,206614,1,0,0:0:0:0:
448,192,207032,1,0,0:0:0:0:
320,192,207242,1,0,0:0:0:0:
192,192,207661,1,0,0:0:0:0:
320,192,208081,1,0,0:0:0:0:
192,192,208290,1,0,0:0:0:0:
64,192,208710,1,0,0:0:0:0:
320,192,209128,1,0,0:0:0:0:
192,192,209547,1,0,0:0:0:0:
320,192,209967,1,0,0:0:0:0:
448,192,210385,1,0,0:0:0:0:
192,192,210595,1,0,0:0:0:0:
320,192,211014,1,0,0:0:0:0:
64,192,211434,1,0,0:0:0:0:
192,192,211642,1,0,0:0:0:0:
448,192,211852,1,0,0:0:0:0:
64,192,212062,1,0,0:0:0:0:
320,192,212481,1,0,0:0:0:0:
192,192,212901,1,0,0:0:0:0:
448,192,212901,1,0,0:0:0:0:
64,192,213320,1,0,0:0:0:0:
320,192,213320,1,0,0:0:0:0:
448,192,213738,1,0,0:0:0:0:
320,192,213738,1,0,0:0:0:0:
192,192,213948,1,0,0:0:0:0:
320,192,213948,1,0,0:0:0:0:
192,192,214158,1,0,0:0:0:0:
64,192,214158,1,0,0:0:0:0:
64,192,214367,1,0,0:0:0:0:
320,192,214367,1,0,0:0:0:0:
192,192,214787,1,0,0:0:0:0:
448,192,214787,1,0,0:0:0:0:
320,192,214997,1,0,0:0:0:0:
448,192,214997,1,0,0:0:0:0:
320,192,215415,1,0,0:0:0:0:
192,192,215415,1,0,0:0:0:0:
64,192,215625,1,0,0:0:0:0:
448,192,215625,1,0,0:0:0:0:
192,192,215834,1,0,0:0:0:0:
64,192,215834,1,0,0:0:0:0:
320,192,216044,1,0,0:0:0:0:
448,192,216044,1,0,0:0:0:0:
192,192,216254,1,0,0:0:0:0:
448,192,216254,1,0,0:0:0:0:
64,192,216254,1,0,0:0:0:0:
320,192,216672,1,0,0:0:0:0:
448,192,216672,1,0,0:0:0:0:
192,192,217092,1,0,0:0:0:0:
320,192,217092,1,0,0:0:0:0:
64,192,217301,1,0,0:0:0:0:
448,192,217301,1,0,0:0:0:0:
192,192,217721,1,0,0:0:0:0:
320,192,217721,1,0,0:0:0:0:
320,192,218140,1,0,0:0:0:0:
448,192,218140,1,0,0:0:0:0:
64,192,218350,1,0,0:0:0:0:
320,192,218350,1,0,0:0:0:0:
192,192,218768,1,0,0:0:0:0:
64,192,218768,1,0,0:0:0:0:
192,192,219188,1,0,0:0:0:0:
448,192,219188,1,0,0:0:0:0:
192,192,219607,1,0,0:0:0:0:
64,192,219607,1,0,0:0:0:0:
320,192,219607,1,0,0:0:0:0:
320,192,220025,1,0,0:0:0:0:
448,192,220025,1,0,0:0:0:0:
192,192,220445,1,0,0:0:0:0:
64,192,220445,1,0,0:0:0:0:
64,192,220654,1,0,0:0:0:0:
320,192,220654,1,0,0:0:0:0:
192,192,220864,1,0,0:0:0:0:
448,192,220864,1,0,0:0:0:0:
320,192,221074,1,0,0:0:0:0:
448,192,221074,1,0,0:0:0:0:
192,192,221492,5,0,0:0:0:0:
320,192,221492,1,0,0:0:0:0:
64,192,221702,1,0,0:0:0:0:
320,192,221702,1,0,0:0:0:0:
192,192,222121,1,0,0:0:0:0:
64,192,222121,1,0,0:0:0:0:
64,192,222541,1,0,0:0:0:0:
320,192,222541,1,0,0:0:0:0:
64,192,222960,5,0,0:0:0:0:
192,192,223065,1,0,0:0:0:0:
320,192,223170,1,0,0:0:0:0:
448,192,223274,1,0,0:0:0:0:
64,192,223380,1,0,0:0:0:0:
192,192,223484,1,0,0:0:0:0:
448,192,223588,1,0,0:0:0:0:
320,192,223694,1,0,0:0:0:0:
192,192,223798,1,0,0:0:0:0:
64,192,223902,1,0,0:0:0:0:
448,192,224008,1,0,0:0:0:0:
320,192,224008,1,0,0:0:0:0:
192,192,224112,1,0,0:0:0:0:
64,192,224112,1,0,0:0:0:0:
320,192,224217,1,0,0:0:0:0:
448,192,224217,1,0,0:0:0:0:
192,192,224322,1,0,0:0:0:0:
64,192,224322,1,0,0:0:0:0:
320,192,224427,1,0,0:0:0:0:
448,192,224427,1,0,0:0:0:0:
192,192,224531,1,0,0:0:0:0:
64,192,224531,1,0,0:0:0:0:
320,192,224637,1,0,0:0:0:0:
448,192,224637,1,0,0:0:0:0:
192,192,224741,1,0,0:0:0:0:
64,192,224741,1,0,0:0:0:0:
320,192,224845,1,0,0:0:0:0:
448,192,224845,1,0,0:0:0:0:
192,192,224951,1,0,0:0:0:0:
64,192,224951,1,0,0:0:0:0:
320,192,225055,1,0,0:0:0:0:
448,192,225055,1,0,0:0:0:0:
192,192,225161,1,0,0:0:0:0:
64,192,225161,1,0,0:0:0:0:
320,192,225265,1,0,0:0:0:0:
448,192,225265,1,0,0:0:0:0:
192,192,225370,1,0,0:0:0:0:
64,192,225370,1,0,0:0:0:0:
448,192,225475,1,0,0:0:0:0:
320,192,225475,1,0,0:0:0:0:
192,192,225580,1,0,0:0:0:0:
448,192,225684,1,0,0:0:0:0:
320,192,225684,1,0,0:0:0:0:
64,192,225684,1,0,0:0:0:0:
192,192,225790,1,0,0:0:0:0:
448,192,225894,1,0,0:0:0:0:
192,192,225894,1,0,0:0:0:0:
64,192,225894,1,0,0:0:0:0:
320,192,225998,1,0,0:0:0:0:
320,192,226104,1,0,0:0:0:0:
192,192,226104,1,0,0:0:0:0:
64,192,226104,1,0,0:0:0:0:
64,192,226208,1,0,0:0:0:0:
448,192,226312,1,0,0:0:0:0:
320,192,226312,1,0,0:0:0:0:
192,192,226312,1,0,0:0:0:0:
64,192,226312,1,0,0:0:0:0:
448,192,226732,1,0,0:0:0:0:
320,192,226732,1,0,0:0:0:0:
192,192,226732,1,0,0:0:0:0:
64,192,226941,1,0,0:0:0:0:
192,192,227151,1,0,0:0:0:0:
320,192,227151,1,0,0:0:0:0:
64,192,227151,1,0,0:0:0:0:
192,192,227571,1,0,0:0:0:0:
64,192,227571,1,0,0:0:0:0:
448,192,227571,1,0,0:0:0:0:
320,192,227780,1,0,0:0:0:0:
192,192,227990,1,0,0:0:0:0:
320,192,227990,1,0,0:0:0:0:
448,192,227990,1,0,0:0:0:0:
64,192,228200,1,0,0:0:0:0:
448,192,228200,1,0,0:0:0:0:
192,192,228408,1,0,0:0:0:0:
320,192,228408,1,0,0:0:0:0:
448,192,228408,1,0,0:0:0:0:
64,192,228618,1,0,0:0:0:0:
192,192,228618,1,0,0:0:0:0:
64,192,228828,1,0,0:0:0:0:
192,192,228828,1,0,0:0:0:0:
320,192,228828,1,0,0:0:0:0:
448,192,229037,1,0,0:0:0:0:
320,192,229037,1,0,0:0:0:0:
64,192,229247,1,0,0:0:0:0:
320,192,229247,1,0,0:0:0:0:
448,192,229247,1,0,0:0:0:0:
192,192,229457,1,0,0:0:0:0:
64,192,229457,1,0,0:0:0:0:
192,192,229667,1,0,0:0:0:0:
320,192,229667,1,0,0:0:0:0:
448,192,229667,1,0,0:0:0:0:
64,192,230085,1,0,0:0:0:0:
192,192,230085,1,0,0:0:0:0:
320,192,230085,1,0,0:0:0:0:
320,192,230295,1,0,0:0:0:0:
192,192,230504,1,0,0:0:0:0:
64,192,230504,1,0,0:0:0:0:
448,192,230504,1,0,0:0:0:0:
192,192,230924,1,0,0:0:0:0:
320,192,230924,1,0,0:0:0:0:
448,192,230924,1,0,0:0:0:0:
64,192,231132,1,0,0:0:0:0:
192,192,231342,1,0,0:0:0:0:
320,192,231342,1,0,0:0:0:0:
448,192,231342,1,0,0:0:0:0:
448,192,231552,1,0,0:0:0:0:
64,192,231552,1,0,0:0:0:0:
320,192,231762,1,0,0:0:0:0:
192,192,231762,1,0,0:0:0:0:
64,192,231762,1,0,0:0:0:0:
192,192,231971,1,0,0:0:0:0:
448,192,231971,1,0,0:0:0:0:
64,192,232181,1,0,0:0:0:0:
320,192,232181,1,0,0:0:0:0:
448,192,232181,1,0,0:0:0:0:
64,192,232600,1,0,0:0:0:0:
192,192,232600,1,0,0:0:0:0:
320,192,232600,1,0,0:0:0:0:
192,192,233020,1,0,0:0:0:0:
64,192,233020,1,0,0:0:0:0:
448,192,233020,1,0,0:0:0:0:
320,192,233020,1,0,0:0:0:0:
192,192,233438,1,0,0:0:0:0:
320,192,233438,1,0,0:0:0:0:
448,192,233438,1,0,0:0:0:0:
192,192,233858,1,0,0:0:0:0:
64,192,233858,1,0,0:0:0:0:
320,192,233858,1,0,0:0:0:0:
448,192,233858,1,0,0:0:0:0:
64,192,234277,1,0,0:0:0:0:
320,192,234277,1,0,0:0:0:0:
448,192,234277,1,0,0:0:0:0:
192,192,234695,1,0,0:0:0:0:
320,192,234695,1,0,0:0:0:0:
448,192,234695,1,0,0:0:0:0:
64,192,234695,1,0,0:0:0:0:
64,192,235115,1,0,0:0:0:0:
192,192,235115,1,0,0:0:0:0:
320,192,235115,1,0,0:0:0:0:
192,192,235534,1,0,0:0:0:0:
320,192,235534,1,0,0:0:0:0:
448,192,235534,1,0,0:0:0:0:
64,192,235954,1,0,0:0:0:0:
192,192,235954,1,0,0:0:0:0:
448,192,235954,1,0,0:0:0:0:
192,192,236372,1,0,0:0:0:0:
320,192,236372,1,0,0:0:0:0:
448,192,236372,1,0,0:0:0:0:
448,192,236687,1,0,0:0:0:0:
64,192,236791,1,0,0:0:0:0:
192,192,236791,1,0,0:0:0:0:
320,192,236791,1,0,0:0:0:0:
192,192,237001,1,0,0:0:0:0:
320,192,237001,1,0,0:0:0:0:
64,192,237211,1,0,0:0:0:0:
320,192,237211,1,0,0:0:0:0:
448,192,237211,1,0,0:0:0:0:
64,192,237525,5,0,0:0:0:0:
320,192,237630,1,0,0:0:0:0:
192,192,237630,1,0,0:0:0:0:
448,192,237630,1,0,0:0:0:0:
64,192,237840,1,0,0:0:0:0:
448,192,237840,1,0,0:0:0:0:
320,192,238050,1,0,0:0:0:0:
192,192,238050,1,0,0:0:0:0:
64,192,238050,1,0,0:0:0:0:
64,192,238468,1,0,0:0:0:0:
320,192,238468,1,0,0:0:0:0:
448,192,238468,1,0,0:0:0:0:
192,192,238887,1,0,0:0:0:0:
64,192,238887,1,0,0:0:0:0:
320,192,238887,1,0,0:0:0:0:
448,192,239097,5,0,0:0:0:0:
320,192,239097,1,0,0:0:0:0:
64,192,239307,1,0,0:0:0:0:
448,192,239307,1,0,0:0:0:0:
192,192,239515,1,0,0:0:0:0:
64,192,239515,1,0,0:0:0:0:
192,192,239725,1,0,0:0:0:0:
320,192,239725,1,0,0:0:0:0:
448,192,239725,1,0,0:0:0:0:
64,192,240145,1,0,0:0:0:0:
192,192,240145,1,0,0:0:0:0:
320,192,240145,1,0,0:0:0:0:
448,192,240354,1,0,0:0:0:0:
64,192,240564,1,0,0:0:0:0:
320,192,240564,1,0,0:0:0:0:
448,192,240564,1,0,0:0:0:0:
64,192,240982,1,0,0:0:0:0:
192,192,240982,1,0,0:0:0:0:
320,192,240982,1,0,0:0:0:0:
448,192,241192,1,0,0:0:0:0:
192,192,241192,1,0,0:0:0:0:
64,192,241402,1,0,0:0:0:0:
320,192,241402,1,0,0:0:0:0:
448,192,241402,1,0,0:0:0:0:
192,192,241611,1,0,0:0:0:0:
320,192,241611,1,0,0:0:0:0:
192,192,241821,1,0,0:0:0:0:
320,192,241821,1,0,0:0:0:0:
448,192,241821,1,0,0:0:0:0:
64,192,242031,1,0,0:0:0:0:
448,192,242031,1,0,0:0:0:0:
64,192,242241,1,0,0:0:0:0:
192,192,242241,1,0,0:0:0:0:
320,192,242241,1,0,0:0:0:0:
320,192,242450,1,0,0:0:0:0:
448,192,242450,1,0,0:0:0:0:
64,192,242660,1,0,0:0:0:0:
192,192,242660,1,0,0:0:0:0:
448,192,242660,1,0,0:0:0:0:
64,192,242870,1,0,0:0:0:0:
320,192,242870,1,0,0:0:0:0:
192,192,243078,1,0,0:0:0:0:
320,192,243078,1,0,0:0:0:0:
448,192,243078,1,0,0:0:0:0:
192,192,243288,1,0,0:0:0:0:
64,192,243288,1,0,0:0:0:0:
320,192,243498,1,0,0:0:0:0:
448,192,243498,1,0,0:0:0:0:
64,192,243498,1,0,0:0:0:0:
320,192,243707,1,0,0:0:0:0:
448,192,243707,1,0,0:0:0:0:
64,192,243917,1,0,0:0:0:0:
192,192,243917,1,0,0:0:0:0:
320,192,243917,1,0,0:0:0:0:
64,192,244127,1,0,0:0:0:0:
448,192,244127,1,0,0:0:0:0:
64,192,244337,1,0,0:0:0:0:
192,192,244337,1,0,0:0:0:0:
448,192,244337,1,0,0:0:0:0:
320,192,244545,1,0,0:0:0:0:
448,192,244545,1,0,0:0:0:0:
64,192,244755,1,0,0:0:0:0:
192,192,244755,1,0,0:0:0:0:
320,192,244755,1,0,0:0:0:0:
320,192,244965,1,0,0:0:0:0:
64,192,244965,1,0,0:0:0:0:
192,192,245174,1,0,0:0:0:0:
320,192,245174,1,0,0:0:0:0:
448,192,245174,1,0,0:0:0:0:
192,192,245384,1,0,0:0:0:0:
64,192,245384,1,0,0:0:0:0:
64,192,245594,1,0,0:0:0:0:
320,192,245594,1,0,0:0:0:0:
448,192,245594,1,0,0:0:0:0:
320,192,245802,1,0,0:0:0:0:
448,192,245802,1,0,0:0:0:0:
64,192,246012,1,0,0:0:0:0:
192,192,246012,1,0,0:0:0:0:
320,192,246012,1,0,0:0:0:0:
192,192,246222,1,0,0:0:0:0:
448,192,246222,1,0,0:0:0:0:
64,192,246432,1,0,0:0:0:0:
192,192,246432,1,0,0:0:0:0:
320,192,246432,1,0,0:0:0:0:
448,192,246432,1,0,0:0:0:0:
320,192,246641,1,0,0:0:0:0:
192,192,246641,1,0,0:0:0:0:
64,192,246641,1,0,0:0:0:0:
64,192,246851,1,0,0:0:0:0:
192,192,246851,1,0,0:0:0:0:
320,192,246851,1,0,0:0:0:0:
448,192,246851,1,0,0:0:0:0:
64,192,247061,1,0,0:0:0:0:
320,192,247061,1,0,0:0:0:0:
448,192,247061,1,0,0:0:0:0:
192,192,247270,1,0,0:0:0:0:
64,192,247270,1,0,0:0:0:0:
320,192,247270,1,0,0:0:0:0:
448,192,247270,1,0,0:0:0:0:
192,192,247480,1,0,0:0:0:0:
320,192,247480,1,0,0:0:0:0:
448,192,247480,1,0,0:0:0:0:
64,192,247690,1,0,0:0:0:0:
192,192,247690,1,0,0:0:0:0:
320,192,247690,1,0,0:0:0:0:
448,192,247690,1,0,0:0:0:0:
192,192,247898,1,0,0:0:0:0:
64,192,247898,1,0,0:0:0:0:
448,192,247898,1,0,0:0:0:0:
64,192,248108,1,0,0:0:0:0:
192,192,248108,1,0,0:0:0:0:
320,192,248108,1,0,0:0:0:0:
448,192,248108,1,0,0:0:0:0:
320,192,248318,1,0,0:0:0:0:
64,192,248318,1,0,0:0:0:0:
192,192,248318,1,0,0:0:0:0:
64,192,248528,1,0,0:0:0:0:
192,192,248528,1,0,0:0:0:0:
448,192,248528,1,0,0:0:0:0:
320,192,248528,1,0,0:0:0:0:
64,192,248737,1,0,0:0:0:0:
320,192,248737,1,0,0:0:0:0:
448,192,248737,1,0,0:0:0:0:
64,192,248947,1,0,0:0:0:0:
192,192,248947,1,0,0:0:0:0:
320,192,248947,1,0,0:0:0:0:
448,192,248947,1,0,0:0:0:0:
192,192,249157,1,0,0:0:0:0:
320,192,249157,1,0,0:0:0:0:
448,192,249157,1,0,0:0:0:0:
64,192,249365,1,0,0:0:0:0:
192,192,249365,1,0,0:0:0:0:
320,192,249365,1,0,0:0:0:0:
448,192,249365,1,0,0:0:0:0:
64,192,249575,1,0,0:0:0:0:
320,192,249575,1,0,0:0:0:0:
448,192,249575,1,0,0:0:0:0:
64,192,249785,1,0,0:0:0:0:
192,192,249785,1,0,0:0:0:0:
448,192,249785,1,0,0:0:0:0:
320,192,249785,1,0,0:0:0:0:
192,192,249994,1,0,0:0:0:0:
64,192,249994,1,0,0:0:0:0:
448,192,249994,1,0,0:0:0:0:
64,192,250204,1,0,0:0:0:0:
192,192,250204,1,0,0:0:0:0:
320,192,250204,1,0,0:0:0:0:
448,192,250204,1,0,0:0:0:0:
64,192,250414,1,0,0:0:0:0:
192,192,250414,1,0,0:0:0:0:
320,192,250414,1,0,0:0:0:0:
448,192,250414,1,0,0:0:0:0:
64,192,250624,1,0,0:0:0:0:
192,192,250624,1,0,0:0:0:0:
320,192,250624,1,0,0:0:0:0:
448,192,250624,1,0,0:0:0:0:
192,192,250832,1,0,0:0:0:0:
64,192,250832,1,0,0:0:0:0:
320,192,250832,1,0,0:0:0:0:
64,192,251042,1,0,0:0:0:0:
192,192,251042,1,0,0:0:0:0:
320,192,251042,1,0,0:0:0:0:
448,192,251042,1,0,0:0:0:0:
64,192,251252,1,0,0:0:0:0:
192,192,251252,1,0,0:0:0:0:
448,192,251252,1,0,0:0:0:0:
64,192,251461,1,0,0:0:0:0:
192,192,251461,1,0,0:0:0:0:
320,192,251461,1,0,0:0:0:0:
448,192,251461,1,0,0:0:0:0:
448,192,251671,1,0,0:0:0:0:
320,192,251671,1,0,0:0:0:0:
192,192,251671,1,0,0:0:0:0:
64,192,251881,1,0,0:0:0:0:
192,192,251881,1,0,0:0:0:0:
320,192,251881,1,0,0:0:0:0:
448,192,251881,1,0,0:0:0:0:
64,192,251985,1,0,0:0:0:0:
192,192,252090,1,0,0:0:0:0:
320,192,252090,1,0,0:0:0:0:
448,192,252090,1,0,0:0:0:0:
64,192,252195,1,0,0:0:0:0:
64,192,252300,1,0,0:0:0:0:
192,192,252300,1,0,0:0:0:0:
320,192,252300,1,0,0:0:0:0:
448,192,252300,1,0,0:0:0:0:
320,192,252404,1,0,0:0:0:0:
448,192,252510,1,0,0:0:0:0:
192,192,252510,1,0,0:0:0:0:
64,192,252510,1,0,0:0:0:0:
320,192,252614,1,0,0:0:0:0:
64,192,252720,1,0,0:0:0:0:
192,192,252720,1,0,0:0:0:0:
448,192,252720,1,0,0:0:0:0:
320,192,252720,1,0,0:0:0:0:
64,192,252824,1,0,0:0:0:0:
192,192,252928,1,0,0:0:0:0:
320,192,252928,1,0,0:0:0:0:
448,192,252928,1,0,0:0:0:0:
320,192,253034,1,0,0:0:0:0:
64,192,253138,128,0,253348:0:0:0:0:
320,192,253348,128,0,253557:0:0:0:0:
192,192,253557,128,0,253767:0:0:0:0:
448,192,253767,128,0,254185:0:0:0:0:
64,192,254185,1,0,0:0:0:0:
192,192,254185,1,0,0:0:0:0:
64,192,254395,1,0,0:0:0:0:
192,192,254395,1,0,0:0:0:0:
320,192,254395,1,0,0:0:0:0:
64,192,254605,1,0,0:0:0:0:
192,192,254605,1,0,0:0:0:0:
320,192,254605,1,0,0:0:0:0:
448,192,254605,1,0,0:0:0:0:
64,192,254814,1,0,0:0:0:0:
320,192,254814,1,0,0:0:0:0:
448,192,254814,1,0,0:0:0:0:
192,192,254814,1,0,0:0:0:0:
448,192,254920,1,0,0:0:0:0:
320,192,254920,1,0,0:0:0:0:
64,192,255024,1,0,0:0:0:0:
448,192,255024,1,0,0:0:0:0:
192,192,255024,1,0,0:0:0:0:
320,192,255130,1,0,0:0:0:0:
64,192,255130,1,0,0:0:0:0:
64,192,255234,1,0,0:0:0:0:
192,192,255234,1,0,0:0:0:0:
448,192,255234,1,0,0:0:0:0:
320,192,255234,1,0,0:0:0:0:
192,192,255338,1,0,0:0:0:0:
320,192,255338,1,0,0:0:0:0:
448,192,255444,1,0,0:0:0:0:
64,192,255444,1,0,0:0:0:0:
192,192,255444,1,0,0:0:0:0:
320,192,255548,1,0,0:0:0:0:
448,192,255548,1,0,0:0:0:0:
448,192,255652,1,0,0:0:0:0:
320,192,255652,1,0,0:0:0:0:
192,192,255652,1,0,0:0:0:0:
64,192,255652,1,0,0:0:0:0:
192,192,255758,1,0,0:0:0:0:
64,192,255758,1,0,0:0:0:0:
64,192,255862,1,0,0:0:0:0:
320,192,255862,1,0,0:0:0:0:
448,192,255862,1,0,0:0:0:0:
192,192,255967,1,0,0:0:0:0:
320,192,255967,1,0,0:0:0:0:
64,192,256072,1,0,0:0:0:0:
192,192,256072,1,0,0:0:0:0:
320,192,256072,1,0,0:0:0:0:
448,192,256072,1,0,0:0:0:0:
64,192,256177,1,0,0:0:0:0:
448,192,256177,1,0,0:0:0:0:
320,192,256281,1,0,0:0:0:0:
192,192,256281,1,0,0:0:0:0:
64,192,256281,1,0,0:0:0:0:
192,192,256387,1,0,0:0:0:0:
448,192,256387,1,0,0:0:0:0:
64,192,256491,1,0,0:0:0:0:
192,192,256491,1,0,0:0:0:0:
320,192,256491,1,0,0:0:0:0:
448,192,256491,1,0,0:0:0:0:
448,192,256595,1,0,0:0:0:0:
320,192,256595,1,0,0:0:0:0:
192,192,256701,1,0,0:0:0:0:
64,192,256701,1,0,0:0:0:0:
320,192,256701,1,0,0:0:0:0:
64,192,256805,1,0,0:0:0:0:
448,192,256805,1,0,0:0:0:0:
64,192,256910,1,0,0:0:0:0:
192,192,256910,1,0,0:0:0:0:
448,192,256910,1,0,0:0:0:0:
320,192,256910,1,0,0:0:0:0:
320,192,257015,1,0,0:0:0:0:
192,192,257015,1,0,0:0:0:0:
320,192,257120,1,0,0:0:0:0:
448,192,257120,1,0,0:0:0:0:
64,192,257120,1,0,0:0:0:0:
192,192,257225,1,0,0:0:0:0:
64,192,257225,1,0,0:0:0:0:
64,192,257330,1,0,0:0:0:0:
192,192,257330,1,0,0:0:0:0:
320,192,257330,1,0,0:0:0:0:
448,192,257330,1,0,0:0:0:0:
448,192,257434,1,0,0:0:0:0:
320,192,257434,1,0,0:0:0:0:
192,192,257540,1,0,0:0:0:0:
320,192,257540,1,0,0:0:0:0:
448,192,257540,1,0,0:0:0:0:
192,192,257644,1,0,0:0:0:0:
64,192,257644,1,0,0:0:0:0:
64,192,257748,1,0,0:0:0:0:
320,192,257748,1,0,0:0:0:0:
192,192,257748,1,0,0:0:0:0:
448,192,257748,1,0,0:0:0:0:
448,192,257854,1,0,0:0:0:0:
64,192,257854,1,0,0:0:0:0:
320,192,257958,1,0,0:0:0:0:
448,192,257958,1,0,0:0:0:0:
192,192,257958,1,0,0:0:0:0:
64,192,258062,1,0,0:0:0:0:
320,192,258062,1,0,0:0:0:0:
64,192,258168,1,0,0:0:0:0:
192,192,258168,1,0,0:0:0:0:
448,192,258168,1,0,0:0:0:0:
320,192,258168,1,0,0:0:0:0:
192,192,258272,1,0,0:0:0:0:
448,192,258272,1,0,0:0:0:0:
320,192,258377,1,0,0:0:0:0:
64,192,258377,1,0,0:0:0:0:
192,192,258377,1,0,0:0:0:0:
448,192,258482,1,0,0:0:0:0:
64,192,258482,1,0,0:0:0:0:
64,192,258587,1,0,0:0:0:0:
320,192,258587,1,0,0:0:0:0:
192,192,258587,1,0,0:0:0:0:
448,192,258587,1,0,0:0:0:0:
192,192,258691,1,0,0:0:0:0:
320,192,258691,1,0,0:0:0:0:
64,192,258797,1,0,0:0:0:0:
192,192,258797,1,0,0:0:0:0:
448,192,258797,1,0,0:0:0:0:
448,192,258901,1,0,0:0:0:0:
320,192,258901,1,0,0:0:0:0:
64,192,259005,1,0,0:0:0:0:
192,192,259005,1,0,0:0:0:0:
320,192,259005,1,0,0:0:0:0:
448,192,259005,1,0,0:0:0:0:
64,192,259111,1,0,0:0:0:0:
192,192,259111,1,0,0:0:0:0:
64,192,259215,1,0,0:0:0:0:
320,192,259215,1,0,0:0:0:0:
448,192,259215,1,0,0:0:0:0:
192,192,259321,1,0,0:0:0:0:
448,192,259321,1,0,0:0:0:0:
64,192,259425,1,0,0:0:0:0:
320,192,259425,1,0,0:0:0:0:
448,192,259425,1,0,0:0:0:0:
192,192,259425,1,0,0:0:0:0:
320,192,259530,1,0,0:0:0:0:
64,192,259530,1,0,0:0:0:0:
192,192,259635,1,0,0:0:0:0:
448,192,259635,1,0,0:0:0:0:
320,192,259635,1,0,0:0:0:0:
192,192,259740,1,0,0:0:0:0:
64,192,259740,1,0,0:0:0:0:
64,192,259844,1,0,0:0:0:0:
320,192,259844,1,0,0:0:0:0:
448,192,259844,1,0,0:0:0:0:
192,192,259844,1,0,0:0:0:0:
320,192,259950,1,0,0:0:0:0:
448,192,259950,1,0,0:0:0:0:
64,192,260054,1,0,0:0:0:0:
192,192,260054,1,0,0:0:0:0:
448,192,260054,1,0,0:0:0:0:
320,192,260158,1,0,0:0:0:0:
64,192,260158,1,0,0:0:0:0:
64,192,260264,1,0,0:0:0:0:
192,192,260264,1,0,0:0:0:0:
320,192,260264,1,0,0:0:0:0:
448,192,260264,1,0,0:0:0:0:
192,192,260368,1,0,0:0:0:0:
448,192,260368,1,0,0:0:0:0:
320,192,260472,1,0,0:0:0:0:
448,192,260472,1,0,0:0:0:0:
64,192,260472,1,0,0:0:0:0:
192,192,260578,1,0,0:0:0:0:
64,192,260578,1,0,0:0:0:0:
64,192,260682,1,0,0:0:0:0:
320,192,260682,1,0,0:0:0:0:
192,192,260682,1,0,0:0:0:0:
448,192,260682,1,0,0:0:0:0:
320,192,260787,1,0,0:0:0:0:
448,192,260787,1,0,0:0:0:0:
320,192,260892,1,0,0:0:0:0:
192,192,260892,1,0,0:0:0:0:
64,192,260892,1,0,0:0:0:0:
64,192,260997,1,0,0:0:0:0:
448,192,260997,1,0,0:0:0:0:
64,192,261101,1,0,0:0:0:0:
192,192,261101,1,0,0:0:0:0:
448,192,261101,1,0,0:0:0:0:
320,192,261101,1,0,0:0:0:0:
320,192,261207,1,0,0:0:0:0:
192,192,261207,1,0,0:0:0:0:
64,192,261311,1,0,0:0:0:0:
192,192,261311,1,0,0:0:0:0:
320,192,261311,1,0,0:0:0:0:
448,192,261311,1,0,0:0:0:0:
64,192,261417,1,0,0:0:0:0:
448,192,261417,1,0,0:0:0:0:
64,192,261521,1,0,0:0:0:0:
192,192,261521,1,0,0:0:0:0:
320,192,261521,1,0,0:0:0:0:
448,192,261521,1,0,0:0:0:0:
320,192,261625,1,0,0:0:0:0:
192,192,261625,1,0,0:0:0:0:
64,192,261731,1,0,0:0:0:0:
192,192,261731,1,0,0:0:0:0:
320,192,261731,1,0,0:0:0:0:
448,192,261835,1,0,0:0:0:0:
64,192,261835,1,0,0:0:0:0:
192,192,261940,1,0,0:0:0:0:
320,192,261940,1,0,0:0:0:0:
448,192,261940,1,0,0:0:0:0:
64,192,261940,1,0,0:0:0:0:
192,192,262045,1,0,0:0:0:0:
320,192,262045,1,0,0:0:0:0:
64,192,262150,1,0,0:0:0:0:
320,192,262150,1,0,0:0:0:0:
448,192,262150,1,0,0:0:0:0:
192,192,262254,1,0,0:0:0:0:
64,192,262254,1,0,0:0:0:0:
192,192,262360,1,0,0:0:0:0:
320,192,262360,1,0,0:0:0:0:
448,192,262360,1,0,0:0:0:0:
64,192,262360,1,0,0:0:0:0:
448,192,262464,1,0,0:0:0:0:
320,192,262464,1,0,0:0:0:0:
192,192,262568,1,0,0:0:0:0:
320,192,262568,1,0,0:0:0:0:
448,192,262568,1,0,0:0:0:0:
64,192,262674,1,0,0:0:0:0:
192,192,262674,1,0,0:0:0:0:
64,192,262778,1,0,0:0:0:0:
192,192,262778,1,0,0:0:0:0:
320,192,262778,1,0,0:0:0:0:
448,192,262778,1,0,0:0:0:0:
320,192,262882,1,0,0:0:0:0:
448,192,262882,1,0,0:0:0:0:
64,192,262988,1,0,0:0:0:0:
192,192,262988,1,0,0:0:0:0:
448,192,262988,1,0,0:0:0:0:
320,192,263092,1,0,0:0:0:0:
64,192,263092,1,0,0:0:0:0:
64,192,263197,1,0,0:0:0:0:
192,192,263197,1,0,0:0:0:0:
320,192,263197,1,0,0:0:0:0:
448,192,263197,1,0,0:0:0:0:
192,192,263302,1,0,0:0:0:0:
448,192,263302,1,0,0:0:0:0:
320,192,263407,1,0,0:0:0:0:
192,192,263407,1,0,0:0:0:0:
64,192,263407,1,0,0:0:0:0:
320,192,263512,1,0,0:0:0:0:
448,192,263512,1,0,0:0:0:0:
64,192,263617,1,0,0:0:0:0:
192,192,263617,1,0,0:0:0:0:
448,192,263617,1,0,0:0:0:0:
320,192,263617,1,0,0:0:0:0:
192,192,263721,1,0,0:0:0:0:
64,192,263721,1,0,0:0:0:0:
192,192,263827,1,0,0:0:0:0:
320,192,263827,1,0,0:0:0:0:
448,192,263827,1,0,0:0:0:0:
64,192,263931,1,0,0:0:0:0:
320,192,263931,1,0,0:0:0:0:
192,192,264035,1,0,0:0:0:0:
64,192,264035,1,0,0:0:0:0:
448,192,264035,1,0,0:0:0:0:
320,192,264035,1,0,0:0:0:0:
192,192,264141,1,0,0:0:0:0:
448,192,264141,1,0,0:0:0:0:
64,192,264245,1,0,0:0:0:0:
320,192,264245,1,0,0:0:0:0:
448,192,264245,1,0,0:0:0:0:
192,192,264350,1,0,0:0:0:0:
64,192,264350,1,0,0:0:0:0:
320,192,264455,1,0,0:0:0:0:
448,192,264455,1,0,0:0:0:0:
192,192,264455,1,0,0:0:0:0:
64,192,264455,1,0,0:0:0:0:
320,192,264560,1,0,0:0:0:0:
448,192,264560,1,0,0:0:0:0:
64,192,264664,1,0,0:0:0:0:
320,192,264664,1,0,0:0:0:0:
448,192,264664,1,0,0:0:0:0:
192,192,264770,1,0,0:0:0:0:
64,192,264770,1,0,0:0:0:0:
64,192,264874,1,0,0:0:0:0:
320,192,264874,1,0,0:0:0:0:
448,192,264874,1,0,0:0:0:0:
192,192,264874,1,0,0:0:0:0:
192,192,264978,1,0,0:0:0:0:
320,192,264978,1,0,0:0:0:0:
64,192,265084,1,0,0:0:0:0:
320,192,265084,1,0,0:0:0:0:
448,192,265084,1,0,0:0:0:0:
448,192,265188,1,0,0:0:0:0:
192,192,265188,1,0,0:0:0:0:
64,192,265292,1,0,0:0:0:0:
192,192,265292,1,0,0:0:0:0:
320,192,265292,1,0,0:0:0:0:
448,192,265292,1,0,0:0:0:0:
320,192,265398,1,0,0:0:0:0:
64,192,265398,1,0,0:0:0:0:
192,192,265502,1,0,0:0:0:0:
64,192,265502,1,0,0:0:0:0:
448,192,265502,1,0,0:0:0:0:
320,192,265608,1,0,0:0:0:0:
448,192,265608,1,0,0:0:0:0:
64,192,265712,1,0,0:0:0:0:
192,192,265712,1,0,0:0:0:0:
448,192,265712,1,0,0:0:0:0:
320,192,265712,1,0,0:0:0:0:
192,192,265817,1,0,0:0:0:0:
64,192,265817,1,0,0:0:0:0:
64,192,265922,1,0,0:0:0:0:
448,192,265922,1,0,0:0:0:0:
192,192,265922,1,0,0:0:0:0:
448,192,266027,1,0,0:0:0:0:
320,192,266027,1,0,0:0:0:0:
448,192,266131,1,0,0:0:0:0:
320,192,266131,1,0,0:0:0:0:
192,192,266131,1,0,0:0:0:0:
64,192,266131,1,0,0:0:0:0:
192,192,266237,1,0,0:0:0:0:
64,192,266237,1,0,0:0:0:0:
448,192,266341,1,0,0:0:0:0:
192,192,266341,1,0,0:0:0:0:
320,192,266341,1,0,0:0:0:0:
64,192,266445,1,0,0:0:0:0:
320,192,266445,1,0,0:0:0:0:
448,192,266551,1,0,0:0:0:0:
320,192,266551,1,0,0:0:0:0:
192,192,266551,1,0,0:0:0:0:
64,192,266551,1,0,0:0:0:0:
192,192,266655,1,0,0:0:0:0:
448,192,266655,1,0,0:0:0:0:
320,192,266760,1,0,0:0:0:0:
192,192,266760,1,0,0:0:0:0:
64,192,266760,1,0,0:0:0:0:
448,192,266865,1,0,0:0:0:0:
64,192,266865,1,0,0:0:0:0:
64,192,266970,1,0,0:0:0:0:
192,192,266970,1,0,0:0:0:0:
320,192,266970,1,0,0:0:0:0:
448,192,266970,1,0,0:0:0:0:
192,192,267074,1,0,0:0:0:0:
320,192,267074,1,0,0:0:0:0:
448,192,267180,1,0,0:0:0:0:
192,192,267180,1,0,0:0:0:0:
64,192,267180,1,0,0:0:0:0:
320,192,267284,1,0,0:0:0:0:
448,192,267284,1,0,0:0:0:0:
64,192,267388,1,0,0:0:0:0:
192,192,267388,1,0,0:0:0:0:
320,192,267388,1,0,0:0:0:0:
448,192,267388,1,0,0:0:0:0:
64,192,267494,1,0,0:0:0:0:
192,192,267494,1,0,0:0:0:0:
448,192,267598,1,0,0:0:0:0:
320,192,267651,1,0,0:0:0:0:
64,192,267704,1,0,0:0:0:0:
192,192,267755,1,0,0:0:0:0:
320,192,267808,1,0,0:0:0:0:
448,192,267808,1,0,0:0:0:0:
64,192,267912,1,0,0:0:0:0:
448,192,267912,1,0,0:0:0:0:
192,192,268018,1,0,0:0:0:0:
320,192,268070,1,0,0:0:0:0:
64,192,268122,1,0,0:0:0:0:
448,192,268122,1,0,0:0:0:0:
192,192,268227,1,0,0:0:0:0:
320,192,268227,1,0,0:0:0:0:
448,192,268227,1,0,0:0:0:0:
64,192,268227,1,0,0:0:0:0:
192,192,268332,1,0,0:0:0:0:
320,192,268332,1,0,0:0:0:0:
64,192,268437,1,0,0:0:0:0:
192,192,268437,1,0,0:0:0:0:
448,192,268437,1,0,0:0:0:0:
320,192,268541,1,0,0:0:0:0:
448,192,268541,1,0,0:0:0:0:
448,192,268647,1,0,0:0:0:0:
320,192,268647,1,0,0:0:0:0:
192,192,268647,1,0,0:0:0:0:
64,192,268647,1,0,0:0:0:0:
192,192,268751,1,0,0:0:0:0:
64,192,268751,1,0,0:0:0:0:
320,192,268855,1,0,0:0:0:0:
448,192,268855,1,0,0:0:0:0:
192,192,268855,1,0,0:0:0:0:
64,192,268961,1,0,0:0:0:0:
448,192,268961,1,0,0:0:0:0:
64,192,269065,1,0,0:0:0:0:
192,192,269065,1,0,0:0:0:0:
320,192,269065,1,0,0:0:0:0:
448,192,269065,1,0,0:0:0:0:
320,192,269170,1,0,0:0:0:0:
192,192,269170,1,0,0:0:0:0:
64,192,269275,1,0,0:0:0:0:
192,192,269275,1,0,0:0:0:0:
448,192,269275,1,0,0:0:0:0:
320,192,269380,1,0,0:0:0:0:
448,192,269380,1,0,0:0:0:0:
64,192,269484,1,0,0:0:0:0:
192,192,269484,1,0,0:0:0:0:
320,192,269484,1,0,0:0:0:0:
448,192,269484,1,0,0:0:0:0:
192,192,269590,1,0,0:0:0:0:
64,192,269590,1,0,0:0:0:0:
64,192,269694,1,0,0:0:0:0:
448,192,269694,1,0,0:0:0:0:
320,192,269694,1,0,0:0:0:0:
192,192,269800,1,0,0:0:0:0:
448,192,269800,1,0,0:0:0:0:
64,192,269904,1,0,0:0:0:0:
192,192,269904,1,0,0:0:0:0:
448,192,269904,1,0,0:0:0:0:
320,192,269904,1,0,0:0:0:0:
320,192,270008,1,0,0:0:0:0:
64,192,270008,1,0,0:0:0:0:
192,192,270114,1,0,0:0:0:0:
64,192,270114,1,0,0:0:0:0:
448,192,270114,1,0,0:0:0:0:
320,192,270218,1,0,0:0:0:0:
192,192,270218,1,0,0:0:0:0:
64,192,270322,1,0,0:0:0:0:
192,192,270322,1,0,0:0:0:0:
320,192,270322,1,0,0:0:0:0:
448,192,270322,1,0,0:0:0:0:
64,192,270428,1,0,0:0:0:0:
448,192,270428,1,0,0:0:0:0:
192,192,270532,1,0,0:0:0:0:
320,192,270532,1,0,0:0:0:0:
448,192,270532,1,0,0:0:0:0:
64,192,270637,1,0,0:0:0:0:
320,192,270637,1,0,0:0:0:0:
64,192,270742,1,0,0:0:0:0:
320,192,270742,1,0,0:0:0:0:
192,192,270742,1,0,0:0:0:0:
448,192,270742,1,0,0:0:0:0:
192,192,270847,1,0,0:0:0:0:
448,192,270847,1,0,0:0:0:0:
320,192,270951,1,0,0:0:0:0:
448,192,270951,1,0,0:0:0:0:
64,192,270951,1,0,0:0:0:0:
192,192,271057,1,0,0:0:0:0:
64,192,271057,1,0,0:0:0:0:
64,192,271161,1,0,0:0:0:0:
192,192,271161,1,0,0:0:0:0:
320,192,271161,1,0,0:0:0:0:
448,192,271161,1,0,0:0:0:0:
320,192,271265,1,0,0:0:0:0:
448,192,271265,1,0,0:0:0:0:
64,192,271371,1,0,0:0:0:0:
192,192,271371,1,0,0:0:0:0:
448,192,271371,1,0,0:0:0:0:
320,192,271475,1,0,0:0:0:0:
192,192,271475,1,0,0:0:0:0:
64,192,271580,1,0,0:0:0:0:
192,192,271580,1,0,0:0:0:0:
320,192,271580,1,0,0:0:0:0:
448,192,271580,1,0,0:0:0:0:
64,192,271685,1,0,0:0:0:0:
448,192,271685,1,0,0:0:0:0:
192,192,271790,1,0,0:0:0:0:
320,192,271790,1,0,0:0:0:0:
448,192,271790,1,0,0:0:0:0:
320,192,271895,1,0,0:0:0:0:
64,192,271895,1,0,0:0:0:0:
64,192,272000,1,0,0:0:0:0:
192,192,272000,1,0,0:0:0:0:
448,192,272000,1,0,0:0:0:0:
320,192,272000,1,0,0:0:0:0:
192,192,272104,1,0,0:0:0:0:
448,192,272104,1,0,0:0:0:0:
320,192,272210,1,0,0:0:0:0:
192,192,272210,1,0,0:0:0:0:
64,192,272210,1,0,0:0:0:0:
448,192,272314,1,0,0:0:0:0:
64,192,272314,1,0,0:0:0:0:
64,192,272418,1,0,0:0:0:0:
192,192,272418,1,0,0:0:0:0:
448,192,272418,1,0,0:0:0:0:
320,192,272418,1,0,0:0:0:0:
192,192,272524,1,0,0:0:0:0:
320,192,272524,1,0,0:0:0:0:
320,192,272628,1,0,0:0:0:0:
448,192,272628,1,0,0:0:0:0:
64,192,272628,1,0,0:0:0:0:
192,192,272732,1,0,0:0:0:0:
64,192,272732,1,0,0:0:0:0:
64,192,272838,1,0,0:0:0:0:
192,192,272838,1,0,0:0:0:0:
320,192,272838,1,0,0:0:0:0:
448,192,272838,1,0,0:0:0:0:
320,192,272942,1,0,0:0:0:0:
448,192,272942,1,0,0:0:0:0:
64,192,273047,1,0,0:0:0:0:
192,192,273047,1,0,0:0:0:0:
320,192,273047,1,0,0:0:0:0:
448,192,273152,1,0,0:0:0:0:
64,192,273152,1,0,0:0:0:0:
64,192,273257,1,0,0:0:0:0:
192,192,273257,1,0,0:0:0:0:
448,192,273257,1,0,0:0:0:0:
320,192,273257,1,0,0:0:0:0:
192,192,273361,1,0,0:0:0:0:
320,192,273361,1,0,0:0:0:0:
320,192,273467,1,0,0:0:0:0:
64,192,273467,1,0,0:0:0:0:
448,192,273467,1,0,0:0:0:0:
64,192,273571,1,0,0:0:0:0:
192,192,273571,1,0,0:0:0:0:
64,192,273675,1,0,0:0:0:0:
192,192,273675,1,0,0:0:0:0:
448,192,273675,1,0,0:0:0:0:
320,192,273675,1,0,0:0:0:0:
320,192,273781,1,0,0:0:0:0:
448,192,273781,1,0,0:0:0:0:
192,192,273885,1,0,0:0:0:0:
64,192,273885,1,0,0:0:0:0:
320,192,273885,1,0,0:0:0:0:
448,192,273991,1,0,0:0:0:0:
64,192,273991,1,0,0:0:0:0:
448,192,274095,1,0,0:0:0:0:
320,192,274095,1,0,0:0:0:0:
64,192,274095,1,0,0:0:0:0:
192,192,274095,1,0,0:0:0:0:
320,192,274200,1,0,0:0:0:0:
192,192,274200,1,0,0:0:0:0:
64,192,274305,1,0,0:0:0:0:
192,192,274305,1,0,0:0:0:0:
448,192,274305,1,0,0:0:0:0:
320,192,274410,1,0,0:0:0:0:
448,192,274410,1,0,0:0:0:0:
64,192,274514,1,0,0:0:0:0:
192,192,274514,1,0,0:0:0:0:
320,192,274514,1,0,0:0:0:0:
448,192,274514,1,0,0:0:0:0:
64,192,274620,1,0,0:0:0:0:
192,192,274620,1,0,0:0:0:0:
64,192,274724,1,0,0:0:0:0:
320,192,274724,1,0,0:0:0:0:
448,192,274724,1,0,0:0:0:0:
192,192,274828,1,0,0:0:0:0:
448,192,274828,1,0,0:0:0:0:
64,192,274934,1,0,0:0:0:0:
192,192,274934,1,0,0:0:0:0:
320,192,274934,1,0,0:0:0:0:
448,192,274934,1,0,0:0:0:0:
320,192,275038,1,0,0:0:0:0:
64,192,275038,1,0,0:0:0:0:
192,192,275142,1,0,0:0:0:0:
64,192,275142,1,0,0:0:0:0:
448,192,275142,1,0,0:0:0:0:
320,192,275248,1,0,0:0:0:0:
448,192,275248,1,0,0:0:0:0:
448,192,275352,1,0,0:0:0:0:
320,192,275352,1,0,0:0:0:0:
64,192,275352,1,0,0:0:0:0:
192,192,275352,1,0,0:0:0:0:
64,192,275457,1,0,0:0:0:0:
192,192,275457,1,0,0:0:0:0:
192,192,275562,1,0,0:0:0:0:
320,192,275562,1,0,0:0:0:0:
448,192,275562,1,0,0:0:0:0:
64,192,275667,1,0,0:0:0:0:
448,192,275667,1,0,0:0:0:0:
64,192,275771,1,0,0:0:0:0:
192,192,275771,1,0,0:0:0:0:
320,192,275771,1,0,0:0:0:0:
448,192,275771,1,0,0:0:0:0:
320,192,275877,1,0,0:0:0:0:
192,192,275877,1,0,0:0:0:0:
64,192,275981,1,0,0:0:0:0:
192,192,275981,1,0,0:0:0:0:
448,192,275981,1,0,0:0:0:0:
320,192,276085,1,0,0:0:0:0:
448,192,276085,1,0,0:0:0:0:
64,192,276191,1,0,0:0:0:0:
192,192,276191,1,0,0:0:0:0:
320,192,276191,1,0,0:0:0:0:
448,192,276191,1,0,0:0:0:0:
192,192,276295,1,0,0:0:0:0:
64,192,276295,1,0,0:0:0:0:
64,192,276401,1,0,0:0:0:0:
320,192,276401,1,0,0:0:0:0:
448,192,276401,1,0,0:0:0:0:
192,192,276505,1,0,0:0:0:0:
320,192,276505,1,0,0:0:0:0:
64,192,276610,1,0,0:0:0:0:
192,192,276610,1,0,0:0:0:0:
320,192,276610,1,0,0:0:0:0:
448,192,276610,1,0,0:0:0:0:
64,192,276715,1,0,0:0:0:0:
448,192,276715,1,0,0:0:0:0:
320,192,276820,1,0,0:0:0:0:
192,192,276820,1,0,0:0:0:0:
64,192,276820,1,0,0:0:0:0:
320,192,276924,1,0,0:0:0:0:
448,192,276924,1,0,0:0:0:0:
64,192,277030,1,0,0:0:0:0:
192,192,277030,1,0,0:0:0:0:
320,192,277030,1,0,0:0:0:0:
448,192,277030,1,0,0:0:0:0:
192,192,277134,1,0,0:0:0:0:
64,192,277134,1,0,0:0:0:0:
64,192,277238,1,0,0:0:0:0:
448,192,277238,1,0,0:0:0:0:
320,192,277238,1,0,0:0:0:0:
448,192,277344,1,0,0:0:0:0:
192,192,277344,1,0,0:0:0:0:
64,192,277448,1,0,0:0:0:0:
192,192,277448,1,0,0:0:0:0:
448,192,277448,1,0,0:0:0:0:
320,192,277448,1,0,0:0:0:0:
320,192,277552,1,0,0:0:0:0:
64,192,277552,1,0,0:0:0:0:
192,192,277658,1,0,0:0:0:0:
320,192,277658,1,0,0:0:0:0:
448,192,277658,1,0,0:0:0:0:
192,192,277762,1,0,0:0:0:0:
64,192,277762,1,0,0:0:0:0:
448,192,277867,1,0,0:0:0:0:
320,192,277867,1,0,0:0:0:0:
192,192,277867,1,0,0:0:0:0:
64,192,277867,1,0,0:0:0:0:
320,192,277972,1,0,0:0:0:0:
448,192,277972,1,0,0:0:0:0:
192,192,278077,1,0,0:0:0:0:
64,192,278077,1,0,0:0:0:0:
448,192,278077,1,0,0:0:0:0:
320,192,278181,1,0,0:0:0:0:
64,192,278181,1,0,0:0:0:0:
64,192,278287,1,0,0:0:0:0:
192,192,278287,1,0,0:0:0:0:
448,192,278287,1,0,0:0:0:0:
320,192,278391,1,0,0:0:0:0:
448,192,278497,1,0,0:0:0:0:
64,192,278601,1,0,0:0:0:0:
192,192,278705,1,0,0:0:0:0:
448,192,278811,1,0,0:0:0:0:
64,192,278915,1,0,0:0:0:0:
320,192,279020,1,0,0:0:0:0:
192,192,279125,1,0,0:0:0:0:
64,192,279230,1,0,0:0:0:0:
448,192,279334,1,0,0:0:0:0:
320,192,279440,1,0,0:0:0:0:
192,192,279544,1,0,0:0:0:0:
64,192,279648,1,0,0:0:0:0:
192,192,279754,1,0,0:0:0:0:
320,192,279858,1,0,0:0:0:0:
448,192,279962,1,0,0:0:0:0:
64,192,279962,1,0,0:0:0:0:
192,192,279962,1,0,0:0:0:0:
320,192,280068,1,0,0:0:0:0:
192,192,280172,1,0,0:0:0:0:
64,192,280172,1,0,0:0:0:0:
448,192,280277,1,0,0:0:0:0:
320,192,280382,1,0,0:0:0:0:
64,192,280382,1,0,0:0:0:0:
192,192,280382,1,0,0:0:0:0:
448,192,280487,1,0,0:0:0:0:
64,192,280592,1,0,0:0:0:0:
320,192,280592,1,0,0:0:0:0:
192,192,280697,1,0,0:0:0:0:
320,192,280801,1,0,0:0:0:0:
448,192,280801,1,0,0:0:0:0:
64,192,280907,1,0,0:0:0:0:
448,192,281011,1,0,0:0:0:0:
320,192,281064,1,0,0:0:0:0:
64,192,281115,1,0,0:0:0:0:
192,192,281168,1,0,0:0:0:0:
320,192,281221,1,0,0:0:0:0:
448,192,281221,1,0,0:0:0:0:
448,192,281325,1,0,0:0:0:0:
64,192,281325,1,0,0:0:0:0:
64,192,281430,1,0,0:0:0:0:
192,192,281482,1,0,0:0:0:0:
448,192,281535,1,0,0:0:0:0:
320,192,281535,1,0,0:0:0:0:
64,192,281640,1,0,0:0:0:0:
192,192,281640,1,0,0:0:0:0:
448,192,281640,1,0,0:0:0:0:
320,192,281640,1,0,0:0:0:0:
192,192,281744,1,0,0:0:0:0:
448,192,281744,1,0,0:0:0:0:
64,192,281850,1,0,0:0:0:0:
448,192,281850,1,0,0:0:0:0:
320,192,281850,1,0,0:0:0:0:
192,192,281954,1,0,0:0:0:0:
448,192,281954,1,0,0:0:0:0:
320,192,282058,1,0,0:0:0:0:
448,192,282058,1,0,0:0:0:0:
192,192,282058,1,0,0:0:0:0:
64,192,282058,1,0,0:0:0:0:
64,192,282164,1,0,0:0:0:0:
320,192,282164,1,0,0:0:0:0:
192,192,282268,1,0,0:0:0:0:
64,192,282268,1,0,0:0:0:0:
448,192,282268,1,0,0:0:0:0:
320,192,282372,1,0,0:0:0:0:
448,192,282372,1,0,0:0:0:0:
448,192,282478,1,0,0:0:0:0:
320,192,282478,1,0,0:0:0:0:
192,192,282478,1,0,0:0:0:0:
64,192,282478,1,0,0:0:0:0:
64,192,282582,1,0,0:0:0:0:
192,192,282582,1,0,0:0:0:0:
448,192,282688,1,0,0:0:0:0:
320,192,282688,1,0,0:0:0:0:
64,192,282688,1,0,0:0:0:0:
192,192,282792,1,0,0:0:0:0:
448,192,282792,1,0,0:0:0:0:
448,192,282897,1,0,0:0:0:0:
320,192,282897,1,0,0:0:0:0:
192,192,282897,1,0,0:0:0:0:
64,192,282897,1,0,0:0:0:0:
64,192,283002,1,0,0:0:0:0:
320,192,283002,1,0,0:0:0:0:
192,192,283107,1,0,0:0:0:0:
64,192,283107,1,0,0:0:0:0:
448,192,283107,1,0,0:0:0:0:
320,192,283211,1,0,0:0:0:0:
192,192,283211,1,0,0:0:0:0:
64,192,283317,1,0,0:0:0:0:
320,192,283317,1,0,0:0:0:0:
448,192,283317,1,0,0:0:0:0:
192,192,283317,1,0,0:0:0:0:
64,192,283421,1,0,0:0:0:0:
448,192,283421,1,0,0:0:0:0:
320,192,283525,1,0,0:0:0:0:
64,192,283525,1,0,0:0:0:0:
192,192,283525,1,0,0:0:0:0:
448,192,283631,1,0,0:0:0:0:
320,192,283631,1,0,0:0:0:0:
64,192,283735,1,0,0:0:0:0:
192,192,283735,1,0,0:0:0:0:
320,192,283735,1,0,0:0:0:0:
448,192,283735,1,0,0:0:0:0:
192,192,283840,1,0,0:0:0:0:
64,192,283840,1,0,0:0:0:0:
64,192,283945,1,0,0:0:0:0:
192,192,283945,1,0,0:0:0:0:
448,192,283945,1,0,0:0:0:0:
192,192,284050,1,0,0:0:0:0:
448,192,284050,1,0,0:0:0:0:
64,192,284154,1,0,0:0:0:0:
192,192,284154,1,0,0:0:0:0:
320,192,284154,1,0,0:0:0:0:
448,192,284154,1,0,0:0:0:0:
320,192,284260,1,0,0:0:0:0:
64,192,284260,1,0,0:0:0:0:
192,192,284364,1,0,0:0:0:0:
320,192,284364,1,0,0:0:0:0:
448,192,284364,1,0,0:0:0:0:
64,192,284468,1,0,0:0:0:0:
448,192,284468,1,0,0:0:0:0:
64,192,284574,1,0,0:0:0:0:
192,192,284574,1,0,0:0:0:0:
320,192,284574,1,0,0:0:0:0:
448,192,284574,1,0,0:0:0:0:
320,192,284678,1,0,0:0:0:0:
192,192,284678,1,0,0:0:0:0:
64,192,284784,1,0,0:0:0:0:
320,192,284784,1,0,0:0:0:0:
448,192,284784,1,0,0:0:0:0:
192,192,284888,1,0,0:0:0:0:
64,192,284888,1,0,0:0:0:0:
64,192,284992,1,0,0:0:0:0:
320,192,284992,1,0,0:0:0:0:
192,192,284992,1,0,0:0:0:0:
448,192,284992,1,0,0:0:0:0:
320,192,285098,1,0,0:0:0:0:
448,192,285098,1,0,0:0:0:0:
64,192,285202,1,0,0:0:0:0:
192,192,285202,1,0,0:0:0:0:
448,192,285202,1,0,0:0:0:0:
320,192,285307,1,0,0:0:0:0:
192,192,285307,1,0,0:0:0:0:
64,192,285412,1,0,0:0:0:0:
192,192,285412,1,0,0:0:0:0:
448,192,285412,1,0,0:0:0:0:
320,192,285412,1,0,0:0:0:0:
192,192,285517,1,0,0:0:0:0:
448,192,285517,1,0,0:0:0:0:
192,192,285621,1,0,0:0:0:0:
320,192,285621,1,0,0:0:0:0:
448,192,285621,1,0,0:0:0:0:
64,192,285727,1,0,0:0:0:0:
320,192,285727,1,0,0:0:0:0:
64,192,285831,1,0,0:0:0:0:
192,192,285831,1,0,0:0:0:0:
320,192,285831,1,0,0:0:0:0:
448,192,285831,1,0,0:0:0:0:
320,192,285935,1,0,0:0:0:0:
448,192,285935,1,0,0:0:0:0:
64,192,286041,1,0,0:0:0:0:
192,192,286041,1,0,0:0:0:0:
448,192,286041,1,0,0:0:0:0:
320,192,286145,1,0,0:0:0:0:
64,192,286145,1,0,0:0:0:0:
64,192,286250,1,0,0:0:0:0:
192,192,286250,1,0,0:0:0:0:
320,192,286250,1,0,0:0:0:0:
448,192,286250,1,0,0:0:0:0:
192,192,286355,1,0,0:0:0:0:
320,192,286355,1,0,0:0:0:0:
320,192,286460,1,0,0:0:0:0:
192,192,286460,1,0,0:0:0:0:
64,192,286460,1,0,0:0:0:0:
448,192,286564,1,0,0:0:0:0:
64,192,286564,1,0,0:0:0:0:
192,192,286670,1,0,0:0:0:0:
320,192,286670,1,0,0:0:0:0:
64,192,286670,1,0,0:0:0:0:
448,192,286670,1,0,0:0:0:0:
192,192,286774,1,0,0:0:0:0:
320,192,286774,1,0,0:0:0:0:
448,192,286880,1,0,0:0:0:0:
320,192,286880,1,0,0:0:0:0:
64,192,286880,1,0,0:0:0:0:
192,192,286984,1,0,0:0:0:0:
448,192,286984,1,0,0:0:0:0:
64,192,287088,1,0,0:0:0:0:
192,192,287088,1,0,0:0:0:0:
320,192,287088,1,0,0:0:0:0:
448,192,287088,1,0,0:0:0:0:
320,192,287194,1,0,0:0:0:0:
64,192,287194,1,0,0:0:0:0:
192,192,287298,1,0,0:0:0:0:
64,192,287298,1,0,0:0:0:0:
448,192,287298,1,0,0:0:0:0:
448,192,287402,1,0,0:0:0:0:
64,192,287402,1,0,0:0:0:0:
448,192,287508,1,0,0:0:0:0:
320,192,287508,1,0,0:0:0:0:
64,192,287508,1,0,0:0:0:0:
192,192,287508,1,0,0:0:0:0:
320,192,287612,1,0,0:0:0:0:
64,192,287612,1,0,0:0:0:0:
192,192,287717,1,0,0:0:0:0:
448,192,287717,1,0,0:0:0:0:
64,192,287717,1,0,0:0:0:0:
448,192,287822,1,0,0:0:0:0:
320,192,287822,1,0,0:0:0:0:
64,192,287927,1,0,0:0:0:0:
192,192,287927,1,0,0:0:0:0:
320,192,287927,1,0,0:0:0:0:
448,192,287927,1,0,0:0:0:0:
192,192,288031,1,0,0:0:0:0:
64,192,288031,1,0,0:0:0:0:
448,192,288137,1,0,0:0:0:0:
320,192,288137,1,0,0:0:0:0:
192,192,288137,1,0,0:0:0:0:
64,192,288137,1,0,0:0:0:0:
448,192,288241,1,0,0:0:0:0:
320,192,288241,1,0,0:0:0:0:
192,192,288345,1,0,0:0:0:0:
320,192,288345,1,0,0:0:0:0:
448,192,288345,1,0,0:0:0:0:
64,192,288345,1,0,0:0:0:0:
64,192,288451,1,0,0:0:0:0:
192,192,288451,1,0,0:0:0:0:
320,192,288555,1,0,0:0:0:0:
448,192,288555,1,0,0:0:0:0:
64,192,288555,1,0,0:0:0:0:
192,192,288660,1,0,0:0:0:0:
320,192,288660,1,0,0:0:0:0:
64,192,288765,1,0,0:0:0:0:
192,192,288765,1,0,0:0:0:0:
448,192,288765,1,0,0:0:0:0:
320,192,288765,1,0,0:0:0:0:
64,192,288870,1,0,0:0:0:0:
448,192,288870,1,0,0:0:0:0:
320,192,288975,1,0,0:0:0:0:
192,192,288975,1,0,0:0:0:0:
64,192,288975,1,0,0:0:0:0:
192,192,289080,1,0,0:0:0:0:
448,192,289080,1,0,0:0:0:0:
64,192,289184,1,0,0:0:0:0:
192,192,289184,1,0,0:0:0:0:
320,192,289184,1,0,0:0:0:0:
448,192,289184,1,0,0:0:0:0:
320,192,289290,1,0,0:0:0:0:
448,192,289290,1,0,0:0:0:0:
192,192,289394,1,0,0:0:0:0:
64,192,289394,1,0,0:0:0:0:
448,192,289394,1,0,0:0:0:0:
64,192,289498,1,0,0:0:0:0:
448,192,289498,1,0,0:0:0:0:
64,192,289604,1,0,0:0:0:0:
320,192,289604,1,0,0:0:0:0:
448,192,289604,1,0,0:0:0:0:
192,192,289604,1,0,0:0:0:0:
192,192,289708,1,0,0:0:0:0:
320,192,289708,1,0,0:0:0:0:
64,192,289812,1,0,0:0:0:0:
320,192,289812,1,0,0:0:0:0:
448,192,289812,1,0,0:0:0:0:
64,192,289918,1,0,0:0:0:0:
192,192,289918,1,0,0:0:0:0:
64,192,290022,1,0,0:0:0:0:
192,192,290022,1,0,0:0:0:0:
320,192,290022,1,0,0:0:0:0:
448,192,290022,1,0,0:0:0:0:
448,192,290127,1,0,0:0:0:0:
320,192,290127,1,0,0:0:0:0:
64,192,290232,1,0,0:0:0:0:
192,192,290232,1,0,0:0:0:0:
448,192,290232,1,0,0:0:0:0:
320,192,290337,1,0,0:0:0:0:
192,192,290337,1,0,0:0:0:0:
64,192,290441,1,0,0:0:0:0:
192,192,290441,1,0,0:0:0:0:
320,192,290441,1,0,0:0:0:0:
448,192,290441,1,0,0:0:0:0:
320,192,290547,1,0,0:0:0:0:
64,192,290547,1,0,0:0:0:0:
192,192,290651,1,0,0:0:0:0:
448,192,290651,1,0,0:0:0:0:
64,192,290651,1,0,0:0:0:0:
320,192,290755,1,0,0:0:0:0:
448,192,290755,1,0,0:0:0:0:
448,192,290861,1,0,0:0:0:0:
320,192,290861,1,0,0:0:0:0:
192,192,290861,1,0,0:0:0:0:
64,192,290861,1,0,0:0:0:0:
192,192,290965,1,0,0:0:0:0:
64,192,290965,1,0,0:0:0:0:
64,192,291071,1,0,0:0:0:0:
320,192,291071,1,0,0:0:0:0:
448,192,291071,1,0,0:0:0:0:
192,192,291175,1,0,0:0:0:0:
448,192,291175,1,0,0:0:0:0:
64,192,291280,1,0,0:0:0:0:
192,192,291280,1,0,0:0:0:0:
448,192,291280,1,0,0:0:0:0:
320,192,291280,1,0,0:0:0:0:
320,192,291385,1,0,0:0:0:0:
64,192,291385,1,0,0:0:0:0:
192,192,291490,1,0,0:0:0:0:
64,192,291490,1,0,0:0:0:0:
448,192,291490,1,0,0:0:0:0:
320,192,291594,1,0,0:0:0:0:
448,192,291594,1,0,0:0:0:0:
320,192,291700,1,0,0:0:0:0:
64,192,291700,1,0,0:0:0:0:
192,192,291700,1,0,0:0:0:0:
448,192,291700,1,0,0:0:0:0:
192,192,291804,1,0,0:0:0:0:
64,192,291804,1,0,0:0:0:0:
320,192,291908,1,0,0:0:0:0:
64,192,291908,1,0,0:0:0:0:
448,192,291908,1,0,0:0:0:0:
192,192,292014,1,0,0:0:0:0:
320,192,292014,1,0,0:0:0:0:
64,192,292118,1,0,0:0:0:0:
192,192,292118,1,0,0:0:0:0:
448,192,292118,1,0,0:0:0:0:
320,192,292118,1,0,0:0:0:0:
64,192,292222,1,0,0:0:0:0:
320,192,292222,1,0,0:0:0:0:
320,192,292328,1,0,0:0:0:0:
64,192,292328,1,0,0:0:0:0:
448,192,292328,1,0,0:0:0:0:
320,192,292432,1,0,0:0:0:0:
448,192,292432,1,0,0:0:0:0:
320,192,292537,1,0,0:0:0:0:
64,192,292537,1,0,0:0:0:0:
192,192,292537,1,0,0:0:0:0:
448,192,292537,1,0,0:0:0:0:
192,192,292642,1,0,0:0:0:0:
64,192,292642,1,0,0:0:0:0:
192,192,292747,1,0,0:0:0:0:
448,192,292747,1,0,0:0:0:0:
320,192,292747,1,0,0:0:0:0:
64,192,292851,1,0,0:0:0:0:
448,192,292851,1,0,0:0:0:0:
192,192,292957,1,0,0:0:0:0:
64,192,292957,1,0,0:0:0:0:
320,192,292957,1,0,0:0:0:0:
448,192,292957,1,0,0:0:0:0:
320,192,293061,1,0,0:0:0:0:
192,192,293061,1,0,0:0:0:0:
320,192,293167,1,0,0:0:0:0:
64,192,293167,1,0,0:0:0:0:
448,192,293167,1,0,0:0:0:0:
192,192,293271,1,0,0:0:0:0:
64,192,293271,1,0,0:0:0:0:
64,192,293375,1,0,0:0:0:0:
192,192,293375,1,0,0:0:0:0:
320,192,293375,1,0,0:0:0:0:
448,192,293375,1,0,0:0:0:0:
320,192,293481,1,0,0:0:0:0:
448,192,293481,1,0,0:0:0:0:
192,192,293585,1,0,0:0:0:0:
64,192,293585,1,0,0:0:0:0:
448,192,293585,1,0,0:0:0:0:
320,192,293690,1,0,0:0:0:0:
192,192,293690,1,0,0:0:0:0:
448,192,293795,1,0,0:0:0:0:
320,192,293795,1,0,0:0:0:0:
192,192,293795,1,0,0:0:0:0:
64,192,293795,1,0,0:0:0:0:
64,192,293900,1,0,0:0:0:0:
448,192,293900,1,0,0:0:0:0:
192,192,294004,1,0,0:0:0:0:
64,192,294004,1,0,0:0:0:0:
320,192,294004,1,0,0:0:0:0:
320,192,294110,1,0,0:0:0:0:
448,192,294110,1,0,0:0:0:0:
448,192,294214,1,0,0:0:0:0:
320,192,294214,1,0,0:0:0:0:
192,192,294214,1,0,0:0:0:0:
64,192,294214,1,0,0:0:0:0:
64,192,294318,1,0,0:0:0:0:
192,192,294318,1,0,0:0:0:0:
448,192,294424,1,0,0:0:0:0:
320,192,294475,1,0,0:0:0:0:
64,192,294528,1,0,0:0:0:0:
192,192,294581,1,0,0:0:0:0:
320,192,294632,1,0,0:0:0:0:
448,192,294632,1,0,0:0:0:0:
192,192,294738,1,0,0:0:0:0:
64,192,294738,1,0,0:0:0:0:
448,192,294842,1,0,0:0:0:0:
320,192,294895,1,0,0:0:0:0:
192,192,294947,1,0,0:0:0:0:
64,192,294947,1,0,0:0:0:0:
64,192,295052,1,0,0:0:0:0:
192,192,295052,1,0,0:0:0:0:
320,192,295052,1,0,0:0:0:0:
448,192,295052,1,0,0:0:0:0:
320,192,295157,1,0,0:0:0:0:
448,192,295157,1,0,0:0:0:0:
64,192,295261,1,0,0:0:0:0:
192,192,295261,1,0,0:0:0:0:
448,192,295261,1,0,0:0:0:0:
320,192,295367,1,0,0:0:0:0:
192,192,295367,1,0,0:0:0:0:
64,192,295471,1,0,0:0:0:0:
192,192,295471,1,0,0:0:0:0:
320,192,295471,1,0,0:0:0:0:
448,192,295471,1,0,0:0:0:0:
64,192,295577,1,0,0:0:0:0:
448,192,295577,1,0,0:0:0:0:
320,192,295681,1,0,0:0:0:0:
192,192,295681,1,0,0:0:0:0:
448,192,295681,1,0,0:0:0:0:
64,192,295785,1,0,0:0:0:0:
320,192,295785,1,0,0:0:0:0:
64,192,295891,1,0,0:0:0:0:
192,192,295891,1,0,0:0:0:0:
320,192,295891,1,0,0:0:0:0:
448,192,295891,1,0,0:0:0:0:
192,192,295995,1,0,0:0:0:0:
448,192,295995,1,0,0:0:0:0:
320,192,296100,1,0,0:0:0:0:
448,192,296100,1,0,0:0:0:0:
64,192,296100,1,0,0:0:0:0:
192,192,296205,1,0,0:0:0:0:
64,192,296205,1,0,0:0:0:0:
64,192,296310,1,0,0:0:0:0:
192,192,296310,1,0,0:0:0:0:
320,192,296310,1,0,0:0:0:0:
448,192,296310,1,0,0:0:0:0:
192,192,296414,1,0,0:0:0:0:
448,192,296414,1,0,0:0:0:0:
192,192,296520,1,0,0:0:0:0:
64,192,296520,1,0,0:0:0:0:
320,192,296520,1,0,0:0:0:0:
64,192,296624,1,0,0:0:0:0:
448,192,296624,1,0,0:0:0:0:
64,192,296728,1,0,0:0:0:0:
192,192,296728,1,0,0:0:0:0:
320,192,296728,1,0,0:0:0:0:
448,192,296728,1,0,0:0:0:0:
192,192,296834,1,0,0:0:0:0:
320,192,296834,1,0,0:0:0:0:
64,192,296938,1,0,0:0:0:0:
320,192,296938,1,0,0:0:0:0:
448,192,296938,1,0,0:0:0:0:
448,192,297042,1,0,0:0:0:0:
192,192,297042,1,0,0:0:0:0:
64,192,297148,1,0,0:0:0:0:
320,192,297148,1,0,0:0:0:0:
448,192,297148,1,0,0:0:0:0:
192,192,297148,1,0,0:0:0:0:
320,192,297252,1,0,0:0:0:0:
448,192,297252,1,0,0:0:0:0:
448,192,297357,1,0,0:0:0:0:
64,192,297357,1,0,0:0:0:0:
192,192,297357,1,0,0:0:0:0:
192,192,297462,1,0,0:0:0:0:
320,192,297462,1,0,0:0:0:0:
64,192,297567,1,0,0:0:0:0:
192,192,297567,1,0,0:0:0:0:
448,192,297567,1,0,0:0:0:0:
320,192,297567,1,0,0:0:0:0:
64,192,297672,1,0,0:0:0:0:
448,192,297672,1,0,0:0:0:0:
448,192,297777,1,0,0:0:0:0:
320,192,297777,1,0,0:0:0:0:
192,192,297777,1,0,0:0:0:0:
64,192,297881,1,0,0:0:0:0:
320,192,297881,1,0,0:0:0:0:
64,192,297987,1,0,0:0:0:0:
192,192,297987,1,0,0:0:0:0:
448,192,297987,1,0,0:0:0:0:
320,192,297987,1,0,0:0:0:0:
192,192,298091,1,0,0:0:0:0:
448,192,298091,1,0,0:0:0:0:
192,192,298195,1,0,0:0:0:0:
64,192,298195,1,0,0:0:0:0:
320,192,298195,1,0,0:0:0:0:
448,192,298301,1,0,0:0:0:0:
320,192,298301,1,0,0:0:0:0:
64,192,298405,1,0,0:0:0:0:
192,192,298405,1,0,0:0:0:0:
320,192,298405,1,0,0:0:0:0:
448,192,298405,1,0,0:0:0:0:
192,192,298510,1,0,0:0:0:0:
64,192,298510,1,0,0:0:0:0:
448,192,298615,1,0,0:0:0:0:
320,192,298615,1,0,0:0:0:0:
64,192,298615,1,0,0:0:0:0:
192,192,298720,1,0,0:0:0:0:
320,192,298720,1,0,0:0:0:0:
64,192,298824,1,0,0:0:0:0:
192,192,298824,1,0,0:0:0:0:
320,192,298824,1,0,0:0:0:0:
448,192,298824,1,0,0:0:0:0:
64,192,298930,1,0,0:0:0:0:
448,192,298930,1,0,0:0:0:0:
448,192,299034,1,0,0:0:0:0:
192,192,299034,1,0,0:0:0:0:
320,192,299034,1,0,0:0:0:0:
192,192,299138,1,0,0:0:0:0:
64,192,299138,1,0,0:0:0:0:
320,192,299244,1,0,0:0:0:0:
448,192,299244,1,0,0:0:0:0:
64,192,299244,1,0,0:0:0:0:
192,192,299244,1,0,0:0:0:0:
192,192,299348,1,0,0:0:0:0:
448,192,299348,1,0,0:0:0:0:
64,192,299452,1,0,0:0:0:0:
192,192,299452,1,0,0:0:0:0:
320,192,299452,1,0,0:0:0:0:
448,192,299558,1,0,0:0:0:0:
64,192,299558,1,0,0:0:0:0:
64,192,299662,1,0,0:0:0:0:
192,192,299662,1,0,0:0:0:0:
320,192,299662,1,0,0:0:0:0:
448,192,299662,1,0,0:0:0:0:
192,192,299768,1,0,0:0:0:0:
320,192,299768,1,0,0:0:0:0:
320,192,299872,1,0,0:0:0:0:
448,192,299872,1,0,0:0:0:0:
64,192,299872,1,0,0:0:0:0:
192,192,299977,1,0,0:0:0:0:
64,192,299977,1,0,0:0:0:0:
64,192,300082,1,0,0:0:0:0:
192,192,300082,1,0,0:0:0:0:
320,192,300082,1,0,0:0:0:0:
448,192,300082,1,0,0:0:0:0:
320,192,300187,1,0,0:0:0:0:
448,192,300187,1,0,0:0:0:0:
192,192,300291,1,0,0:0:0:0:
64,192,300291,1,0,0:0:0:0:
448,192,300291,1,0,0:0:0:0:
320,192,300397,1,0,0:0:0:0:
192,192,300397,1,0,0:0:0:0:
448,192,300501,1,0,0:0:0:0:
320,192,300501,1,0,0:0:0:0:
64,192,300501,1,0,0:0:0:0:
192,192,300501,1,0,0:0:0:0:
64,192,300605,1,0,0:0:0:0:
448,192,300605,1,0,0:0:0:0:
192,192,300711,1,0,0:0:0:0:
320,192,300711,1,0,0:0:0:0:
448,192,300711,1,0,0:0:0:0:
64,192,300815,1,0,0:0:0:0:
320,192,300815,1,0,0:0:0:0:
64,192,300920,1,0,0:0:0:0:
320,192,300920,1,0,0:0:0:0:
448,192,300920,1,0,0:0:0:0:
192,192,300920,1,0,0:0:0:0:
192,192,301025,1,0,0:0:0:0:
448,192,301025,1,0,0:0:0:0:
64,192,301130,1,0,0:0:0:0:
192,192,301130,1,0,0:0:0:0:
320,192,301130,1,0,0:0:0:0:
64,192,301234,1,0,0:0:0:0:
448,192,301234,1,0,0:0:0:0:
64,192,301340,1,0,0:0:0:0:
320,192,301340,1,0,0:0:0:0:
192,192,301340,1,0,0:0:0:0:
448,192,301340,1,0,0:0:0:0:
64,192,301444,1,0,0:0:0:0:
192,192,301444,1,0,0:0:0:0:
320,192,301548,1,0,0:0:0:0:
192,192,301548,1,0,0:0:0:0:
448,192,301548,1,0,0:0:0:0:
64,192,301654,1,0,0:0:0:0:
448,192,301654,1,0,0:0:0:0:
448,192,301758,1,0,0:0:0:0:
192,192,301758,1,0,0:0:0:0:
64,192,301758,1,0,0:0:0:0:
320,192,301758,1,0,0:0:0:0:
192,192,301864,1,0,0:0:0:0:
320,192,301864,1,0,0:0:0:0:
448,192,301968,1,0,0:0:0:0:
320,192,301968,1,0,0:0:0:0:
64,192,301968,1,0,0:0:0:0:
64,192,302072,1,0,0:0:0:0:
192,192,302072,1,0,0:0:0:0:
64,192,302178,1,0,0:0:0:0:
192,192,302178,1,0,0:0:0:0:
320,192,302178,1,0,0:0:0:0:
448,192,302178,1,0,0:0:0:0:
320,192,302282,1,0,0:0:0:0:
448,192,302282,1,0,0:0:0:0:
192,192,302387,1,0,0:0:0:0:
64,192,302387,1,0,0:0:0:0:
320,192,302387,1,0,0:0:0:0:
64,192,302492,1,0,0:0:0:0:
448,192,302492,1,0,0:0:0:0:
64,192,302597,1,0,0:0:0:0:
192,192,302597,1,0,0:0:0:0:
448,192,302597,1,0,0:0:0:0:
320,192,302597,1,0,0:0:0:0:
192,192,302701,1,0,0:0:0:0:
320,192,302701,1,0,0:0:0:0:
64,192,302807,1,0,0:0:0:0:
320,192,302807,1,0,0:0:0:0:
448,192,302807,1,0,0:0:0:0:
192,192,302911,1,0,0:0:0:0:
448,192,302911,1,0,0:0:0:0:
64,192,303015,1,0,0:0:0:0:
192,192,303015,1,0,0:0:0:0:
320,192,303015,1,0,0:0:0:0:
448,192,303015,1,0,0:0:0:0:
320,192,303121,1,0,0:0:0:0:
64,192,303121,1,0,0:0:0:0:
320,192,303225,1,0,0:0:0:0:
64,192,303225,1,0,0:0:0:0:
448,192,303225,1,0,0:0:0:0:
192,192,303330,1,0,0:0:0:0:
448,192,303330,1,0,0:0:0:0:
64,192,303435,1,0,0:0:0:0:
192,192,303435,1,0,0:0:0:0:
320,192,303435,1,0,0:0:0:0:
448,192,303435,1,0,0:0:0:0:
192,192,303540,1,0,0:0:0:0:
64,192,303540,1,0,0:0:0:0:
448,192,303644,1,0,0:0:0:0:
192,192,303644,1,0,0:0:0:0:
320,192,303644,1,0,0:0:0:0:
64,192,303750,1,0,0:0:0:0:
320,192,303750,1,0,0:0:0:0:
192,192,303854,1,0,0:0:0:0:
448,192,303854,1,0,0:0:0:0:
320,192,303854,1,0,0:0:0:0:
64,192,303854,1,0,0:0:0:0:
192,192,303960,1,0,0:0:0:0:
448,192,303960,1,0,0:0:0:0:
320,192,304064,1,0,0:0:0:0:
192,192,304064,1,0,0:0:0:0:
64,192,304064,1,0,0:0:0:0:
64,192,304168,1,0,0:0:0:0:
448,192,304168,1,0,0:0:0:0:
192,192,304274,1,0,0:0:0:0:
320,192,304274,1,0,0:0:0:0:
64,192,304274,1,0,0:0:0:0:
448,192,304274,1,0,0:0:0:0:
192,192,304378,1,0,0:0:0:0:
320,192,304378,1,0,0:0:0:0:
64,192,304482,1,0,0:0:0:0:
320,192,304482,1,0,0:0:0:0:
448,192,304482,1,0,0:0:0:0:
320,192,304588,1,0,0:0:0:0:
448,192,304588,1,0,0:0:0:0:
64,192,304692,1,0,0:0:0:0:
192,192,304692,1,0,0:0:0:0:
448,192,304692,1,0,0:0:0:0:
320,192,304692,1,0,0:0:0:0:
192,192,304797,1,0,0:0:0:0:
64,192,304797,1,0,0:0:0:0:
64,192,304902,1,0,0:0:0:0:
320,192,304902,1,0,0:0:0:0:
448,192,304902,1,0,0:0:0:0:
192,192,305007,1,0,0:0:0:0:
320,192,305007,1,0,0:0:0:0:
64,192,305111,1,0,0:0:0:0:
192,192,305111,1,0,0:0:0:0:
320,192,305111,1,0,0:0:0:0:
448,192,305111,1,0,0:0:0:0:
64,192,305217,1,0,0:0:0:0:
192,192,305321,1,0,0:0:0:0:
320,192,305425,1,0,0:0:0:0:
448,192,305531,1,0,0:0:0:0:
64,192,305531,1,0,0:0:0:0:
192,192,305635,1,0,0:0:0:0:
448,192,305740,1,0,0:0:0:0:
320,192,305845,1,0,0:0:0:0:
192,192,305950,1,0,0:0:0:0:
64,192,305950,1,0,0:0:0:0:
448,192,306055,1,0,0:0:0:0:
320,192,306160,1,0,0:0:0:0:
192,192,306264,1,0,0:0:0:0:
64,192,306370,1,0,0:0:0:0:
320,192,306370,1,0,0:0:0:0:
448,192,306474,1,0,0:0:0:0:
64,192,306578,1,0,0:0:0:0:
192,192,306684,1,0,0:0:0:0:
448,192,306788,1,0,0:0:0:0:
64,192,306788,1,0,0:0:0:0:
320,192,306788,1,0,0:0:0:0:
192,192,306892,1,0,0:0:0:0:
448,192,306892,1,0,0:0:0:0:
64,192,306998,1,0,0:0:0:0:
192,192,306998,1,0,0:0:0:0:
448,192,307102,1,0,0:0:0:0:
64,192,307102,1,0,0:0:0:0:
192,192,307207,1,0,0:0:0:0:
320,192,307207,1,0,0:0:0:0:
448,192,307207,1,0,0:0:0:0:
192,192,307312,1,0,0:0:0:0:
320,192,307312,1,0,0:0:0:0:
64,192,307417,1,0,0:0:0:0:
448,192,307417,1,0,0:0:0:0:
192,192,307521,1,0,0:0:0:0:
64,192,307521,1,0,0:0:0:0:
320,192,307627,1,0,0:0:0:0:
448,192,307627,1,0,0:0:0:0:
64,192,307627,1,0,0:0:0:0:
448,192,307731,1,0,0:0:0:0:
320,192,307731,1,0,0:0:0:0:
64,192,307835,1,0,0:0:0:0:
192,192,307888,1,0,0:0:0:0:
320,192,307941,1,0,0:0:0:0:
448,192,307992,1,0,0:0:0:0:
192,192,308045,1,0,0:0:0:0:
64,192,308045,1,0,0:0:0:0:
448,192,308151,1,0,0:0:0:0:
192,192,308151,1,0,0:0:0:0:
64,192,308255,1,0,0:0:0:0:
320,192,308308,1,0,0:0:0:0:
448,192,308360,1,0,0:0:0:0:
192,192,308412,1,0,0:0:0:0:
64,192,308465,1,0,0:0:0:0:
320,192,308465,1,0,0:0:0:0:
448,192,308570,1,0,0:0:0:0:
192,192,308570,1,0,0:0:0:0:
320,192,308674,1,0,0:0:0:0:
448,192,308674,1,0,0:0:0:0:
192,192,308780,1,0,0:0:0:0:
64,192,308780,1,0,0:0:0:0:
64,192,308884,1,0,0:0:0:0:
320,192,308884,1,0,0:0:0:0:
448,192,308884,1,0,0:0:0:0:
192,192,308988,1,0,0:0:0:0:
448,192,308988,1,0,0:0:0:0:
320,192,309094,1,0,0:0:0:0:
64,192,309094,1,0,0:0:0:0:
192,192,309198,1,0,0:0:0:0:
320,192,309198,1,0,0:0:0:0:
64,192,309302,1,0,0:0:0:0:
320,192,309302,1,0,0:0:0:0:
448,192,309302,1,0,0:0:0:0:
192,192,309408,1,0,0:0:0:0:
64,192,309408,1,0,0:0:0:0:
192,192,309512,1,0,0:0:0:0:
448,192,309512,1,0,0:0:0:0:
320,192,309617,1,0,0:0:0:0:
64,192,309617,1,0,0:0:0:0:
64,192,309722,1,0,0:0:0:0:
192,192,309722,1,0,0:0:0:0:
448,192,309722,1,0,0:0:0:0:
320,192,309827,1,0,0:0:0:0:
448,192,309827,1,0,0:0:0:0:
192,192,309931,1,0,0:0:0:0:
448,192,309931,1,0,0:0:0:0:
64,192,310037,1,0,0:0:0:0:
192,192,310037,1,0,0:0:0:0:
64,192,310141,1,0,0:0:0:0:
192,192,310141,1,0,0:0:0:0:
448,192,310141,1,0,0:0:0:0:
320,192,310247,1,0,0:0:0:0:
448,192,310247,1,0,0:0:0:0:
64,192,310351,1,0,0:0:0:0:
192,192,310351,1,0,0:0:0:0:
64,192,310455,1,0,0:0:0:0:
448,192,310455,1,0,0:0:0:0:
64,192,310561,1,0,0:0:0:0:
320,192,310561,1,0,0:0:0:0:
448,192,310561,1,0,0:0:0:0:
192,192,310665,1,0,0:0:0:0:
320,192,310665,1,0,0:0:0:0:
64,192,310770,1,0,0:0:0:0:
448,192,310770,1,0,0:0:0:0:
448,192,310875,1,0,0:0:0:0:
192,192,310875,1,0,0:0:0:0:
320,192,310980,1,0,0:0:0:0:
64,192,310980,1,0,0:0:0:0:
192,192,310980,1,0,0:0:0:0:
320,192,311084,1,0,0:0:0:0:
448,192,311084,1,0,0:0:0:0:
64,192,311190,1,0,0:0:0:0:
448,192,311190,1,0,0:0:0:0:
64,192,311294,1,0,0:0:0:0:
320,192,311294,1,0,0:0:0:0:
192,192,311398,1,0,0:0:0:0:
320,192,311398,1,0,0:0:0:0:
448,192,311398,1,0,0:0:0:0:
64,192,311504,1,0,0:0:0:0:
448,192,311504,1,0,0:0:0:0:
320,192,311608,1,0,0:0:0:0:
64,192,311608,1,0,0:0:0:0:
192,192,311712,1,0,0:0:0:0:
448,192,311712,1,0,0:0:0:0:
320,192,311818,1,0,0:0:0:0:
448,192,311818,1,0,0:0:0:0:
64,192,311818,1,0,0:0:0:0:
192,192,311922,1,0,0:0:0:0:
320,192,311922,1,0,0:0:0:0:
64,192,312027,1,0,0:0:0:0:
448,192,312027,1,0,0:0:0:0:
192,192,312132,1,0,0:0:0:0:
448,192,312132,1,0,0:0:0:0:
320,192,312237,1,0,0:0:0:0:
448,192,312237,1,0,0:0:0:0:
64,192,312237,1,0,0:0:0:0:
320,192,312342,1,0,0:0:0:0:
192,192,312342,1,0,0:0:0:0:
64,192,312447,1,0,0:0:0:0:
448,192,312447,1,0,0:0:0:0:
320,192,312551,1,0,0:0:0:0:
64,192,312551,1,0,0:0:0:0:
192,192,312657,1,0,0:0:0:0:
320,192,312657,1,0,0:0:0:0:
448,192,312657,1,0,0:0:0:0:
64,192,312761,1,0,0:0:0:0:
192,192,312761,1,0,0:0:0:0:
64,192,312865,1,0,0:0:0:0:
448,192,312865,1,0,0:0:0:0:
320,192,312971,1,0,0:0:0:0:
448,192,312971,1,0,0:0:0:0:
192,192,313075,1,0,0:0:0:0:
320,192,313075,1,0,0:0:0:0:
64,192,313075,1,0,0:0:0:0:
448,192,313180,1,0,0:0:0:0:
192,192,313180,1,0,0:0:0:0:
64,192,313285,1,0,0:0:0:0:
320,192,313285,1,0,0:0:0:0:
64,192,313390,1,0,0:0:0:0:
192,192,313390,1,0,0:0:0:0:
192,192,313494,1,0,0:0:0:0:
448,192,313494,1,0,0:0:0:0:
64,192,313494,1,0,0:0:0:0:
320,192,313600,1,0,0:0:0:0:
448,192,313600,1,0,0:0:0:0:
64,192,313704,1,0,0:0:0:0:
320,192,313704,1,0,0:0:0:0:
192,192,313808,1,0,0:0:0:0:
448,192,313808,1,0,0:0:0:0:
320,192,313914,1,0,0:0:0:0:
64,192,313914,1,0,0:0:0:0:
448,192,313914,1,0,0:0:0:0:
192,192,314018,1,0,0:0:0:0:
64,192,314018,1,0,0:0:0:0:
192,192,314122,1,0,0:0:0:0:
448,192,314122,1,0,0:0:0:0:
320,192,314228,1,0,0:0:0:0:
64,192,314228,1,0,0:0:0:0:
64,192,314332,1,0,0:0:0:0:
448,192,314332,1,0,0:0:0:0:
192,192,314332,1,0,0:0:0:0:
320,192,314438,1,0,0:0:0:0:
448,192,314438,1,0,0:0:0:0:
320,192,314542,1,0,0:0:0:0:
192,192,314542,1,0,0:0:0:0:
64,192,314647,1,0,0:0:0:0:
448,192,314647,1,0,0:0:0:0:
320,192,314752,1,0,0:0:0:0:
192,192,314752,1,0,0:0:0:0:
64,192,314752,1,0,0:0:0:0:
448,192,314857,1,0,0:0:0:0:
192,192,314857,1,0,0:0:0:0:
320,192,314961,1,0,0:0:0:0:
448,192,314961,1,0,0:0:0:0:
64,192,315067,1,0,0:0:0:0:
192,192,315067,1,0,0:0:0:0:
64,192,315171,1,0,0:0:0:0:
192,192,315171,1,0,0:0:0:0:
448,192,315171,1,0,0:0:0:0:
192,192,315381,1,0,0:0:0:0:
320,192,315590,1,0,0:0:0:0:
448,192,315590,1,0,0:0:0:0:
192,192,315800,1,0,0:0:0:0:
320,192,316010,1,0,0:0:0:0:
448,192,316010,1,0,0:0:0:0:
64,192,316218,1,0,0:0:0:0:
320,192,316428,1,0,0:0:0:0:
448,192,316428,1,0,0:0:0:0:
64,192,316638,1,0,0:0:0:0:
192,192,316848,1,0,0:0:0:0:
448,192,316848,1,0,0:0:0:0:
320,192,317057,1,0,0:0:0:0:
192,192,317267,1,0,0:0:0:0:
64,192,317267,1,0,0:0:0:0:
448,192,317477,1,0,0:0:0:0:
320,192,317685,1,0,0:0:0:0:
64,192,317685,1,0,0:0:0:0:
192,192,317895,1,0,0:0:0:0:
448,192,318105,1,0,0:0:0:0:
320,192,318105,1,0,0:0:0:0:
64,192,318314,1,0,0:0:0:0:
192,192,318524,1,0,0:0:0:0:
448,192,318524,1,0,0:0:0:0:
320,192,318734,1,0,0:0:0:0:
192,192,318944,1,0,0:0:0:0:
64,192,318944,1,0,0:0:0:0:
448,192,319152,1,0,0:0:0:0:
320,192,319362,1,0,0:0:0:0:
192,192,319362,1,0,0:0:0:0:
64,192,319572,1,0,0:0:0:0:
320,192,319781,1,0,0:0:0:0:
448,192,319781,1,0,0:0:0:0:
192,192,319991,1,0,0:0:0:0:
64,192,320201,1,0,0:0:0:0:
320,192,320201,1,0,0:0:0:0:
192,192,320410,1,0,0:0:0:0:
448,192,320620,1,0,0:0:0:0:
64,192,320620,1,0,0:0:0:0:
320,192,320830,1,0,0:0:0:0:
192,192,321040,1,0,0:0:0:0:
64,192,321040,1,0,0:0:0:0:
448,192,321248,1,0,0:0:0:0:
320,192,321458,1,0,0:0:0:0:
192,192,321458,1,0,0:0:0:0:
64,192,321668,1,0,0:0:0:0:
64,192,321877,1,0,0:0:0:0:
192,192,321877,1,0,0:0:0:0:
320,192,321877,1,0,0:0:0:0:
448,192,321877,1,0,0:0:0:0:
320,192,321982,1,0,0:0:0:0:
448,192,321982,1,0,0:0:0:0:
64,192,322087,1,0,0:0:0:0:
192,192,322087,1,0,0:0:0:0:
448,192,322087,1,0,0:0:0:0:
320,192,322191,1,0,0:0:0:0:
64,192,322191,1,0,0:0:0:0:
192,192,322297,1,0,0:0:0:0:
64,192,322297,1,0,0:0:0:0:
320,192,322297,1,0,0:0:0:0:
448,192,322297,1,0,0:0:0:0:
192,192,322401,1,0,0:0:0:0:
448,192,322401,1,0,0:0:0:0:
448,192,322505,1,0,0:0:0:0:
320,192,322505,1,0,0:0:0:0:
64,192,322505,1,0,0:0:0:0:
192,192,322611,1,0,0:0:0:0:
320,192,322611,1,0,0:0:0:0:
64,192,322715,1,0,0:0:0:0:
320,192,322715,1,0,0:0:0:0:
448,192,322715,1,0,0:0:0:0:
192,192,322715,1,0,0:0:0:0:
192,192,322820,1,0,0:0:0:0:
448,192,322820,1,0,0:0:0:0:
320,192,322925,1,0,0:0:0:0:
448,192,322925,1,0,0:0:0:0:
64,192,322925,1,0,0:0:0:0:
192,192,323030,1,0,0:0:0:0:
64,192,323030,1,0,0:0:0:0:
64,192,323135,1,0,0:0:0:0:
192,192,323135,1,0,0:0:0:0:
320,192,323135,1,0,0:0:0:0:
448,192,323135,1,0,0:0:0:0:
192,192,323240,1,0,0:0:0:0:
448,192,323240,1,0,0:0:0:0:
320,192,323344,1,0,0:0:0:0:
192,192,323344,1,0,0:0:0:0:
64,192,323344,1,0,0:0:0:0:
64,192,323450,1,0,0:0:0:0:
448,192,323450,1,0,0:0:0:0:
64,192,323554,1,0,0:0:0:0:
192,192,323554,1,0,0:0:0:0:
320,192,323554,1,0,0:0:0:0:
448,192,323554,1,0,0:0:0:0:
192,192,323658,1,0,0:0:0:0:
320,192,323658,1,0,0:0:0:0:
64,192,323764,1,0,0:0:0:0:
448,192,323764,1,0,0:0:0:0:
320,192,323764,1,0,0:0:0:0:
192,192,323868,1,0,0:0:0:0:
64,192,323868,1,0,0:0:0:0:
64,192,323972,1,0,0:0:0:0:
192,192,323972,1,0,0:0:0:0:
320,192,323972,1,0,0:0:0:0:
448,192,323972,1,0,0:0:0:0:
320,192,324078,1,0,0:0:0:0:
448,192,324078,1,0,0:0:0:0:
64,192,324182,1,0,0:0:0:0:
448,192,324182,1,0,0:0:0:0:
192,192,324182,1,0,0:0:0:0:
320,192,324287,1,0,0:0:0:0:
64,192,324287,1,0,0:0:0:0:
64,192,324392,1,0,0:0:0:0:
192,192,324392,1,0,0:0:0:0:
320,192,324392,1,0,0:0:0:0:
448,192,324392,1,0,0:0:0:0:
64,192,324497,1,0,0:0:0:0:
192,192,324497,1,0,0:0:0:0:
64,192,324601,1,0,0:0:0:0:
448,192,324601,1,0,0:0:0:0:
320,192,324601,1,0,0:0:0:0:
320,192,324707,1,0,0:0:0:0:
448,192,324707,1,0,0:0:0:0:
64,192,324811,1,0,0:0:0:0:
192,192,324811,1,0,0:0:0:0:
320,192,324811,1,0,0:0:0:0:
448,192,324811,1,0,0:0:0:0:
448,192,324915,1,0,0:0:0:0:
64,192,324915,1,0,0:0:0:0:
448,192,325021,1,0,0:0:0:0:
192,192,325021,1,0,0:0:0:0:
320,192,325021,1,0,0:0:0:0:
320,192,325125,1,0,0:0:0:0:
64,192,325125,1,0,0:0:0:0:
64,192,325231,1,0,0:0:0:0:
192,192,325231,1,0,0:0:0:0:
448,192,325231,1,0,0:0:0:0:
320,192,325231,1,0,0:0:0:0:
192,192,325335,1,0,0:0:0:0:
64,192,325335,1,0,0:0:0:0:
64,192,325440,1,0,0:0:0:0:
448,192,325440,1,0,0:0:0:0:
192,192,325545,1,0,0:0:0:0:
320,192,325545,1,0,0:0:0:0:
320,192,325650,1,0,0:0:0:0:
448,192,325650,1,0,0:0:0:0:
192,192,325650,1,0,0:0:0:0:
64,192,325650,1,0,0:0:0:0:
64,192,325754,1,0,0:0:0:0:
448,192,325754,1,0,0:0:0:0:
320,192,325860,1,0,0:0:0:0:
448,192,325860,1,0,0:0:0:0:
192,192,325964,1,0,0:0:0:0:
320,192,325964,1,0,0:0:0:0:
64,192,326068,1,0,0:0:0:0:
192,192,326068,1,0,0:0:0:0:
320,192,326068,1,0,0:0:0:0:
448,192,326068,1,0,0:0:0:0:
192,192,326174,1,0,0:0:0:0:
64,192,326174,1,0,0:0:0:0:
448,192,326278,1,0,0:0:0:0:
320,192,326278,1,0,0:0:0:0:
192,192,326382,1,0,0:0:0:0:
448,192,326382,1,0,0:0:0:0:
320,192,326488,1,0,0:0:0:0:
192,192,326488,1,0,0:0:0:0:
64,192,326488,1,0,0:0:0:0:
448,192,326488,1,0,0:0:0:0:
320,192,326592,1,0,0:0:0:0:
64,192,326592,1,0,0:0:0:0:
192,192,326697,1,0,0:0:0:0:
448,192,326697,1,0,0:0:0:0:
448,192,326802,1,0,0:0:0:0:
320,192,326802,1,0,0:0:0:0:
64,192,326907,1,0,0:0:0:0:
192,192,326907,1,0,0:0:0:0:
320,192,326907,1,0,0:0:0:0:
448,192,326907,1,0,0:0:0:0:
192,192,327011,1,0,0:0:0:0:
64,192,327011,1,0,0:0:0:0:
64,192,327117,1,0,0:0:0:0:
320,192,327117,1,0,0:0:0:0:
192,192,327221,1,0,0:0:0:0:
320,192,327221,1,0,0:0:0:0:
192,192,327327,1,0,0:0:0:0:
320,192,327327,1,0,0:0:0:0:
448,192,327327,1,0,0:0:0:0:
64,192,327327,1,0,0:0:0:0:
64,192,327431,1,0,0:0:0:0:
448,192,327431,1,0,0:0:0:0:
192,192,327535,1,0,0:0:0:0:
448,192,327535,1,0,0:0:0:0:
192,192,327641,1,0,0:0:0:0:
64,192,327641,1,0,0:0:0:0:
64,192,327745,1,0,0:0:0:0:
192,192,327745,1,0,0:0:0:0:
320,192,327745,1,0,0:0:0:0:
448,192,327745,1,0,0:0:0:0:
320,192,327850,1,0,0:0:0:0:
448,192,327850,1,0,0:0:0:0:
64,192,327955,1,0,0:0:0:0:
192,192,327955,1,0,0:0:0:0:
64,192,328060,1,0,0:0:0:0:
448,192,328060,1,0,0:0:0:0:
64,192,328164,1,0,0:0:0:0:
192,192,328164,1,0,0:0:0:0:
448,192,328164,1,0,0:0:0:0:
320,192,328164,1,0,0:0:0:0:
320,192,328270,1,0,0:0:0:0:
448,192,328270,1,0,0:0:0:0:
192,192,328374,1,0,0:0:0:0:
64,192,328374,1,0,0:0:0:0:
64,192,328478,1,0,0:0:0:0:
320,192,328478,1,0,0:0:0:0:
64,192,328584,1,0,0:0:0:0:
192,192,328584,1,0,0:0:0:0:
320,192,328584,1,0,0:0:0:0:
448,192,328584,1,0,0:0:0:0:
192,192,328688,1,0,0:0:0:0:
448,192,328688,1,0,0:0:0:0:
320,192,328792,1,0,0:0:0:0:
448,192,328792,1,0,0:0:0:0:
192,192,328898,1,0,0:0:0:0:
320,192,328898,1,0,0:0:0:0:
64,192,329002,1,0,0:0:0:0:
192,192,329002,1,0,0:0:0:0:
320,192,329002,1,0,0:0:0:0:
448,192,329002,1,0,0:0:0:0:
64,192,329107,1,0,0:0:0:0:
448,192,329107,1,0,0:0:0:0:
192,192,329212,1,0,0:0:0:0:
64,192,329212,1,0,0:0:0:0:
320,192,329317,1,0,0:0:0:0:
448,192,329317,1,0,0:0:0:0:
64,192,329422,1,0,0:0:0:0:
192,192,329422,1,0,0:0:0:0:
320,192,329422,1,0,0:0:0:0:
448,192,329422,1,0,0:0:0:0:
192,192,329527,1,0,0:0:0:0:
448,192,329527,1,0,0:0:0:0:
320,192,329631,1,0,0:0:0:0:
64,192,329631,1,0,0:0:0:0:
192,192,329737,1,0,0:0:0:0:
64,192,329737,1,0,0:0:0:0:
64,192,329841,1,0,0:0:0:0:
320,192,329841,1,0,0:0:0:0:
192,192,329841,1,0,0:0:0:0:
448,192,329841,1,0,0:0:0:0:
192,192,329945,1,0,0:0:0:0:
320,192,329945,1,0,0:0:0:0:
64,192,330051,1,0,0:0:0:0:
448,192,330051,1,0,0:0:0:0:
192,192,330155,1,0,0:0:0:0:
320,192,330155,1,0,0:0:0:0:
64,192,330260,1,0,0:0:0:0:
192,192,330260,1,0,0:0:0:0:
320,192,330260,1,0,0:0:0:0:
448,192,330260,1,0,0:0:0:0:
64,192,330365,1,0,0:0:0:0:
448,192,330365,1,0,0:0:0:0:
320,192,330470,1,0,0:0:0:0:
448,192,330470,1,0,0:0:0:0:
192,192,330574,1,0,0:0:0:0:
64,192,330574,1,0,0:0:0:0:
64,192,330680,1,0,0:0:0:0:
192,192,330680,1,0,0:0:0:0:
448,192,330680,1,0,0:0:0:0:
320,192,330680,1,0,0:0:0:0:
320,192,330784,1,0,0:0:0:0:
448,192,330784,1,0,0:0:0:0:
192,192,330888,1,0,0:0:0:0:
448,192,330888,1,0,0:0:0:0:
320,192,330994,1,0,0:0:0:0:
192,192,330994,1,0,0:0:0:0:
64,192,331098,1,0,0:0:0:0:
192,192,331098,1,0,0:0:0:0:
448,192,331098,1,0,0:0:0:0:
320,192,331098,1,0,0:0:0:0:
64,192,331202,1,0,0:0:0:0:
448,192,331202,1,0,0:0:0:0:
192,192,331308,1,0,0:0:0:0:
64,192,331308,1,0,0:0:0:0:
320,192,331412,1,0,0:0:0:0:
448,192,331412,1,0,0:0:0:0:
64,192,331518,1,0,0:0:0:0:
448,192,331518,1,0,0:0:0:0:
320,192,331518,1,0,0:0:0:0:
192,192,331518,1,0,0:0:0:0:
192,192,331622,1,0,0:0:0:0:
64,192,331622,1,0,0:0:0:0:
64,192,331727,1,0,0:0:0:0:
320,192,331727,1,0,0:0:0:0:
192,192,331832,1,0,0:0:0:0:
448,192,331832,1,0,0:0:0:0:
320,192,331937,1,0,0:0:0:0:
448,192,331937,1,0,0:0:0:0:
192,192,331937,1,0,0:0:0:0:
64,192,331937,1,0,0:0:0:0:
192,192,332041,1,0,0:0:0:0:
64,192,332041,1,0,0:0:0:0:
320,192,332147,1,0,0:0:0:0:
448,192,332147,1,0,0:0:0:0:
64,192,332251,1,0,0:0:0:0:
448,192,332251,1,0,0:0:0:0:
448,192,332355,1,0,0:0:0:0:
320,192,332355,1,0,0:0:0:0:
192,192,332355,1,0,0:0:0:0:
64,192,332355,1,0,0:0:0:0:
64,192,332461,1,0,0:0:0:0:
192,192,332461,1,0,0:0:0:0:
320,192,332565,1,0,0:0:0:0:
192,192,332565,1,0,0:0:0:0:
64,192,332670,1,0,0:0:0:0:
448,192,332670,1,0,0:0:0:0:
64,192,332775,1,0,0:0:0:0:
192,192,332775,1,0,0:0:0:0:
320,192,332775,1,0,0:0:0:0:
448,192,332775,1,0,0:0:0:0:
320,192,332880,1,0,0:0:0:0:
448,192,332880,1,0,0:0:0:0:
192,192,332984,1,0,0:0:0:0:
320,192,332984,1,0,0:0:0:0:
64,192,333090,1,0,0:0:0:0:
448,192,333090,1,0,0:0:0:0:
192,192,333194,1,0,0:0:0:0:
320,192,333194,1,0,0:0:0:0:
448,192,333194,1,0,0:0:0:0:
64,192,333194,1,0,0:0:0:0:
192,192,333298,1,0,0:0:0:0:
64,192,333298,1,0,0:0:0:0:
448,192,333404,1,0,0:0:0:0:
192,192,333404,1,0,0:0:0:0:
320,192,333508,1,0,0:0:0:0:
448,192,333508,1,0,0:0:0:0:
64,192,333614,1,0,0:0:0:0:
192,192,333614,1,0,0:0:0:0:
320,192,333614,1,0,0:0:0:0:
448,192,333614,1,0,0:0:0:0:
64,192,333718,1,0,0:0:0:0:
192,192,333718,1,0,0:0:0:0:
64,192,333822,1,0,0:0:0:0:
448,192,333822,1,0,0:0:0:0:
192,192,333928,1,0,0:0:0:0:
320,192,333928,1,0,0:0:0:0:
192,192,334032,1,0,0:0:0:0:
320,192,334032,1,0,0:0:0:0:
448,192,334032,1,0,0:0:0:0:
64,192,334032,1,0,0:0:0:0:
192,192,334137,1,0,0:0:0:0:
448,192,334137,1,0,0:0:0:0:
320,192,334242,1,0,0:0:0:0:
448,192,334242,1,0,0:0:0:0:
192,192,334347,1,0,0:0:0:0:
64,192,334347,1,0,0:0:0:0:
448,192,334451,1,0,0:0:0:0:
320,192,334451,1,0,0:0:0:0:
192,192,334451,1,0,0:0:0:0:
64,192,334451,1,0,0:0:0:0:
320,192,334557,1,0,0:0:0:0:
64,192,334557,1,0,0:0:0:0:
192,192,334661,1,0,0:0:0:0:
64,192,334661,1,0,0:0:0:0:
320,192,334765,1,0,0:0:0:0:
448,192,334765,1,0,0:0:0:0:
64,192,334871,1,0,0:0:0:0:
320,192,334871,1,0,0:0:0:0:
448,192,334871,1,0,0:0:0:0:
192,192,334871,1,0,0:0:0:0:
192,192,334975,1,0,0:0:0:0:
64,192,334975,1,0,0:0:0:0:
320,192,335080,1,0,0:0:0:0:
448,192,335080,1,0,0:0:0:0:
192,192,335185,1,0,0:0:0:0:
64,192,335185,1,0,0:0:0:0:
64,192,335290,1,0,0:0:0:0:
192,192,335290,1,0,0:0:0:0:
320,192,335290,1,0,0:0:0:0:
448,192,335290,1,0,0:0:0:0:
320,192,335394,1,0,0:0:0:0:
448,192,335394,1,0,0:0:0:0:
64,192,335500,1,0,0:0:0:0:
448,192,335500,1,0,0:0:0:0:
192,192,335604,1,0,0:0:0:0:
320,192,335604,1,0,0:0:0:0:
64,192,335710,1,0,0:0:0:0:
192,192,335710,1,0,0:0:0:0:
448,192,335710,1,0,0:0:0:0:
320,192,335710,1,0,0:0:0:0:
64,192,335814,1,0,0:0:0:0:
320,192,335814,1,0,0:0:0:0:
192,192,335918,1,0,0:0:0:0:
64,192,335918,1,0,0:0:0:0:
320,192,336024,1,0,0:0:0:0:
448,192,336024,1,0,0:0:0:0:
64,192,336128,1,0,0:0:0:0:
192,192,336128,1,0,0:0:0:0:
320,192,336128,1,0,0:0:0:0:
448,192,336128,1,0,0:0:0:0:
192,192,336232,1,0,0:0:0:0:
64,192,336232,1,0,0:0:0:0:
64,192,336338,1,0,0:0:0:0:
448,192,336338,1,0,0:0:0:0:
320,192,336442,1,0,0:0:0:0:
448,192,336442,1,0,0:0:0:0:
64,192,336547,1,0,0:0:0:0:
192,192,336547,1,0,0:0:0:0:
320,192,336547,1,0,0:0:0:0:
448,192,336547,1,0,0:0:0:0:
320,192,336652,1,0,0:0:0:0:
192,192,336652,1,0,0:0:0:0:
64,192,336757,1,0,0:0:0:0:
448,192,336757,1,0,0:0:0:0:
192,192,336861,1,0,0:0:0:0:
64,192,336861,1,0,0:0:0:0:
64,192,336967,1,0,0:0:0:0:
192,192,336967,1,0,0:0:0:0:
320,192,336967,1,0,0:0:0:0:
448,192,336967,1,0,0:0:0:0:
320,192,337071,1,0,0:0:0:0:
448,192,337071,1,0,0:0:0:0:
192,192,337175,1,0,0:0:0:0:
64,192,337175,1,0,0:0:0:0:
192,192,337281,1,0,0:0:0:0:
320,192,337281,1,0,0:0:0:0:
64,192,337385,1,0,0:0:0:0:
192,192,337385,1,0,0:0:0:0:
320,192,337385,1,0,0:0:0:0:
448,192,337385,1,0,0:0:0:0:
64,192,337490,1,0,0:0:0:0:
448,192,337490,1,0,0:0:0:0:
192,192,337595,1,0,0:0:0:0:
448,192,337595,1,0,0:0:0:0:
320,192,337700,1,0,0:0:0:0:
192,192,337700,1,0,0:0:0:0:
448,192,337804,1,0,0:0:0:0:
320,192,337804,1,0,0:0:0:0:
192,192,337804,1,0,0:0:0:0:
64,192,337804,1,0,0:0:0:0:
64,192,337910,1,0,0:0:0:0:
320,192,337910,1,0,0:0:0:0:
192,192,338014,1,0,0:0:0:0:
448,192,338014,1,0,0:0:0:0:
320,192,338120,1,0,0:0:0:0:
448,192,338120,1,0,0:0:0:0:
448,192,338224,1,0,0:0:0:0:
320,192,338224,1,0,0:0:0:0:
192,192,338224,1,0,0:0:0:0:
64,192,338224,1,0,0:0:0:0:
192,192,338328,1,0,0:0:0:0:
64,192,338328,1,0,0:0:0:0:
448,192,338434,1,0,0:0:0:0:
64,192,338434,1,0,0:0:0:0:
192,192,338538,1,0,0:0:0:0:
320,192,338538,1,0,0:0:0:0:
64,192,338642,1,0,0:0:0:0:
192,192,338642,1,0,0:0:0:0:
320,192,338642,1,0,0:0:0:0:
448,192,338642,1,0,0:0:0:0:
64,192,338748,1,0,0:0:0:0:
448,192,338748,1,0,0:0:0:0:
320,192,338852,1,0,0:0:0:0:
448,192,338852,1,0,0:0:0:0:
192,192,338957,1,0,0:0:0:0:
320,192,338957,1,0,0:0:0:0:
448,192,339062,1,0,0:0:0:0:
320,192,339062,1,0,0:0:0:0:
192,192,339062,1,0,0:0:0:0:
64,192,339062,1,0,0:0:0:0:
64,192,339167,1,0,0:0:0:0:
192,192,339167,1,0,0:0:0:0:
64,192,339271,1,0,0:0:0:0:
448,192,339271,1,0,0:0:0:0:
448,192,339377,1,0,0:0:0:0:
320,192,339377,1,0,0:0:0:0:
192,192,339481,1,0,0:0:0:0:
64,192,339481,1,0,0:0:0:0:
320,192,339481,1,0,0:0:0:0:
448,192,339481,1,0,0:0:0:0:
192,192,339585,1,0,0:0:0:0:
64,192,339585,1,0,0:0:0:0:
448,192,339691,1,0,0:0:0:0:
64,192,339691,1,0,0:0:0:0:
320,192,339795,1,0,0:0:0:0:
448,192,339795,1,0,0:0:0:0:
64,192,339900,1,0,0:0:0:0:
320,192,339900,1,0,0:0:0:0:
192,192,339900,1,0,0:0:0:0:
448,192,339900,1,0,0:0:0:0:
192,192,340005,1,0,0:0:0:0:
64,192,340005,1,0,0:0:0:0:
320,192,340110,1,0,0:0:0:0:
192,192,340110,1,0,0:0:0:0:
64,192,340215,1,0,0:0:0:0:
448,192,340215,1,0,0:0:0:0:
64,192,340320,1,0,0:0:0:0:
192,192,340320,1,0,0:0:0:0:
320,192,340320,1,0,0:0:0:0:
448,192,340320,1,0,0:0:0:0:
320,192,340424,1,0,0:0:0:0:
448,192,340424,1,0,0:0:0:0:
64,192,340530,1,0,0:0:0:0:
192,192,340530,1,0,0:0:0:0:
64,192,340634,1,0,0:0:0:0:
320,192,340634,1,0,0:0:0:0:
64,192,340738,1,0,0:0:0:0:
192,192,340738,1,0,0:0:0:0:
320,192,340738,1,0,0:0:0:0:
448,192,340738,1,0,0:0:0:0:
192,192,340844,1,0,0:0:0:0:
448,192,340844,1,0,0:0:0:0:
320,192,340948,1,0,0:0:0:0:
448,192,340948,1,0,0:0:0:0:
64,192,341052,1,0,0:0:0:0:
320,192,341052,1,0,0:0:0:0:
64,192,341158,1,0,0:0:0:0:
192,192,341158,1,0,0:0:0:0:
320,192,341158,1,0,0:0:0:0:
448,192,341158,1,0,0:0:0:0:
192,192,341262,1,0,0:0:0:0:
320,192,341262,1,0,0:0:0:0:
448,192,341367,1,0,0:0:0:0:
64,192,341367,1,0,0:0:0:0:
192,192,341472,1,0,0:0:0:0:
64,192,341472,1,0,0:0:0:0:
320,192,341577,1,0,0:0:0:0:
192,192,341577,1,0,0:0:0:0:
448,192,341577,1,0,0:0:0:0:
64,192,341577,1,0,0:0:0:0:
448,192,341681,1,0,0:0:0:0:
192,192,341681,1,0,0:0:0:0:
320,192,341787,1,0,0:0:0:0:
448,192,341787,1,0,0:0:0:0:
192,192,341891,1,0,0:0:0:0:
64,192,341891,1,0,0:0:0:0:
64,192,341995,1,0,0:0:0:0:
192,192,341995,1,0,0:0:0:0:
320,192,341995,1,0,0:0:0:0:
448,192,341995,1,0,0:0:0:0:
64,192,342101,1,0,0:0:0:0:
448,192,342101,1,0,0:0:0:0:
320,192,342205,1,0,0:0:0:0:
192,192,342205,1,0,0:0:0:0:
64,192,342311,1,0,0:0:0:0:
320,192,342311,1,0,0:0:0:0:
64,192,342415,1,0,0:0:0:0:
320,192,342415,1,0,0:0:0:0:
448,192,342415,1,0,0:0:0:0:
192,192,342415,1,0,0:0:0:0:
192,192,342520,1,0,0:0:0:0:
448,192,342520,1,0,0:0:0:0:
320,192,342625,1,0,0:0:0:0:
448,192,342625,1,0,0:0:0:0:
320,192,342730,1,0,0:0:0:0:
192,192,342730,1,0,0:0:0:0:
64,192,342834,1,0,0:0:0:0:
320,192,342834,1,0,0:0:0:0:
448,192,342834,1,0,0:0:0:0:
192,192,342834,1,0,0:0:0:0:
64,192,342940,1,0,0:0:0:0:
448,192,342940,1,0,0:0:0:0:
192,192,343044,1,0,0:0:0:0:
64,192,343044,1,0,0:0:0:0:
320,192,343148,1,0,0:0:0:0:
192,192,343148,1,0,0:0:0:0:
192,192,343254,1,0,0:0:0:0:
64,192,343254,1,0,0:0:0:0:
320,192,343254,1,0,0:0:0:0:
448,192,343254,1,0,0:0:0:0:
64,192,343358,1,0,0:0:0:0:
320,192,343358,1,0,0:0:0:0:
192,192,343462,1,0,0:0:0:0:
448,192,343462,1,0,0:0:0:0:
320,192,343568,1,0,0:0:0:0:
448,192,343568,1,0,0:0:0:0:
64,192,343672,1,0,0:0:0:0:
192,192,343672,1,0,0:0:0:0:
320,192,343672,1,0,0:0:0:0:
448,192,343672,1,0,0:0:0:0:
192,192,343777,1,0,0:0:0:0:
64,192,343777,1,0,0:0:0:0:
448,192,343882,1,0,0:0:0:0:
320,192,343882,1,0,0:0:0:0:
64,192,343987,1,0,0:0:0:0:
320,192,343987,1,0,0:0:0:0:
64,192,344091,1,0,0:0:0:0:
320,192,344091,1,0,0:0:0:0:
448,192,344091,1,0,0:0:0:0:
192,192,344091,1,0,0:0:0:0:
192,192,344197,1,0,0:0:0:0:
448,192,344197,1,0,0:0:0:0:
320,192,344301,1,0,0:0:0:0:
448,192,344301,1,0,0:0:0:0:
192,192,344407,1,0,0:0:0:0:
64,192,344407,1,0,0:0:0:0:
64,192,344511,1,0,0:0:0:0:
192,192,344511,1,0,0:0:0:0:
320,192,344511,1,0,0:0:0:0:
448,192,344511,1,0,0:0:0:0:
64,192,344615,1,0,0:0:0:0:
320,192,344615,1,0,0:0:0:0:
192,192,344721,1,0,0:0:0:0:
448,192,344721,1,0,0:0:0:0:
320,192,344825,1,0,0:0:0:0:
448,192,344825,1,0,0:0:0:0:
64,192,344930,1,0,0:0:0:0:
320,192,344930,1,0,0:0:0:0:
448,192,344930,1,0,0:0:0:0:
192,192,344930,1,0,0:0:0:0:
192,192,345035,1,0,0:0:0:0:
64,192,345035,1,0,0:0:0:0:
64,192,345140,1,0,0:0:0:0:
320,192,345140,1,0,0:0:0:0:
320,192,345244,1,0,0:0:0:0:
192,192,345244,1,0,0:0:0:0:
64,192,345350,1,0,0:0:0:0:
320,192,345350,1,0,0:0:0:0:
448,192,345350,1,0,0:0:0:0:
192,192,345350,1,0,0:0:0:0:
64,192,345454,1,0,0:0:0:0:
448,192,345454,1,0,0:0:0:0:
192,192,345558,1,0,0:0:0:0:
320,192,345558,1,0,0:0:0:0:
64,192,345664,1,0,0:0:0:0:
320,192,345664,1,0,0:0:0:0:
64,192,345768,1,0,0:0:0:0:
192,192,345768,1,0,0:0:0:0:
320,192,345768,1,0,0:0:0:0:
448,192,345768,1,0,0:0:0:0:
448,192,345872,1,0,0:0:0:0:
192,192,345872,1,0,0:0:0:0:
320,192,345978,1,0,0:0:0:0:
448,192,345978,1,0,0:0:0:0:
192,192,346082,1,0,0:0:0:0:
64,192,346082,1,0,0:0:0:0:
64,192,346187,1,0,0:0:0:0:
192,192,346187,1,0,0:0:0:0:
448,192,346187,1,0,0:0:0:0:
320,192,346187,1,0,0:0:0:0:
320,192,346292,1,0,0:0:0:0:
448,192,346292,1,0,0:0:0:0:
64,192,346397,1,0,0:0:0:0:
448,192,346397,1,0,0:0:0:0:
320,192,346502,1,0,0:0:0:0:
64,192,346502,1,0,0:0:0:0:
192,192,346607,1,0,0:0:0:0:
64,192,346607,1,0,0:0:0:0:
320,192,346607,1,0,0:0:0:0:
448,192,346607,1,0,0:0:0:0:
192,192,346711,1,0,0:0:0:0:
448,192,346711,1,0,0:0:0:0:
320,192,346817,1,0,0:0:0:0:
448,192,346817,1,0,0:0:0:0:
192,192,346921,1,0,0:0:0:0:
64,192,346921,1,0,0:0:0:0:
192,192,347025,1,0,0:0:0:0:
64,192,347025,1,0,0:0:0:0:
320,192,347025,1,0,0:0:0:0:
448,192,347025,1,0,0:0:0:0:
192,192,347131,1,0,0:0:0:0:
320,192,347131,1,0,0:0:0:0:
64,192,347235,1,0,0:0:0:0:
448,192,347235,1,0,0:0:0:0:
320,192,347340,1,0,0:0:0:0:
448,192,347340,1,0,0:0:0:0:
64,192,347445,1,0,0:0:0:0:
192,192,347445,1,0,0:0:0:0:
320,192,347445,1,0,0:0:0:0:
448,192,347445,1,0,0:0:0:0:
192,192,347550,1,0,0:0:0:0:
64,192,347550,1,0,0:0:0:0:
64,192,347654,1,0,0:0:0:0:
320,192,347654,1,0,0:0:0:0:
192,192,347760,1,0,0:0:0:0:
448,192,347760,1,0,0:0:0:0:
448,192,347864,1,0,0:0:0:0:
192,192,347864,1,0,0:0:0:0:
320,192,347864,1,0,0:0:0:0:
64,192,347864,1,0,0:0:0:0:
320,192,347968,1,0,0:0:0:0:
448,192,347968,1,0,0:0:0:0:
192,192,348074,1,0,0:0:0:0:
64,192,348074,1,0,0:0:0:0:
64,192,348178,1,0,0:0:0:0:
320,192,348178,1,0,0:0:0:0:
448,192,348282,1,0,0:0:0:0:
320,192,348282,1,0,0:0:0:0:
192,192,348282,1,0,0:0:0:0:
64,192,348282,1,0,0:0:0:0:
192,192,348388,1,0,0:0:0:0:
448,192,348388,1,0,0:0:0:0:
320,192,348492,1,0,0:0:0:0:
192,192,348492,1,0,0:0:0:0:
64,192,348598,1,0,0:0:0:0:
448,192,348598,1,0,0:0:0:0:
64,192,348702,1,0,0:0:0:0:
192,192,348702,1,0,0:0:0:0:
320,192,348702,1,0,0:0:0:0:
448,192,348702,1,0,0:0:0:0:
320,192,348807,1,0,0:0:0:0:
192,192,348807,1,0,0:0:0:0:
64,192,348912,1,0,0:0:0:0:
448,192,348912,1,0,0:0:0:0:
320,192,349017,1,0,0:0:0:0:
64,192,349017,1,0,0:0:0:0:
64,192,349121,1,0,0:0:0:0:
448,192,349121,1,0,0:0:0:0:
320,192,349121,1,0,0:0:0:0:
192,192,349121,1,0,0:0:0:0:
192,192,349227,1,0,0:0:0:0:
448,192,349227,1,0,0:0:0:0:
320,192,349331,1,0,0:0:0:0:
448,192,349331,1,0,0:0:0:0:
192,192,349435,1,0,0:0:0:0:
64,192,349435,1,0,0:0:0:0:
64,192,349541,1,0,0:0:0:0:
192,192,349541,1,0,0:0:0:0:
320,192,349541,1,0,0:0:0:0:
448,192,349541,1,0,0:0:0:0:
320,192,349645,1,0,0:0:0:0:
192,192,349645,1,0,0:0:0:0:
64,192,349750,1,0,0:0:0:0:
448,192,349750,1,0,0:0:0:0:
320,192,349855,1,0,0:0:0:0:
448,192,349855,1,0,0:0:0:0:
64,192,349960,1,0,0:0:0:0:
192,192,349960,1,0,0:0:0:0:
320,192,349960,1,0,0:0:0:0:
448,192,349960,1,0,0:0:0:0:
192,192,350064,1,0,0:0:0:0:
64,192,350064,1,0,0:0:0:0:
64,192,350170,1,0,0:0:0:0:
320,192,350170,1,0,0:0:0:0:
192,192,350274,1,0,0:0:0:0:
448,192,350274,1,0,0:0:0:0:
64,192,350378,1,0,0:0:0:0:
192,192,350378,1,0,0:0:0:0:
320,192,350378,1,0,0:0:0:0:
448,192,350378,1,0,0:0:0:0:
320,192,350484,1,0,0:0:0:0:
448,192,350484,1,0,0:0:0:0:
192,192,350588,1,0,0:0:0:0:
64,192,350588,1,0,0:0:0:0:
320,192,350694,1,0,0:0:0:0:
64,192,350694,1,0,0:0:0:0:
64,192,350798,1,0,0:0:0:0:
192,192,350798,1,0,0:0:0:0:
320,192,350798,1,0,0:0:0:0:
448,192,350798,1,0,0:0:0:0:
192,192,350902,1,0,0:0:0:0:
320,192,350902,1,0,0:0:0:0:
64,192,351008,1,0,0:0:0:0:
448,192,351008,1,0,0:0:0:0:
192,192,351112,1,0,0:0:0:0:
320,192,351112,1,0,0:0:0:0:
448,192,351217,1,0,0:0:0:0:
320,192,351217,1,0,0:0:0:0:
192,192,351217,1,0,0:0:0:0:
64,192,351217,1,0,0:0:0:0:
320,192,351322,1,0,0:0:0:0:
448,192,351322,1,0,0:0:0:0:
64,192,351427,1,0,0:0:0:0:
192,192,351427,1,0,0:0:0:0:
64,192,351531,1,0,0:0:0:0:
448,192,351531,1,0,0:0:0:0:
192,192,351637,1,0,0:0:0:0:
64,192,351637,1,0,0:0:0:0:
320,192,351637,1,0,0:0:0:0:
448,192,351637,1,0,0:0:0:0:
192,192,351741,1,0,0:0:0:0:
320,192,351741,1,0,0:0:0:0:
448,192,351845,1,0,0:0:0:0:
320,192,351845,1,0,0:0:0:0:
64,192,351951,1,0,0:0:0:0:
192,192,351951,1,0,0:0:0:0:
192,192,352055,1,0,0:0:0:0:
320,192,352055,1,0,0:0:0:0:
448,192,352055,1,0,0:0:0:0:
64,192,352160,1,0,0:0:0:0:
448,192,352160,1,0,0:0:0:0:
320,192,352265,1,0,0:0:0:0:
192,192,352265,1,0,0:0:0:0:
64,192,352370,1,0,0:0:0:0:
320,192,352370,1,0,0:0:0:0:
64,192,352474,1,0,0:0:0:0:
192,192,352474,1,0,0:0:0:0:
448,192,352474,1,0,0:0:0:0:
320,192,352580,1,0,0:0:0:0:
448,192,352580,1,0,0:0:0:0:
192,192,352684,1,0,0:0:0:0:
320,192,352684,1,0,0:0:0:0:
64,192,352790,1,0,0:0:0:0:
448,192,352790,1,0,0:0:0:0:
64,192,352894,1,0,0:0:0:0:
192,192,352894,1,0,0:0:0:0:
320,192,352894,1,0,0:0:0:0:
192,192,352998,1,0,0:0:0:0:
448,192,352998,1,0,0:0:0:0:
320,192,353104,1,0,0:0:0:0:
448,192,353104,1,0,0:0:0:0:
192,192,353208,1,0,0:0:0:0:
64,192,353208,1,0,0:0:0:0:
64,192,353312,1,0,0:0:0:0:
320,192,353312,1,0,0:0:0:0:
192,192,353312,1,0,0:0:0:0:
448,192,353418,1,0,0:0:0:0:
320,192,353418,1,0,0:0:0:0:
64,192,353522,1,0,0:0:0:0:
320,192,353522,1,0,0:0:0:0:
192,192,353627,1,0,0:0:0:0:
448,192,353627,1,0,0:0:0:0:
320,192,353732,1,0,0:0:0:0:
448,192,353732,1,0,0:0:0:0:
64,192,353732,1,0,0:0:0:0:
192,192,353837,1,0,0:0:0:0:
320,192,353837,1,0,0:0:0:0:
192,192,353941,1,0,0:0:0:0:
64,192,353941,1,0,0:0:0:0:
64,192,354047,1,0,0:0:0:0:
320,192,354047,1,0,0:0:0:0:
320,192,354151,1,0,0:0:0:0:
448,192,354151,1,0,0:0:0:0:
192,192,354151,1,0,0:0:0:0:
64,192,354255,1,0,0:0:0:0:
448,192,354255,1,0,0:0:0:0:
192,192,354361,1,0,0:0:0:0:
64,192,354361,1,0,0:0:0:0:
192,192,354465,1,0,0:0:0:0:
320,192,354465,1,0,0:0:0:0:
320,192,354570,1,0,0:0:0:0:
448,192,354570,1,0,0:0:0:0:
64,192,354570,1,0,0:0:0:0:
192,192,354675,1,0,0:0:0:0:
448,192,354675,1,0,0:0:0:0:
320,192,354780,1,0,0:0:0:0:
64,192,354780,1,0,0:0:0:0:
192,192,354885,1,0,0:0:0:0:
320,192,354885,1,0,0:0:0:0:
64,192,354990,1,0,0:0:0:0:
192,192,354990,1,0,0:0:0:0:
448,192,354990,1,0,0:0:0:0:
320,192,355094,1,0,0:0:0:0:
448,192,355094,1,0,0:0:0:0:
192,192,355200,1,0,0:0:0:0:
64,192,355200,1,0,0:0:0:0:
64,192,355304,1,0,0:0:0:0:
320,192,355304,1,0,0:0:0:0:
64,192,355408,1,0,0:0:0:0:
448,192,355408,1,0,0:0:0:0:
320,192,355408,1,0,0:0:0:0:
192,192,355514,1,0,0:0:0:0:
320,192,355514,1,0,0:0:0:0:
64,192,355618,1,0,0:0:0:0:
448,192,355618,1,0,0:0:0:0:
192,192,355722,1,0,0:0:0:0:
320,192,355722,1,0,0:0:0:0:
192,192,355828,1,0,0:0:0:0:
320,192,355828,1,0,0:0:0:0:
448,192,355828,1,0,0:0:0:0:
64,192,355932,1,0,0:0:0:0:
448,192,355932,1,0,0:0:0:0:
320,192,356037,1,0,0:0:0:0:
64,192,356037,1,0,0:0:0:0:
192,192,356142,1,0,0:0:0:0:
448,192,356142,1,0,0:0:0:0:
192,192,356247,1,0,0:0:0:0:
320,192,356247,1,0,0:0:0:0:
64,192,356247,1,0,0:0:0:0:
448,192,356351,1,0,0:0:0:0:
320,192,356351,1,0,0:0:0:0:
64,192,356457,1,0,0:0:0:0:
448,192,356457,1,0,0:0:0:0:
192,192,356561,1,0,0:0:0:0:
320,192,356561,1,0,0:0:0:0:
192,192,356665,1,0,0:0:0:0:
448,192,356665,1,0,0:0:0:0:
64,192,356665,1,0,0:0:0:0:
320,192,356771,1,0,0:0:0:0:
448,192,356771,1,0,0:0:0:0:
64,192,356875,1,0,0:0:0:0:
320,192,356875,1,0,0:0:0:0:
192,192,356981,1,0,0:0:0:0:
448,192,356981,1,0,0:0:0:0:
64,192,357085,1,0,0:0:0:0:
192,192,357085,1,0,0:0:0:0:
320,192,357085,1,0,0:0:0:0:
448,192,357190,1,0,0:0:0:0:
320,192,357190,1,0,0:0:0:0:
64,192,357295,1,0,0:0:0:0:
448,192,357295,1,0,0:0:0:0:
192,192,357400,1,0,0:0:0:0:
64,192,357400,1,0,0:0:0:0:
192,192,357504,1,0,0:0:0:0:
320,192,357504,1,0,0:0:0:0:
448,192,357504,1,0,0:0:0:0:
64,192,357610,1,0,0:0:0:0:
448,192,357610,1,0,0:0:0:0:
192,192,357714,1,0,0:0:0:0:
320,192,357714,1,0,0:0:0:0:
64,192,357818,1,0,0:0:0:0:
320,192,357818,1,0,0:0:0:0:
448,192,357924,1,0,0:0:0:0:
320,192,357924,1,0,0:0:0:0:
192,192,357924,1,0,0:0:0:0:
64,192,358028,1,0,0:0:0:0:
448,192,358028,1,0,0:0:0:0:
320,192,358132,1,0,0:0:0:0:
64,192,358132,1,0,0:0:0:0:
192,192,358238,1,0,0:0:0:0:
448,192,358238,1,0,0:0:0:0:
192,192,358342,1,0,0:0:0:0:
320,192,358342,1,0,0:0:0:0:
64,192,358342,1,0,0:0:0:0:
64,192,358552,1,0,0:0:0:0:
192,192,358552,1,0,0:0:0:0:
448,192,358552,1,0,0:0:0:0:
192,192,358761,1,0,0:0:0:0:
448,192,358761,1,0,0:0:0:0:
320,192,358761,1,0,0:0:0:0:
64,192,358867,1,0,0:0:0:0:
192,192,358971,1,0,0:0:0:0:
448,192,358971,1,0,0:0:0:0:
320,192,359075,1,0,0:0:0:0:
192,192,359181,1,0,0:0:0:0:
64,192,359181,1,0,0:0:0:0:
448,192,359181,1,0,0:0:0:0:
320,192,359285,1,0,0:0:0:0:
192,192,359391,1,0,0:0:0:0:
64,192,359391,1,0,0:0:0:0:
448,192,359495,1,0,0:0:0:0:
320,192,359600,1,0,0:0:0:0:
192,192,359600,1,0,0:0:0:0:
64,192,359600,1,0,0:0:0:0:
448,192,359705,1,0,0:0:0:0:
64,192,359810,1,0,0:0:0:0:
320,192,359810,1,0,0:0:0:0:
192,192,359914,1,0,0:0:0:0:
64,192,360020,1,0,0:0:0:0:
448,192,360020,1,0,0:0:0:0:
320,192,360124,1,0,0:0:0:0:
448,192,360228,1,0,0:0:0:0:
192,192,360228,1,0,0:0:0:0:
64,192,360334,1,0,0:0:0:0:
192,192,360438,1,0,0:0:0:0:
320,192,360438,1,0,0:0:0:0:
448,192,360438,1,0,0:0:0:0:
64,192,360542,1,0,0:0:0:0:
320,192,360648,1,0,0:0:0:0:
448,192,360648,1,0,0:0:0:0:
192,192,360752,1,0,0:0:0:0:
64,192,360857,1,0,0:0:0:0:
320,192,360857,1,0,0:0:0:0:
448,192,360857,1,0,0:0:0:0:
192,192,360962,1,0,0:0:0:0:
448,192,361067,1,0,0:0:0:0:
64,192,361067,1,0,0:0:0:0:
320,192,361171,1,0,0:0:0:0:
192,192,361277,1,0,0:0:0:0:
64,192,361277,1,0,0:0:0:0:
448,192,361381,1,0,0:0:0:0:
320,192,361487,1,0,0:0:0:0:
192,192,361487,1,0,0:0:0:0:
64,192,361487,1,0,0:0:0:0:
448,192,361591,1,0,0:0:0:0:
320,192,361695,1,0,0:0:0:0:
192,192,361695,1,0,0:0:0:0:
64,192,361801,1,0,0:0:0:0:
192,192,361905,1,0,0:0:0:0:
448,192,361905,1,0,0:0:0:0:
320,192,362010,1,0,0:0:0:0:
64,192,362115,1,0,0:0:0:0:
192,192,362115,1,0,0:0:0:0:
448,192,362115,1,0,0:0:0:0:
320,192,362220,1,0,0:0:0:0:
64,192,362324,1,0,0:0:0:0:
448,192,362324,1,0,0:0:0:0:
192,192,362430,1,0,0:0:0:0:
320,192,362534,1,0,0:0:0:0:
448,192,362534,1,0,0:0:0:0:
64,192,362534,1,0,0:0:0:0:
192,192,362638,1,0,0:0:0:0:
320,192,362744,1,0,0:0:0:0:
448,192,362744,1,0,0:0:0:0:
64,192,362848,1,0,0:0:0:0:
192,192,362952,1,0,0:0:0:0:
320,192,362952,1,0,0:0:0:0:
448,192,362952,1,0,0:0:0:0:
64,192,363058,1,0,0:0:0:0:
192,192,363162,1,0,0:0:0:0:
448,192,363162,1,0,0:0:0:0:
320,192,363267,1,0,0:0:0:0:
192,192,363372,1,0,0:0:0:0:
64,192,363372,1,0,0:0:0:0:
448,192,363372,1,0,0:0:0:0:
320,192,363477,1,0,0:0:0:0:
192,192,363582,1,0,0:0:0:0:
64,192,363582,1,0,0:0:0:0:
448,192,363687,1,0,0:0:0:0:
64,192,363791,1,0,0:0:0:0:
192,192,363791,1,0,0:0:0:0:
320,192,363791,1,0,0:0:0:0:
448,192,363897,1,0,0:0:0:0:
320,192,364001,1,0,0:0:0:0:
192,192,364001,1,0,0:0:0:0:
64,192,364001,1,0,0:0:0:0:
448,192,364105,1,0,0:0:0:0:
320,192,364211,1,0,0:0:0:0:
192,192,364211,1,0,0:0:0:0:
64,192,364211,1,0,0:0:0:0:
448,192,364315,1,0,0:0:0:0:
64,192,364420,1,0,0:0:0:0:
320,192,364420,1,0,0:0:0:0:
192,192,364525,1,0,0:0:0:0:
320,192,364630,1,0,0:0:0:0:
448,192,364630,1,0,0:0:0:0:
64,192,364630,1,0,0:0:0:0:
192,192,364734,1,0,0:0:0:0:
448,192,364840,1,0,0:0:0:0:
320,192,364891,1,0,0:0:0:0:
192,192,364944,1,0,0:0:0:0:
64,192,364997,1,0,0:0:0:0:
448,192,365048,1,0,0:0:0:0:
320,192,365101,1,0,0:0:0:0:
64,192,365154,1,0,0:0:0:0:
192,192,365205,1,0,0:0:0:0:
320,192,365258,1,0,0:0:0:0:
448,192,365311,1,0,0:0:0:0:
64,192,365362,1,0,0:0:0:0:
192,192,365362,1,0,0:0:0:0:
320,192,365468,1,0,0:0:0:0:
448,192,365468,1,0,0:0:0:0:
64,192,365468,1,0,0:0:0:0:
192,192,365678,1,0,0:0:0:0:
192,192,365887,1,0,0:0:0:0:
320,192,365887,1,0,0:0:0:0:
448,192,365887,1,0,0:0:0:0:
64,192,365887,1,0,0:0:0:0:
448,192,366097,1,0,0:0:0:0:
320,192,366307,1,0,0:0:0:0:
192,192,366307,1,0,0:0:0:0:
64,192,366307,1,0,0:0:0:0:
192,192,366515,1,0,0:0:0:0:
64,192,366725,1,0,0:0:0:0:
192,192,366725,1,0,0:0:0:0:
320,192,366725,1,0,0:0:0:0:
448,192,366725,1,0,0:0:0:0:
448,192,366935,1,0,0:0:0:0:
320,192,367144,1,0,0:0:0:0:
448,192,367144,1,0,0:0:0:0:
64,192,367144,1,0,0:0:0:0:
192,192,367354,1,0,0:0:0:0:
64,192,367564,1,0,0:0:0:0:
192,192,367564,1,0,0:0:0:0:
448,192,367564,1,0,0:0:0:0:
320,192,367564,1,0,0:0:0:0:
320,192,367774,1,0,0:0:0:0:
192,192,367982,1,0,0:0:0:0:
448,192,367982,1,0,0:0:0:0:
64,192,367982,1,0,0:0:0:0:
192,192,368192,1,0,0:0:0:0:
192,192,368402,1,0,0:0:0:0:
320,192,368402,1,0,0:0:0:0:
448,192,368402,1,0,0:0:0:0:
64,192,368402,1,0,0:0:0:0:
448,192,368611,1,0,0:0:0:0:
320,192,368821,1,0,0:0:0:0:
448,192,368821,1,0,0:0:0:0:
192,192,368821,1,0,0:0:0:0:
64,192,369031,1,0,0:0:0:0:
64,192,369240,1,0,0:0:0:0:
320,192,369240,1,0,0:0:0:0:
192,192,369240,1,0,0:0:0:0:
448,192,369240,1,0,0:0:0:0:
320,192,369450,1,0,0:0:0:0:
64,192,369660,1,0,0:0:0:0:
192,192,369660,1,0,0:0:0:0:
448,192,369660,1,0,0:0:0:0:
192,192,369870,1,0,0:0:0:0:
64,192,370078,1,0,0:0:0:0:
192,192,370078,1,0,0:0:0:0:
320,192,370078,1,0,0:0:0:0:
448,192,370078,1,0,0:0:0:0:
320,192,370288,1,0,0:0:0:0:
64,192,370498,1,0,0:0:0:0:
192,192,370498,1,0,0:0:0:0:
448,192,370498,1,0,0:0:0:0:
64,192,370707,1,0,0:0:0:0:
64,192,370917,1,0,0:0:0:0:
192,192,370917,1,0,0:0:0:0:
448,192,370917,1,0,0:0:0:0:
320,192,370917,1,0,0:0:0:0:
448,192,371127,1,0,0:0:0:0:
64,192,371335,1,0,0:0:0:0:
320,192,371335,1,0,0:0:0:0:
448,192,371335,1,0,0:0:0:0:
192,192,371545,1,0,0:0:0:0:
64,192,371755,1,0,0:0:0:0:
192,192,371755,1,0,0:0:0:0:
320,192,371755,1,0,0:0:0:0:
448,192,371755,1,0,0:0:0:0:
64,192,371965,1,0,0:0:0:0:
448,192,371965,1,0,0:0:0:0:
320,192,371965,1,0,0:0:0:0:
448,192,372174,1,0,0:0:0:0:
320,192,372174,1,0,0:0:0:0:
192,192,372174,1,0,0:0:0:0:
64,192,372174,1,0,0:0:0:0:
192,192,372384,1,0,0:0:0:0:
320,192,372384,1,0,0:0:0:0:
64,192,372384,1,0,0:0:0:0:
64,192,372594,1,0,0:0:0:0:
192,192,372594,1,0,0:0:0:0:
320,192,372594,1,0,0:0:0:0:
448,192,372594,1,0,0:0:0:0:
192,192,372802,1,0,0:0:0:0:
64,192,372802,1,0,0:0:0:0:
448,192,372802,1,0,0:0:0:0:
64,192,373012,1,0,0:0:0:0:
192,192,373012,1,0,0:0:0:0:
320,192,373012,1,0,0:0:0:0:
448,192,373012,1,0,0:0:0:0:
320,192,373222,1,0,0:0:0:0:
448,192,373222,1,0,0:0:0:0:
64,192,373222,1,0,0:0:0:0:
64,192,373431,1,0,0:0:0:0:
192,192,373431,1,0,0:0:0:0:
320,192,373431,1,0,0:0:0:0:
448,192,373431,1,0,0:0:0:0:
64,192,373641,1,0,0:0:0:0:
320,192,373641,1,0,0:0:0:0:
192,192,373641,1,0,0:0:0:0:
64,192,373851,1,0,0:0:0:0:
192,192,373851,1,0,0:0:0:0:
320,192,373851,1,0,0:0:0:0:
448,192,373851,1,0,0:0:0:0:
192,192,374061,1,0,0:0:0:0:
64,192,374061,1,0,0:0:0:0:
448,192,374061,1,0,0:0:0:0:
64,192,374270,1,0,0:0:0:0:
192,192,374270,1,0,0:0:0:0:
320,192,374270,1,0,0:0:0:0:
448,192,374270,1,0,0:0:0:0:
320,192,374480,1,0,0:0:0:0:
448,192,374480,1,0,0:0:0:0:
192,192,374480,1,0,0:0:0:0:
64,192,374690,1,0,0:0:0:0:
192,192,374690,1,0,0:0:0:0:
320,192,374690,1,0,0:0:0:0:
448,192,374690,1,0,0:0:0:0:
448,192,374898,1,0,0:0:0:0:
320,192,374898,1,0,0:0:0:0:
64,192,374898,1,0,0:0:0:0:
64,192,375108,1,0,0:0:0:0:
192,192,375108,1,0,0:0:0:0:
320,192,375108,1,0,0:0:0:0:
448,192,375108,1,0,0:0:0:0:
192,192,375318,1,0,0:0:0:0:
64,192,375318,1,0,0:0:0:0:
320,192,375318,1,0,0:0:0:0:
320,192,375527,1,0,0:0:0:0:
448,192,375527,1,0,0:0:0:0:
192,192,375632,1,0,0:0:0:0:
64,192,375632,1,0,0:0:0:0:
320,192,375737,1,0,0:0:0:0:
448,192,375737,1,0,0:0:0:0:
192,192,375841,1,0,0:0:0:0:
64,192,375841,1,0,0:0:0:0:
320,192,375947,1,0,0:0:0:0:
448,192,375947,1,0,0:0:0:0:
192,192,376051,1,0,0:0:0:0:
64,192,376051,1,0,0:0:0:0:
320,192,376157,1,0,0:0:0:0:
448,192,376157,1,0,0:0:0:0:
192,192,376261,1,0,0:0:0:0:
64,192,376261,1,0,0:0:0:0:
320,192,376365,1,0,0:0:0:0:
448,192,376365,1,0,0:0:0:0:
192,192,376471,1,0,0:0:0:0:
64,192,376471,1,0,0:0:0:0:
320,192,376575,1,0,0:0:0:0:
448,192,376575,1,0,0:0:0:0:
192,192,376680,1,0,0:0:0:0:
64,192,376680,1,0,0:0:0:0:
320,192,376785,1,0,0:0:0:0:
448,192,376785,1,0,0:0:0:0:
192,192,376890,1,0,0:0:0:0:
64,192,376890,1,0,0:0:0:0:
320,192,376994,1,0,0:0:0:0:
448,192,376994,1,0,0:0:0:0:
192,192,377100,1,0,0:0:0:0:
64,192,377100,1,0,0:0:0:0:
448,192,377204,1,0,0:0:0:0:
320,192,377257,1,0,0:0:0:0:
192,192,377308,1,0,0:0:0:0:
64,192,377361,1,0,0:0:0:0:
448,192,377414,1,0,0:0:0:0:
320,192,377465,1,0,0:0:0:0:
192,192,377518,1,0,0:0:0:0:
64,192,377571,1,0,0:0:0:0:
448,192,377622,1,0,0:0:0:0:
320,192,377675,1,0,0:0:0:0:
64,192,377728,1,0,0:0:0:0:
192,192,377780,1,0,0:0:0:0:
448,192,377832,1,0,0:0:0:0:
320,192,377885,1,0,0:0:0:0:
64,192,377937,1,0,0:0:0:0:
192,192,377990,1,0,0:0:0:0:
448,192,378042,1,0,0:0:0:0:
320,192,378094,1,0,0:0:0:0:
192,192,378147,1,0,0:0:0:0:
64,192,378200,1,0,0:0:0:0:
320,192,378357,1,0,0:0:0:0:
192,192,378410,1,0,0:0:0:0:
64,192,378461,1,0,0:0:0:0:
448,192,378514,1,0,0:0:0:0:
192,192,378671,1,0,0:0:0:0:
64,192,378724,1,0,0:0:0:0:
448,192,378775,1,0,0:0:0:0:
320,192,378828,1,0,0:0:0:0:
192,192,378881,1,0,0:0:0:0:
64,192,378881,1,0,0:0:0:0:
