osu file format v14

[General]
AudioFilename: audio130.mp3
AudioLeadIn: 0
PreviewTime: 30182
Countdown: 0
SampleSet: None
StackLeniency: 0.7
Mode: 3
LetterboxInBreaks: 0
SpecialStyle: 0
WidescreenStoryboard: 0

[Editor]
DistanceSpacing: 0.8
BeatDivisor: 4
GridSize: 8
TimelineZoom: 4.100001

[Metadata]
Title:Pants
TitleUnicode:Pants
Artist:DJ Sharpnel
ArtistUnicode:DJ Sharpnel
Creator:X_Devil
Version:7k Hard 1.3x
Source:Stepmania
Tags:Stepmania pants DJ Sharpnel 7k
BeatmapID:2224662
BeatmapSetID:1056190

[Difficulty]
HPDrainRate:8
CircleSize:7
OverallDifficulty:8
ApproachRate:5
SliderMultiplier:1.4
SliderTickRate:1

[Events]
//Background and Video events
0,0,"bg.png",0,0
//Break Periods
//Storyboard Layer 0 (Background)
//Storyboard Layer 1 (Fail)
//Storyboard Layer 2 (Pass)
//Storyboard Layer 3 (Foreground)
//Storyboard Layer 4 (Overlay)
//Storyboard Sound Samples

[TimingPoints]
148,242.914979757085,4,1,0,10,1,0

[HitObjects]
109,192,6949,128,0,7071:0:0:0:0:
256,192,6949,128,0,7071:0:0:0:0:
402,192,6949,128,0,7071:0:0:0:0:
475,192,6949,128,0,7071:0:0:0:0:
36,192,6949,128,0,7071:0:0:0:0:
109,192,7192,1,0,0:0:0:0:
256,192,7192,1,0,0:0:0:0:
475,192,7192,1,0,0:0:0:0:
402,192,7192,1,0,0:0:0:0:
36,192,7192,1,0,0:0:0:0:
109,192,7313,1,0,0:0:0:0:
182,192,7313,1,0,0:0:0:0:
329,192,7313,1,0,0:0:0:0:
182,192,7435,1,0,0:0:0:0:
402,192,7435,1,0,0:0:0:0:
475,192,7435,1,0,0:0:0:0:
402,192,7556,1,0,0:0:0:0:
256,192,7556,1,0,0:0:0:0:
109,192,7556,1,0,0:0:0:0:
36,192,7678,1,0,0:0:0:0:
109,192,7678,1,0,0:0:0:0:
329,192,7678,1,0,0:0:0:0:
256,192,7678,1,0,0:0:0:0:
475,192,7678,1,0,0:0:0:0:
36,192,7799,1,0,0:0:0:0:
182,192,7799,1,0,0:0:0:0:
329,192,7799,1,0,0:0:0:0:
36,192,7921,1,0,0:0:0:0:
109,192,7921,1,0,0:0:0:0:
256,192,7921,1,0,0:0:0:0:
109,192,8042,1,0,0:0:0:0:
329,192,8042,1,0,0:0:0:0:
402,192,8042,1,0,0:0:0:0:
182,192,8164,1,0,0:0:0:0:
256,192,8164,1,0,0:0:0:0:
402,192,8164,1,0,0:0:0:0:
475,192,8164,1,0,0:0:0:0:
36,192,8164,1,0,0:0:0:0:
329,192,8285,1,0,0:0:0:0:
475,192,8285,1,0,0:0:0:0:
109,192,8285,1,0,0:0:0:0:
109,192,8407,1,0,0:0:0:0:
182,192,8407,1,0,0:0:0:0:
402,192,8407,1,0,0:0:0:0:
402,192,8528,1,0,0:0:0:0:
256,192,8528,1,0,0:0:0:0:
36,192,8528,1,0,0:0:0:0:
36,192,8650,1,0,0:0:0:0:
182,192,8650,1,0,0:0:0:0:
256,192,8650,1,0,0:0:0:0:
329,192,8650,1,0,0:0:0:0:
109,192,8650,1,0,0:0:0:0:
109,192,8771,1,0,0:0:0:0:
402,192,8771,1,0,0:0:0:0:
475,192,8771,1,0,0:0:0:0:
402,192,8892,1,0,0:0:0:0:
256,192,8892,1,0,0:0:0:0:
182,192,8892,1,0,0:0:0:0:
182,192,9014,1,0,0:0:0:0:
36,192,9014,1,0,0:0:0:0:
329,192,9014,1,0,0:0:0:0:
109,192,9135,1,0,0:0:0:0:
329,192,9135,1,0,0:0:0:0:
402,192,9135,1,0,0:0:0:0:
475,192,9135,1,0,0:0:0:0:
256,192,9135,1,0,0:0:0:0:
329,192,9257,1,0,0:0:0:0:
182,192,9257,1,0,0:0:0:0:
109,192,9257,1,0,0:0:0:0:
182,192,9378,1,0,0:0:0:0:
402,192,9378,1,0,0:0:0:0:
475,192,9378,1,0,0:0:0:0:
402,192,9500,1,0,0:0:0:0:
256,192,9500,1,0,0:0:0:0:
109,192,9500,1,0,0:0:0:0:
36,192,9621,1,0,0:0:0:0:
182,192,9621,1,0,0:0:0:0:
329,192,9621,1,0,0:0:0:0:
256,192,9621,1,0,0:0:0:0:
475,192,9621,1,0,0:0:0:0:
109,192,9743,1,0,0:0:0:0:
329,192,9743,1,0,0:0:0:0:
402,192,9743,1,0,0:0:0:0:
109,192,9864,1,0,0:0:0:0:
256,192,9864,1,0,0:0:0:0:
475,192,9864,1,0,0:0:0:0:
475,192,9986,1,0,0:0:0:0:
182,192,9986,1,0,0:0:0:0:
329,192,9986,1,0,0:0:0:0:
256,192,10107,1,0,0:0:0:0:
402,192,10107,1,0,0:0:0:0:
329,192,10107,1,0,0:0:0:0:
36,192,10107,1,0,0:0:0:0:
109,192,10228,1,0,0:0:0:0:
329,192,10228,1,0,0:0:0:0:
475,192,10228,1,0,0:0:0:0:
329,192,10350,1,0,0:0:0:0:
182,192,10350,1,0,0:0:0:0:
256,192,10350,1,0,0:0:0:0:
182,192,10471,1,0,0:0:0:0:
402,192,10471,1,0,0:0:0:0:
36,192,10471,1,0,0:0:0:0:
36,192,10593,1,0,0:0:0:0:
109,192,10593,1,0,0:0:0:0:
402,192,10593,1,0,0:0:0:0:
475,192,10593,1,0,0:0:0:0:
256,192,10593,1,0,0:0:0:0:
182,192,10714,1,0,0:0:0:0:
329,192,10714,1,0,0:0:0:0:
475,192,10714,1,0,0:0:0:0:
329,192,10836,1,0,0:0:0:0:
36,192,10836,1,0,0:0:0:0:
109,192,10836,1,0,0:0:0:0:
109,192,10957,1,0,0:0:0:0:
475,192,10957,1,0,0:0:0:0:
256,192,10957,1,0,0:0:0:0:
182,192,11079,1,0,0:0:0:0:
256,192,11079,1,0,0:0:0:0:
402,192,11079,1,0,0:0:0:0:
329,192,11079,1,0,0:0:0:0:
36,192,11079,1,0,0:0:0:0:
182,192,11200,1,0,0:0:0:0:
109,192,11200,1,0,0:0:0:0:
475,192,11200,1,0,0:0:0:0:
109,192,11322,1,0,0:0:0:0:
256,192,11322,1,0,0:0:0:0:
402,192,11322,1,0,0:0:0:0:
402,192,11443,1,0,0:0:0:0:
182,192,11443,1,0,0:0:0:0:
475,192,11443,1,0,0:0:0:0:
36,192,11565,1,0,0:0:0:0:
109,192,11565,1,0,0:0:0:0:
256,192,11565,1,0,0:0:0:0:
329,192,11565,1,0,0:0:0:0:
182,192,11565,1,0,0:0:0:0:
36,192,11686,1,0,0:0:0:0:
402,192,11686,1,0,0:0:0:0:
109,192,11686,1,0,0:0:0:0:
109,192,11807,1,0,0:0:0:0:
329,192,11807,1,0,0:0:0:0:
475,192,11807,1,0,0:0:0:0:
329,192,11929,1,0,0:0:0:0:
36,192,11929,1,0,0:0:0:0:
402,192,11929,1,0,0:0:0:0:
182,192,12050,1,0,0:0:0:0:
256,192,12050,1,0,0:0:0:0:
402,192,12050,1,0,0:0:0:0:
475,192,12050,1,0,0:0:0:0:
109,192,12050,1,0,0:0:0:0:
109,192,12172,1,0,0:0:0:0:
329,192,12172,1,0,0:0:0:0:
36,192,12172,1,0,0:0:0:0:
329,192,12293,1,0,0:0:0:0:
182,192,12293,1,0,0:0:0:0:
256,192,12293,1,0,0:0:0:0:
182,192,12415,1,0,0:0:0:0:
36,192,12415,1,0,0:0:0:0:
402,192,12415,1,0,0:0:0:0:
256,192,12536,1,0,0:0:0:0:
329,192,12536,1,0,0:0:0:0:
402,192,12536,1,0,0:0:0:0:
475,192,12536,1,0,0:0:0:0:
109,192,12536,1,0,0:0:0:0:
329,192,12658,1,0,0:0:0:0:
109,192,12658,1,0,0:0:0:0:
182,192,12658,1,0,0:0:0:0:
182,192,12779,1,0,0:0:0:0:
402,192,12779,1,0,0:0:0:0:
475,192,12779,1,0,0:0:0:0:
402,192,12901,1,0,0:0:0:0:
256,192,12901,1,0,0:0:0:0:
36,192,12901,1,0,0:0:0:0:
36,192,13022,1,0,0:0:0:0:
109,192,13022,1,0,0:0:0:0:
256,192,13022,1,0,0:0:0:0:
182,192,13022,1,0,0:0:0:0:
329,192,13022,1,0,0:0:0:0:
109,192,13143,1,0,0:0:0:0:
182,192,13143,1,0,0:0:0:0:
402,192,13143,1,0,0:0:0:0:
182,192,13265,1,0,0:0:0:0:
329,192,13265,1,0,0:0:0:0:
402,192,13265,1,0,0:0:0:0:
182,192,13386,1,0,0:0:0:0:
109,192,13386,1,0,0:0:0:0:
475,192,13386,1,0,0:0:0:0:
329,192,13508,1,0,0:0:0:0:
475,192,13508,1,0,0:0:0:0:
36,192,13508,1,0,0:0:0:0:
256,192,13508,1,0,0:0:0:0:
402,192,13508,1,0,0:0:0:0:
182,192,13629,1,0,0:0:0:0:
256,192,13629,1,0,0:0:0:0:
109,192,13629,1,0,0:0:0:0:
182,192,13751,1,0,0:0:0:0:
329,192,13751,1,0,0:0:0:0:
475,192,13751,1,0,0:0:0:0:
475,192,13872,1,0,0:0:0:0:
256,192,13872,1,0,0:0:0:0:
109,192,13872,1,0,0:0:0:0:
36,192,13994,1,0,0:0:0:0:
109,192,13994,1,0,0:0:0:0:
256,192,13994,1,0,0:0:0:0:
329,192,13994,1,0,0:0:0:0:
402,192,13994,1,0,0:0:0:0:
109,192,14115,1,0,0:0:0:0:
329,192,14115,1,0,0:0:0:0:
475,192,14115,1,0,0:0:0:0:
329,192,14237,1,0,0:0:0:0:
182,192,14237,1,0,0:0:0:0:
256,192,14237,1,0,0:0:0:0:
182,192,14358,1,0,0:0:0:0:
36,192,14358,1,0,0:0:0:0:
402,192,14358,1,0,0:0:0:0:
256,192,14479,1,0,0:0:0:0:
402,192,14479,1,0,0:0:0:0:
475,192,14479,1,0,0:0:0:0:
329,192,14479,1,0,0:0:0:0:
109,192,14479,1,0,0:0:0:0:
329,192,14601,1,0,0:0:0:0:
475,192,14601,1,0,0:0:0:0:
256,192,14601,1,0,0:0:0:0:
36,192,14722,1,0,0:0:0:0:
109,192,14722,1,0,0:0:0:0:
402,192,14722,1,0,0:0:0:0:
475,192,14722,1,0,0:0:0:0:
182,192,14722,1,0,0:0:0:0:
329,192,14722,1,0,0:0:0:0:
182,192,14844,1,0,0:0:0:0:
329,192,14844,1,0,0:0:0:0:
109,192,14844,1,0,0:0:0:0:
402,192,14965,1,0,0:0:0:0:
256,192,14965,1,0,0:0:0:0:
36,192,14965,1,0,0:0:0:0:
109,192,14965,1,0,0:0:0:0:
475,192,14965,1,0,0:0:0:0:
402,192,15087,1,0,0:0:0:0:
329,192,15087,1,0,0:0:0:0:
182,192,15087,1,0,0:0:0:0:
329,192,15208,1,0,0:0:0:0:
109,192,15208,1,0,0:0:0:0:
36,192,15208,1,0,0:0:0:0:
109,192,15330,1,0,0:0:0:0:
256,192,15330,1,0,0:0:0:0:
402,192,15330,1,0,0:0:0:0:
475,192,15451,1,0,0:0:0:0:
402,192,15451,1,0,0:0:0:0:
182,192,15451,1,0,0:0:0:0:
256,192,15451,1,0,0:0:0:0:
36,192,15451,1,0,0:0:0:0:
475,192,15573,1,0,0:0:0:0:
329,192,15573,1,0,0:0:0:0:
182,192,15573,1,0,0:0:0:0:
475,192,15694,1,0,0:0:0:0:
402,192,15694,1,0,0:0:0:0:
256,192,15694,1,0,0:0:0:0:
402,192,15816,1,0,0:0:0:0:
182,192,15816,1,0,0:0:0:0:
109,192,15816,1,0,0:0:0:0:
329,192,15937,1,0,0:0:0:0:
256,192,15937,1,0,0:0:0:0:
109,192,15937,1,0,0:0:0:0:
36,192,15937,1,0,0:0:0:0:
475,192,15937,1,0,0:0:0:0:
182,192,16058,1,0,0:0:0:0:
36,192,16058,1,0,0:0:0:0:
402,192,16058,1,0,0:0:0:0:
402,192,16180,1,0,0:0:0:0:
329,192,16180,1,0,0:0:0:0:
109,192,16180,1,0,0:0:0:0:
109,192,16301,1,0,0:0:0:0:
256,192,16301,1,0,0:0:0:0:
475,192,16301,1,0,0:0:0:0:
475,192,16423,1,0,0:0:0:0:
329,192,16423,1,0,0:0:0:0:
256,192,16423,1,0,0:0:0:0:
182,192,16423,1,0,0:0:0:0:
402,192,16423,1,0,0:0:0:0:
402,192,16544,1,0,0:0:0:0:
109,192,16544,1,0,0:0:0:0:
36,192,16544,1,0,0:0:0:0:
109,192,16666,1,0,0:0:0:0:
256,192,16666,1,0,0:0:0:0:
329,192,16666,1,0,0:0:0:0:
329,192,16787,1,0,0:0:0:0:
475,192,16787,1,0,0:0:0:0:
182,192,16787,1,0,0:0:0:0:
402,192,16909,1,0,0:0:0:0:
182,192,16909,1,0,0:0:0:0:
109,192,16909,1,0,0:0:0:0:
36,192,16909,1,0,0:0:0:0:
256,192,16909,1,0,0:0:0:0:
182,192,17030,1,0,0:0:0:0:
329,192,17030,1,0,0:0:0:0:
402,192,17030,1,0,0:0:0:0:
329,192,17152,1,0,0:0:0:0:
109,192,17152,1,0,0:0:0:0:
36,192,17152,1,0,0:0:0:0:
109,192,17273,1,0,0:0:0:0:
256,192,17273,1,0,0:0:0:0:
402,192,17273,1,0,0:0:0:0:
475,192,17394,1,0,0:0:0:0:
329,192,17394,1,0,0:0:0:0:
182,192,17394,1,0,0:0:0:0:
256,192,17394,1,0,0:0:0:0:
36,192,17394,1,0,0:0:0:0:
402,192,17516,1,0,0:0:0:0:
182,192,17516,1,0,0:0:0:0:
109,192,17516,1,0,0:0:0:0:
402,192,17637,1,0,0:0:0:0:
256,192,17637,1,0,0:0:0:0:
36,192,17637,1,0,0:0:0:0:
36,192,17759,1,0,0:0:0:0:
329,192,17759,1,0,0:0:0:0:
182,192,17759,1,0,0:0:0:0:
256,192,17880,1,0,0:0:0:0:
109,192,17880,1,0,0:0:0:0:
182,192,17880,1,0,0:0:0:0:
475,192,17880,1,0,0:0:0:0:
402,192,18002,1,0,0:0:0:0:
182,192,18002,1,0,0:0:0:0:
36,192,18002,1,0,0:0:0:0:
182,192,18123,1,0,0:0:0:0:
329,192,18123,1,0,0:0:0:0:
256,192,18123,1,0,0:0:0:0:
329,192,18245,1,0,0:0:0:0:
109,192,18245,1,0,0:0:0:0:
475,192,18245,1,0,0:0:0:0:
475,192,18366,1,0,0:0:0:0:
402,192,18366,1,0,0:0:0:0:
109,192,18366,1,0,0:0:0:0:
36,192,18366,1,0,0:0:0:0:
256,192,18366,1,0,0:0:0:0:
329,192,18488,1,0,0:0:0:0:
182,192,18488,1,0,0:0:0:0:
36,192,18488,1,0,0:0:0:0:
182,192,18609,1,0,0:0:0:0:
475,192,18609,1,0,0:0:0:0:
402,192,18609,1,0,0:0:0:0:
402,192,18730,1,0,0:0:0:0:
36,192,18730,1,0,0:0:0:0:
256,192,18730,1,0,0:0:0:0:
329,192,18852,1,0,0:0:0:0:
256,192,18852,1,0,0:0:0:0:
109,192,18852,1,0,0:0:0:0:
182,192,18852,1,0,0:0:0:0:
475,192,18852,1,0,0:0:0:0:
329,192,18973,1,0,0:0:0:0:
402,192,18973,1,0,0:0:0:0:
36,192,18973,1,0,0:0:0:0:
402,192,19095,1,0,0:0:0:0:
256,192,19095,1,0,0:0:0:0:
109,192,19095,1,0,0:0:0:0:
109,192,19216,1,0,0:0:0:0:
329,192,19216,1,0,0:0:0:0:
36,192,19216,1,0,0:0:0:0:
475,192,19338,1,0,0:0:0:0:
402,192,19338,1,0,0:0:0:0:
256,192,19338,1,0,0:0:0:0:
182,192,19338,1,0,0:0:0:0:
329,192,19338,1,0,0:0:0:0:
475,192,19459,1,0,0:0:0:0:
109,192,19459,1,0,0:0:0:0:
402,192,19459,1,0,0:0:0:0:
402,192,19581,1,0,0:0:0:0:
182,192,19581,1,0,0:0:0:0:
36,192,19581,1,0,0:0:0:0:
182,192,19702,1,0,0:0:0:0:
475,192,19702,1,0,0:0:0:0:
109,192,19702,1,0,0:0:0:0:
329,192,19824,1,0,0:0:0:0:
256,192,19824,1,0,0:0:0:0:
109,192,19824,1,0,0:0:0:0:
36,192,19824,1,0,0:0:0:0:
402,192,19824,1,0,0:0:0:0:
402,192,19945,1,0,0:0:0:0:
182,192,19945,1,0,0:0:0:0:
475,192,19945,1,0,0:0:0:0:
182,192,20067,1,0,0:0:0:0:
329,192,20067,1,0,0:0:0:0:
256,192,20067,1,0,0:0:0:0:
329,192,20188,1,0,0:0:0:0:
475,192,20188,1,0,0:0:0:0:
109,192,20188,1,0,0:0:0:0:
256,192,20309,1,0,0:0:0:0:
182,192,20309,1,0,0:0:0:0:
109,192,20309,1,0,0:0:0:0:
36,192,20309,1,0,0:0:0:0:
402,192,20309,1,0,0:0:0:0:
182,192,20431,1,0,0:0:0:0:
402,192,20431,1,0,0:0:0:0:
329,192,20431,1,0,0:0:0:0:
329,192,20552,1,0,0:0:0:0:
109,192,20552,1,0,0:0:0:0:
36,192,20552,1,0,0:0:0:0:
109,192,20674,1,0,0:0:0:0:
256,192,20674,1,0,0:0:0:0:
475,192,20674,1,0,0:0:0:0:
475,192,20795,1,0,0:0:0:0:
402,192,20795,1,0,0:0:0:0:
256,192,20795,1,0,0:0:0:0:
329,192,20795,1,0,0:0:0:0:
182,192,20795,1,0,0:0:0:0:
402,192,20917,1,0,0:0:0:0:
329,192,20917,1,0,0:0:0:0:
109,192,20917,1,0,0:0:0:0:
329,192,21038,1,0,0:0:0:0:
182,192,21038,1,0,0:0:0:0:
109,192,21038,1,0,0:0:0:0:
329,192,21160,1,0,0:0:0:0:
402,192,21160,1,0,0:0:0:0:
36,192,21160,1,0,0:0:0:0:
182,192,21281,1,0,0:0:0:0:
36,192,21281,1,0,0:0:0:0:
475,192,21281,1,0,0:0:0:0:
256,192,21281,1,0,0:0:0:0:
109,192,21281,1,0,0:0:0:0:
329,192,21403,1,0,0:0:0:0:
256,192,21403,1,0,0:0:0:0:
402,192,21403,1,0,0:0:0:0:
329,192,21524,1,0,0:0:0:0:
182,192,21524,1,0,0:0:0:0:
36,192,21524,1,0,0:0:0:0:
36,192,21645,1,0,0:0:0:0:
256,192,21645,1,0,0:0:0:0:
402,192,21645,1,0,0:0:0:0:
475,192,21767,1,0,0:0:0:0:
402,192,21767,1,0,0:0:0:0:
256,192,21767,1,0,0:0:0:0:
182,192,21767,1,0,0:0:0:0:
109,192,21767,1,0,0:0:0:0:
402,192,21888,1,0,0:0:0:0:
182,192,21888,1,0,0:0:0:0:
36,192,21888,1,0,0:0:0:0:
182,192,22010,1,0,0:0:0:0:
329,192,22010,1,0,0:0:0:0:
256,192,22010,1,0,0:0:0:0:
329,192,22131,1,0,0:0:0:0:
475,192,22131,1,0,0:0:0:0:
109,192,22131,1,0,0:0:0:0:
256,192,22253,1,0,0:0:0:0:
109,192,22253,1,0,0:0:0:0:
36,192,22253,1,0,0:0:0:0:
182,192,22253,1,0,0:0:0:0:
402,192,22253,1,0,0:0:0:0:
329,192,22374,1,0,0:0:0:0:
182,192,22374,1,0,0:0:0:0:
36,192,22374,1,0,0:0:0:0:
36,192,22496,1,0,0:0:0:0:
109,192,22496,1,0,0:0:0:0:
402,192,22496,1,0,0:0:0:0:
475,192,22496,1,0,0:0:0:0:
329,192,22496,1,0,0:0:0:0:
182,192,22496,1,0,0:0:0:0:
329,192,22617,1,0,0:0:0:0:
475,192,22617,1,0,0:0:0:0:
109,192,22617,1,0,0:0:0:0:
256,192,22617,1,0,0:0:0:0:
109,192,22739,1,0,0:0:0:0:
475,192,22739,1,0,0:0:0:0:
402,192,22739,1,0,0:0:0:0:
36,192,22739,1,0,0:0:0:0:
182,192,22739,1,0,0:0:0:0:
256,192,22739,1,0,0:0:0:0:
109,192,22860,1,0,0:0:0:0:
182,192,22860,1,0,0:0:0:0:
329,192,22860,1,0,0:0:0:0:
402,192,22860,1,0,0:0:0:0:
182,192,22982,1,0,0:0:0:0:
402,192,22982,1,0,0:0:0:0:
475,192,22982,1,0,0:0:0:0:
36,192,22982,1,0,0:0:0:0:
402,192,23103,1,0,0:0:0:0:
256,192,23103,1,0,0:0:0:0:
109,192,23103,1,0,0:0:0:0:
329,192,23103,1,0,0:0:0:0:
36,192,23224,1,0,0:0:0:0:
109,192,23224,1,0,0:0:0:0:
329,192,23224,1,0,0:0:0:0:
256,192,23224,1,0,0:0:0:0:
475,192,23224,1,0,0:0:0:0:
402,192,23224,1,0,0:0:0:0:
36,192,23346,1,0,0:0:0:0:
182,192,23346,1,0,0:0:0:0:
329,192,23346,1,0,0:0:0:0:
475,192,23346,1,0,0:0:0:0:
36,192,23467,1,0,0:0:0:0:
109,192,23467,1,0,0:0:0:0:
256,192,23467,1,0,0:0:0:0:
329,192,23467,1,0,0:0:0:0:
109,192,23589,1,0,0:0:0:0:
329,192,23589,1,0,0:0:0:0:
402,192,23589,1,0,0:0:0:0:
182,192,23589,1,0,0:0:0:0:
182,192,23710,1,0,0:0:0:0:
256,192,23710,1,0,0:0:0:0:
402,192,23710,1,0,0:0:0:0:
475,192,23710,1,0,0:0:0:0:
36,192,23710,1,0,0:0:0:0:
329,192,23710,1,0,0:0:0:0:
329,192,23832,1,0,0:0:0:0:
475,192,23832,1,0,0:0:0:0:
109,192,23832,1,0,0:0:0:0:
182,192,23832,1,0,0:0:0:0:
109,192,23953,1,0,0:0:0:0:
182,192,23953,1,0,0:0:0:0:
402,192,23953,1,0,0:0:0:0:
36,192,23953,1,0,0:0:0:0:
402,192,24075,1,0,0:0:0:0:
256,192,24075,1,0,0:0:0:0:
36,192,24075,1,0,0:0:0:0:
329,192,24075,1,0,0:0:0:0:
36,192,24196,1,0,0:0:0:0:
182,192,24196,1,0,0:0:0:0:
256,192,24196,1,0,0:0:0:0:
329,192,24196,1,0,0:0:0:0:
109,192,24196,1,0,0:0:0:0:
475,192,24196,1,0,0:0:0:0:
109,192,24318,1,0,0:0:0:0:
402,192,24318,1,0,0:0:0:0:
475,192,24318,1,0,0:0:0:0:
182,192,24318,1,0,0:0:0:0:
402,192,24439,1,0,0:0:0:0:
256,192,24439,1,0,0:0:0:0:
182,192,24439,1,0,0:0:0:0:
36,192,24439,1,0,0:0:0:0:
182,192,24560,1,0,0:0:0:0:
36,192,24560,1,0,0:0:0:0:
329,192,24560,1,0,0:0:0:0:
475,192,24560,1,0,0:0:0:0:
109,192,24682,1,0,0:0:0:0:
329,192,24682,1,0,0:0:0:0:
402,192,24682,1,0,0:0:0:0:
475,192,24682,1,0,0:0:0:0:
256,192,24682,1,0,0:0:0:0:
182,192,24682,1,0,0:0:0:0:
329,192,24803,1,0,0:0:0:0:
182,192,24803,1,0,0:0:0:0:
109,192,24803,1,0,0:0:0:0:
36,192,24803,1,0,0:0:0:0:
182,192,24925,1,0,0:0:0:0:
402,192,24925,1,0,0:0:0:0:
475,192,24925,1,0,0:0:0:0:
256,192,24925,1,0,0:0:0:0:
402,192,25046,1,0,0:0:0:0:
256,192,25046,1,0,0:0:0:0:
109,192,25046,1,0,0:0:0:0:
36,192,25046,1,0,0:0:0:0:
36,192,25168,1,0,0:0:0:0:
182,192,25168,1,0,0:0:0:0:
329,192,25168,1,0,0:0:0:0:
256,192,25168,1,0,0:0:0:0:
475,192,25168,1,0,0:0:0:0:
402,192,25168,1,0,0:0:0:0:
109,192,25289,1,0,0:0:0:0:
329,192,25289,1,0,0:0:0:0:
402,192,25289,1,0,0:0:0:0:
182,192,25289,1,0,0:0:0:0:
109,192,25411,1,0,0:0:0:0:
256,192,25411,1,0,0:0:0:0:
475,192,25411,1,0,0:0:0:0:
402,192,25411,1,0,0:0:0:0:
256,192,25532,1,0,0:0:0:0:
36,192,25532,1,0,0:0:0:0:
402,192,25532,1,0,0:0:0:0:
182,192,25532,1,0,0:0:0:0:
402,192,25654,1,0,0:0:0:0:
475,192,25654,1,0,0:0:0:0:
182,192,25654,1,0,0:0:0:0:
329,192,25654,1,0,0:0:0:0:
109,192,25654,1,0,0:0:0:0:
36,192,25654,1,0,0:0:0:0:
182,192,25775,1,0,0:0:0:0:
402,192,25775,1,0,0:0:0:0:
329,192,25775,1,0,0:0:0:0:
256,192,25775,1,0,0:0:0:0:
109,192,25896,1,0,0:0:0:0:
36,192,25896,1,0,0:0:0:0:
402,192,25896,1,0,0:0:0:0:
475,192,25896,1,0,0:0:0:0:
329,192,26018,1,0,0:0:0:0:
109,192,26018,1,0,0:0:0:0:
256,192,26018,1,0,0:0:0:0:
182,192,26018,1,0,0:0:0:0:
36,192,26139,1,0,0:0:0:0:
402,192,26139,1,0,0:0:0:0:
475,192,26139,1,0,0:0:0:0:
182,192,26139,1,0,0:0:0:0:
329,192,26139,1,0,0:0:0:0:
109,192,26139,1,0,0:0:0:0:
182,192,26261,1,0,0:0:0:0:
109,192,26261,1,0,0:0:0:0:
256,192,26261,1,0,0:0:0:0:
402,192,26261,1,0,0:0:0:0:
182,192,26382,1,0,0:0:0:0:
329,192,26382,1,0,0:0:0:0:
402,192,26382,1,0,0:0:0:0:
36,192,26382,1,0,0:0:0:0:
329,192,26504,1,0,0:0:0:0:
109,192,26504,1,0,0:0:0:0:
475,192,26504,1,0,0:0:0:0:
256,192,26504,1,0,0:0:0:0:
182,192,26625,1,0,0:0:0:0:
256,192,26625,1,0,0:0:0:0:
329,192,26625,1,0,0:0:0:0:
402,192,26625,1,0,0:0:0:0:
36,192,26625,1,0,0:0:0:0:
109,192,26747,1,0,0:0:0:0:
329,192,26747,1,0,0:0:0:0:
182,192,26747,1,0,0:0:0:0:
402,192,26747,1,0,0:0:0:0:
182,192,26868,1,0,0:0:0:0:
402,192,26868,1,0,0:0:0:0:
475,192,26868,1,0,0:0:0:0:
109,192,26868,1,0,0:0:0:0:
475,192,26990,1,0,0:0:0:0:
36,192,26990,1,0,0:0:0:0:
256,192,26990,1,0,0:0:0:0:
402,192,26990,1,0,0:0:0:0:
109,192,27111,1,0,0:0:0:0:
182,192,27111,1,0,0:0:0:0:
329,192,27111,1,0,0:0:0:0:
402,192,27111,1,0,0:0:0:0:
36,192,27111,1,0,0:0:0:0:
475,192,27233,1,0,0:0:0:0:
329,192,27233,1,0,0:0:0:0:
402,192,27233,1,0,0:0:0:0:
36,192,27293,1,0,0:0:0:0:
109,192,27293,1,0,0:0:0:0:
182,192,27293,1,0,0:0:0:0:
320,192,27354,1,0,0:0:0:0:
402,192,27354,1,0,0:0:0:0:
475,192,27354,1,0,0:0:0:0:
109,192,27415,1,0,0:0:0:0:
192,192,27415,1,0,0:0:0:0:
36,192,27415,1,0,0:0:0:0:
320,192,27475,1,0,0:0:0:0:
402,192,27475,1,0,0:0:0:0:
475,192,27475,1,0,0:0:0:0:
109,192,27536,1,0,0:0:0:0:
192,192,27536,1,0,0:0:0:0:
36,192,27536,1,0,0:0:0:0:
320,192,27597,1,0,0:0:0:0:
402,192,27597,1,0,0:0:0:0:
475,192,27597,1,0,0:0:0:0:
109,192,27658,1,0,0:0:0:0:
192,192,27658,1,0,0:0:0:0:
36,192,27658,1,0,0:0:0:0:
320,192,27718,1,0,0:0:0:0:
402,192,27718,1,0,0:0:0:0:
475,192,27718,1,0,0:0:0:0:
109,192,27779,1,0,0:0:0:0:
192,192,27779,1,0,0:0:0:0:
36,192,27779,1,0,0:0:0:0:
320,192,27840,1,0,0:0:0:0:
402,192,27840,1,0,0:0:0:0:
475,192,27840,1,0,0:0:0:0:
109,192,27901,1,0,0:0:0:0:
192,192,27901,1,0,0:0:0:0:
36,192,27901,1,0,0:0:0:0:
320,192,27961,1,0,0:0:0:0:
402,192,27961,1,0,0:0:0:0:
475,192,27961,1,0,0:0:0:0:
109,192,28022,1,0,0:0:0:0:
192,192,28022,1,0,0:0:0:0:
36,192,28022,1,0,0:0:0:0:
320,192,28083,1,0,0:0:0:0:
402,192,28083,1,0,0:0:0:0:
475,192,28083,1,0,0:0:0:0:
109,192,28143,1,0,0:0:0:0:
192,192,28143,1,0,0:0:0:0:
36,192,28143,1,0,0:0:0:0:
320,192,28204,1,0,0:0:0:0:
402,192,28204,1,0,0:0:0:0:
475,192,28204,1,0,0:0:0:0:
109,192,28265,1,0,0:0:0:0:
192,192,28265,1,0,0:0:0:0:
36,192,28265,1,0,0:0:0:0:
320,192,28326,1,0,0:0:0:0:
402,192,28326,1,0,0:0:0:0:
475,192,28326,1,0,0:0:0:0:
109,192,28386,1,0,0:0:0:0:
192,192,28386,1,0,0:0:0:0:
36,192,28386,1,0,0:0:0:0:
320,192,28447,1,0,0:0:0:0:
402,192,28447,1,0,0:0:0:0:
475,192,28447,1,0,0:0:0:0:
109,192,28508,1,0,0:0:0:0:
192,192,28508,1,0,0:0:0:0:
36,192,28508,1,0,0:0:0:0:
320,192,28569,1,0,0:0:0:0:
402,192,28569,1,0,0:0:0:0:
475,192,28569,1,0,0:0:0:0:
109,192,28629,1,0,0:0:0:0:
192,192,28629,1,0,0:0:0:0:
36,192,28629,1,0,0:0:0:0:
320,192,28690,1,0,0:0:0:0:
402,192,28690,1,0,0:0:0:0:
475,192,28690,1,0,0:0:0:0:
109,192,28751,1,0,0:0:0:0:
192,192,28751,1,0,0:0:0:0:
36,192,28751,1,0,0:0:0:0:
320,192,28811,1,0,0:0:0:0:
402,192,28811,1,0,0:0:0:0:
475,192,28811,1,0,0:0:0:0:
109,192,28872,1,0,0:0:0:0:
192,192,28872,1,0,0:0:0:0:
36,192,28872,1,0,0:0:0:0:
320,192,28933,1,0,0:0:0:0:
402,192,28933,1,0,0:0:0:0:
475,192,28933,1,0,0:0:0:0:
109,192,28994,1,0,0:0:0:0:
192,192,28994,1,0,0:0:0:0:
36,192,28994,1,0,0:0:0:0:
320,192,29054,1,0,0:0:0:0:
402,192,29054,1,0,0:0:0:0:
475,192,29054,1,0,0:0:0:0:
109,192,29115,1,0,0:0:0:0:
192,192,29115,1,0,0:0:0:0:
36,192,29115,1,0,0:0:0:0:
320,192,29176,1,0,0:0:0:0:
402,192,29176,1,0,0:0:0:0:
475,192,29176,1,0,0:0:0:0:
109,192,29237,1,0,0:0:0:0:
192,192,29237,1,0,0:0:0:0:
36,192,29237,1,0,0:0:0:0:
320,192,29297,1,0,0:0:0:0:
402,192,29297,1,0,0:0:0:0:
475,192,29297,1,0,0:0:0:0:
109,192,29358,1,0,0:0:0:0:
192,192,29358,1,0,0:0:0:0:
36,192,29358,1,0,0:0:0:0:
320,192,29419,1,0,0:0:0:0:
402,192,29419,1,0,0:0:0:0:
475,192,29419,1,0,0:0:0:0:
109,192,29479,1,0,0:0:0:0:
192,192,29479,1,0,0:0:0:0:
36,192,29479,1,0,0:0:0:0:
320,192,29540,1,0,0:0:0:0:
402,192,29540,1,0,0:0:0:0:
475,192,29540,1,0,0:0:0:0:
109,192,29601,1,0,0:0:0:0:
192,192,29601,1,0,0:0:0:0:
36,192,29601,1,0,0:0:0:0:
320,192,29662,1,0,0:0:0:0:
402,192,29662,1,0,0:0:0:0:
475,192,29662,1,0,0:0:0:0:
109,192,29722,1,0,0:0:0:0:
192,192,29722,1,0,0:0:0:0:
36,192,29722,1,0,0:0:0:0:
320,192,29783,1,0,0:0:0:0:
402,192,29783,1,0,0:0:0:0:
475,192,29783,1,0,0:0:0:0:
320,192,29905,1,0,0:0:0:0:
402,192,29905,1,0,0:0:0:0:
36,192,29905,1,0,0:0:0:0:
109,192,29905,1,0,0:0:0:0:
109,192,30026,1,0,0:0:0:0:
192,192,30026,1,0,0:0:0:0:
402,192,30026,1,0,0:0:0:0:
475,192,30026,1,0,0:0:0:0:
320,192,30148,1,0,0:0:0:0:
402,192,30148,1,0,0:0:0:0:
36,192,30148,1,0,0:0:0:0:
109,192,30148,1,0,0:0:0:0:
109,192,30269,1,0,0:0:0:0:
192,192,30269,1,0,0:0:0:0:
320,192,30269,1,0,0:0:0:0:
402,192,30269,1,0,0:0:0:0:
36,192,30269,1,0,0:0:0:0:
475,192,30269,1,0,0:0:0:0:
256,192,30269,1,0,0:0:0:0:
36,192,30390,1,0,0:0:0:0:
182,192,30390,1,0,0:0:0:0:
329,192,30390,1,0,0:0:0:0:
475,192,30390,1,0,0:0:0:0:
109,192,30512,1,0,0:0:0:0:
192,192,30512,1,0,0:0:0:0:
320,192,30512,1,0,0:0:0:0:
402,192,30512,1,0,0:0:0:0:
256,192,30512,1,0,0:0:0:0:
475,192,30512,1,0,0:0:0:0:
36,192,30633,1,0,0:0:0:0:
109,192,30633,1,0,0:0:0:0:
182,192,30633,1,0,0:0:0:0:
329,192,30633,1,0,0:0:0:0:
109,192,30755,1,0,0:0:0:0:
192,192,30755,1,0,0:0:0:0:
320,192,30755,1,0,0:0:0:0:
402,192,30755,1,0,0:0:0:0:
36,192,30755,1,0,0:0:0:0:
256,192,30755,1,0,0:0:0:0:
36,192,30876,1,0,0:0:0:0:
109,192,30876,1,0,0:0:0:0:
256,192,30876,1,0,0:0:0:0:
475,192,30876,1,0,0:0:0:0:
109,192,30998,1,0,0:0:0:0:
192,192,30998,1,0,0:0:0:0:
320,192,30998,1,0,0:0:0:0:
402,192,30998,1,0,0:0:0:0:
36,192,30998,1,0,0:0:0:0:
475,192,30998,1,0,0:0:0:0:
36,192,31119,1,0,0:0:0:0:
475,192,31119,1,0,0:0:0:0:
402,192,31119,1,0,0:0:0:0:
182,192,31119,1,0,0:0:0:0:
109,192,31241,1,0,0:0:0:0:
192,192,31241,1,0,0:0:0:0:
320,192,31241,1,0,0:0:0:0:
402,192,31241,1,0,0:0:0:0:
36,192,31241,1,0,0:0:0:0:
475,192,31241,1,0,0:0:0:0:
256,192,31241,1,0,0:0:0:0:
36,192,31362,1,0,0:0:0:0:
182,192,31362,1,0,0:0:0:0:
329,192,31362,1,0,0:0:0:0:
475,192,31362,1,0,0:0:0:0:
109,192,31484,1,0,0:0:0:0:
192,192,31484,1,0,0:0:0:0:
320,192,31484,1,0,0:0:0:0:
402,192,31484,1,0,0:0:0:0:
256,192,31484,1,0,0:0:0:0:
475,192,31484,1,0,0:0:0:0:
182,192,31605,1,0,0:0:0:0:
329,192,31605,1,0,0:0:0:0:
402,192,31605,1,0,0:0:0:0:
475,192,31605,1,0,0:0:0:0:
109,192,31726,1,0,0:0:0:0:
192,192,31726,1,0,0:0:0:0:
320,192,31726,1,0,0:0:0:0:
402,192,31726,1,0,0:0:0:0:
36,192,31726,1,0,0:0:0:0:
256,192,31726,1,0,0:0:0:0:
402,192,31848,1,0,0:0:0:0:
36,192,31848,1,0,0:0:0:0:
256,192,31848,1,0,0:0:0:0:
475,192,31848,1,0,0:0:0:0:
109,192,31969,1,0,0:0:0:0:
192,192,31969,1,0,0:0:0:0:
320,192,31969,1,0,0:0:0:0:
402,192,31969,1,0,0:0:0:0:
36,192,31969,1,0,0:0:0:0:
475,192,31969,1,0,0:0:0:0:
36,192,32091,1,0,0:0:0:0:
109,192,32091,1,0,0:0:0:0:
329,192,32091,1,0,0:0:0:0:
475,192,32091,1,0,0:0:0:0:
109,192,32212,1,0,0:0:0:0:
192,192,32212,1,0,0:0:0:0:
320,192,32212,1,0,0:0:0:0:
402,192,32212,1,0,0:0:0:0:
36,192,32212,1,0,0:0:0:0:
475,192,32212,1,0,0:0:0:0:
256,192,32212,1,0,0:0:0:0:
36,192,32334,1,0,0:0:0:0:
182,192,32334,1,0,0:0:0:0:
329,192,32334,1,0,0:0:0:0:
475,192,32334,1,0,0:0:0:0:
109,192,32455,1,0,0:0:0:0:
192,192,32455,1,0,0:0:0:0:
320,192,32455,1,0,0:0:0:0:
402,192,32455,1,0,0:0:0:0:
256,192,32455,1,0,0:0:0:0:
475,192,32455,1,0,0:0:0:0:
475,192,32577,1,0,0:0:0:0:
402,192,32577,1,0,0:0:0:0:
36,192,32577,1,0,0:0:0:0:
109,192,32577,1,0,0:0:0:0:
109,192,32698,1,0,0:0:0:0:
192,192,32698,1,0,0:0:0:0:
320,192,32698,1,0,0:0:0:0:
402,192,32698,1,0,0:0:0:0:
256,192,32698,1,0,0:0:0:0:
36,192,32698,1,0,0:0:0:0:
36,192,32820,1,0,0:0:0:0:
329,192,32820,1,0,0:0:0:0:
402,192,32820,1,0,0:0:0:0:
475,192,32820,1,0,0:0:0:0:
109,192,32941,1,0,0:0:0:0:
192,192,32941,1,0,0:0:0:0:
320,192,32941,1,0,0:0:0:0:
402,192,32941,1,0,0:0:0:0:
36,192,32941,1,0,0:0:0:0:
475,192,32941,1,0,0:0:0:0:
402,192,33062,1,0,0:0:0:0:
256,192,33062,1,0,0:0:0:0:
329,192,33062,1,0,0:0:0:0:
475,192,33062,1,0,0:0:0:0:
109,192,33184,1,0,0:0:0:0:
192,192,33184,1,0,0:0:0:0:
320,192,33184,1,0,0:0:0:0:
402,192,33184,1,0,0:0:0:0:
256,192,33184,1,0,0:0:0:0:
36,192,33184,1,0,0:0:0:0:
475,192,33184,1,0,0:0:0:0:
36,192,33305,1,0,0:0:0:0:
182,192,33305,1,0,0:0:0:0:
329,192,33305,1,0,0:0:0:0:
475,192,33305,1,0,0:0:0:0:
109,192,33427,1,0,0:0:0:0:
192,192,33427,1,0,0:0:0:0:
320,192,33427,1,0,0:0:0:0:
402,192,33427,1,0,0:0:0:0:
475,192,33427,1,0,0:0:0:0:
36,192,33427,1,0,0:0:0:0:
36,192,33548,1,0,0:0:0:0:
109,192,33548,1,0,0:0:0:0:
402,192,33548,1,0,0:0:0:0:
475,192,33548,1,0,0:0:0:0:
109,192,33670,1,0,0:0:0:0:
192,192,33670,1,0,0:0:0:0:
320,192,33670,1,0,0:0:0:0:
402,192,33670,1,0,0:0:0:0:
256,192,33670,1,0,0:0:0:0:
192,192,33791,1,0,0:0:0:0:
36,192,33791,1,0,0:0:0:0:
109,192,33791,1,0,0:0:0:0:
475,192,33791,1,0,0:0:0:0:
109,192,33913,1,0,0:0:0:0:
192,192,33913,1,0,0:0:0:0:
320,192,33913,1,0,0:0:0:0:
402,192,33913,1,0,0:0:0:0:
475,192,33913,1,0,0:0:0:0:
36,192,33913,1,0,0:0:0:0:
109,192,34034,1,0,0:0:0:0:
192,192,34034,1,0,0:0:0:0:
36,192,34034,1,0,0:0:0:0:
256,192,34034,1,0,0:0:0:0:
109,192,34156,1,0,0:0:0:0:
192,192,34156,1,0,0:0:0:0:
320,192,34156,1,0,0:0:0:0:
402,192,34156,1,0,0:0:0:0:
256,192,34156,1,0,0:0:0:0:
36,192,34156,1,0,0:0:0:0:
475,192,34156,1,0,0:0:0:0:
36,192,34277,1,0,0:0:0:0:
329,192,34277,1,0,0:0:0:0:
402,192,34277,1,0,0:0:0:0:
475,192,34277,1,0,0:0:0:0:
109,192,34399,1,0,0:0:0:0:
192,192,34399,1,0,0:0:0:0:
320,192,34399,1,0,0:0:0:0:
402,192,34399,1,0,0:0:0:0:
256,192,34399,1,0,0:0:0:0:
475,192,34399,1,0,0:0:0:0:
109,192,34520,1,0,0:0:0:0:
182,192,34520,1,0,0:0:0:0:
475,192,34520,1,0,0:0:0:0:
36,192,34520,1,0,0:0:0:0:
109,192,34641,1,0,0:0:0:0:
192,192,34641,1,0,0:0:0:0:
320,192,34641,1,0,0:0:0:0:
402,192,34641,1,0,0:0:0:0:
36,192,34641,1,0,0:0:0:0:
256,192,34641,1,0,0:0:0:0:
36,192,34763,1,0,0:0:0:0:
182,192,34763,1,0,0:0:0:0:
256,192,34763,1,0,0:0:0:0:
329,192,34763,1,0,0:0:0:0:
109,192,34884,1,0,0:0:0:0:
192,192,34884,1,0,0:0:0:0:
320,192,34884,1,0,0:0:0:0:
402,192,34884,1,0,0:0:0:0:
36,192,34884,1,0,0:0:0:0:
475,192,34884,1,0,0:0:0:0:
320,192,35006,1,0,0:0:0:0:
256,192,35006,1,0,0:0:0:0:
182,192,35006,1,0,0:0:0:0:
475,192,35006,1,0,0:0:0:0:
192,192,35127,1,0,0:0:0:0:
320,192,35127,1,0,0:0:0:0:
402,192,35127,1,0,0:0:0:0:
256,192,35127,1,0,0:0:0:0:
109,192,35127,1,0,0:0:0:0:
475,192,35127,1,0,0:0:0:0:
36,192,35127,1,0,0:0:0:0:
36,192,35249,1,0,0:0:0:0:
182,192,35249,1,0,0:0:0:0:
329,192,35249,1,0,0:0:0:0:
402,192,35249,1,0,0:0:0:0:
109,192,35370,1,0,0:0:0:0:
192,192,35370,1,0,0:0:0:0:
320,192,35370,1,0,0:0:0:0:
402,192,35370,1,0,0:0:0:0:
256,192,35370,1,0,0:0:0:0:
475,192,35370,1,0,0:0:0:0:
182,192,35492,1,0,0:0:0:0:
109,192,35492,1,0,0:0:0:0:
329,192,35492,1,0,0:0:0:0:
475,192,35492,1,0,0:0:0:0:
109,192,35613,1,0,0:0:0:0:
192,192,35613,1,0,0:0:0:0:
320,192,35613,1,0,0:0:0:0:
402,192,35613,1,0,0:0:0:0:
36,192,35613,1,0,0:0:0:0:
256,192,35613,1,0,0:0:0:0:
36,192,35735,1,0,0:0:0:0:
329,192,35735,1,0,0:0:0:0:
402,192,35735,1,0,0:0:0:0:
475,192,35735,1,0,0:0:0:0:
109,192,35856,1,0,0:0:0:0:
192,192,35856,1,0,0:0:0:0:
320,192,35856,1,0,0:0:0:0:
402,192,35856,1,0,0:0:0:0:
36,192,35856,1,0,0:0:0:0:
475,192,35856,1,0,0:0:0:0:
36,192,35977,1,0,0:0:0:0:
329,192,35977,1,0,0:0:0:0:
402,192,35977,1,0,0:0:0:0:
475,192,35977,1,0,0:0:0:0:
256,192,35977,1,0,0:0:0:0:
109,192,36099,1,0,0:0:0:0:
192,192,36099,1,0,0:0:0:0:
320,192,36099,1,0,0:0:0:0:
402,192,36099,1,0,0:0:0:0:
256,192,36099,1,0,0:0:0:0:
36,192,36099,1,0,0:0:0:0:
475,192,36099,1,0,0:0:0:0:
109,192,36220,1,0,0:0:0:0:
256,192,36220,1,0,0:0:0:0:
402,192,36220,1,0,0:0:0:0:
475,192,36220,1,0,0:0:0:0:
109,192,36342,1,0,0:0:0:0:
192,192,36342,1,0,0:0:0:0:
320,192,36342,1,0,0:0:0:0:
402,192,36342,1,0,0:0:0:0:
256,192,36342,1,0,0:0:0:0:
475,192,36342,1,0,0:0:0:0:
402,192,36463,1,0,0:0:0:0:
329,192,36463,1,0,0:0:0:0:
182,192,36463,1,0,0:0:0:0:
36,192,36463,1,0,0:0:0:0:
109,192,36585,1,0,0:0:0:0:
192,192,36585,1,0,0:0:0:0:
320,192,36585,1,0,0:0:0:0:
402,192,36585,1,0,0:0:0:0:
36,192,36585,1,0,0:0:0:0:
256,192,36585,1,0,0:0:0:0:
329,192,36706,1,0,0:0:0:0:
256,192,36706,1,0,0:0:0:0:
109,192,36706,1,0,0:0:0:0:
475,192,36706,1,0,0:0:0:0:
109,192,36828,1,0,0:0:0:0:
192,192,36828,1,0,0:0:0:0:
320,192,36828,1,0,0:0:0:0:
402,192,36828,1,0,0:0:0:0:
36,192,36828,1,0,0:0:0:0:
475,192,36828,1,0,0:0:0:0:
182,192,36949,1,0,0:0:0:0:
256,192,36949,1,0,0:0:0:0:
402,192,36949,1,0,0:0:0:0:
475,192,36949,1,0,0:0:0:0:
109,192,37071,1,0,0:0:0:0:
192,192,37071,1,0,0:0:0:0:
320,192,37071,1,0,0:0:0:0:
402,192,37071,1,0,0:0:0:0:
475,192,37071,1,0,0:0:0:0:
256,192,37071,1,0,0:0:0:0:
36,192,37071,1,0,0:0:0:0:
36,192,37192,1,0,0:0:0:0:
182,192,37192,1,0,0:0:0:0:
329,192,37192,1,0,0:0:0:0:
475,192,37192,1,0,0:0:0:0:
109,192,37313,1,0,0:0:0:0:
192,192,37313,1,0,0:0:0:0:
320,192,37313,1,0,0:0:0:0:
402,192,37313,1,0,0:0:0:0:
475,192,37313,1,0,0:0:0:0:
256,192,37313,1,0,0:0:0:0:
109,192,37435,1,0,0:0:0:0:
256,192,37435,1,0,0:0:0:0:
402,192,37435,1,0,0:0:0:0:
109,192,37556,1,0,0:0:0:0:
192,192,37556,1,0,0:0:0:0:
320,192,37556,1,0,0:0:0:0:
402,192,37556,1,0,0:0:0:0:
36,192,37556,1,0,0:0:0:0:
256,192,37556,1,0,0:0:0:0:
36,192,37678,1,0,0:0:0:0:
182,192,37678,1,0,0:0:0:0:
329,192,37678,1,0,0:0:0:0:
475,192,37678,1,0,0:0:0:0:
109,192,37799,1,0,0:0:0:0:
192,192,37799,1,0,0:0:0:0:
320,192,37799,1,0,0:0:0:0:
402,192,37799,1,0,0:0:0:0:
475,192,37799,1,0,0:0:0:0:
256,192,37799,1,0,0:0:0:0:
402,192,37921,1,0,0:0:0:0:
109,192,37921,1,0,0:0:0:0:
256,192,37921,1,0,0:0:0:0:
109,192,38042,1,0,0:0:0:0:
192,192,38042,1,0,0:0:0:0:
320,192,38042,1,0,0:0:0:0:
402,192,38042,1,0,0:0:0:0:
36,192,38042,1,0,0:0:0:0:
256,192,38042,1,0,0:0:0:0:
475,192,38042,1,0,0:0:0:0:
475,192,38164,1,0,0:0:0:0:
329,192,38164,1,0,0:0:0:0:
182,192,38164,1,0,0:0:0:0:
36,192,38164,1,0,0:0:0:0:
402,192,38285,1,0,0:0:0:0:
329,192,38285,1,0,0:0:0:0:
182,192,38285,1,0,0:0:0:0:
109,192,38285,1,0,0:0:0:0:
256,192,38285,1,0,0:0:0:0:
36,192,38285,1,0,0:0:0:0:
475,192,38407,1,0,0:0:0:0:
402,192,38407,1,0,0:0:0:0:
329,192,38407,1,0,0:0:0:0:
182,192,38407,1,0,0:0:0:0:
402,192,38528,1,0,0:0:0:0:
329,192,38528,1,0,0:0:0:0:
182,192,38528,1,0,0:0:0:0:
109,192,38528,1,0,0:0:0:0:
475,192,38528,1,0,0:0:0:0:
256,192,38528,1,0,0:0:0:0:
475,192,38650,1,0,0:0:0:0:
402,192,38650,1,0,0:0:0:0:
256,192,38650,1,0,0:0:0:0:
36,192,38650,1,0,0:0:0:0:
402,192,38771,1,0,0:0:0:0:
329,192,38771,1,0,0:0:0:0:
182,192,38771,1,0,0:0:0:0:
109,192,38771,1,0,0:0:0:0:
475,192,38771,1,0,0:0:0:0:
36,192,38771,1,0,0:0:0:0:
475,192,38892,1,0,0:0:0:0:
36,192,38892,1,0,0:0:0:0:
109,192,38892,1,0,0:0:0:0:
329,192,38892,1,0,0:0:0:0:
402,192,39014,1,0,0:0:0:0:
329,192,39014,1,0,0:0:0:0:
182,192,39014,1,0,0:0:0:0:
109,192,39014,1,0,0:0:0:0:
475,192,39014,1,0,0:0:0:0:
36,192,39014,1,0,0:0:0:0:
256,192,39014,1,0,0:0:0:0:
475,192,39135,1,0,0:0:0:0:
329,192,39135,1,0,0:0:0:0:
182,192,39135,1,0,0:0:0:0:
36,192,39135,1,0,0:0:0:0:
402,192,39257,1,0,0:0:0:0:
329,192,39257,1,0,0:0:0:0:
182,192,39257,1,0,0:0:0:0:
109,192,39257,1,0,0:0:0:0:
256,192,39257,1,0,0:0:0:0:
36,192,39257,1,0,0:0:0:0:
329,192,39378,1,0,0:0:0:0:
182,192,39378,1,0,0:0:0:0:
109,192,39378,1,0,0:0:0:0:
36,192,39378,1,0,0:0:0:0:
402,192,39500,1,0,0:0:0:0:
329,192,39500,1,0,0:0:0:0:
182,192,39500,1,0,0:0:0:0:
109,192,39500,1,0,0:0:0:0:
475,192,39500,1,0,0:0:0:0:
256,192,39500,1,0,0:0:0:0:
109,192,39621,1,0,0:0:0:0:
475,192,39621,1,0,0:0:0:0:
256,192,39621,1,0,0:0:0:0:
36,192,39621,1,0,0:0:0:0:
402,192,39743,1,0,0:0:0:0:
329,192,39743,1,0,0:0:0:0:
182,192,39743,1,0,0:0:0:0:
109,192,39743,1,0,0:0:0:0:
475,192,39743,1,0,0:0:0:0:
36,192,39743,1,0,0:0:0:0:
475,192,39864,1,0,0:0:0:0:
402,192,39864,1,0,0:0:0:0:
182,192,39864,1,0,0:0:0:0:
36,192,39864,1,0,0:0:0:0:
402,192,39986,1,0,0:0:0:0:
329,192,39986,1,0,0:0:0:0:
182,192,39986,1,0,0:0:0:0:
109,192,39986,1,0,0:0:0:0:
475,192,39986,1,0,0:0:0:0:
36,192,39986,1,0,0:0:0:0:
256,192,39986,1,0,0:0:0:0:
475,192,40107,1,0,0:0:0:0:
329,192,40107,1,0,0:0:0:0:
182,192,40107,1,0,0:0:0:0:
36,192,40107,1,0,0:0:0:0:
402,192,40228,1,0,0:0:0:0:
329,192,40228,1,0,0:0:0:0:
182,192,40228,1,0,0:0:0:0:
109,192,40228,1,0,0:0:0:0:
256,192,40228,1,0,0:0:0:0:
36,192,40228,1,0,0:0:0:0:
36,192,40350,1,0,0:0:0:0:
109,192,40350,1,0,0:0:0:0:
475,192,40350,1,0,0:0:0:0:
402,192,40350,1,0,0:0:0:0:
402,192,40471,1,0,0:0:0:0:
329,192,40471,1,0,0:0:0:0:
182,192,40471,1,0,0:0:0:0:
109,192,40471,1,0,0:0:0:0:
256,192,40471,1,0,0:0:0:0:
475,192,40471,1,0,0:0:0:0:
475,192,40593,1,0,0:0:0:0:
182,192,40593,1,0,0:0:0:0:
109,192,40593,1,0,0:0:0:0:
36,192,40593,1,0,0:0:0:0:
402,192,40714,1,0,0:0:0:0:
329,192,40714,1,0,0:0:0:0:
182,192,40714,1,0,0:0:0:0:
109,192,40714,1,0,0:0:0:0:
475,192,40714,1,0,0:0:0:0:
36,192,40714,1,0,0:0:0:0:
109,192,40836,1,0,0:0:0:0:
256,192,40836,1,0,0:0:0:0:
182,192,40836,1,0,0:0:0:0:
36,192,40836,1,0,0:0:0:0:
402,192,40957,1,0,0:0:0:0:
329,192,40957,1,0,0:0:0:0:
182,192,40957,1,0,0:0:0:0:
109,192,40957,1,0,0:0:0:0:
256,192,40957,1,0,0:0:0:0:
475,192,40957,1,0,0:0:0:0:
36,192,40957,1,0,0:0:0:0:
475,192,41079,1,0,0:0:0:0:
329,192,41079,1,0,0:0:0:0:
182,192,41079,1,0,0:0:0:0:
36,192,41079,1,0,0:0:0:0:
402,192,41200,1,0,0:0:0:0:
329,192,41200,1,0,0:0:0:0:
182,192,41200,1,0,0:0:0:0:
109,192,41200,1,0,0:0:0:0:
36,192,41200,1,0,0:0:0:0:
475,192,41200,1,0,0:0:0:0:
475,192,41322,1,0,0:0:0:0:
402,192,41322,1,0,0:0:0:0:
109,192,41322,1,0,0:0:0:0:
36,192,41322,1,0,0:0:0:0:
402,192,41443,1,0,0:0:0:0:
329,192,41443,1,0,0:0:0:0:
182,192,41443,1,0,0:0:0:0:
109,192,41443,1,0,0:0:0:0:
256,192,41443,1,0,0:0:0:0:
329,192,41565,1,0,0:0:0:0:
475,192,41565,1,0,0:0:0:0:
402,192,41565,1,0,0:0:0:0:
36,192,41565,1,0,0:0:0:0:
402,192,41686,1,0,0:0:0:0:
329,192,41686,1,0,0:0:0:0:
182,192,41686,1,0,0:0:0:0:
109,192,41686,1,0,0:0:0:0:
36,192,41686,1,0,0:0:0:0:
475,192,41686,1,0,0:0:0:0:
402,192,41807,1,0,0:0:0:0:
329,192,41807,1,0,0:0:0:0:
475,192,41807,1,0,0:0:0:0:
256,192,41807,1,0,0:0:0:0:
402,192,41929,1,0,0:0:0:0:
329,192,41929,1,0,0:0:0:0:
182,192,41929,1,0,0:0:0:0:
109,192,41929,1,0,0:0:0:0:
256,192,41929,1,0,0:0:0:0:
475,192,41929,1,0,0:0:0:0:
36,192,41929,1,0,0:0:0:0:
475,192,42050,1,0,0:0:0:0:
182,192,42050,1,0,0:0:0:0:
109,192,42050,1,0,0:0:0:0:
36,192,42050,1,0,0:0:0:0:
402,192,42172,1,0,0:0:0:0:
329,192,42172,1,0,0:0:0:0:
182,192,42172,1,0,0:0:0:0:
109,192,42172,1,0,0:0:0:0:
256,192,42172,1,0,0:0:0:0:
36,192,42172,1,0,0:0:0:0:
402,192,42293,1,0,0:0:0:0:
329,192,42293,1,0,0:0:0:0:
36,192,42293,1,0,0:0:0:0:
475,192,42293,1,0,0:0:0:0:
402,192,42415,1,0,0:0:0:0:
329,192,42415,1,0,0:0:0:0:
182,192,42415,1,0,0:0:0:0:
109,192,42415,1,0,0:0:0:0:
475,192,42415,1,0,0:0:0:0:
256,192,42415,1,0,0:0:0:0:
475,192,42536,1,0,0:0:0:0:
329,192,42536,1,0,0:0:0:0:
256,192,42536,1,0,0:0:0:0:
182,192,42536,1,0,0:0:0:0:
402,192,42658,1,0,0:0:0:0:
329,192,42658,1,0,0:0:0:0:
182,192,42658,1,0,0:0:0:0:
109,192,42658,1,0,0:0:0:0:
475,192,42658,1,0,0:0:0:0:
36,192,42658,1,0,0:0:0:0:
182,192,42779,1,0,0:0:0:0:
256,192,42779,1,0,0:0:0:0:
329,192,42779,1,0,0:0:0:0:
36,192,42779,1,0,0:0:0:0:
329,192,42901,1,0,0:0:0:0:
182,192,42901,1,0,0:0:0:0:
109,192,42901,1,0,0:0:0:0:
256,192,42901,1,0,0:0:0:0:
402,192,42901,1,0,0:0:0:0:
36,192,42901,1,0,0:0:0:0:
475,192,42901,1,0,0:0:0:0:
475,192,43022,1,0,0:0:0:0:
329,192,43022,1,0,0:0:0:0:
182,192,43022,1,0,0:0:0:0:
109,192,43022,1,0,0:0:0:0:
402,192,43143,1,0,0:0:0:0:
329,192,43143,1,0,0:0:0:0:
182,192,43143,1,0,0:0:0:0:
109,192,43143,1,0,0:0:0:0:
256,192,43143,1,0,0:0:0:0:
36,192,43143,1,0,0:0:0:0:
329,192,43265,1,0,0:0:0:0:
402,192,43265,1,0,0:0:0:0:
182,192,43265,1,0,0:0:0:0:
36,192,43265,1,0,0:0:0:0:
402,192,43386,1,0,0:0:0:0:
329,192,43386,1,0,0:0:0:0:
182,192,43386,1,0,0:0:0:0:
109,192,43386,1,0,0:0:0:0:
475,192,43386,1,0,0:0:0:0:
256,192,43386,1,0,0:0:0:0:
475,192,43508,1,0,0:0:0:0:
182,192,43508,1,0,0:0:0:0:
109,192,43508,1,0,0:0:0:0:
36,192,43508,1,0,0:0:0:0:
402,192,43629,1,0,0:0:0:0:
329,192,43629,1,0,0:0:0:0:
182,192,43629,1,0,0:0:0:0:
109,192,43629,1,0,0:0:0:0:
475,192,43629,1,0,0:0:0:0:
36,192,43629,1,0,0:0:0:0:
475,192,43751,1,0,0:0:0:0:
182,192,43751,1,0,0:0:0:0:
109,192,43751,1,0,0:0:0:0:
36,192,43751,1,0,0:0:0:0:
256,192,43751,1,0,0:0:0:0:
402,192,43872,1,0,0:0:0:0:
329,192,43872,1,0,0:0:0:0:
182,192,43872,1,0,0:0:0:0:
109,192,43872,1,0,0:0:0:0:
256,192,43872,1,0,0:0:0:0:
475,192,43872,1,0,0:0:0:0:
36,192,43872,1,0,0:0:0:0:
402,192,43994,1,0,0:0:0:0:
256,192,43994,1,0,0:0:0:0:
109,192,43994,1,0,0:0:0:0:
36,192,43994,1,0,0:0:0:0:
402,192,44115,1,0,0:0:0:0:
329,192,44115,1,0,0:0:0:0:
182,192,44115,1,0,0:0:0:0:
109,192,44115,1,0,0:0:0:0:
256,192,44115,1,0,0:0:0:0:
36,192,44115,1,0,0:0:0:0:
109,192,44237,1,0,0:0:0:0:
182,192,44237,1,0,0:0:0:0:
329,192,44237,1,0,0:0:0:0:
475,192,44237,1,0,0:0:0:0:
402,192,44358,1,0,0:0:0:0:
329,192,44358,1,0,0:0:0:0:
182,192,44358,1,0,0:0:0:0:
109,192,44358,1,0,0:0:0:0:
475,192,44358,1,0,0:0:0:0:
256,192,44358,1,0,0:0:0:0:
182,192,44479,1,0,0:0:0:0:
256,192,44479,1,0,0:0:0:0:
402,192,44479,1,0,0:0:0:0:
36,192,44479,1,0,0:0:0:0:
402,192,44601,1,0,0:0:0:0:
329,192,44601,1,0,0:0:0:0:
182,192,44601,1,0,0:0:0:0:
109,192,44601,1,0,0:0:0:0:
475,192,44601,1,0,0:0:0:0:
36,192,44601,1,0,0:0:0:0:
329,192,44722,1,0,0:0:0:0:
256,192,44722,1,0,0:0:0:0:
109,192,44722,1,0,0:0:0:0:
36,192,44722,1,0,0:0:0:0:
36,192,44844,1,0,0:0:0:0:
109,192,44844,1,0,0:0:0:0:
256,192,44844,1,0,0:0:0:0:
182,192,44844,1,0,0:0:0:0:
329,192,44844,1,0,0:0:0:0:
475,192,44844,1,0,0:0:0:0:
402,192,44844,1,0,0:0:0:0:
109,192,45087,1,0,0:0:0:0:
256,192,45087,1,0,0:0:0:0:
402,192,45087,1,0,0:0:0:0:
329,192,45148,1,0,0:0:0:0:
182,192,45148,1,0,0:0:0:0:
109,192,45208,1,0,0:0:0:0:
256,192,45208,1,0,0:0:0:0:
402,192,45208,1,0,0:0:0:0:
182,192,45269,1,0,0:0:0:0:
329,192,45269,1,0,0:0:0:0:
36,192,45330,1,0,0:0:0:0:
475,192,45330,1,0,0:0:0:0:
109,192,45330,1,0,0:0:0:0:
402,192,45330,1,0,0:0:0:0:
182,192,45451,1,0,0:0:0:0:
256,192,45451,1,0,0:0:0:0:
329,192,45451,1,0,0:0:0:0:
36,192,45573,1,0,0:0:0:0:
109,192,45573,1,0,0:0:0:0:
402,192,45573,1,0,0:0:0:0:
475,192,45573,1,0,0:0:0:0:
256,192,45573,1,0,0:0:0:0:
109,192,45816,1,0,0:0:0:0:
192,192,45816,1,0,0:0:0:0:
320,192,45816,1,0,0:0:0:0:
402,192,45816,1,0,0:0:0:0:
36,192,45816,1,0,0:0:0:0:
256,192,45816,1,0,0:0:0:0:
320,192,45937,1,0,0:0:0:0:
182,192,45937,1,0,0:0:0:0:
109,192,46058,1,0,0:0:0:0:
192,192,46058,1,0,0:0:0:0:
320,192,46058,1,0,0:0:0:0:
36,192,46058,1,0,0:0:0:0:
256,192,46058,1,0,0:0:0:0:
475,192,46058,1,0,0:0:0:0:
192,192,46180,1,0,0:0:0:0:
36,192,46180,1,0,0:0:0:0:
109,192,46301,1,0,0:0:0:0:
192,192,46301,1,0,0:0:0:0:
402,192,46301,1,0,0:0:0:0:
36,192,46301,1,0,0:0:0:0:
475,192,46301,1,0,0:0:0:0:
256,192,46301,1,0,0:0:0:0:
109,192,46423,1,0,0:0:0:0:
182,192,46423,1,0,0:0:0:0:
109,192,46544,1,0,0:0:0:0:
192,192,46544,1,0,0:0:0:0:
320,192,46544,1,0,0:0:0:0:
402,192,46544,1,0,0:0:0:0:
36,192,46544,1,0,0:0:0:0:
475,192,46544,1,0,0:0:0:0:
402,192,46666,1,0,0:0:0:0:
329,192,46666,1,0,0:0:0:0:
109,192,46787,1,0,0:0:0:0:
320,192,46787,1,0,0:0:0:0:
402,192,46787,1,0,0:0:0:0:
36,192,46787,1,0,0:0:0:0:
256,192,46787,1,0,0:0:0:0:
475,192,46787,1,0,0:0:0:0:
192,192,46909,1,0,0:0:0:0:
36,192,46909,1,0,0:0:0:0:
192,192,47030,1,0,0:0:0:0:
320,192,47030,1,0,0:0:0:0:
402,192,47030,1,0,0:0:0:0:
36,192,47030,1,0,0:0:0:0:
256,192,47030,1,0,0:0:0:0:
475,192,47030,1,0,0:0:0:0:
192,192,47152,1,0,0:0:0:0:
329,192,47152,1,0,0:0:0:0:
109,192,47273,1,0,0:0:0:0:
192,192,47273,1,0,0:0:0:0:
320,192,47273,1,0,0:0:0:0:
402,192,47273,1,0,0:0:0:0:
256,192,47273,1,0,0:0:0:0:
475,192,47273,1,0,0:0:0:0:
109,192,47394,1,0,0:0:0:0:
182,192,47394,1,0,0:0:0:0:
402,192,47516,1,0,0:0:0:0:
36,192,47516,1,0,0:0:0:0:
329,192,47516,1,0,0:0:0:0:
475,192,47516,1,0,0:0:0:0:
182,192,47516,1,0,0:0:0:0:
256,192,47516,1,0,0:0:0:0:
402,192,47637,1,0,0:0:0:0:
475,192,47637,1,0,0:0:0:0:
109,192,47759,1,0,0:0:0:0:
320,192,47759,1,0,0:0:0:0:
402,192,47759,1,0,0:0:0:0:
36,192,47759,1,0,0:0:0:0:
256,192,47759,1,0,0:0:0:0:
475,192,47759,1,0,0:0:0:0:
320,192,47880,1,0,0:0:0:0:
475,192,47880,1,0,0:0:0:0:
109,192,48002,1,0,0:0:0:0:
192,192,48002,1,0,0:0:0:0:
320,192,48002,1,0,0:0:0:0:
402,192,48002,1,0,0:0:0:0:
36,192,48002,1,0,0:0:0:0:
475,192,48002,1,0,0:0:0:0:
192,192,48123,1,0,0:0:0:0:
36,192,48123,1,0,0:0:0:0:
109,192,48245,1,0,0:0:0:0:
192,192,48245,1,0,0:0:0:0:
402,192,48245,1,0,0:0:0:0:
36,192,48245,1,0,0:0:0:0:
256,192,48245,1,0,0:0:0:0:
475,192,48245,1,0,0:0:0:0:
320,192,48366,1,0,0:0:0:0:
109,192,48366,1,0,0:0:0:0:
109,192,48488,1,0,0:0:0:0:
192,192,48488,1,0,0:0:0:0:
320,192,48488,1,0,0:0:0:0:
36,192,48488,1,0,0:0:0:0:
256,192,48488,1,0,0:0:0:0:
475,192,48488,1,0,0:0:0:0:
182,192,48609,1,0,0:0:0:0:
256,192,48609,1,0,0:0:0:0:
109,192,48730,1,0,0:0:0:0:
192,192,48730,1,0,0:0:0:0:
320,192,48730,1,0,0:0:0:0:
402,192,48730,1,0,0:0:0:0:
36,192,48730,1,0,0:0:0:0:
256,192,48730,1,0,0:0:0:0:
109,192,48852,1,0,0:0:0:0:
36,192,48852,1,0,0:0:0:0:
109,192,48973,1,0,0:0:0:0:
192,192,48973,1,0,0:0:0:0:
320,192,48973,1,0,0:0:0:0:
36,192,48973,1,0,0:0:0:0:
256,192,48973,1,0,0:0:0:0:
475,192,48973,1,0,0:0:0:0:
402,192,49095,1,0,0:0:0:0:
475,192,49095,1,0,0:0:0:0:
109,192,49216,1,0,0:0:0:0:
192,192,49216,1,0,0:0:0:0:
402,192,49216,1,0,0:0:0:0:
36,192,49216,1,0,0:0:0:0:
256,192,49216,1,0,0:0:0:0:
475,192,49216,1,0,0:0:0:0:
36,192,49338,1,0,0:0:0:0:
182,192,49338,1,0,0:0:0:0:
109,192,49459,1,0,0:0:0:0:
192,192,49459,1,0,0:0:0:0:
320,192,49459,1,0,0:0:0:0:
402,192,49459,1,0,0:0:0:0:
36,192,49459,1,0,0:0:0:0:
475,192,49459,1,0,0:0:0:0:
320,192,49581,1,0,0:0:0:0:
475,192,49581,1,0,0:0:0:0:
109,192,49702,1,0,0:0:0:0:
320,192,49702,1,0,0:0:0:0:
402,192,49702,1,0,0:0:0:0:
36,192,49702,1,0,0:0:0:0:
256,192,49702,1,0,0:0:0:0:
475,192,49702,1,0,0:0:0:0:
402,192,49824,1,0,0:0:0:0:
475,192,49824,1,0,0:0:0:0:
192,192,49945,1,0,0:0:0:0:
320,192,49945,1,0,0:0:0:0:
402,192,49945,1,0,0:0:0:0:
36,192,49945,1,0,0:0:0:0:
256,192,49945,1,0,0:0:0:0:
475,192,49945,1,0,0:0:0:0:
320,192,50067,1,0,0:0:0:0:
256,192,50067,1,0,0:0:0:0:
109,192,50188,1,0,0:0:0:0:
192,192,50188,1,0,0:0:0:0:
320,192,50188,1,0,0:0:0:0:
402,192,50188,1,0,0:0:0:0:
256,192,50188,1,0,0:0:0:0:
475,192,50188,1,0,0:0:0:0:
109,192,50309,1,0,0:0:0:0:
182,192,50309,1,0,0:0:0:0:
192,192,50431,1,0,0:0:0:0:
320,192,50431,1,0,0:0:0:0:
402,192,50431,1,0,0:0:0:0:
36,192,50431,1,0,0:0:0:0:
256,192,50431,1,0,0:0:0:0:
475,192,50431,1,0,0:0:0:0:
256,192,50552,1,0,0:0:0:0:
329,192,50552,1,0,0:0:0:0:
109,192,50674,1,0,0:0:0:0:
320,192,50674,1,0,0:0:0:0:
402,192,50674,1,0,0:0:0:0:
36,192,50674,1,0,0:0:0:0:
256,192,50674,1,0,0:0:0:0:
475,192,50674,1,0,0:0:0:0:
329,192,50795,1,0,0:0:0:0:
475,192,50795,1,0,0:0:0:0:
109,192,50917,1,0,0:0:0:0:
192,192,50917,1,0,0:0:0:0:
320,192,50917,1,0,0:0:0:0:
402,192,50917,1,0,0:0:0:0:
36,192,50917,1,0,0:0:0:0:
475,192,50917,1,0,0:0:0:0:
36,192,51038,1,0,0:0:0:0:
182,192,51038,1,0,0:0:0:0:
109,192,51160,1,0,0:0:0:0:
192,192,51160,1,0,0:0:0:0:
402,192,51160,1,0,0:0:0:0:
36,192,51160,1,0,0:0:0:0:
256,192,51160,1,0,0:0:0:0:
475,192,51160,1,0,0:0:0:0:
109,192,51281,1,0,0:0:0:0:
256,192,51281,1,0,0:0:0:0:
109,192,51403,1,0,0:0:0:0:
192,192,51403,1,0,0:0:0:0:
320,192,51403,1,0,0:0:0:0:
36,192,51403,1,0,0:0:0:0:
256,192,51403,1,0,0:0:0:0:
475,192,51403,1,0,0:0:0:0:
182,192,51524,1,0,0:0:0:0:
329,192,51524,1,0,0:0:0:0:
109,192,51645,1,0,0:0:0:0:
192,192,51645,1,0,0:0:0:0:
320,192,51645,1,0,0:0:0:0:
402,192,51645,1,0,0:0:0:0:
36,192,51645,1,0,0:0:0:0:
256,192,51645,1,0,0:0:0:0:
36,192,51767,1,0,0:0:0:0:
256,192,51767,1,0,0:0:0:0:
109,192,51888,1,0,0:0:0:0:
192,192,51888,1,0,0:0:0:0:
320,192,51888,1,0,0:0:0:0:
36,192,51888,1,0,0:0:0:0:
256,192,51888,1,0,0:0:0:0:
475,192,51888,1,0,0:0:0:0:
329,192,52010,1,0,0:0:0:0:
109,192,52010,1,0,0:0:0:0:
109,192,52131,1,0,0:0:0:0:
192,192,52131,1,0,0:0:0:0:
402,192,52131,1,0,0:0:0:0:
36,192,52131,1,0,0:0:0:0:
256,192,52131,1,0,0:0:0:0:
475,192,52131,1,0,0:0:0:0:
402,192,52253,1,0,0:0:0:0:
182,192,52253,1,0,0:0:0:0:
109,192,52374,1,0,0:0:0:0:
192,192,52374,1,0,0:0:0:0:
320,192,52374,1,0,0:0:0:0:
402,192,52374,1,0,0:0:0:0:
36,192,52374,1,0,0:0:0:0:
475,192,52374,1,0,0:0:0:0:
109,192,52496,1,0,0:0:0:0:
329,192,52496,1,0,0:0:0:0:
109,192,52617,1,0,0:0:0:0:
320,192,52617,1,0,0:0:0:0:
402,192,52617,1,0,0:0:0:0:
36,192,52617,1,0,0:0:0:0:
256,192,52617,1,0,0:0:0:0:
475,192,52617,1,0,0:0:0:0:
402,192,52739,1,0,0:0:0:0:
475,192,52739,1,0,0:0:0:0:
192,192,52860,1,0,0:0:0:0:
320,192,52860,1,0,0:0:0:0:
402,192,52860,1,0,0:0:0:0:
36,192,52860,1,0,0:0:0:0:
256,192,52860,1,0,0:0:0:0:
475,192,52860,1,0,0:0:0:0:
256,192,52982,1,0,0:0:0:0:
329,192,52982,1,0,0:0:0:0:
109,192,53103,1,0,0:0:0:0:
192,192,53103,1,0,0:0:0:0:
320,192,53103,1,0,0:0:0:0:
402,192,53103,1,0,0:0:0:0:
256,192,53103,1,0,0:0:0:0:
475,192,53103,1,0,0:0:0:0:
109,192,53224,1,0,0:0:0:0:
182,192,53224,1,0,0:0:0:0:
192,192,53346,1,0,0:0:0:0:
320,192,53346,1,0,0:0:0:0:
402,192,53346,1,0,0:0:0:0:
36,192,53346,1,0,0:0:0:0:
256,192,53346,1,0,0:0:0:0:
475,192,53346,1,0,0:0:0:0:
329,192,53467,1,0,0:0:0:0:
402,192,53467,1,0,0:0:0:0:
109,192,53589,1,0,0:0:0:0:
192,192,53589,1,0,0:0:0:0:
320,192,53589,1,0,0:0:0:0:
402,192,53589,1,0,0:0:0:0:
256,192,53589,1,0,0:0:0:0:
475,192,53589,1,0,0:0:0:0:
36,192,53710,1,0,0:0:0:0:
182,192,53710,1,0,0:0:0:0:
329,192,53710,1,0,0:0:0:0:
192,192,53832,1,0,0:0:0:0:
320,192,53832,1,0,0:0:0:0:
402,192,53832,1,0,0:0:0:0:
36,192,53832,1,0,0:0:0:0:
256,192,53832,1,0,0:0:0:0:
475,192,53832,1,0,0:0:0:0:
109,192,53953,1,0,0:0:0:0:
256,192,53953,1,0,0:0:0:0:
402,192,53953,1,0,0:0:0:0:
109,192,54075,1,0,0:0:0:0:
320,192,54075,1,0,0:0:0:0:
402,192,54075,1,0,0:0:0:0:
36,192,54075,1,0,0:0:0:0:
256,192,54075,1,0,0:0:0:0:
475,192,54075,1,0,0:0:0:0:
182,192,54196,1,0,0:0:0:0:
329,192,54196,1,0,0:0:0:0:
475,192,54196,1,0,0:0:0:0:
109,192,54318,1,0,0:0:0:0:
192,192,54318,1,0,0:0:0:0:
320,192,54318,1,0,0:0:0:0:
402,192,54318,1,0,0:0:0:0:
36,192,54318,1,0,0:0:0:0:
475,192,54318,1,0,0:0:0:0:
256,192,54439,1,0,0:0:0:0:
402,192,54439,1,0,0:0:0:0:
109,192,54439,1,0,0:0:0:0:
109,192,54560,1,0,0:0:0:0:
192,192,54560,1,0,0:0:0:0:
402,192,54560,1,0,0:0:0:0:
36,192,54560,1,0,0:0:0:0:
256,192,54560,1,0,0:0:0:0:
475,192,54560,1,0,0:0:0:0:
36,192,54682,1,0,0:0:0:0:
109,192,54682,1,0,0:0:0:0:
256,192,54682,1,0,0:0:0:0:
109,192,54803,1,0,0:0:0:0:
192,192,54803,1,0,0:0:0:0:
320,192,54803,1,0,0:0:0:0:
36,192,54803,1,0,0:0:0:0:
256,192,54803,1,0,0:0:0:0:
475,192,54803,1,0,0:0:0:0:
109,192,54925,1,0,0:0:0:0:
182,192,54925,1,0,0:0:0:0:
329,192,54925,1,0,0:0:0:0:
109,192,55046,1,0,0:0:0:0:
192,192,55046,1,0,0:0:0:0:
320,192,55046,1,0,0:0:0:0:
402,192,55046,1,0,0:0:0:0:
36,192,55046,1,0,0:0:0:0:
256,192,55046,1,0,0:0:0:0:
182,192,55168,1,0,0:0:0:0:
256,192,55168,1,0,0:0:0:0:
402,192,55168,1,0,0:0:0:0:
109,192,55289,1,0,0:0:0:0:
192,192,55289,1,0,0:0:0:0:
320,192,55289,1,0,0:0:0:0:
36,192,55289,1,0,0:0:0:0:
256,192,55289,1,0,0:0:0:0:
475,192,55289,1,0,0:0:0:0:
256,192,55411,1,0,0:0:0:0:
329,192,55411,1,0,0:0:0:0:
475,192,55411,1,0,0:0:0:0:
109,192,55532,1,0,0:0:0:0:
192,192,55532,1,0,0:0:0:0:
402,192,55532,1,0,0:0:0:0:
36,192,55532,1,0,0:0:0:0:
256,192,55532,1,0,0:0:0:0:
475,192,55532,1,0,0:0:0:0:
36,192,55654,1,0,0:0:0:0:
109,192,55654,1,0,0:0:0:0:
182,192,55654,1,0,0:0:0:0:
109,192,55775,1,0,0:0:0:0:
192,192,55775,1,0,0:0:0:0:
320,192,55775,1,0,0:0:0:0:
402,192,55775,1,0,0:0:0:0:
36,192,55775,1,0,0:0:0:0:
475,192,55775,1,0,0:0:0:0:
475,192,55896,1,0,0:0:0:0:
402,192,55896,1,0,0:0:0:0:
329,192,55896,1,0,0:0:0:0:
109,192,56018,1,0,0:0:0:0:
320,192,56018,1,0,0:0:0:0:
402,192,56018,1,0,0:0:0:0:
36,192,56018,1,0,0:0:0:0:
256,192,56018,1,0,0:0:0:0:
475,192,56018,1,0,0:0:0:0:
109,192,56139,1,0,0:0:0:0:
182,192,56139,1,0,0:0:0:0:
329,192,56139,1,0,0:0:0:0:
192,192,56261,1,0,0:0:0:0:
320,192,56261,1,0,0:0:0:0:
36,192,56261,1,0,0:0:0:0:
256,192,56261,1,0,0:0:0:0:
402,192,56261,1,0,0:0:0:0:
475,192,56261,1,0,0:0:0:0:
402,192,56382,1,0,0:0:0:0:
329,192,56382,1,0,0:0:0:0:
182,192,56382,1,0,0:0:0:0:
109,192,56504,1,0,0:0:0:0:
192,192,56504,1,0,0:0:0:0:
320,192,56504,1,0,0:0:0:0:
402,192,56504,1,0,0:0:0:0:
256,192,56504,1,0,0:0:0:0:
475,192,56504,1,0,0:0:0:0:
36,192,56625,1,0,0:0:0:0:
182,192,56625,1,0,0:0:0:0:
329,192,56625,1,0,0:0:0:0:
192,192,56747,1,0,0:0:0:0:
320,192,56747,1,0,0:0:0:0:
402,192,56747,1,0,0:0:0:0:
36,192,56747,1,0,0:0:0:0:
256,192,56747,1,0,0:0:0:0:
475,192,56747,1,0,0:0:0:0:
182,192,56868,1,0,0:0:0:0:
329,192,56868,1,0,0:0:0:0:
475,192,56868,1,0,0:0:0:0:
109,192,56990,1,0,0:0:0:0:
320,192,56990,1,0,0:0:0:0:
402,192,56990,1,0,0:0:0:0:
36,192,56990,1,0,0:0:0:0:
256,192,56990,1,0,0:0:0:0:
475,192,56990,1,0,0:0:0:0:
109,192,57111,1,0,0:0:0:0:
256,192,57111,1,0,0:0:0:0:
402,192,57111,1,0,0:0:0:0:
109,192,57233,1,0,0:0:0:0:
192,192,57233,1,0,0:0:0:0:
320,192,57233,1,0,0:0:0:0:
402,192,57233,1,0,0:0:0:0:
36,192,57233,1,0,0:0:0:0:
475,192,57233,1,0,0:0:0:0:
402,192,57354,1,0,0:0:0:0:
256,192,57354,1,0,0:0:0:0:
109,192,57354,1,0,0:0:0:0:
109,192,57475,1,0,0:0:0:0:
192,192,57475,1,0,0:0:0:0:
402,192,57475,1,0,0:0:0:0:
36,192,57475,1,0,0:0:0:0:
256,192,57475,1,0,0:0:0:0:
475,192,57475,1,0,0:0:0:0:
36,192,57597,1,0,0:0:0:0:
256,192,57597,1,0,0:0:0:0:
182,192,57597,1,0,0:0:0:0:
109,192,57718,1,0,0:0:0:0:
192,192,57718,1,0,0:0:0:0:
320,192,57718,1,0,0:0:0:0:
36,192,57718,1,0,0:0:0:0:
256,192,57718,1,0,0:0:0:0:
475,192,57718,1,0,0:0:0:0:
256,192,57840,1,0,0:0:0:0:
329,192,57840,1,0,0:0:0:0:
109,192,57840,1,0,0:0:0:0:
109,192,57961,1,0,0:0:0:0:
192,192,57961,1,0,0:0:0:0:
320,192,57961,1,0,0:0:0:0:
402,192,57961,1,0,0:0:0:0:
36,192,57961,1,0,0:0:0:0:
256,192,57961,1,0,0:0:0:0:
329,192,58083,1,0,0:0:0:0:
402,192,58083,1,0,0:0:0:0:
182,192,58083,1,0,0:0:0:0:
109,192,58204,1,0,0:0:0:0:
192,192,58204,1,0,0:0:0:0:
320,192,58204,1,0,0:0:0:0:
36,192,58204,1,0,0:0:0:0:
256,192,58204,1,0,0:0:0:0:
475,192,58204,1,0,0:0:0:0:
402,192,58326,1,0,0:0:0:0:
475,192,58326,1,0,0:0:0:0:
256,192,58326,1,0,0:0:0:0:
109,192,58447,1,0,0:0:0:0:
192,192,58447,1,0,0:0:0:0:
402,192,58447,1,0,0:0:0:0:
36,192,58447,1,0,0:0:0:0:
256,192,58447,1,0,0:0:0:0:
475,192,58447,1,0,0:0:0:0:
36,192,58569,1,0,0:0:0:0:
109,192,58569,1,0,0:0:0:0:
329,192,58569,1,0,0:0:0:0:
109,192,58690,1,0,0:0:0:0:
192,192,58690,1,0,0:0:0:0:
320,192,58690,1,0,0:0:0:0:
36,192,58690,1,0,0:0:0:0:
402,192,58690,1,0,0:0:0:0:
475,192,58690,1,0,0:0:0:0:
109,192,58811,1,0,0:0:0:0:
182,192,58811,1,0,0:0:0:0:
402,192,58811,1,0,0:0:0:0:
109,192,58933,1,0,0:0:0:0:
320,192,58933,1,0,0:0:0:0:
402,192,58933,1,0,0:0:0:0:
36,192,58933,1,0,0:0:0:0:
256,192,58933,1,0,0:0:0:0:
475,192,58933,1,0,0:0:0:0:
192,192,59054,1,0,0:0:0:0:
256,192,59054,1,0,0:0:0:0:
475,192,59054,1,0,0:0:0:0:
192,192,59176,1,0,0:0:0:0:
402,192,59176,1,0,0:0:0:0:
36,192,59176,1,0,0:0:0:0:
256,192,59176,1,0,0:0:0:0:
475,192,59176,1,0,0:0:0:0:
320,192,59176,1,0,0:0:0:0:
109,192,59297,1,0,0:0:0:0:
182,192,59297,1,0,0:0:0:0:
402,192,59297,1,0,0:0:0:0:
109,192,59419,1,0,0:0:0:0:
192,192,59419,1,0,0:0:0:0:
320,192,59419,1,0,0:0:0:0:
256,192,59419,1,0,0:0:0:0:
402,192,59419,1,0,0:0:0:0:
475,192,59419,1,0,0:0:0:0:
320,192,59540,1,0,0:0:0:0:
475,192,59540,1,0,0:0:0:0:
182,192,59540,1,0,0:0:0:0:
192,192,59662,1,0,0:0:0:0:
320,192,59662,1,0,0:0:0:0:
402,192,59662,1,0,0:0:0:0:
36,192,59662,1,0,0:0:0:0:
256,192,59662,1,0,0:0:0:0:
475,192,59662,1,0,0:0:0:0:
402,192,59783,1,0,0:0:0:0:
256,192,59783,1,0,0:0:0:0:
109,192,59783,1,0,0:0:0:0:
109,192,59905,1,0,0:0:0:0:
320,192,59905,1,0,0:0:0:0:
402,192,59905,1,0,0:0:0:0:
36,192,59905,1,0,0:0:0:0:
256,192,59905,1,0,0:0:0:0:
475,192,59905,1,0,0:0:0:0:
36,192,60026,1,0,0:0:0:0:
182,192,60026,1,0,0:0:0:0:
329,192,60026,1,0,0:0:0:0:
109,192,60148,1,0,0:0:0:0:
192,192,60148,1,0,0:0:0:0:
320,192,60148,1,0,0:0:0:0:
402,192,60148,1,0,0:0:0:0:
36,192,60148,1,0,0:0:0:0:
475,192,60148,1,0,0:0:0:0:
109,192,60269,1,0,0:0:0:0:
256,192,60269,1,0,0:0:0:0:
402,192,60269,1,0,0:0:0:0:
109,192,60390,1,0,0:0:0:0:
192,192,60390,1,0,0:0:0:0:
402,192,60390,1,0,0:0:0:0:
36,192,60390,1,0,0:0:0:0:
256,192,60390,1,0,0:0:0:0:
475,192,60390,1,0,0:0:0:0:
329,192,60512,1,0,0:0:0:0:
475,192,60512,1,0,0:0:0:0:
192,192,60633,1,0,0:0:0:0:
36,192,60633,1,0,0:0:0:0:
109,192,60755,1,0,0:0:0:0:
402,192,60755,1,0,0:0:0:0:
256,192,60755,1,0,0:0:0:0:
475,192,60755,1,0,0:0:0:0:
192,192,60876,1,0,0:0:0:0:
329,192,60876,1,0,0:0:0:0:
36,192,60998,1,0,0:0:0:0:
109,192,60998,1,0,0:0:0:0:
475,192,60998,1,0,0:0:0:0:
182,192,61119,1,0,0:0:0:0:
256,192,61119,1,0,0:0:0:0:
475,192,61119,1,0,0:0:0:0:
402,192,61241,1,0,0:0:0:0:
329,192,61241,1,0,0:0:0:0:
475,192,61241,1,0,0:0:0:0:
109,192,61362,1,0,0:0:0:0:
192,192,61362,1,0,0:0:0:0:
320,192,61362,1,0,0:0:0:0:
402,192,61362,1,0,0:0:0:0:
256,192,61362,1,0,0:0:0:0:
36,192,61362,1,0,0:0:0:0:
475,192,61484,1,0,0:0:0:0:
402,192,61484,1,0,0:0:0:0:
182,192,61484,1,0,0:0:0:0:
256,192,61484,1,0,0:0:0:0:
329,192,61484,1,0,0:0:0:0:
109,192,61605,1,0,0:0:0:0:
192,192,61605,1,0,0:0:0:0:
320,192,61605,1,0,0:0:0:0:
36,192,61605,1,0,0:0:0:0:
256,192,61605,1,0,0:0:0:0:
475,192,61605,1,0,0:0:0:0:
320,192,61726,1,0,0:0:0:0:
36,192,61726,1,0,0:0:0:0:
475,192,61726,1,0,0:0:0:0:
256,192,61726,1,0,0:0:0:0:
402,192,61726,1,0,0:0:0:0:
109,192,61848,1,0,0:0:0:0:
192,192,61848,1,0,0:0:0:0:
402,192,61848,1,0,0:0:0:0:
36,192,61848,1,0,0:0:0:0:
256,192,61848,1,0,0:0:0:0:
475,192,61848,1,0,0:0:0:0:
402,192,61969,1,0,0:0:0:0:
36,192,61969,1,0,0:0:0:0:
109,192,61969,1,0,0:0:0:0:
475,192,61969,1,0,0:0:0:0:
329,192,61969,1,0,0:0:0:0:
109,192,62091,1,0,0:0:0:0:
192,192,62091,1,0,0:0:0:0:
320,192,62091,1,0,0:0:0:0:
402,192,62091,1,0,0:0:0:0:
36,192,62091,1,0,0:0:0:0:
475,192,62091,1,0,0:0:0:0:
36,192,62212,1,0,0:0:0:0:
182,192,62212,1,0,0:0:0:0:
475,192,62212,1,0,0:0:0:0:
109,192,62212,1,0,0:0:0:0:
402,192,62212,1,0,0:0:0:0:
109,192,62334,1,0,0:0:0:0:
320,192,62334,1,0,0:0:0:0:
36,192,62334,1,0,0:0:0:0:
256,192,62334,1,0,0:0:0:0:
475,192,62334,1,0,0:0:0:0:
402,192,62334,1,0,0:0:0:0:
36,192,62455,1,0,0:0:0:0:
109,192,62455,1,0,0:0:0:0:
182,192,62455,1,0,0:0:0:0:
256,192,62455,1,0,0:0:0:0:
475,192,62455,1,0,0:0:0:0:
36,192,62577,1,0,0:0:0:0:
182,192,62577,1,0,0:0:0:0:
256,192,62577,1,0,0:0:0:0:
329,192,62577,1,0,0:0:0:0:
402,192,62577,1,0,0:0:0:0:
475,192,62577,1,0,0:0:0:0:
36,192,62698,1,0,0:0:0:0:
109,192,62698,1,0,0:0:0:0:
182,192,62698,1,0,0:0:0:0:
256,192,62698,1,0,0:0:0:0:
329,192,62698,1,0,0:0:0:0:
109,192,62820,1,0,0:0:0:0:
182,192,62820,1,0,0:0:0:0:
329,192,62820,1,0,0:0:0:0:
256,192,62820,1,0,0:0:0:0:
402,192,62820,1,0,0:0:0:0:
475,192,62820,1,0,0:0:0:0:
36,192,62941,1,0,0:0:0:0:
109,192,62941,1,0,0:0:0:0:
182,192,62941,1,0,0:0:0:0:
256,192,62941,1,0,0:0:0:0:
475,192,62941,1,0,0:0:0:0:
36,192,63062,1,0,0:0:0:0:
182,192,63062,1,0,0:0:0:0:
256,192,63062,1,0,0:0:0:0:
329,192,63062,1,0,0:0:0:0:
402,192,63062,1,0,0:0:0:0:
475,192,63062,1,0,0:0:0:0:
36,192,63184,1,0,0:0:0:0:
109,192,63184,1,0,0:0:0:0:
182,192,63184,1,0,0:0:0:0:
402,192,63184,1,0,0:0:0:0:
475,192,63184,1,0,0:0:0:0:
109,192,63305,1,0,0:0:0:0:
192,192,63305,1,0,0:0:0:0:
320,192,63305,1,0,0:0:0:0:
402,192,63305,1,0,0:0:0:0:
256,192,63305,1,0,0:0:0:0:
475,192,63305,1,0,0:0:0:0:
109,192,63427,1,0,0:0:0:0:
256,192,63427,1,0,0:0:0:0:
329,192,63427,1,0,0:0:0:0:
475,192,63427,1,0,0:0:0:0:
402,192,63427,1,0,0:0:0:0:
192,192,63548,1,0,0:0:0:0:
320,192,63548,1,0,0:0:0:0:
36,192,63548,1,0,0:0:0:0:
256,192,63548,1,0,0:0:0:0:
475,192,63548,1,0,0:0:0:0:
402,192,63548,1,0,0:0:0:0:
320,192,63670,1,0,0:0:0:0:
36,192,63670,1,0,0:0:0:0:
182,192,63670,1,0,0:0:0:0:
475,192,63670,1,0,0:0:0:0:
402,192,63670,1,0,0:0:0:0:
109,192,63791,1,0,0:0:0:0:
402,192,63791,1,0,0:0:0:0:
36,192,63791,1,0,0:0:0:0:
256,192,63791,1,0,0:0:0:0:
475,192,63791,1,0,0:0:0:0:
329,192,63791,1,0,0:0:0:0:
402,192,63913,1,0,0:0:0:0:
36,192,63913,1,0,0:0:0:0:
256,192,63913,1,0,0:0:0:0:
109,192,63913,1,0,0:0:0:0:
475,192,63913,1,0,0:0:0:0:
109,192,64034,1,0,0:0:0:0:
192,192,64034,1,0,0:0:0:0:
320,192,64034,1,0,0:0:0:0:
402,192,64034,1,0,0:0:0:0:
36,192,64034,1,0,0:0:0:0:
475,192,64034,1,0,0:0:0:0:
36,192,64156,1,0,0:0:0:0:
182,192,64156,1,0,0:0:0:0:
329,192,64156,1,0,0:0:0:0:
475,192,64156,1,0,0:0:0:0:
109,192,64156,1,0,0:0:0:0:
109,192,64277,1,0,0:0:0:0:
36,192,64277,1,0,0:0:0:0:
256,192,64277,1,0,0:0:0:0:
475,192,64277,1,0,0:0:0:0:
402,192,64277,1,0,0:0:0:0:
182,192,64277,1,0,0:0:0:0:
36,192,64399,1,0,0:0:0:0:
109,192,64399,1,0,0:0:0:0:
256,192,64399,1,0,0:0:0:0:
182,192,64399,1,0,0:0:0:0:
402,192,64399,1,0,0:0:0:0:
36,192,64520,1,0,0:0:0:0:
109,192,64520,1,0,0:0:0:0:
182,192,64520,1,0,0:0:0:0:
329,192,64520,1,0,0:0:0:0:
256,192,64520,1,0,0:0:0:0:
475,192,64520,1,0,0:0:0:0:
36,192,64641,1,0,0:0:0:0:
109,192,64641,1,0,0:0:0:0:
182,192,64641,1,0,0:0:0:0:
329,192,64641,1,0,0:0:0:0:
475,192,64641,1,0,0:0:0:0:
36,192,64763,1,0,0:0:0:0:
109,192,64763,1,0,0:0:0:0:
182,192,64763,1,0,0:0:0:0:
256,192,64763,1,0,0:0:0:0:
329,192,64763,1,0,0:0:0:0:
402,192,64763,1,0,0:0:0:0:
36,192,64884,1,0,0:0:0:0:
109,192,64884,1,0,0:0:0:0:
256,192,64884,1,0,0:0:0:0:
402,192,64884,1,0,0:0:0:0:
475,192,64884,1,0,0:0:0:0:
36,192,65006,1,0,0:0:0:0:
109,192,65006,1,0,0:0:0:0:
182,192,65006,1,0,0:0:0:0:
256,192,65006,1,0,0:0:0:0:
329,192,65006,1,0,0:0:0:0:
475,192,65006,1,0,0:0:0:0:
36,192,65127,1,0,0:0:0:0:
182,192,65127,1,0,0:0:0:0:
329,192,65127,1,0,0:0:0:0:
402,192,65127,1,0,0:0:0:0:
475,192,65127,1,0,0:0:0:0:
256,192,65249,1,0,0:0:0:0:
475,192,65249,1,0,0:0:0:0:
402,192,65249,1,0,0:0:0:0:
109,192,65249,1,0,0:0:0:0:
192,192,65249,1,0,0:0:0:0:
320,192,65249,1,0,0:0:0:0:
329,192,65370,1,0,0:0:0:0:
192,192,65370,1,0,0:0:0:0:
256,192,65370,1,0,0:0:0:0:
36,192,65370,1,0,0:0:0:0:
109,192,65370,1,0,0:0:0:0:
256,192,65492,1,0,0:0:0:0:
475,192,65492,1,0,0:0:0:0:
402,192,65492,1,0,0:0:0:0:
36,192,65492,1,0,0:0:0:0:
192,192,65492,1,0,0:0:0:0:
320,192,65492,1,0,0:0:0:0:
475,192,65613,1,0,0:0:0:0:
256,192,65613,1,0,0:0:0:0:
182,192,65613,1,0,0:0:0:0:
109,192,65613,1,0,0:0:0:0:
36,192,65613,1,0,0:0:0:0:
256,192,65735,1,0,0:0:0:0:
475,192,65735,1,0,0:0:0:0:
329,192,65735,1,0,0:0:0:0:
36,192,65735,1,0,0:0:0:0:
109,192,65735,1,0,0:0:0:0:
402,192,65735,1,0,0:0:0:0:
475,192,65856,1,0,0:0:0:0:
182,192,65856,1,0,0:0:0:0:
109,192,65856,1,0,0:0:0:0:
402,192,65856,1,0,0:0:0:0:
36,192,65856,1,0,0:0:0:0:
36,192,65977,1,0,0:0:0:0:
475,192,65977,1,0,0:0:0:0:
402,192,65977,1,0,0:0:0:0:
109,192,65977,1,0,0:0:0:0:
192,192,65977,1,0,0:0:0:0:
320,192,65977,1,0,0:0:0:0:
475,192,66099,1,0,0:0:0:0:
109,192,66099,1,0,0:0:0:0:
402,192,66099,1,0,0:0:0:0:
36,192,66099,1,0,0:0:0:0:
329,192,66099,1,0,0:0:0:0:
475,192,66220,1,0,0:0:0:0:
402,192,66220,1,0,0:0:0:0:
182,192,66220,1,0,0:0:0:0:
256,192,66220,1,0,0:0:0:0:
109,192,66220,1,0,0:0:0:0:
36,192,66220,1,0,0:0:0:0:
329,192,66342,1,0,0:0:0:0:
402,192,66342,1,0,0:0:0:0:
475,192,66342,1,0,0:0:0:0:
36,192,66342,1,0,0:0:0:0:
256,192,66342,1,0,0:0:0:0:
256,192,66463,1,0,0:0:0:0:
475,192,66463,1,0,0:0:0:0:
329,192,66463,1,0,0:0:0:0:
36,192,66463,1,0,0:0:0:0:
109,192,66463,1,0,0:0:0:0:
182,192,66463,1,0,0:0:0:0:
329,192,66585,1,0,0:0:0:0:
475,192,66585,1,0,0:0:0:0:
402,192,66585,1,0,0:0:0:0:
256,192,66585,1,0,0:0:0:0:
182,192,66585,1,0,0:0:0:0:
329,192,66706,1,0,0:0:0:0:
402,192,66706,1,0,0:0:0:0:
256,192,66706,1,0,0:0:0:0:
36,192,66706,1,0,0:0:0:0:
109,192,66706,1,0,0:0:0:0:
182,192,66706,1,0,0:0:0:0:
329,192,66828,1,0,0:0:0:0:
402,192,66828,1,0,0:0:0:0:
475,192,66828,1,0,0:0:0:0:
256,192,66828,1,0,0:0:0:0:
36,192,66828,1,0,0:0:0:0:
329,192,66949,1,0,0:0:0:0:
475,192,66949,1,0,0:0:0:0:
256,192,66949,1,0,0:0:0:0:
36,192,66949,1,0,0:0:0:0:
109,192,66949,1,0,0:0:0:0:
182,192,66949,1,0,0:0:0:0:
329,192,67071,1,0,0:0:0:0:
402,192,67071,1,0,0:0:0:0:
475,192,67071,1,0,0:0:0:0:
36,192,67071,1,0,0:0:0:0:
109,192,67071,1,0,0:0:0:0:
109,192,67192,1,0,0:0:0:0:
192,192,67192,1,0,0:0:0:0:
320,192,67192,1,0,0:0:0:0:
402,192,67192,1,0,0:0:0:0:
256,192,67192,1,0,0:0:0:0:
36,192,67192,1,0,0:0:0:0:
109,192,67313,1,0,0:0:0:0:
192,192,67313,1,0,0:0:0:0:
256,192,67313,1,0,0:0:0:0:
36,192,67313,1,0,0:0:0:0:
402,192,67313,1,0,0:0:0:0:
109,192,67435,1,0,0:0:0:0:
192,192,67435,1,0,0:0:0:0:
320,192,67435,1,0,0:0:0:0:
36,192,67435,1,0,0:0:0:0:
256,192,67435,1,0,0:0:0:0:
475,192,67435,1,0,0:0:0:0:
109,192,67556,1,0,0:0:0:0:
320,192,67556,1,0,0:0:0:0:
36,192,67556,1,0,0:0:0:0:
182,192,67556,1,0,0:0:0:0:
475,192,67556,1,0,0:0:0:0:
109,192,67678,1,0,0:0:0:0:
192,192,67678,1,0,0:0:0:0:
402,192,67678,1,0,0:0:0:0:
36,192,67678,1,0,0:0:0:0:
256,192,67678,1,0,0:0:0:0:
475,192,67678,1,0,0:0:0:0:
402,192,67799,1,0,0:0:0:0:
36,192,67799,1,0,0:0:0:0:
256,192,67799,1,0,0:0:0:0:
109,192,67799,1,0,0:0:0:0:
475,192,67799,1,0,0:0:0:0:
109,192,67921,1,0,0:0:0:0:
192,192,67921,1,0,0:0:0:0:
320,192,67921,1,0,0:0:0:0:
402,192,67921,1,0,0:0:0:0:
36,192,67921,1,0,0:0:0:0:
475,192,67921,1,0,0:0:0:0:
402,192,68042,1,0,0:0:0:0:
36,192,68042,1,0,0:0:0:0:
182,192,68042,1,0,0:0:0:0:
329,192,68042,1,0,0:0:0:0:
475,192,68042,1,0,0:0:0:0:
109,192,68164,1,0,0:0:0:0:
320,192,68164,1,0,0:0:0:0:
36,192,68164,1,0,0:0:0:0:
256,192,68164,1,0,0:0:0:0:
475,192,68164,1,0,0:0:0:0:
402,192,68164,1,0,0:0:0:0:
109,192,68285,1,0,0:0:0:0:
256,192,68285,1,0,0:0:0:0:
329,192,68285,1,0,0:0:0:0:
402,192,68285,1,0,0:0:0:0:
475,192,68285,1,0,0:0:0:0:
36,192,68407,1,0,0:0:0:0:
182,192,68407,1,0,0:0:0:0:
329,192,68407,1,0,0:0:0:0:
256,192,68407,1,0,0:0:0:0:
402,192,68407,1,0,0:0:0:0:
475,192,68407,1,0,0:0:0:0:
36,192,68528,1,0,0:0:0:0:
182,192,68528,1,0,0:0:0:0:
329,192,68528,1,0,0:0:0:0:
475,192,68528,1,0,0:0:0:0:
402,192,68528,1,0,0:0:0:0:
109,192,68650,1,0,0:0:0:0:
182,192,68650,1,0,0:0:0:0:
256,192,68650,1,0,0:0:0:0:
329,192,68650,1,0,0:0:0:0:
475,192,68650,1,0,0:0:0:0:
402,192,68650,1,0,0:0:0:0:
36,192,68771,1,0,0:0:0:0:
109,192,68771,1,0,0:0:0:0:
256,192,68771,1,0,0:0:0:0:
402,192,68771,1,0,0:0:0:0:
475,192,68771,1,0,0:0:0:0:
36,192,68892,1,0,0:0:0:0:
182,192,68892,1,0,0:0:0:0:
256,192,68892,1,0,0:0:0:0:
329,192,68892,1,0,0:0:0:0:
402,192,68892,1,0,0:0:0:0:
475,192,68892,1,0,0:0:0:0:
36,192,69014,1,0,0:0:0:0:
182,192,69014,1,0,0:0:0:0:
109,192,69014,1,0,0:0:0:0:
329,192,69014,1,0,0:0:0:0:
475,192,69014,1,0,0:0:0:0:
109,192,69135,1,0,0:0:0:0:
192,192,69135,1,0,0:0:0:0:
320,192,69135,1,0,0:0:0:0:
402,192,69135,1,0,0:0:0:0:
256,192,69135,1,0,0:0:0:0:
36,192,69135,1,0,0:0:0:0:
192,192,69257,1,0,0:0:0:0:
256,192,69257,1,0,0:0:0:0:
329,192,69257,1,0,0:0:0:0:
475,192,69257,1,0,0:0:0:0:
402,192,69257,1,0,0:0:0:0:
109,192,69378,1,0,0:0:0:0:
192,192,69378,1,0,0:0:0:0:
320,192,69378,1,0,0:0:0:0:
36,192,69378,1,0,0:0:0:0:
256,192,69378,1,0,0:0:0:0:
475,192,69378,1,0,0:0:0:0:
109,192,69500,1,0,0:0:0:0:
320,192,69500,1,0,0:0:0:0:
36,192,69500,1,0,0:0:0:0:
182,192,69500,1,0,0:0:0:0:
256,192,69500,1,0,0:0:0:0:
402,192,69621,1,0,0:0:0:0:
36,192,69621,1,0,0:0:0:0:
256,192,69621,1,0,0:0:0:0:
475,192,69621,1,0,0:0:0:0:
109,192,69621,1,0,0:0:0:0:
182,192,69621,1,0,0:0:0:0:
402,192,69743,1,0,0:0:0:0:
36,192,69743,1,0,0:0:0:0:
256,192,69743,1,0,0:0:0:0:
475,192,69743,1,0,0:0:0:0:
329,192,69743,1,0,0:0:0:0:
109,192,69864,1,0,0:0:0:0:
192,192,69864,1,0,0:0:0:0:
320,192,69864,1,0,0:0:0:0:
402,192,69864,1,0,0:0:0:0:
36,192,69864,1,0,0:0:0:0:
475,192,69864,1,0,0:0:0:0:
36,192,69986,1,0,0:0:0:0:
182,192,69986,1,0,0:0:0:0:
475,192,69986,1,0,0:0:0:0:
109,192,69986,1,0,0:0:0:0:
256,192,69986,1,0,0:0:0:0:
109,192,70107,1,0,0:0:0:0:
320,192,70107,1,0,0:0:0:0:
36,192,70107,1,0,0:0:0:0:
256,192,70107,1,0,0:0:0:0:
475,192,70107,1,0,0:0:0:0:
402,192,70107,1,0,0:0:0:0:
36,192,70228,1,0,0:0:0:0:
109,192,70228,1,0,0:0:0:0:
329,192,70228,1,0,0:0:0:0:
402,192,70228,1,0,0:0:0:0:
475,192,70228,1,0,0:0:0:0:
36,192,70350,1,0,0:0:0:0:
182,192,70350,1,0,0:0:0:0:
329,192,70350,1,0,0:0:0:0:
256,192,70350,1,0,0:0:0:0:
402,192,70350,1,0,0:0:0:0:
475,192,70350,1,0,0:0:0:0:
36,192,70471,1,0,0:0:0:0:
109,192,70471,1,0,0:0:0:0:
182,192,70471,1,0,0:0:0:0:
475,192,70471,1,0,0:0:0:0:
402,192,70471,1,0,0:0:0:0:
109,192,70593,1,0,0:0:0:0:
182,192,70593,1,0,0:0:0:0:
256,192,70593,1,0,0:0:0:0:
329,192,70593,1,0,0:0:0:0:
475,192,70593,1,0,0:0:0:0:
402,192,70593,1,0,0:0:0:0:
36,192,70714,1,0,0:0:0:0:
256,192,70714,1,0,0:0:0:0:
329,192,70714,1,0,0:0:0:0:
402,192,70714,1,0,0:0:0:0:
475,192,70714,1,0,0:0:0:0:
36,192,70836,1,0,0:0:0:0:
182,192,70836,1,0,0:0:0:0:
256,192,70836,1,0,0:0:0:0:
329,192,70836,1,0,0:0:0:0:
402,192,70836,1,0,0:0:0:0:
475,192,70836,1,0,0:0:0:0:
36,192,70957,1,0,0:0:0:0:
182,192,70957,1,0,0:0:0:0:
109,192,70957,1,0,0:0:0:0:
256,192,70957,1,0,0:0:0:0:
475,192,70957,1,0,0:0:0:0:
256,192,71079,1,0,0:0:0:0:
36,192,71079,1,0,0:0:0:0:
475,192,71079,1,0,0:0:0:0:
402,192,71079,1,0,0:0:0:0:
109,192,71079,1,0,0:0:0:0:
320,192,71079,1,0,0:0:0:0:
329,192,71200,1,0,0:0:0:0:
475,192,71200,1,0,0:0:0:0:
402,192,71200,1,0,0:0:0:0:
109,192,71200,1,0,0:0:0:0:
192,192,71200,1,0,0:0:0:0:
475,192,71322,1,0,0:0:0:0:
402,192,71322,1,0,0:0:0:0:
36,192,71322,1,0,0:0:0:0:
109,192,71322,1,0,0:0:0:0:
192,192,71322,1,0,0:0:0:0:
320,192,71322,1,0,0:0:0:0:
475,192,71443,1,0,0:0:0:0:
256,192,71443,1,0,0:0:0:0:
402,192,71443,1,0,0:0:0:0:
182,192,71443,1,0,0:0:0:0:
36,192,71443,1,0,0:0:0:0:
256,192,71565,1,0,0:0:0:0:
475,192,71565,1,0,0:0:0:0:
36,192,71565,1,0,0:0:0:0:
109,192,71565,1,0,0:0:0:0:
192,192,71565,1,0,0:0:0:0:
402,192,71565,1,0,0:0:0:0:
475,192,71686,1,0,0:0:0:0:
329,192,71686,1,0,0:0:0:0:
109,192,71686,1,0,0:0:0:0:
36,192,71686,1,0,0:0:0:0:
256,192,71686,1,0,0:0:0:0:
36,192,71807,1,0,0:0:0:0:
475,192,71807,1,0,0:0:0:0:
256,192,71807,1,0,0:0:0:0:
109,192,71807,1,0,0:0:0:0:
192,192,71807,1,0,0:0:0:0:
320,192,71807,1,0,0:0:0:0:
109,192,71929,1,0,0:0:0:0:
329,192,71929,1,0,0:0:0:0:
402,192,71929,1,0,0:0:0:0:
36,192,71929,1,0,0:0:0:0:
182,192,71929,1,0,0:0:0:0:
402,192,72050,1,0,0:0:0:0:
182,192,72050,1,0,0:0:0:0:
256,192,72050,1,0,0:0:0:0:
109,192,72050,1,0,0:0:0:0:
320,192,72050,1,0,0:0:0:0:
36,192,72050,1,0,0:0:0:0:
329,192,72172,1,0,0:0:0:0:
402,192,72172,1,0,0:0:0:0:
475,192,72172,1,0,0:0:0:0:
182,192,72172,1,0,0:0:0:0:
109,192,72172,1,0,0:0:0:0:
256,192,72293,1,0,0:0:0:0:
475,192,72293,1,0,0:0:0:0:
329,192,72293,1,0,0:0:0:0:
36,192,72293,1,0,0:0:0:0:
109,192,72293,1,0,0:0:0:0:
182,192,72293,1,0,0:0:0:0:
475,192,72415,1,0,0:0:0:0:
402,192,72415,1,0,0:0:0:0:
36,192,72415,1,0,0:0:0:0:
182,192,72415,1,0,0:0:0:0:
256,192,72415,1,0,0:0:0:0:
475,192,72536,1,0,0:0:0:0:
402,192,72536,1,0,0:0:0:0:
256,192,72536,1,0,0:0:0:0:
36,192,72536,1,0,0:0:0:0:
109,192,72536,1,0,0:0:0:0:
182,192,72536,1,0,0:0:0:0:
329,192,72658,1,0,0:0:0:0:
475,192,72658,1,0,0:0:0:0:
256,192,72658,1,0,0:0:0:0:
36,192,72658,1,0,0:0:0:0:
109,192,72658,1,0,0:0:0:0:
329,192,72779,1,0,0:0:0:0:
402,192,72779,1,0,0:0:0:0:
475,192,72779,1,0,0:0:0:0:
36,192,72779,1,0,0:0:0:0:
109,192,72779,1,0,0:0:0:0:
182,192,72779,1,0,0:0:0:0:
329,192,72901,1,0,0:0:0:0:
402,192,72901,1,0,0:0:0:0:
36,192,72901,1,0,0:0:0:0:
182,192,72901,1,0,0:0:0:0:
109,192,72901,1,0,0:0:0:0:
36,192,73022,1,0,0:0:0:0:
109,192,73022,1,0,0:0:0:0:
256,192,73022,1,0,0:0:0:0:
402,192,73022,1,0,0:0:0:0:
329,192,73022,1,0,0:0:0:0:
475,192,73022,1,0,0:0:0:0:
256,192,73143,1,0,0:0:0:0:
182,192,73143,1,0,0:0:0:0:
329,192,73143,1,0,0:0:0:0:
402,192,73143,1,0,0:0:0:0:
475,192,73143,1,0,0:0:0:0:
402,192,73265,1,0,0:0:0:0:
320,192,73265,1,0,0:0:0:0:
256,192,73265,1,0,0:0:0:0:
192,192,73265,1,0,0:0:0:0:
36,192,73265,1,0,0:0:0:0:
475,192,73265,1,0,0:0:0:0:
182,192,73386,1,0,0:0:0:0:
109,192,73386,1,0,0:0:0:0:
36,192,73386,1,0,0:0:0:0:
320,192,73508,1,0,0:0:0:0:
402,192,73508,1,0,0:0:0:0:
475,192,73508,1,0,0:0:0:0:
109,192,73569,1,0,0:0:0:0:
192,192,73569,1,0,0:0:0:0:
36,192,73569,1,0,0:0:0:0:
320,192,73629,1,0,0:0:0:0:
402,192,73629,1,0,0:0:0:0:
475,192,73629,1,0,0:0:0:0:
109,192,73690,1,0,0:0:0:0:
192,192,73690,1,0,0:0:0:0:
36,192,73690,1,0,0:0:0:0:
320,192,73751,1,0,0:0:0:0:
402,192,73751,1,0,0:0:0:0:
475,192,73751,1,0,0:0:0:0:
109,192,73811,1,0,0:0:0:0:
192,192,73811,1,0,0:0:0:0:
36,192,73811,1,0,0:0:0:0:
320,192,73872,1,0,0:0:0:0:
402,192,73872,1,0,0:0:0:0:
475,192,73872,1,0,0:0:0:0:
109,192,73933,1,0,0:0:0:0:
192,192,73933,1,0,0:0:0:0:
36,192,73933,1,0,0:0:0:0:
320,192,73994,1,0,0:0:0:0:
402,192,73994,1,0,0:0:0:0:
475,192,73994,1,0,0:0:0:0:
109,192,74054,1,0,0:0:0:0:
192,192,74054,1,0,0:0:0:0:
36,192,74054,1,0,0:0:0:0:
320,192,74115,1,0,0:0:0:0:
402,192,74115,1,0,0:0:0:0:
475,192,74115,1,0,0:0:0:0:
109,192,74176,1,0,0:0:0:0:
192,192,74176,1,0,0:0:0:0:
36,192,74176,1,0,0:0:0:0:
320,192,74237,1,0,0:0:0:0:
402,192,74237,1,0,0:0:0:0:
475,192,74237,1,0,0:0:0:0:
109,192,74297,1,0,0:0:0:0:
192,192,74297,1,0,0:0:0:0:
36,192,74297,1,0,0:0:0:0:
320,192,74358,1,0,0:0:0:0:
402,192,74358,1,0,0:0:0:0:
475,192,74358,1,0,0:0:0:0:
109,192,74419,1,0,0:0:0:0:
192,192,74419,1,0,0:0:0:0:
36,192,74419,1,0,0:0:0:0:
320,192,74479,1,0,0:0:0:0:
402,192,74479,1,0,0:0:0:0:
475,192,74479,1,0,0:0:0:0:
109,192,74540,1,0,0:0:0:0:
192,192,74540,1,0,0:0:0:0:
36,192,74540,1,0,0:0:0:0:
320,192,74601,1,0,0:0:0:0:
402,192,74601,1,0,0:0:0:0:
475,192,74601,1,0,0:0:0:0:
109,192,74662,1,0,0:0:0:0:
192,192,74662,1,0,0:0:0:0:
36,192,74662,1,0,0:0:0:0:
320,192,74722,1,0,0:0:0:0:
402,192,74722,1,0,0:0:0:0:
475,192,74722,1,0,0:0:0:0:
109,192,74783,1,0,0:0:0:0:
192,192,74783,1,0,0:0:0:0:
36,192,74783,1,0,0:0:0:0:
320,192,74844,1,0,0:0:0:0:
402,192,74844,1,0,0:0:0:0:
475,192,74844,1,0,0:0:0:0:
109,192,74905,1,0,0:0:0:0:
192,192,74905,1,0,0:0:0:0:
36,192,74905,1,0,0:0:0:0:
320,192,74965,1,0,0:0:0:0:
402,192,74965,1,0,0:0:0:0:
475,192,74965,1,0,0:0:0:0:
109,192,75026,1,0,0:0:0:0:
192,192,75026,1,0,0:0:0:0:
36,192,75026,1,0,0:0:0:0:
320,192,75087,1,0,0:0:0:0:
402,192,75087,1,0,0:0:0:0:
475,192,75087,1,0,0:0:0:0:
109,192,75148,1,0,0:0:0:0:
192,192,75148,1,0,0:0:0:0:
36,192,75148,1,0,0:0:0:0:
320,192,75208,1,0,0:0:0:0:
402,192,75208,1,0,0:0:0:0:
475,192,75208,1,0,0:0:0:0:
109,192,75269,1,0,0:0:0:0:
192,192,75269,1,0,0:0:0:0:
36,192,75269,1,0,0:0:0:0:
320,192,75330,1,0,0:0:0:0:
402,192,75330,1,0,0:0:0:0:
475,192,75330,1,0,0:0:0:0:
109,192,75390,1,0,0:0:0:0:
192,192,75390,1,0,0:0:0:0:
36,192,75390,1,0,0:0:0:0:
320,192,75451,1,0,0:0:0:0:
402,192,75451,1,0,0:0:0:0:
475,192,75451,1,0,0:0:0:0:
109,192,75512,1,0,0:0:0:0:
192,192,75512,1,0,0:0:0:0:
36,192,75512,1,0,0:0:0:0:
320,192,75573,1,0,0:0:0:0:
402,192,75573,1,0,0:0:0:0:
475,192,75573,1,0,0:0:0:0:
109,192,75633,1,0,0:0:0:0:
192,192,75633,1,0,0:0:0:0:
36,192,75633,1,0,0:0:0:0:
320,192,75694,1,0,0:0:0:0:
402,192,75694,1,0,0:0:0:0:
475,192,75694,1,0,0:0:0:0:
109,192,75755,1,0,0:0:0:0:
192,192,75755,1,0,0:0:0:0:
36,192,75755,1,0,0:0:0:0:
320,192,75816,1,0,0:0:0:0:
402,192,75816,1,0,0:0:0:0:
475,192,75816,1,0,0:0:0:0:
109,192,75876,1,0,0:0:0:0:
192,192,75876,1,0,0:0:0:0:
36,192,75876,1,0,0:0:0:0:
320,192,75937,1,0,0:0:0:0:
402,192,75937,1,0,0:0:0:0:
475,192,75937,1,0,0:0:0:0:
36,192,75998,1,0,0:0:0:0:
109,192,75998,1,0,0:0:0:0:
182,192,75998,1,0,0:0:0:0:
329,192,76058,1,0,0:0:0:0:
402,192,76058,1,0,0:0:0:0:
475,192,76058,1,0,0:0:0:0:
36,192,76119,1,0,0:0:0:0:
109,192,76119,1,0,0:0:0:0:
182,192,76119,1,0,0:0:0:0:
329,192,76180,1,0,0:0:0:0:
475,192,76180,1,0,0:0:0:0:
402,192,76180,1,0,0:0:0:0:
182,192,76241,1,0,0:0:0:0:
109,192,76241,1,0,0:0:0:0:
36,192,76241,1,0,0:0:0:0:
329,192,76301,1,0,0:0:0:0:
402,192,76301,1,0,0:0:0:0:
475,192,76301,1,0,0:0:0:0:
36,192,76362,1,0,0:0:0:0:
109,192,76362,1,0,0:0:0:0:
182,192,76362,1,0,0:0:0:0:
329,192,76423,1,0,0:0:0:0:
402,192,76423,1,0,0:0:0:0:
475,192,76423,1,0,0:0:0:0:
320,192,76544,1,0,0:0:0:0:
402,192,76544,1,0,0:0:0:0:
36,192,76544,1,0,0:0:0:0:
109,192,76544,1,0,0:0:0:0:
109,192,76666,1,0,0:0:0:0:
192,192,76666,1,0,0:0:0:0:
402,192,76666,1,0,0:0:0:0:
475,192,76666,1,0,0:0:0:0:
320,192,76787,1,0,0:0:0:0:
402,192,76787,1,0,0:0:0:0:
36,192,76787,1,0,0:0:0:0:
109,192,76787,1,0,0:0:0:0:
109,192,76909,1,0,0:0:0:0:
192,192,76909,1,0,0:0:0:0:
320,192,76909,1,0,0:0:0:0:
402,192,76909,1,0,0:0:0:0:
475,192,76909,1,0,0:0:0:0:
36,192,76909,1,0,0:0:0:0:
109,192,77030,1,0,0:0:0:0:
256,192,77030,1,0,0:0:0:0:
329,192,77030,1,0,0:0:0:0:
320,192,77152,1,0,0:0:0:0:
182,192,77152,1,0,0:0:0:0:
36,192,77152,1,0,0:0:0:0:
402,192,77273,1,0,0:0:0:0:
475,192,77273,1,0,0:0:0:0:
109,192,77273,1,0,0:0:0:0:
109,192,77394,1,0,0:0:0:0:
329,192,77394,1,0,0:0:0:0:
182,192,77394,1,0,0:0:0:0:
402,192,77516,1,0,0:0:0:0:
475,192,77516,1,0,0:0:0:0:
256,192,77516,1,0,0:0:0:0:
109,192,77637,1,0,0:0:0:0:
182,192,77637,1,0,0:0:0:0:
329,192,77637,1,0,0:0:0:0:
402,192,77637,1,0,0:0:0:0:
36,192,77637,1,0,0:0:0:0:
475,192,77637,1,0,0:0:0:0:
36,192,77759,1,0,0:0:0:0:
182,192,77759,1,0,0:0:0:0:
329,192,77759,1,0,0:0:0:0:
109,192,77880,1,0,0:0:0:0:
329,192,77880,1,0,0:0:0:0:
402,192,77880,1,0,0:0:0:0:
182,192,77880,1,0,0:0:0:0:
475,192,77880,1,0,0:0:0:0:
256,192,77880,1,0,0:0:0:0:
256,192,78002,1,0,0:0:0:0:
402,192,78002,1,0,0:0:0:0:
475,192,78002,1,0,0:0:0:0:
182,192,78123,1,0,0:0:0:0:
475,192,78123,1,0,0:0:0:0:
36,192,78123,1,0,0:0:0:0:
109,192,78245,1,0,0:0:0:0:
256,192,78245,1,0,0:0:0:0:
402,192,78245,1,0,0:0:0:0:
182,192,78366,1,0,0:0:0:0:
109,192,78366,1,0,0:0:0:0:
475,192,78366,1,0,0:0:0:0:
256,192,78488,1,0,0:0:0:0:
329,192,78488,1,0,0:0:0:0:
402,192,78488,1,0,0:0:0:0:
182,192,78609,1,0,0:0:0:0:
402,192,78609,1,0,0:0:0:0:
475,192,78609,1,0,0:0:0:0:
109,192,78730,1,0,0:0:0:0:
256,192,78730,1,0,0:0:0:0:
329,192,78730,1,0,0:0:0:0:
182,192,78852,1,0,0:0:0:0:
402,192,78852,1,0,0:0:0:0:
329,192,78852,1,0,0:0:0:0:
475,192,78852,1,0,0:0:0:0:
36,192,78852,1,0,0:0:0:0:
109,192,78852,1,0,0:0:0:0:
109,192,78973,1,0,0:0:0:0:
256,192,78973,1,0,0:0:0:0:
475,192,78973,1,0,0:0:0:0:
329,192,79095,1,0,0:0:0:0:
182,192,79095,1,0,0:0:0:0:
475,192,79095,1,0,0:0:0:0:
36,192,79216,1,0,0:0:0:0:
109,192,79216,1,0,0:0:0:0:
329,192,79216,1,0,0:0:0:0:
182,192,79338,1,0,0:0:0:0:
36,192,79338,1,0,0:0:0:0:
402,192,79338,1,0,0:0:0:0:
256,192,79459,1,0,0:0:0:0:
475,192,79459,1,0,0:0:0:0:
109,192,79459,1,0,0:0:0:0:
182,192,79581,1,0,0:0:0:0:
329,192,79581,1,0,0:0:0:0:
402,192,79581,1,0,0:0:0:0:
475,192,79581,1,0,0:0:0:0:
256,192,79581,1,0,0:0:0:0:
109,192,79581,1,0,0:0:0:0:
402,192,79702,1,0,0:0:0:0:
475,192,79702,1,0,0:0:0:0:
182,192,79702,1,0,0:0:0:0:
182,192,79824,1,0,0:0:0:0:
329,192,79824,1,0,0:0:0:0:
36,192,79824,1,0,0:0:0:0:
109,192,79824,1,0,0:0:0:0:
402,192,79824,1,0,0:0:0:0:
256,192,79824,1,0,0:0:0:0:
109,192,79945,1,0,0:0:0:0:
402,192,79945,1,0,0:0:0:0:
475,192,79945,1,0,0:0:0:0:
36,192,80067,1,0,0:0:0:0:
182,192,80067,1,0,0:0:0:0:
329,192,80067,1,0,0:0:0:0:
109,192,80188,1,0,0:0:0:0:
36,192,80188,1,0,0:0:0:0:
402,192,80188,1,0,0:0:0:0:
329,192,80188,1,0,0:0:0:0:
182,192,80188,1,0,0:0:0:0:
475,192,80188,1,0,0:0:0:0:
182,192,80309,1,0,0:0:0:0:
329,192,80309,1,0,0:0:0:0:
475,192,80309,1,0,0:0:0:0:
109,192,80431,1,0,0:0:0:0:
402,192,80431,1,0,0:0:0:0:
182,192,80431,1,0,0:0:0:0:
475,192,80431,1,0,0:0:0:0:
329,192,80431,1,0,0:0:0:0:
256,192,80431,1,0,0:0:0:0:
182,192,80552,1,0,0:0:0:0:
36,192,80552,1,0,0:0:0:0:
475,192,80552,1,0,0:0:0:0:
329,192,80552,1,0,0:0:0:0:
402,192,80552,1,0,0:0:0:0:
256,192,80552,1,0,0:0:0:0:
402,192,80674,1,0,0:0:0:0:
329,192,80674,1,0,0:0:0:0:
36,192,80674,1,0,0:0:0:0:
109,192,80674,1,0,0:0:0:0:
475,192,80674,1,0,0:0:0:0:
256,192,80674,1,0,0:0:0:0:
36,192,80795,1,0,0:0:0:0:
182,192,80795,1,0,0:0:0:0:
475,192,80795,1,0,0:0:0:0:
109,192,80795,1,0,0:0:0:0:
329,192,80795,1,0,0:0:0:0:
402,192,80795,1,0,0:0:0:0:
109,192,80917,1,0,0:0:0:0:
256,192,80917,1,0,0:0:0:0:
329,192,80917,1,0,0:0:0:0:
182,192,81038,1,0,0:0:0:0:
329,192,81038,1,0,0:0:0:0:
475,192,81038,1,0,0:0:0:0:
36,192,81160,1,0,0:0:0:0:
109,192,81160,1,0,0:0:0:0:
256,192,81160,1,0,0:0:0:0:
109,192,81281,1,0,0:0:0:0:
329,192,81281,1,0,0:0:0:0:
475,192,81281,1,0,0:0:0:0:
402,192,81403,1,0,0:0:0:0:
182,192,81403,1,0,0:0:0:0:
36,192,81403,1,0,0:0:0:0:
109,192,81524,1,0,0:0:0:0:
182,192,81524,1,0,0:0:0:0:
329,192,81524,1,0,0:0:0:0:
36,192,81524,1,0,0:0:0:0:
402,192,81524,1,0,0:0:0:0:
475,192,81524,1,0,0:0:0:0:
256,192,81645,1,0,0:0:0:0:
402,192,81645,1,0,0:0:0:0:
475,192,81645,1,0,0:0:0:0:
109,192,81767,1,0,0:0:0:0:
329,192,81767,1,0,0:0:0:0:
182,192,81767,1,0,0:0:0:0:
402,192,81767,1,0,0:0:0:0:
256,192,81767,1,0,0:0:0:0:
36,192,81767,1,0,0:0:0:0:
182,192,81888,1,0,0:0:0:0:
402,192,81888,1,0,0:0:0:0:
256,192,81888,1,0,0:0:0:0:
36,192,82010,1,0,0:0:0:0:
109,192,82010,1,0,0:0:0:0:
329,192,82010,1,0,0:0:0:0:
256,192,82131,1,0,0:0:0:0:
402,192,82131,1,0,0:0:0:0:
475,192,82131,1,0,0:0:0:0:
256,192,82253,1,0,0:0:0:0:
475,192,82253,1,0,0:0:0:0:
36,192,82253,1,0,0:0:0:0:
109,192,82374,1,0,0:0:0:0:
402,192,82374,1,0,0:0:0:0:
329,192,82374,1,0,0:0:0:0:
182,192,82496,1,0,0:0:0:0:
36,192,82496,1,0,0:0:0:0:
329,192,82496,1,0,0:0:0:0:
109,192,82617,1,0,0:0:0:0:
402,192,82617,1,0,0:0:0:0:
256,192,82617,1,0,0:0:0:0:
475,192,82739,1,0,0:0:0:0:
329,192,82739,1,0,0:0:0:0:
109,192,82739,1,0,0:0:0:0:
36,192,82739,1,0,0:0:0:0:
182,192,82739,1,0,0:0:0:0:
402,192,82739,1,0,0:0:0:0:
36,192,82860,1,0,0:0:0:0:
182,192,82860,1,0,0:0:0:0:
402,192,82860,1,0,0:0:0:0:
109,192,82982,1,0,0:0:0:0:
256,192,82982,1,0,0:0:0:0:
475,192,82982,1,0,0:0:0:0:
182,192,83103,1,0,0:0:0:0:
329,192,83103,1,0,0:0:0:0:
402,192,83103,1,0,0:0:0:0:
36,192,83224,1,0,0:0:0:0:
109,192,83224,1,0,0:0:0:0:
256,192,83224,1,0,0:0:0:0:
182,192,83346,1,0,0:0:0:0:
329,192,83346,1,0,0:0:0:0:
475,192,83346,1,0,0:0:0:0:
109,192,83467,1,0,0:0:0:0:
402,192,83467,1,0,0:0:0:0:
256,192,83467,1,0,0:0:0:0:
182,192,83467,1,0,0:0:0:0:
329,192,83467,1,0,0:0:0:0:
475,192,83467,1,0,0:0:0:0:
36,192,83589,1,0,0:0:0:0:
182,192,83589,1,0,0:0:0:0:
329,192,83589,1,0,0:0:0:0:
109,192,83710,1,0,0:0:0:0:
256,192,83710,1,0,0:0:0:0:
402,192,83710,1,0,0:0:0:0:
36,192,83710,1,0,0:0:0:0:
182,192,83710,1,0,0:0:0:0:
329,192,83710,1,0,0:0:0:0:
182,192,83832,1,0,0:0:0:0:
329,192,83832,1,0,0:0:0:0:
36,192,83832,1,0,0:0:0:0:
109,192,83953,1,0,0:0:0:0:
256,192,83953,1,0,0:0:0:0:
475,192,83953,1,0,0:0:0:0:
182,192,84075,1,0,0:0:0:0:
329,192,84075,1,0,0:0:0:0:
402,192,84075,1,0,0:0:0:0:
36,192,84075,1,0,0:0:0:0:
109,192,84075,1,0,0:0:0:0:
475,192,84075,1,0,0:0:0:0:
256,192,84196,1,0,0:0:0:0:
109,192,84196,1,0,0:0:0:0:
475,192,84196,1,0,0:0:0:0:
36,192,84318,1,0,0:0:0:0:
182,192,84318,1,0,0:0:0:0:
402,192,84318,1,0,0:0:0:0:
109,192,84318,1,0,0:0:0:0:
329,192,84318,1,0,0:0:0:0:
256,192,84318,1,0,0:0:0:0:
256,192,84439,1,0,0:0:0:0:
329,192,84439,1,0,0:0:0:0:
475,192,84439,1,0,0:0:0:0:
182,192,84439,1,0,0:0:0:0:
109,192,84439,1,0,0:0:0:0:
36,192,84439,1,0,0:0:0:0:
182,192,84560,1,0,0:0:0:0:
109,192,84560,1,0,0:0:0:0:
402,192,84560,1,0,0:0:0:0:
36,192,84560,1,0,0:0:0:0:
256,192,84560,1,0,0:0:0:0:
475,192,84560,1,0,0:0:0:0:
192,192,84682,1,0,0:0:0:0:
320,192,84682,1,0,0:0:0:0:
402,0,84682,128,0,84743:1:0:0:0:
475,192,84682,128,0,84743:0:0:0:0:
36,192,84682,128,0,84743:0:0:0:0:
109,192,84682,128,0,84743:0:0:0:0:
402,192,84803,1,0,0:0:0:0:
256,192,84803,1,0,0:0:0:0:
109,192,84803,1,0,0:0:0:0:
182,192,84925,1,0,0:0:0:0:
329,192,84925,1,0,0:0:0:0:
475,192,84925,1,0,0:0:0:0:
109,192,85046,1,0,0:0:0:0:
36,192,85046,1,0,0:0:0:0:
475,192,85046,1,0,0:0:0:0:
402,192,85168,1,0,0:0:0:0:
182,192,85168,1,0,0:0:0:0:
329,192,85168,1,0,0:0:0:0:
109,192,85289,1,0,0:0:0:0:
36,192,85289,1,0,0:0:0:0:
256,192,85289,1,0,0:0:0:0:
402,192,85411,1,0,0:0:0:0:
329,192,85411,1,0,0:0:0:0:
182,192,85411,1,0,0:0:0:0:
109,192,85411,1,0,0:0:0:0:
475,192,85411,1,0,0:0:0:0:
36,192,85411,1,0,0:0:0:0:
475,192,85532,1,0,0:0:0:0:
329,192,85532,1,0,0:0:0:0:
182,192,85532,1,0,0:0:0:0:
402,192,85654,1,0,0:0:0:0:
182,192,85654,1,0,0:0:0:0:
109,192,85654,1,0,0:0:0:0:
329,192,85654,1,0,0:0:0:0:
36,192,85654,1,0,0:0:0:0:
256,192,85654,1,0,0:0:0:0:
256,192,85775,1,0,0:0:0:0:
109,192,85775,1,0,0:0:0:0:
36,192,85775,1,0,0:0:0:0:
329,192,85896,1,0,0:0:0:0:
182,192,85896,1,0,0:0:0:0:
475,192,85896,1,0,0:0:0:0:
402,192,86018,1,0,0:0:0:0:
182,192,86018,1,0,0:0:0:0:
109,192,86018,1,0,0:0:0:0:
329,192,86139,1,0,0:0:0:0:
475,192,86139,1,0,0:0:0:0:
36,192,86139,1,0,0:0:0:0:
256,192,86261,1,0,0:0:0:0:
182,192,86261,1,0,0:0:0:0:
109,192,86261,1,0,0:0:0:0:
475,192,86382,1,0,0:0:0:0:
329,192,86382,1,0,0:0:0:0:
109,192,86382,1,0,0:0:0:0:
402,192,86504,1,0,0:0:0:0:
256,192,86504,1,0,0:0:0:0:
182,192,86504,1,0,0:0:0:0:
329,192,86625,1,0,0:0:0:0:
109,192,86625,1,0,0:0:0:0:
182,192,86625,1,0,0:0:0:0:
36,192,86625,1,0,0:0:0:0:
475,192,86625,1,0,0:0:0:0:
402,192,86625,1,0,0:0:0:0:
402,192,86747,1,0,0:0:0:0:
256,192,86747,1,0,0:0:0:0:
36,192,86747,1,0,0:0:0:0:
182,192,86868,1,0,0:0:0:0:
329,192,86868,1,0,0:0:0:0:
109,192,86868,1,0,0:0:0:0:
475,192,86990,1,0,0:0:0:0:
402,192,86990,1,0,0:0:0:0:
182,192,86990,1,0,0:0:0:0:
329,192,87111,1,0,0:0:0:0:
475,192,87111,1,0,0:0:0:0:
109,192,87111,1,0,0:0:0:0:
256,192,87233,1,0,0:0:0:0:
36,192,87233,1,0,0:0:0:0:
402,192,87233,1,0,0:0:0:0:
329,192,87354,1,0,0:0:0:0:
182,192,87354,1,0,0:0:0:0:
109,192,87354,1,0,0:0:0:0:
36,192,87354,1,0,0:0:0:0:
256,192,87354,1,0,0:0:0:0:
402,192,87354,1,0,0:0:0:0:
109,192,87475,1,0,0:0:0:0:
36,192,87475,1,0,0:0:0:0:
329,192,87475,1,0,0:0:0:0:
329,192,87597,1,0,0:0:0:0:
182,192,87597,1,0,0:0:0:0:
475,192,87597,1,0,0:0:0:0:
402,192,87597,1,0,0:0:0:0:
109,192,87597,1,0,0:0:0:0:
256,192,87597,1,0,0:0:0:0:
402,192,87718,1,0,0:0:0:0:
109,192,87718,1,0,0:0:0:0:
36,192,87718,1,0,0:0:0:0:
475,192,87840,1,0,0:0:0:0:
329,192,87840,1,0,0:0:0:0:
182,192,87840,1,0,0:0:0:0:
402,192,87961,1,0,0:0:0:0:
475,192,87961,1,0,0:0:0:0:
109,192,87961,1,0,0:0:0:0:
182,192,87961,1,0,0:0:0:0:
329,192,87961,1,0,0:0:0:0:
36,192,87961,1,0,0:0:0:0:
329,192,88083,1,0,0:0:0:0:
182,192,88083,1,0,0:0:0:0:
36,192,88083,1,0,0:0:0:0:
402,192,88204,1,0,0:0:0:0:
109,192,88204,1,0,0:0:0:0:
329,192,88204,1,0,0:0:0:0:
36,192,88204,1,0,0:0:0:0:
182,192,88204,1,0,0:0:0:0:
256,192,88204,1,0,0:0:0:0:
329,192,88326,1,0,0:0:0:0:
475,192,88326,1,0,0:0:0:0:
36,192,88326,1,0,0:0:0:0:
182,192,88326,1,0,0:0:0:0:
109,192,88326,1,0,0:0:0:0:
256,192,88326,1,0,0:0:0:0:
109,192,88447,1,0,0:0:0:0:
182,192,88447,1,0,0:0:0:0:
475,192,88447,1,0,0:0:0:0:
402,192,88447,1,0,0:0:0:0:
36,192,88447,1,0,0:0:0:0:
256,192,88447,1,0,0:0:0:0:
475,192,88569,1,0,0:0:0:0:
329,192,88569,1,0,0:0:0:0:
36,192,88569,1,0,0:0:0:0:
402,192,88569,1,0,0:0:0:0:
182,192,88569,1,0,0:0:0:0:
109,192,88569,1,0,0:0:0:0:
402,192,88690,1,0,0:0:0:0:
329,192,88690,1,0,0:0:0:0:
182,192,88690,1,0,0:0:0:0:
256,192,88811,1,0,0:0:0:0:
109,192,88811,1,0,0:0:0:0:
36,192,88811,1,0,0:0:0:0:
402,192,88933,1,0,0:0:0:0:
329,192,88933,1,0,0:0:0:0:
475,192,88933,1,0,0:0:0:0:
36,192,88994,1,0,0:0:0:0:
109,192,88994,1,0,0:0:0:0:
182,192,88994,1,0,0:0:0:0:
475,192,89054,1,0,0:0:0:0:
402,192,89054,1,0,0:0:0:0:
320,192,89054,1,0,0:0:0:0:
36,192,89115,1,0,0:0:0:0:
192,192,89115,1,0,0:0:0:0:
109,192,89115,1,0,0:0:0:0:
475,192,89176,1,0,0:0:0:0:
402,192,89176,1,0,0:0:0:0:
320,192,89176,1,0,0:0:0:0:
36,192,89237,1,0,0:0:0:0:
192,192,89237,1,0,0:0:0:0:
109,192,89237,1,0,0:0:0:0:
475,192,89297,1,0,0:0:0:0:
402,192,89297,1,0,0:0:0:0:
320,192,89297,1,0,0:0:0:0:
36,192,89358,1,0,0:0:0:0:
192,192,89358,1,0,0:0:0:0:
109,192,89358,1,0,0:0:0:0:
475,192,89419,1,0,0:0:0:0:
402,192,89419,1,0,0:0:0:0:
320,192,89419,1,0,0:0:0:0:
36,192,89479,1,0,0:0:0:0:
192,192,89479,1,0,0:0:0:0:
109,192,89479,1,0,0:0:0:0:
475,192,89540,1,0,0:0:0:0:
402,192,89540,1,0,0:0:0:0:
320,192,89540,1,0,0:0:0:0:
36,192,89601,1,0,0:0:0:0:
192,192,89601,1,0,0:0:0:0:
109,192,89601,1,0,0:0:0:0:
475,192,89662,1,0,0:0:0:0:
402,192,89662,1,0,0:0:0:0:
320,192,89662,1,0,0:0:0:0:
36,192,89722,1,0,0:0:0:0:
192,192,89722,1,0,0:0:0:0:
109,192,89722,1,0,0:0:0:0:
475,192,89783,1,0,0:0:0:0:
402,192,89783,1,0,0:0:0:0:
320,192,89783,1,0,0:0:0:0:
36,192,89844,1,0,0:0:0:0:
192,192,89844,1,0,0:0:0:0:
109,192,89844,1,0,0:0:0:0:
475,192,89905,1,0,0:0:0:0:
402,192,89905,1,0,0:0:0:0:
320,192,89905,1,0,0:0:0:0:
36,192,89965,1,0,0:0:0:0:
192,192,89965,1,0,0:0:0:0:
109,192,89965,1,0,0:0:0:0:
475,192,90026,1,0,0:0:0:0:
402,192,90026,1,0,0:0:0:0:
320,192,90026,1,0,0:0:0:0:
36,192,90087,1,0,0:0:0:0:
192,192,90087,1,0,0:0:0:0:
109,192,90087,1,0,0:0:0:0:
475,192,90148,1,0,0:0:0:0:
402,192,90148,1,0,0:0:0:0:
320,192,90148,1,0,0:0:0:0:
36,192,90208,1,0,0:0:0:0:
192,192,90208,1,0,0:0:0:0:
109,192,90208,1,0,0:0:0:0:
475,192,90269,1,0,0:0:0:0:
402,192,90269,1,0,0:0:0:0:
320,192,90269,1,0,0:0:0:0:
36,192,90330,1,0,0:0:0:0:
192,192,90330,1,0,0:0:0:0:
109,192,90330,1,0,0:0:0:0:
475,192,90390,1,0,0:0:0:0:
402,192,90390,1,0,0:0:0:0:
320,192,90390,1,0,0:0:0:0:
36,192,90451,1,0,0:0:0:0:
192,192,90451,1,0,0:0:0:0:
109,192,90451,1,0,0:0:0:0:
475,192,90512,1,0,0:0:0:0:
402,192,90512,1,0,0:0:0:0:
320,192,90512,1,0,0:0:0:0:
36,192,90573,1,0,0:0:0:0:
192,192,90573,1,0,0:0:0:0:
109,192,90573,1,0,0:0:0:0:
475,192,90633,1,0,0:0:0:0:
402,192,90633,1,0,0:0:0:0:
320,192,90633,1,0,0:0:0:0:
36,192,90694,1,0,0:0:0:0:
192,192,90694,1,0,0:0:0:0:
109,192,90694,1,0,0:0:0:0:
475,192,90755,1,0,0:0:0:0:
402,192,90755,1,0,0:0:0:0:
320,192,90755,1,0,0:0:0:0:
36,192,90816,1,0,0:0:0:0:
192,192,90816,1,0,0:0:0:0:
109,192,90816,1,0,0:0:0:0:
475,192,90876,1,0,0:0:0:0:
402,192,90876,1,0,0:0:0:0:
320,192,90876,1,0,0:0:0:0:
36,192,90937,1,0,0:0:0:0:
192,192,90937,1,0,0:0:0:0:
109,192,90937,1,0,0:0:0:0:
475,192,90998,1,0,0:0:0:0:
402,192,90998,1,0,0:0:0:0:
320,192,90998,1,0,0:0:0:0:
36,192,91058,1,0,0:0:0:0:
192,192,91058,1,0,0:0:0:0:
109,192,91058,1,0,0:0:0:0:
475,192,91119,1,0,0:0:0:0:
402,192,91119,1,0,0:0:0:0:
320,192,91119,1,0,0:0:0:0:
36,192,91180,1,0,0:0:0:0:
192,192,91180,1,0,0:0:0:0:
109,192,91180,1,0,0:0:0:0:
475,192,91241,1,0,0:0:0:0:
402,192,91241,1,0,0:0:0:0:
320,192,91241,1,0,0:0:0:0:
36,192,91301,1,0,0:0:0:0:
192,192,91301,1,0,0:0:0:0:
109,192,91301,1,0,0:0:0:0:
475,192,91362,1,0,0:0:0:0:
402,192,91362,1,0,0:0:0:0:
320,192,91362,1,0,0:0:0:0:
36,192,91423,1,0,0:0:0:0:
192,192,91423,1,0,0:0:0:0:
109,192,91423,1,0,0:0:0:0:
475,192,91484,1,0,0:0:0:0:
402,192,91484,1,0,0:0:0:0:
320,192,91484,1,0,0:0:0:0:
182,192,91544,1,0,0:0:0:0:
109,192,91544,1,0,0:0:0:0:
36,192,91544,1,0,0:0:0:0:
475,192,91605,1,0,0:0:0:0:
329,192,91605,1,0,0:0:0:0:
402,192,91605,1,0,0:0:0:0:
36,192,91666,1,0,0:0:0:0:
109,192,91666,1,0,0:0:0:0:
182,192,91666,1,0,0:0:0:0:
329,192,91726,1,0,0:0:0:0:
402,192,91726,1,0,0:0:0:0:
475,192,91726,1,0,0:0:0:0:
36,192,91787,1,0,0:0:0:0:
182,192,91787,1,0,0:0:0:0:
109,192,91787,1,0,0:0:0:0:
329,192,91848,1,0,0:0:0:0:
402,192,91848,1,0,0:0:0:0:
475,192,91848,1,0,0:0:0:0:
182,192,91909,1,0,0:0:0:0:
36,192,91909,1,0,0:0:0:0:
109,192,91909,1,0,0:0:0:0:
475,192,91969,1,0,0:0:0:0:
329,192,91969,1,0,0:0:0:0:
402,192,91969,1,0,0:0:0:0:
36,192,92091,1,0,0:0:0:0:
109,192,92091,1,0,0:0:0:0:
320,192,92091,1,0,0:0:0:0:
402,192,92091,1,0,0:0:0:0:
402,192,92212,1,0,0:0:0:0:
475,192,92212,1,0,0:0:0:0:
109,192,92212,1,0,0:0:0:0:
192,192,92212,1,0,0:0:0:0:
36,192,92334,1,0,0:0:0:0:
109,192,92334,1,0,0:0:0:0:
320,192,92334,1,0,0:0:0:0:
402,192,92334,1,0,0:0:0:0:
36,192,92455,1,0,0:0:0:0:
109,192,92455,1,0,0:0:0:0:
182,192,92455,1,0,0:0:0:0:
329,192,92455,1,0,0:0:0:0:
475,192,92455,1,0,0:0:0:0:
402,192,92455,1,0,0:0:0:0:
256,192,92455,1,0,0:0:0:0:
