osu file format v14

[General]
AudioFilename: audio110.mp3
AudioLeadIn: 0
PreviewTime: 35670
Countdown: 0
SampleSet: None
StackLeniency: 0.7
Mode: 3
LetterboxInBreaks: 0
SpecialStyle: 0
WidescreenStoryboard: 0

[Editor]
DistanceSpacing: 0.8
BeatDivisor: 4
GridSize: 8
TimelineZoom: 4.839998

[Metadata]
Title:Pants
TitleUnicode:Pants
Artist:DJ Sharpnel
ArtistUnicode:DJ Sharpnel
Creator:X_Devil
Version:7k Hard 1.1x
Source:Stepmania
Tags:Stepmania pants DJ Sharpnel 7k
BeatmapID:2207654
BeatmapSetID:1056190

[Difficulty]
HPDrainRate:8
CircleSize:7
OverallDifficulty:8
ApproachRate:5
SliderMultiplier:1.4
SliderTickRate:1

[Events]
//Background and Video events
0,0,"bg.png",0,0
//Break Periods
//Storyboard Layer 0 (Background)
//Storyboard Layer 1 (Fail)
//Storyboard Layer 2 (Pass)
//Storyboard Layer 3 (Foreground)
//Storyboard Layer 4 (Overlay)
//Storyboard Sound Samples

[TimingPoints]
158,287.081339712919,4,1,0,10,1,0

[HitObjects]
109,192,8196,128,0,8340:0:0:0:0:
256,192,8196,128,0,8340:0:0:0:0:
402,192,8196,128,0,8340:0:0:0:0:
475,192,8196,128,0,8340:0:0:0:0:
36,192,8196,128,0,8340:0:0:0:0:
109,192,8482,1,0,0:0:0:0:
256,192,8482,1,0,0:0:0:0:
475,192,8482,1,0,0:0:0:0:
402,192,8482,1,0,0:0:0:0:
36,192,8482,1,0,0:0:0:0:
109,192,8626,1,0,0:0:0:0:
182,192,8626,1,0,0:0:0:0:
329,192,8626,1,0,0:0:0:0:
182,192,8770,1,0,0:0:0:0:
402,192,8770,1,0,0:0:0:0:
475,192,8770,1,0,0:0:0:0:
402,192,8913,1,0,0:0:0:0:
256,192,8913,1,0,0:0:0:0:
109,192,8913,1,0,0:0:0:0:
36,192,9057,1,0,0:0:0:0:
109,192,9057,1,0,0:0:0:0:
329,192,9057,1,0,0:0:0:0:
256,192,9057,1,0,0:0:0:0:
475,192,9057,1,0,0:0:0:0:
36,192,9200,1,0,0:0:0:0:
182,192,9200,1,0,0:0:0:0:
329,192,9200,1,0,0:0:0:0:
36,192,9344,1,0,0:0:0:0:
109,192,9344,1,0,0:0:0:0:
256,192,9344,1,0,0:0:0:0:
109,192,9488,1,0,0:0:0:0:
329,192,9488,1,0,0:0:0:0:
402,192,9488,1,0,0:0:0:0:
182,192,9631,1,0,0:0:0:0:
256,192,9631,1,0,0:0:0:0:
402,192,9631,1,0,0:0:0:0:
475,192,9631,1,0,0:0:0:0:
36,192,9631,1,0,0:0:0:0:
329,192,9774,1,0,0:0:0:0:
475,192,9774,1,0,0:0:0:0:
109,192,9774,1,0,0:0:0:0:
109,192,9918,1,0,0:0:0:0:
182,192,9918,1,0,0:0:0:0:
402,192,9918,1,0,0:0:0:0:
402,192,10061,1,0,0:0:0:0:
256,192,10061,1,0,0:0:0:0:
36,192,10061,1,0,0:0:0:0:
36,192,10205,1,0,0:0:0:0:
182,192,10205,1,0,0:0:0:0:
256,192,10205,1,0,0:0:0:0:
329,192,10205,1,0,0:0:0:0:
109,192,10205,1,0,0:0:0:0:
109,192,10349,1,0,0:0:0:0:
402,192,10349,1,0,0:0:0:0:
475,192,10349,1,0,0:0:0:0:
402,192,10492,1,0,0:0:0:0:
256,192,10492,1,0,0:0:0:0:
182,192,10492,1,0,0:0:0:0:
182,192,10636,1,0,0:0:0:0:
36,192,10636,1,0,0:0:0:0:
329,192,10636,1,0,0:0:0:0:
109,192,10780,1,0,0:0:0:0:
329,192,10780,1,0,0:0:0:0:
402,192,10780,1,0,0:0:0:0:
475,192,10780,1,0,0:0:0:0:
256,192,10780,1,0,0:0:0:0:
329,192,10923,1,0,0:0:0:0:
182,192,10923,1,0,0:0:0:0:
109,192,10923,1,0,0:0:0:0:
182,192,11067,1,0,0:0:0:0:
402,192,11067,1,0,0:0:0:0:
475,192,11067,1,0,0:0:0:0:
402,192,11210,1,0,0:0:0:0:
256,192,11210,1,0,0:0:0:0:
109,192,11210,1,0,0:0:0:0:
36,192,11353,1,0,0:0:0:0:
182,192,11353,1,0,0:0:0:0:
329,192,11353,1,0,0:0:0:0:
256,192,11353,1,0,0:0:0:0:
475,192,11353,1,0,0:0:0:0:
109,192,11497,1,0,0:0:0:0:
329,192,11497,1,0,0:0:0:0:
402,192,11497,1,0,0:0:0:0:
109,192,11640,1,0,0:0:0:0:
256,192,11640,1,0,0:0:0:0:
475,192,11640,1,0,0:0:0:0:
475,192,11784,1,0,0:0:0:0:
182,192,11784,1,0,0:0:0:0:
329,192,11784,1,0,0:0:0:0:
256,192,11928,1,0,0:0:0:0:
402,192,11928,1,0,0:0:0:0:
329,192,11928,1,0,0:0:0:0:
36,192,11928,1,0,0:0:0:0:
109,192,12071,1,0,0:0:0:0:
329,192,12071,1,0,0:0:0:0:
475,192,12071,1,0,0:0:0:0:
329,192,12215,1,0,0:0:0:0:
182,192,12215,1,0,0:0:0:0:
256,192,12215,1,0,0:0:0:0:
182,192,12359,1,0,0:0:0:0:
402,192,12359,1,0,0:0:0:0:
36,192,12359,1,0,0:0:0:0:
36,192,12501,1,0,0:0:0:0:
109,192,12501,1,0,0:0:0:0:
402,192,12501,1,0,0:0:0:0:
475,192,12501,1,0,0:0:0:0:
256,192,12501,1,0,0:0:0:0:
182,192,12645,1,0,0:0:0:0:
329,192,12645,1,0,0:0:0:0:
475,192,12645,1,0,0:0:0:0:
329,192,12789,1,0,0:0:0:0:
36,192,12789,1,0,0:0:0:0:
109,192,12789,1,0,0:0:0:0:
109,192,12932,1,0,0:0:0:0:
475,192,12932,1,0,0:0:0:0:
256,192,12932,1,0,0:0:0:0:
182,192,13076,1,0,0:0:0:0:
256,192,13076,1,0,0:0:0:0:
402,192,13076,1,0,0:0:0:0:
329,192,13076,1,0,0:0:0:0:
36,192,13076,1,0,0:0:0:0:
182,192,13220,1,0,0:0:0:0:
109,192,13220,1,0,0:0:0:0:
475,192,13220,1,0,0:0:0:0:
109,192,13363,1,0,0:0:0:0:
256,192,13363,1,0,0:0:0:0:
402,192,13363,1,0,0:0:0:0:
402,192,13507,1,0,0:0:0:0:
182,192,13507,1,0,0:0:0:0:
475,192,13507,1,0,0:0:0:0:
36,192,13650,1,0,0:0:0:0:
109,192,13650,1,0,0:0:0:0:
256,192,13650,1,0,0:0:0:0:
329,192,13650,1,0,0:0:0:0:
182,192,13650,1,0,0:0:0:0:
36,192,13794,1,0,0:0:0:0:
402,192,13794,1,0,0:0:0:0:
109,192,13794,1,0,0:0:0:0:
109,192,13937,1,0,0:0:0:0:
329,192,13937,1,0,0:0:0:0:
475,192,13937,1,0,0:0:0:0:
329,192,14080,1,0,0:0:0:0:
36,192,14080,1,0,0:0:0:0:
402,192,14080,1,0,0:0:0:0:
182,192,14224,1,0,0:0:0:0:
256,192,14224,1,0,0:0:0:0:
402,192,14224,1,0,0:0:0:0:
475,192,14224,1,0,0:0:0:0:
109,192,14224,1,0,0:0:0:0:
109,192,14368,1,0,0:0:0:0:
329,192,14368,1,0,0:0:0:0:
36,192,14368,1,0,0:0:0:0:
329,192,14511,1,0,0:0:0:0:
182,192,14511,1,0,0:0:0:0:
256,192,14511,1,0,0:0:0:0:
182,192,14655,1,0,0:0:0:0:
36,192,14655,1,0,0:0:0:0:
402,192,14655,1,0,0:0:0:0:
256,192,14799,1,0,0:0:0:0:
329,192,14799,1,0,0:0:0:0:
402,192,14799,1,0,0:0:0:0:
475,192,14799,1,0,0:0:0:0:
109,192,14799,1,0,0:0:0:0:
329,192,14942,1,0,0:0:0:0:
109,192,14942,1,0,0:0:0:0:
182,192,14942,1,0,0:0:0:0:
182,192,15086,1,0,0:0:0:0:
402,192,15086,1,0,0:0:0:0:
475,192,15086,1,0,0:0:0:0:
402,192,15229,1,0,0:0:0:0:
256,192,15229,1,0,0:0:0:0:
36,192,15229,1,0,0:0:0:0:
36,192,15372,1,0,0:0:0:0:
109,192,15372,1,0,0:0:0:0:
256,192,15372,1,0,0:0:0:0:
182,192,15372,1,0,0:0:0:0:
329,192,15372,1,0,0:0:0:0:
109,192,15516,1,0,0:0:0:0:
182,192,15516,1,0,0:0:0:0:
402,192,15516,1,0,0:0:0:0:
182,192,15660,1,0,0:0:0:0:
329,192,15660,1,0,0:0:0:0:
402,192,15660,1,0,0:0:0:0:
182,192,15803,1,0,0:0:0:0:
109,192,15803,1,0,0:0:0:0:
475,192,15803,1,0,0:0:0:0:
329,192,15947,1,0,0:0:0:0:
475,192,15947,1,0,0:0:0:0:
36,192,15947,1,0,0:0:0:0:
256,192,15947,1,0,0:0:0:0:
402,192,15947,1,0,0:0:0:0:
182,192,16090,1,0,0:0:0:0:
256,192,16090,1,0,0:0:0:0:
109,192,16090,1,0,0:0:0:0:
182,192,16234,1,0,0:0:0:0:
329,192,16234,1,0,0:0:0:0:
475,192,16234,1,0,0:0:0:0:
475,192,16378,1,0,0:0:0:0:
256,192,16378,1,0,0:0:0:0:
109,192,16378,1,0,0:0:0:0:
36,192,16521,1,0,0:0:0:0:
109,192,16521,1,0,0:0:0:0:
256,192,16521,1,0,0:0:0:0:
329,192,16521,1,0,0:0:0:0:
402,192,16521,1,0,0:0:0:0:
109,192,16664,1,0,0:0:0:0:
329,192,16664,1,0,0:0:0:0:
475,192,16664,1,0,0:0:0:0:
329,192,16808,1,0,0:0:0:0:
182,192,16808,1,0,0:0:0:0:
256,192,16808,1,0,0:0:0:0:
182,192,16951,1,0,0:0:0:0:
36,192,16951,1,0,0:0:0:0:
402,192,16951,1,0,0:0:0:0:
256,192,17095,1,0,0:0:0:0:
402,192,17095,1,0,0:0:0:0:
475,192,17095,1,0,0:0:0:0:
329,192,17095,1,0,0:0:0:0:
109,192,17095,1,0,0:0:0:0:
329,192,17239,1,0,0:0:0:0:
475,192,17239,1,0,0:0:0:0:
256,192,17239,1,0,0:0:0:0:
36,192,17382,1,0,0:0:0:0:
109,192,17382,1,0,0:0:0:0:
402,192,17382,1,0,0:0:0:0:
475,192,17382,1,0,0:0:0:0:
182,192,17382,1,0,0:0:0:0:
329,192,17382,1,0,0:0:0:0:
182,192,17526,1,0,0:0:0:0:
329,192,17526,1,0,0:0:0:0:
109,192,17526,1,0,0:0:0:0:
402,192,17670,1,0,0:0:0:0:
256,192,17670,1,0,0:0:0:0:
36,192,17670,1,0,0:0:0:0:
109,192,17670,1,0,0:0:0:0:
475,192,17670,1,0,0:0:0:0:
402,192,17813,1,0,0:0:0:0:
329,192,17813,1,0,0:0:0:0:
182,192,17813,1,0,0:0:0:0:
329,192,17956,1,0,0:0:0:0:
109,192,17956,1,0,0:0:0:0:
36,192,17956,1,0,0:0:0:0:
109,192,18100,1,0,0:0:0:0:
256,192,18100,1,0,0:0:0:0:
402,192,18100,1,0,0:0:0:0:
475,192,18243,1,0,0:0:0:0:
402,192,18243,1,0,0:0:0:0:
182,192,18243,1,0,0:0:0:0:
256,192,18243,1,0,0:0:0:0:
36,192,18243,1,0,0:0:0:0:
475,192,18387,1,0,0:0:0:0:
329,192,18387,1,0,0:0:0:0:
182,192,18387,1,0,0:0:0:0:
475,192,18530,1,0,0:0:0:0:
402,192,18530,1,0,0:0:0:0:
256,192,18530,1,0,0:0:0:0:
402,192,18674,1,0,0:0:0:0:
182,192,18674,1,0,0:0:0:0:
109,192,18674,1,0,0:0:0:0:
329,192,18818,1,0,0:0:0:0:
256,192,18818,1,0,0:0:0:0:
109,192,18818,1,0,0:0:0:0:
36,192,18818,1,0,0:0:0:0:
475,192,18818,1,0,0:0:0:0:
182,192,18961,1,0,0:0:0:0:
36,192,18961,1,0,0:0:0:0:
402,192,18961,1,0,0:0:0:0:
402,192,19105,1,0,0:0:0:0:
329,192,19105,1,0,0:0:0:0:
109,192,19105,1,0,0:0:0:0:
109,192,19249,1,0,0:0:0:0:
256,192,19249,1,0,0:0:0:0:
475,192,19249,1,0,0:0:0:0:
475,192,19391,1,0,0:0:0:0:
329,192,19391,1,0,0:0:0:0:
256,192,19391,1,0,0:0:0:0:
182,192,19391,1,0,0:0:0:0:
402,192,19391,1,0,0:0:0:0:
402,192,19535,1,0,0:0:0:0:
109,192,19535,1,0,0:0:0:0:
36,192,19535,1,0,0:0:0:0:
109,192,19679,1,0,0:0:0:0:
256,192,19679,1,0,0:0:0:0:
329,192,19679,1,0,0:0:0:0:
329,192,19822,1,0,0:0:0:0:
475,192,19822,1,0,0:0:0:0:
182,192,19822,1,0,0:0:0:0:
402,192,19966,1,0,0:0:0:0:
182,192,19966,1,0,0:0:0:0:
109,192,19966,1,0,0:0:0:0:
36,192,19966,1,0,0:0:0:0:
256,192,19966,1,0,0:0:0:0:
182,192,20110,1,0,0:0:0:0:
329,192,20110,1,0,0:0:0:0:
402,192,20110,1,0,0:0:0:0:
329,192,20253,1,0,0:0:0:0:
109,192,20253,1,0,0:0:0:0:
36,192,20253,1,0,0:0:0:0:
109,192,20397,1,0,0:0:0:0:
256,192,20397,1,0,0:0:0:0:
402,192,20397,1,0,0:0:0:0:
475,192,20540,1,0,0:0:0:0:
329,192,20540,1,0,0:0:0:0:
182,192,20540,1,0,0:0:0:0:
256,192,20540,1,0,0:0:0:0:
36,192,20540,1,0,0:0:0:0:
402,192,20683,1,0,0:0:0:0:
182,192,20683,1,0,0:0:0:0:
109,192,20683,1,0,0:0:0:0:
402,192,20827,1,0,0:0:0:0:
256,192,20827,1,0,0:0:0:0:
36,192,20827,1,0,0:0:0:0:
36,192,20970,1,0,0:0:0:0:
329,192,20970,1,0,0:0:0:0:
182,192,20970,1,0,0:0:0:0:
256,192,21114,1,0,0:0:0:0:
109,192,21114,1,0,0:0:0:0:
182,192,21114,1,0,0:0:0:0:
475,192,21114,1,0,0:0:0:0:
402,192,21258,1,0,0:0:0:0:
182,192,21258,1,0,0:0:0:0:
36,192,21258,1,0,0:0:0:0:
182,192,21401,1,0,0:0:0:0:
329,192,21401,1,0,0:0:0:0:
256,192,21401,1,0,0:0:0:0:
329,192,21545,1,0,0:0:0:0:
109,192,21545,1,0,0:0:0:0:
475,192,21545,1,0,0:0:0:0:
475,192,21689,1,0,0:0:0:0:
402,192,21689,1,0,0:0:0:0:
109,192,21689,1,0,0:0:0:0:
36,192,21689,1,0,0:0:0:0:
256,192,21689,1,0,0:0:0:0:
329,192,21832,1,0,0:0:0:0:
182,192,21832,1,0,0:0:0:0:
36,192,21832,1,0,0:0:0:0:
182,192,21976,1,0,0:0:0:0:
475,192,21976,1,0,0:0:0:0:
402,192,21976,1,0,0:0:0:0:
402,192,22119,1,0,0:0:0:0:
36,192,22119,1,0,0:0:0:0:
256,192,22119,1,0,0:0:0:0:
329,192,22262,1,0,0:0:0:0:
256,192,22262,1,0,0:0:0:0:
109,192,22262,1,0,0:0:0:0:
182,192,22262,1,0,0:0:0:0:
475,192,22262,1,0,0:0:0:0:
329,192,22406,1,0,0:0:0:0:
402,192,22406,1,0,0:0:0:0:
36,192,22406,1,0,0:0:0:0:
402,192,22550,1,0,0:0:0:0:
256,192,22550,1,0,0:0:0:0:
109,192,22550,1,0,0:0:0:0:
109,192,22693,1,0,0:0:0:0:
329,192,22693,1,0,0:0:0:0:
36,192,22693,1,0,0:0:0:0:
475,192,22837,1,0,0:0:0:0:
402,192,22837,1,0,0:0:0:0:
256,192,22837,1,0,0:0:0:0:
182,192,22837,1,0,0:0:0:0:
329,192,22837,1,0,0:0:0:0:
475,192,22980,1,0,0:0:0:0:
109,192,22980,1,0,0:0:0:0:
402,192,22980,1,0,0:0:0:0:
402,192,23124,1,0,0:0:0:0:
182,192,23124,1,0,0:0:0:0:
36,192,23124,1,0,0:0:0:0:
182,192,23268,1,0,0:0:0:0:
475,192,23268,1,0,0:0:0:0:
109,192,23268,1,0,0:0:0:0:
329,192,23410,1,0,0:0:0:0:
256,192,23410,1,0,0:0:0:0:
109,192,23410,1,0,0:0:0:0:
36,192,23410,1,0,0:0:0:0:
402,192,23410,1,0,0:0:0:0:
402,192,23554,1,0,0:0:0:0:
182,192,23554,1,0,0:0:0:0:
475,192,23554,1,0,0:0:0:0:
182,192,23698,1,0,0:0:0:0:
329,192,23698,1,0,0:0:0:0:
256,192,23698,1,0,0:0:0:0:
329,192,23841,1,0,0:0:0:0:
475,192,23841,1,0,0:0:0:0:
109,192,23841,1,0,0:0:0:0:
256,192,23985,1,0,0:0:0:0:
182,192,23985,1,0,0:0:0:0:
109,192,23985,1,0,0:0:0:0:
36,192,23985,1,0,0:0:0:0:
402,192,23985,1,0,0:0:0:0:
182,192,24129,1,0,0:0:0:0:
402,192,24129,1,0,0:0:0:0:
329,192,24129,1,0,0:0:0:0:
329,192,24272,1,0,0:0:0:0:
109,192,24272,1,0,0:0:0:0:
36,192,24272,1,0,0:0:0:0:
109,192,24416,1,0,0:0:0:0:
256,192,24416,1,0,0:0:0:0:
475,192,24416,1,0,0:0:0:0:
475,192,24560,1,0,0:0:0:0:
402,192,24560,1,0,0:0:0:0:
256,192,24560,1,0,0:0:0:0:
329,192,24560,1,0,0:0:0:0:
182,192,24560,1,0,0:0:0:0:
402,192,24703,1,0,0:0:0:0:
329,192,24703,1,0,0:0:0:0:
109,192,24703,1,0,0:0:0:0:
329,192,24846,1,0,0:0:0:0:
182,192,24846,1,0,0:0:0:0:
109,192,24846,1,0,0:0:0:0:
329,192,24990,1,0,0:0:0:0:
402,192,24990,1,0,0:0:0:0:
36,192,24990,1,0,0:0:0:0:
182,192,25133,1,0,0:0:0:0:
36,192,25133,1,0,0:0:0:0:
475,192,25133,1,0,0:0:0:0:
256,192,25133,1,0,0:0:0:0:
109,192,25133,1,0,0:0:0:0:
329,192,25277,1,0,0:0:0:0:
256,192,25277,1,0,0:0:0:0:
402,192,25277,1,0,0:0:0:0:
329,192,25420,1,0,0:0:0:0:
182,192,25420,1,0,0:0:0:0:
36,192,25420,1,0,0:0:0:0:
36,192,25564,1,0,0:0:0:0:
256,192,25564,1,0,0:0:0:0:
402,192,25564,1,0,0:0:0:0:
475,192,25708,1,0,0:0:0:0:
402,192,25708,1,0,0:0:0:0:
256,192,25708,1,0,0:0:0:0:
182,192,25708,1,0,0:0:0:0:
109,192,25708,1,0,0:0:0:0:
402,192,25851,1,0,0:0:0:0:
182,192,25851,1,0,0:0:0:0:
36,192,25851,1,0,0:0:0:0:
182,192,25995,1,0,0:0:0:0:
329,192,25995,1,0,0:0:0:0:
256,192,25995,1,0,0:0:0:0:
329,192,26138,1,0,0:0:0:0:
475,192,26138,1,0,0:0:0:0:
109,192,26138,1,0,0:0:0:0:
256,192,26281,1,0,0:0:0:0:
109,192,26281,1,0,0:0:0:0:
36,192,26281,1,0,0:0:0:0:
182,192,26281,1,0,0:0:0:0:
402,192,26281,1,0,0:0:0:0:
329,192,26425,1,0,0:0:0:0:
182,192,26425,1,0,0:0:0:0:
36,192,26425,1,0,0:0:0:0:
36,192,26569,1,0,0:0:0:0:
109,192,26569,1,0,0:0:0:0:
402,192,26569,1,0,0:0:0:0:
475,192,26569,1,0,0:0:0:0:
329,192,26569,1,0,0:0:0:0:
182,192,26569,1,0,0:0:0:0:
329,192,26712,1,0,0:0:0:0:
475,192,26712,1,0,0:0:0:0:
109,192,26712,1,0,0:0:0:0:
256,192,26712,1,0,0:0:0:0:
109,192,26856,1,0,0:0:0:0:
475,192,26856,1,0,0:0:0:0:
402,192,26856,1,0,0:0:0:0:
36,192,26856,1,0,0:0:0:0:
182,192,26856,1,0,0:0:0:0:
256,192,26856,1,0,0:0:0:0:
109,192,27000,1,0,0:0:0:0:
182,192,27000,1,0,0:0:0:0:
329,192,27000,1,0,0:0:0:0:
402,192,27000,1,0,0:0:0:0:
182,192,27143,1,0,0:0:0:0:
402,192,27143,1,0,0:0:0:0:
475,192,27143,1,0,0:0:0:0:
36,192,27143,1,0,0:0:0:0:
402,192,27287,1,0,0:0:0:0:
256,192,27287,1,0,0:0:0:0:
109,192,27287,1,0,0:0:0:0:
329,192,27287,1,0,0:0:0:0:
36,192,27430,1,0,0:0:0:0:
109,192,27430,1,0,0:0:0:0:
329,192,27430,1,0,0:0:0:0:
256,192,27430,1,0,0:0:0:0:
475,192,27430,1,0,0:0:0:0:
402,192,27430,1,0,0:0:0:0:
36,192,27573,1,0,0:0:0:0:
182,192,27573,1,0,0:0:0:0:
329,192,27573,1,0,0:0:0:0:
475,192,27573,1,0,0:0:0:0:
36,192,27717,1,0,0:0:0:0:
109,192,27717,1,0,0:0:0:0:
256,192,27717,1,0,0:0:0:0:
329,192,27717,1,0,0:0:0:0:
109,192,27860,1,0,0:0:0:0:
329,192,27860,1,0,0:0:0:0:
402,192,27860,1,0,0:0:0:0:
182,192,27860,1,0,0:0:0:0:
182,192,28004,1,0,0:0:0:0:
256,192,28004,1,0,0:0:0:0:
402,192,28004,1,0,0:0:0:0:
475,192,28004,1,0,0:0:0:0:
36,192,28004,1,0,0:0:0:0:
329,192,28004,1,0,0:0:0:0:
329,192,28148,1,0,0:0:0:0:
475,192,28148,1,0,0:0:0:0:
109,192,28148,1,0,0:0:0:0:
182,192,28148,1,0,0:0:0:0:
109,192,28291,1,0,0:0:0:0:
182,192,28291,1,0,0:0:0:0:
402,192,28291,1,0,0:0:0:0:
36,192,28291,1,0,0:0:0:0:
402,192,28435,1,0,0:0:0:0:
256,192,28435,1,0,0:0:0:0:
36,192,28435,1,0,0:0:0:0:
329,192,28435,1,0,0:0:0:0:
36,192,28579,1,0,0:0:0:0:
182,192,28579,1,0,0:0:0:0:
256,192,28579,1,0,0:0:0:0:
329,192,28579,1,0,0:0:0:0:
109,192,28579,1,0,0:0:0:0:
475,192,28579,1,0,0:0:0:0:
109,192,28722,1,0,0:0:0:0:
402,192,28722,1,0,0:0:0:0:
475,192,28722,1,0,0:0:0:0:
182,192,28722,1,0,0:0:0:0:
402,192,28865,1,0,0:0:0:0:
256,192,28865,1,0,0:0:0:0:
182,192,28865,1,0,0:0:0:0:
36,192,28865,1,0,0:0:0:0:
182,192,29009,1,0,0:0:0:0:
36,192,29009,1,0,0:0:0:0:
329,192,29009,1,0,0:0:0:0:
475,192,29009,1,0,0:0:0:0:
109,192,29152,1,0,0:0:0:0:
329,192,29152,1,0,0:0:0:0:
402,192,29152,1,0,0:0:0:0:
475,192,29152,1,0,0:0:0:0:
256,192,29152,1,0,0:0:0:0:
182,192,29152,1,0,0:0:0:0:
329,192,29296,1,0,0:0:0:0:
182,192,29296,1,0,0:0:0:0:
109,192,29296,1,0,0:0:0:0:
36,192,29296,1,0,0:0:0:0:
182,192,29440,1,0,0:0:0:0:
402,192,29440,1,0,0:0:0:0:
475,192,29440,1,0,0:0:0:0:
256,192,29440,1,0,0:0:0:0:
402,192,29583,1,0,0:0:0:0:
256,192,29583,1,0,0:0:0:0:
109,192,29583,1,0,0:0:0:0:
36,192,29583,1,0,0:0:0:0:
36,192,29727,1,0,0:0:0:0:
182,192,29727,1,0,0:0:0:0:
329,192,29727,1,0,0:0:0:0:
256,192,29727,1,0,0:0:0:0:
475,192,29727,1,0,0:0:0:0:
402,192,29727,1,0,0:0:0:0:
109,192,29870,1,0,0:0:0:0:
329,192,29870,1,0,0:0:0:0:
402,192,29870,1,0,0:0:0:0:
182,192,29870,1,0,0:0:0:0:
109,192,30014,1,0,0:0:0:0:
256,192,30014,1,0,0:0:0:0:
475,192,30014,1,0,0:0:0:0:
402,192,30014,1,0,0:0:0:0:
256,192,30158,1,0,0:0:0:0:
36,192,30158,1,0,0:0:0:0:
402,192,30158,1,0,0:0:0:0:
182,192,30158,1,0,0:0:0:0:
402,192,30300,1,0,0:0:0:0:
475,192,30300,1,0,0:0:0:0:
182,192,30300,1,0,0:0:0:0:
329,192,30300,1,0,0:0:0:0:
109,192,30300,1,0,0:0:0:0:
36,192,30300,1,0,0:0:0:0:
182,192,30444,1,0,0:0:0:0:
402,192,30444,1,0,0:0:0:0:
329,192,30444,1,0,0:0:0:0:
256,192,30444,1,0,0:0:0:0:
109,192,30588,1,0,0:0:0:0:
36,192,30588,1,0,0:0:0:0:
402,192,30588,1,0,0:0:0:0:
475,192,30588,1,0,0:0:0:0:
329,192,30731,1,0,0:0:0:0:
109,192,30731,1,0,0:0:0:0:
256,192,30731,1,0,0:0:0:0:
182,192,30731,1,0,0:0:0:0:
36,192,30875,1,0,0:0:0:0:
402,192,30875,1,0,0:0:0:0:
475,192,30875,1,0,0:0:0:0:
182,192,30875,1,0,0:0:0:0:
329,192,30875,1,0,0:0:0:0:
109,192,30875,1,0,0:0:0:0:
182,192,31019,1,0,0:0:0:0:
109,192,31019,1,0,0:0:0:0:
256,192,31019,1,0,0:0:0:0:
402,192,31019,1,0,0:0:0:0:
182,192,31162,1,0,0:0:0:0:
329,192,31162,1,0,0:0:0:0:
402,192,31162,1,0,0:0:0:0:
36,192,31162,1,0,0:0:0:0:
329,192,31306,1,0,0:0:0:0:
109,192,31306,1,0,0:0:0:0:
475,192,31306,1,0,0:0:0:0:
256,192,31306,1,0,0:0:0:0:
182,192,31450,1,0,0:0:0:0:
256,192,31450,1,0,0:0:0:0:
329,192,31450,1,0,0:0:0:0:
402,192,31450,1,0,0:0:0:0:
36,192,31450,1,0,0:0:0:0:
109,192,31592,1,0,0:0:0:0:
329,192,31592,1,0,0:0:0:0:
182,192,31592,1,0,0:0:0:0:
402,192,31592,1,0,0:0:0:0:
182,192,31736,1,0,0:0:0:0:
402,192,31736,1,0,0:0:0:0:
475,192,31736,1,0,0:0:0:0:
109,192,31736,1,0,0:0:0:0:
475,192,31880,1,0,0:0:0:0:
36,192,31880,1,0,0:0:0:0:
256,192,31880,1,0,0:0:0:0:
402,192,31880,1,0,0:0:0:0:
109,192,32023,1,0,0:0:0:0:
182,192,32023,1,0,0:0:0:0:
329,192,32023,1,0,0:0:0:0:
402,192,32023,1,0,0:0:0:0:
36,192,32023,1,0,0:0:0:0:
475,192,32167,1,0,0:0:0:0:
329,192,32167,1,0,0:0:0:0:
402,192,32167,1,0,0:0:0:0:
36,192,32239,1,0,0:0:0:0:
109,192,32239,1,0,0:0:0:0:
182,192,32239,1,0,0:0:0:0:
320,192,32310,1,0,0:0:0:0:
402,192,32310,1,0,0:0:0:0:
475,192,32310,1,0,0:0:0:0:
109,192,32382,1,0,0:0:0:0:
192,192,32382,1,0,0:0:0:0:
36,192,32382,1,0,0:0:0:0:
320,192,32454,1,0,0:0:0:0:
402,192,32454,1,0,0:0:0:0:
475,192,32454,1,0,0:0:0:0:
109,192,32526,1,0,0:0:0:0:
192,192,32526,1,0,0:0:0:0:
36,192,32526,1,0,0:0:0:0:
320,192,32598,1,0,0:0:0:0:
402,192,32598,1,0,0:0:0:0:
475,192,32598,1,0,0:0:0:0:
109,192,32670,1,0,0:0:0:0:
192,192,32670,1,0,0:0:0:0:
36,192,32670,1,0,0:0:0:0:
320,192,32741,1,0,0:0:0:0:
402,192,32741,1,0,0:0:0:0:
475,192,32741,1,0,0:0:0:0:
109,192,32813,1,0,0:0:0:0:
192,192,32813,1,0,0:0:0:0:
36,192,32813,1,0,0:0:0:0:
320,192,32885,1,0,0:0:0:0:
402,192,32885,1,0,0:0:0:0:
475,192,32885,1,0,0:0:0:0:
109,192,32956,1,0,0:0:0:0:
192,192,32956,1,0,0:0:0:0:
36,192,32956,1,0,0:0:0:0:
320,192,33028,1,0,0:0:0:0:
402,192,33028,1,0,0:0:0:0:
475,192,33028,1,0,0:0:0:0:
109,192,33100,1,0,0:0:0:0:
192,192,33100,1,0,0:0:0:0:
36,192,33100,1,0,0:0:0:0:
320,192,33171,1,0,0:0:0:0:
402,192,33171,1,0,0:0:0:0:
475,192,33171,1,0,0:0:0:0:
109,192,33243,1,0,0:0:0:0:
192,192,33243,1,0,0:0:0:0:
36,192,33243,1,0,0:0:0:0:
320,192,33315,1,0,0:0:0:0:
402,192,33315,1,0,0:0:0:0:
475,192,33315,1,0,0:0:0:0:
109,192,33387,1,0,0:0:0:0:
192,192,33387,1,0,0:0:0:0:
36,192,33387,1,0,0:0:0:0:
320,192,33459,1,0,0:0:0:0:
402,192,33459,1,0,0:0:0:0:
475,192,33459,1,0,0:0:0:0:
109,192,33530,1,0,0:0:0:0:
192,192,33530,1,0,0:0:0:0:
36,192,33530,1,0,0:0:0:0:
320,192,33602,1,0,0:0:0:0:
402,192,33602,1,0,0:0:0:0:
475,192,33602,1,0,0:0:0:0:
109,192,33674,1,0,0:0:0:0:
192,192,33674,1,0,0:0:0:0:
36,192,33674,1,0,0:0:0:0:
320,192,33746,1,0,0:0:0:0:
402,192,33746,1,0,0:0:0:0:
475,192,33746,1,0,0:0:0:0:
109,192,33818,1,0,0:0:0:0:
192,192,33818,1,0,0:0:0:0:
36,192,33818,1,0,0:0:0:0:
320,192,33890,1,0,0:0:0:0:
402,192,33890,1,0,0:0:0:0:
475,192,33890,1,0,0:0:0:0:
109,192,33961,1,0,0:0:0:0:
192,192,33961,1,0,0:0:0:0:
36,192,33961,1,0,0:0:0:0:
320,192,34033,1,0,0:0:0:0:
402,192,34033,1,0,0:0:0:0:
475,192,34033,1,0,0:0:0:0:
109,192,34105,1,0,0:0:0:0:
192,192,34105,1,0,0:0:0:0:
36,192,34105,1,0,0:0:0:0:
320,192,34177,1,0,0:0:0:0:
402,192,34177,1,0,0:0:0:0:
475,192,34177,1,0,0:0:0:0:
109,192,34249,1,0,0:0:0:0:
192,192,34249,1,0,0:0:0:0:
36,192,34249,1,0,0:0:0:0:
320,192,34320,1,0,0:0:0:0:
402,192,34320,1,0,0:0:0:0:
475,192,34320,1,0,0:0:0:0:
109,192,34391,1,0,0:0:0:0:
192,192,34391,1,0,0:0:0:0:
36,192,34391,1,0,0:0:0:0:
320,192,34463,1,0,0:0:0:0:
402,192,34463,1,0,0:0:0:0:
475,192,34463,1,0,0:0:0:0:
109,192,34535,1,0,0:0:0:0:
192,192,34535,1,0,0:0:0:0:
36,192,34535,1,0,0:0:0:0:
320,192,34607,1,0,0:0:0:0:
402,192,34607,1,0,0:0:0:0:
475,192,34607,1,0,0:0:0:0:
109,192,34679,1,0,0:0:0:0:
192,192,34679,1,0,0:0:0:0:
36,192,34679,1,0,0:0:0:0:
320,192,34750,1,0,0:0:0:0:
402,192,34750,1,0,0:0:0:0:
475,192,34750,1,0,0:0:0:0:
109,192,34822,1,0,0:0:0:0:
192,192,34822,1,0,0:0:0:0:
36,192,34822,1,0,0:0:0:0:
320,192,34894,1,0,0:0:0:0:
402,192,34894,1,0,0:0:0:0:
475,192,34894,1,0,0:0:0:0:
109,192,34966,1,0,0:0:0:0:
192,192,34966,1,0,0:0:0:0:
36,192,34966,1,0,0:0:0:0:
320,192,35038,1,0,0:0:0:0:
402,192,35038,1,0,0:0:0:0:
475,192,35038,1,0,0:0:0:0:
109,192,35110,1,0,0:0:0:0:
192,192,35110,1,0,0:0:0:0:
36,192,35110,1,0,0:0:0:0:
320,192,35181,1,0,0:0:0:0:
402,192,35181,1,0,0:0:0:0:
475,192,35181,1,0,0:0:0:0:
320,192,35325,1,0,0:0:0:0:
402,192,35325,1,0,0:0:0:0:
36,192,35325,1,0,0:0:0:0:
109,192,35325,1,0,0:0:0:0:
109,192,35469,1,0,0:0:0:0:
192,192,35469,1,0,0:0:0:0:
402,192,35469,1,0,0:0:0:0:
475,192,35469,1,0,0:0:0:0:
320,192,35612,1,0,0:0:0:0:
402,192,35612,1,0,0:0:0:0:
36,192,35612,1,0,0:0:0:0:
109,192,35612,1,0,0:0:0:0:
109,192,35755,1,0,0:0:0:0:
192,192,35755,1,0,0:0:0:0:
320,192,35755,1,0,0:0:0:0:
402,192,35755,1,0,0:0:0:0:
36,192,35755,1,0,0:0:0:0:
475,192,35755,1,0,0:0:0:0:
256,192,35755,1,0,0:0:0:0:
36,192,35899,1,0,0:0:0:0:
182,192,35899,1,0,0:0:0:0:
329,192,35899,1,0,0:0:0:0:
475,192,35899,1,0,0:0:0:0:
109,192,36042,1,0,0:0:0:0:
192,192,36042,1,0,0:0:0:0:
320,192,36042,1,0,0:0:0:0:
402,192,36042,1,0,0:0:0:0:
256,192,36042,1,0,0:0:0:0:
475,192,36042,1,0,0:0:0:0:
36,192,36186,1,0,0:0:0:0:
109,192,36186,1,0,0:0:0:0:
182,192,36186,1,0,0:0:0:0:
329,192,36186,1,0,0:0:0:0:
109,192,36330,1,0,0:0:0:0:
192,192,36330,1,0,0:0:0:0:
320,192,36330,1,0,0:0:0:0:
402,192,36330,1,0,0:0:0:0:
36,192,36330,1,0,0:0:0:0:
256,192,36330,1,0,0:0:0:0:
36,192,36473,1,0,0:0:0:0:
109,192,36473,1,0,0:0:0:0:
256,192,36473,1,0,0:0:0:0:
475,192,36473,1,0,0:0:0:0:
109,192,36617,1,0,0:0:0:0:
192,192,36617,1,0,0:0:0:0:
320,192,36617,1,0,0:0:0:0:
402,192,36617,1,0,0:0:0:0:
36,192,36617,1,0,0:0:0:0:
475,192,36617,1,0,0:0:0:0:
36,192,36760,1,0,0:0:0:0:
475,192,36760,1,0,0:0:0:0:
402,192,36760,1,0,0:0:0:0:
182,192,36760,1,0,0:0:0:0:
109,192,36904,1,0,0:0:0:0:
192,192,36904,1,0,0:0:0:0:
320,192,36904,1,0,0:0:0:0:
402,192,36904,1,0,0:0:0:0:
36,192,36904,1,0,0:0:0:0:
475,192,36904,1,0,0:0:0:0:
256,192,36904,1,0,0:0:0:0:
36,192,37047,1,0,0:0:0:0:
182,192,37047,1,0,0:0:0:0:
329,192,37047,1,0,0:0:0:0:
475,192,37047,1,0,0:0:0:0:
109,192,37190,1,0,0:0:0:0:
192,192,37190,1,0,0:0:0:0:
320,192,37190,1,0,0:0:0:0:
402,192,37190,1,0,0:0:0:0:
256,192,37190,1,0,0:0:0:0:
475,192,37190,1,0,0:0:0:0:
182,192,37334,1,0,0:0:0:0:
329,192,37334,1,0,0:0:0:0:
402,192,37334,1,0,0:0:0:0:
475,192,37334,1,0,0:0:0:0:
109,192,37478,1,0,0:0:0:0:
192,192,37478,1,0,0:0:0:0:
320,192,37478,1,0,0:0:0:0:
402,192,37478,1,0,0:0:0:0:
36,192,37478,1,0,0:0:0:0:
256,192,37478,1,0,0:0:0:0:
402,192,37621,1,0,0:0:0:0:
36,192,37621,1,0,0:0:0:0:
256,192,37621,1,0,0:0:0:0:
475,192,37621,1,0,0:0:0:0:
109,192,37765,1,0,0:0:0:0:
192,192,37765,1,0,0:0:0:0:
320,192,37765,1,0,0:0:0:0:
402,192,37765,1,0,0:0:0:0:
36,192,37765,1,0,0:0:0:0:
475,192,37765,1,0,0:0:0:0:
36,192,37909,1,0,0:0:0:0:
109,192,37909,1,0,0:0:0:0:
329,192,37909,1,0,0:0:0:0:
475,192,37909,1,0,0:0:0:0:
109,192,38052,1,0,0:0:0:0:
192,192,38052,1,0,0:0:0:0:
320,192,38052,1,0,0:0:0:0:
402,192,38052,1,0,0:0:0:0:
36,192,38052,1,0,0:0:0:0:
475,192,38052,1,0,0:0:0:0:
256,192,38052,1,0,0:0:0:0:
36,192,38196,1,0,0:0:0:0:
182,192,38196,1,0,0:0:0:0:
329,192,38196,1,0,0:0:0:0:
475,192,38196,1,0,0:0:0:0:
109,192,38340,1,0,0:0:0:0:
192,192,38340,1,0,0:0:0:0:
320,192,38340,1,0,0:0:0:0:
402,192,38340,1,0,0:0:0:0:
256,192,38340,1,0,0:0:0:0:
475,192,38340,1,0,0:0:0:0:
475,192,38482,1,0,0:0:0:0:
402,192,38482,1,0,0:0:0:0:
36,192,38482,1,0,0:0:0:0:
109,192,38482,1,0,0:0:0:0:
109,192,38626,1,0,0:0:0:0:
192,192,38626,1,0,0:0:0:0:
320,192,38626,1,0,0:0:0:0:
402,192,38626,1,0,0:0:0:0:
256,192,38626,1,0,0:0:0:0:
36,192,38626,1,0,0:0:0:0:
36,192,38770,1,0,0:0:0:0:
329,192,38770,1,0,0:0:0:0:
402,192,38770,1,0,0:0:0:0:
475,192,38770,1,0,0:0:0:0:
109,192,38913,1,0,0:0:0:0:
192,192,38913,1,0,0:0:0:0:
320,192,38913,1,0,0:0:0:0:
402,192,38913,1,0,0:0:0:0:
36,192,38913,1,0,0:0:0:0:
475,192,38913,1,0,0:0:0:0:
402,192,39057,1,0,0:0:0:0:
256,192,39057,1,0,0:0:0:0:
329,192,39057,1,0,0:0:0:0:
475,192,39057,1,0,0:0:0:0:
109,192,39200,1,0,0:0:0:0:
192,192,39200,1,0,0:0:0:0:
320,192,39200,1,0,0:0:0:0:
402,192,39200,1,0,0:0:0:0:
256,192,39200,1,0,0:0:0:0:
36,192,39200,1,0,0:0:0:0:
475,192,39200,1,0,0:0:0:0:
36,192,39344,1,0,0:0:0:0:
182,192,39344,1,0,0:0:0:0:
329,192,39344,1,0,0:0:0:0:
475,192,39344,1,0,0:0:0:0:
109,192,39488,1,0,0:0:0:0:
192,192,39488,1,0,0:0:0:0:
320,192,39488,1,0,0:0:0:0:
402,192,39488,1,0,0:0:0:0:
475,192,39488,1,0,0:0:0:0:
36,192,39488,1,0,0:0:0:0:
36,192,39631,1,0,0:0:0:0:
109,192,39631,1,0,0:0:0:0:
402,192,39631,1,0,0:0:0:0:
475,192,39631,1,0,0:0:0:0:
109,192,39774,1,0,0:0:0:0:
192,192,39774,1,0,0:0:0:0:
320,192,39774,1,0,0:0:0:0:
402,192,39774,1,0,0:0:0:0:
256,192,39774,1,0,0:0:0:0:
192,192,39918,1,0,0:0:0:0:
36,192,39918,1,0,0:0:0:0:
109,192,39918,1,0,0:0:0:0:
475,192,39918,1,0,0:0:0:0:
109,192,40061,1,0,0:0:0:0:
192,192,40061,1,0,0:0:0:0:
320,192,40061,1,0,0:0:0:0:
402,192,40061,1,0,0:0:0:0:
475,192,40061,1,0,0:0:0:0:
36,192,40061,1,0,0:0:0:0:
109,192,40205,1,0,0:0:0:0:
192,192,40205,1,0,0:0:0:0:
36,192,40205,1,0,0:0:0:0:
256,192,40205,1,0,0:0:0:0:
109,192,40349,1,0,0:0:0:0:
192,192,40349,1,0,0:0:0:0:
320,192,40349,1,0,0:0:0:0:
402,192,40349,1,0,0:0:0:0:
256,192,40349,1,0,0:0:0:0:
36,192,40349,1,0,0:0:0:0:
475,192,40349,1,0,0:0:0:0:
36,192,40492,1,0,0:0:0:0:
329,192,40492,1,0,0:0:0:0:
402,192,40492,1,0,0:0:0:0:
475,192,40492,1,0,0:0:0:0:
109,192,40636,1,0,0:0:0:0:
192,192,40636,1,0,0:0:0:0:
320,192,40636,1,0,0:0:0:0:
402,192,40636,1,0,0:0:0:0:
256,192,40636,1,0,0:0:0:0:
475,192,40636,1,0,0:0:0:0:
109,192,40780,1,0,0:0:0:0:
182,192,40780,1,0,0:0:0:0:
475,192,40780,1,0,0:0:0:0:
36,192,40780,1,0,0:0:0:0:
109,192,40923,1,0,0:0:0:0:
192,192,40923,1,0,0:0:0:0:
320,192,40923,1,0,0:0:0:0:
402,192,40923,1,0,0:0:0:0:
36,192,40923,1,0,0:0:0:0:
256,192,40923,1,0,0:0:0:0:
36,192,41067,1,0,0:0:0:0:
182,192,41067,1,0,0:0:0:0:
256,192,41067,1,0,0:0:0:0:
329,192,41067,1,0,0:0:0:0:
109,192,41210,1,0,0:0:0:0:
192,192,41210,1,0,0:0:0:0:
320,192,41210,1,0,0:0:0:0:
402,192,41210,1,0,0:0:0:0:
36,192,41210,1,0,0:0:0:0:
475,192,41210,1,0,0:0:0:0:
320,192,41353,1,0,0:0:0:0:
256,192,41353,1,0,0:0:0:0:
182,192,41353,1,0,0:0:0:0:
475,192,41353,1,0,0:0:0:0:
192,192,41497,1,0,0:0:0:0:
320,192,41497,1,0,0:0:0:0:
402,192,41497,1,0,0:0:0:0:
256,192,41497,1,0,0:0:0:0:
109,192,41497,1,0,0:0:0:0:
475,192,41497,1,0,0:0:0:0:
36,192,41497,1,0,0:0:0:0:
36,192,41640,1,0,0:0:0:0:
182,192,41640,1,0,0:0:0:0:
329,192,41640,1,0,0:0:0:0:
402,192,41640,1,0,0:0:0:0:
109,192,41784,1,0,0:0:0:0:
192,192,41784,1,0,0:0:0:0:
320,192,41784,1,0,0:0:0:0:
402,192,41784,1,0,0:0:0:0:
256,192,41784,1,0,0:0:0:0:
475,192,41784,1,0,0:0:0:0:
182,192,41928,1,0,0:0:0:0:
109,192,41928,1,0,0:0:0:0:
329,192,41928,1,0,0:0:0:0:
475,192,41928,1,0,0:0:0:0:
109,192,42071,1,0,0:0:0:0:
192,192,42071,1,0,0:0:0:0:
320,192,42071,1,0,0:0:0:0:
402,192,42071,1,0,0:0:0:0:
36,192,42071,1,0,0:0:0:0:
256,192,42071,1,0,0:0:0:0:
36,192,42215,1,0,0:0:0:0:
329,192,42215,1,0,0:0:0:0:
402,192,42215,1,0,0:0:0:0:
475,192,42215,1,0,0:0:0:0:
109,192,42359,1,0,0:0:0:0:
192,192,42359,1,0,0:0:0:0:
320,192,42359,1,0,0:0:0:0:
402,192,42359,1,0,0:0:0:0:
36,192,42359,1,0,0:0:0:0:
475,192,42359,1,0,0:0:0:0:
36,192,42501,1,0,0:0:0:0:
329,192,42501,1,0,0:0:0:0:
402,192,42501,1,0,0:0:0:0:
475,192,42501,1,0,0:0:0:0:
256,192,42501,1,0,0:0:0:0:
109,192,42645,1,0,0:0:0:0:
192,192,42645,1,0,0:0:0:0:
320,192,42645,1,0,0:0:0:0:
402,192,42645,1,0,0:0:0:0:
256,192,42645,1,0,0:0:0:0:
36,192,42645,1,0,0:0:0:0:
475,192,42645,1,0,0:0:0:0:
109,192,42789,1,0,0:0:0:0:
256,192,42789,1,0,0:0:0:0:
402,192,42789,1,0,0:0:0:0:
475,192,42789,1,0,0:0:0:0:
109,192,42932,1,0,0:0:0:0:
192,192,42932,1,0,0:0:0:0:
320,192,42932,1,0,0:0:0:0:
402,192,42932,1,0,0:0:0:0:
256,192,42932,1,0,0:0:0:0:
475,192,42932,1,0,0:0:0:0:
402,192,43076,1,0,0:0:0:0:
329,192,43076,1,0,0:0:0:0:
182,192,43076,1,0,0:0:0:0:
36,192,43076,1,0,0:0:0:0:
109,192,43220,1,0,0:0:0:0:
192,192,43220,1,0,0:0:0:0:
320,192,43220,1,0,0:0:0:0:
402,192,43220,1,0,0:0:0:0:
36,192,43220,1,0,0:0:0:0:
256,192,43220,1,0,0:0:0:0:
329,192,43363,1,0,0:0:0:0:
256,192,43363,1,0,0:0:0:0:
109,192,43363,1,0,0:0:0:0:
475,192,43363,1,0,0:0:0:0:
109,192,43507,1,0,0:0:0:0:
192,192,43507,1,0,0:0:0:0:
320,192,43507,1,0,0:0:0:0:
402,192,43507,1,0,0:0:0:0:
36,192,43507,1,0,0:0:0:0:
475,192,43507,1,0,0:0:0:0:
182,192,43650,1,0,0:0:0:0:
256,192,43650,1,0,0:0:0:0:
402,192,43650,1,0,0:0:0:0:
475,192,43650,1,0,0:0:0:0:
109,192,43794,1,0,0:0:0:0:
192,192,43794,1,0,0:0:0:0:
320,192,43794,1,0,0:0:0:0:
402,192,43794,1,0,0:0:0:0:
475,192,43794,1,0,0:0:0:0:
256,192,43794,1,0,0:0:0:0:
36,192,43794,1,0,0:0:0:0:
36,192,43937,1,0,0:0:0:0:
182,192,43937,1,0,0:0:0:0:
329,192,43937,1,0,0:0:0:0:
475,192,43937,1,0,0:0:0:0:
109,192,44080,1,0,0:0:0:0:
192,192,44080,1,0,0:0:0:0:
320,192,44080,1,0,0:0:0:0:
402,192,44080,1,0,0:0:0:0:
475,192,44080,1,0,0:0:0:0:
256,192,44080,1,0,0:0:0:0:
109,192,44224,1,0,0:0:0:0:
256,192,44224,1,0,0:0:0:0:
402,192,44224,1,0,0:0:0:0:
109,192,44368,1,0,0:0:0:0:
192,192,44368,1,0,0:0:0:0:
320,192,44368,1,0,0:0:0:0:
402,192,44368,1,0,0:0:0:0:
36,192,44368,1,0,0:0:0:0:
256,192,44368,1,0,0:0:0:0:
36,192,44511,1,0,0:0:0:0:
182,192,44511,1,0,0:0:0:0:
329,192,44511,1,0,0:0:0:0:
475,192,44511,1,0,0:0:0:0:
109,192,44655,1,0,0:0:0:0:
192,192,44655,1,0,0:0:0:0:
320,192,44655,1,0,0:0:0:0:
402,192,44655,1,0,0:0:0:0:
475,192,44655,1,0,0:0:0:0:
256,192,44655,1,0,0:0:0:0:
402,192,44799,1,0,0:0:0:0:
109,192,44799,1,0,0:0:0:0:
256,192,44799,1,0,0:0:0:0:
109,192,44942,1,0,0:0:0:0:
192,192,44942,1,0,0:0:0:0:
320,192,44942,1,0,0:0:0:0:
402,192,44942,1,0,0:0:0:0:
36,192,44942,1,0,0:0:0:0:
256,192,44942,1,0,0:0:0:0:
475,192,44942,1,0,0:0:0:0:
475,192,45086,1,0,0:0:0:0:
329,192,45086,1,0,0:0:0:0:
182,192,45086,1,0,0:0:0:0:
36,192,45086,1,0,0:0:0:0:
402,192,45229,1,0,0:0:0:0:
329,192,45229,1,0,0:0:0:0:
182,192,45229,1,0,0:0:0:0:
109,192,45229,1,0,0:0:0:0:
256,192,45229,1,0,0:0:0:0:
36,192,45229,1,0,0:0:0:0:
475,192,45372,1,0,0:0:0:0:
402,192,45372,1,0,0:0:0:0:
329,192,45372,1,0,0:0:0:0:
182,192,45372,1,0,0:0:0:0:
402,192,45516,1,0,0:0:0:0:
329,192,45516,1,0,0:0:0:0:
182,192,45516,1,0,0:0:0:0:
109,192,45516,1,0,0:0:0:0:
475,192,45516,1,0,0:0:0:0:
256,192,45516,1,0,0:0:0:0:
475,192,45660,1,0,0:0:0:0:
402,192,45660,1,0,0:0:0:0:
256,192,45660,1,0,0:0:0:0:
36,192,45660,1,0,0:0:0:0:
402,192,45803,1,0,0:0:0:0:
329,192,45803,1,0,0:0:0:0:
182,192,45803,1,0,0:0:0:0:
109,192,45803,1,0,0:0:0:0:
475,192,45803,1,0,0:0:0:0:
36,192,45803,1,0,0:0:0:0:
475,192,45947,1,0,0:0:0:0:
36,192,45947,1,0,0:0:0:0:
109,192,45947,1,0,0:0:0:0:
329,192,45947,1,0,0:0:0:0:
402,192,46090,1,0,0:0:0:0:
329,192,46090,1,0,0:0:0:0:
182,192,46090,1,0,0:0:0:0:
109,192,46090,1,0,0:0:0:0:
475,192,46090,1,0,0:0:0:0:
36,192,46090,1,0,0:0:0:0:
256,192,46090,1,0,0:0:0:0:
475,192,46234,1,0,0:0:0:0:
329,192,46234,1,0,0:0:0:0:
182,192,46234,1,0,0:0:0:0:
36,192,46234,1,0,0:0:0:0:
402,192,46378,1,0,0:0:0:0:
329,192,46378,1,0,0:0:0:0:
182,192,46378,1,0,0:0:0:0:
109,192,46378,1,0,0:0:0:0:
256,192,46378,1,0,0:0:0:0:
36,192,46378,1,0,0:0:0:0:
329,192,46521,1,0,0:0:0:0:
182,192,46521,1,0,0:0:0:0:
109,192,46521,1,0,0:0:0:0:
36,192,46521,1,0,0:0:0:0:
402,192,46664,1,0,0:0:0:0:
329,192,46664,1,0,0:0:0:0:
182,192,46664,1,0,0:0:0:0:
109,192,46664,1,0,0:0:0:0:
475,192,46664,1,0,0:0:0:0:
256,192,46664,1,0,0:0:0:0:
109,192,46808,1,0,0:0:0:0:
475,192,46808,1,0,0:0:0:0:
256,192,46808,1,0,0:0:0:0:
36,192,46808,1,0,0:0:0:0:
402,192,46951,1,0,0:0:0:0:
329,192,46951,1,0,0:0:0:0:
182,192,46951,1,0,0:0:0:0:
109,192,46951,1,0,0:0:0:0:
475,192,46951,1,0,0:0:0:0:
36,192,46951,1,0,0:0:0:0:
475,192,47095,1,0,0:0:0:0:
402,192,47095,1,0,0:0:0:0:
182,192,47095,1,0,0:0:0:0:
36,192,47095,1,0,0:0:0:0:
402,192,47239,1,0,0:0:0:0:
329,192,47239,1,0,0:0:0:0:
182,192,47239,1,0,0:0:0:0:
109,192,47239,1,0,0:0:0:0:
475,192,47239,1,0,0:0:0:0:
36,192,47239,1,0,0:0:0:0:
256,192,47239,1,0,0:0:0:0:
475,192,47382,1,0,0:0:0:0:
329,192,47382,1,0,0:0:0:0:
182,192,47382,1,0,0:0:0:0:
36,192,47382,1,0,0:0:0:0:
402,192,47526,1,0,0:0:0:0:
329,192,47526,1,0,0:0:0:0:
182,192,47526,1,0,0:0:0:0:
109,192,47526,1,0,0:0:0:0:
256,192,47526,1,0,0:0:0:0:
36,192,47526,1,0,0:0:0:0:
36,192,47670,1,0,0:0:0:0:
109,192,47670,1,0,0:0:0:0:
475,192,47670,1,0,0:0:0:0:
402,192,47670,1,0,0:0:0:0:
402,192,47813,1,0,0:0:0:0:
329,192,47813,1,0,0:0:0:0:
182,192,47813,1,0,0:0:0:0:
109,192,47813,1,0,0:0:0:0:
256,192,47813,1,0,0:0:0:0:
475,192,47813,1,0,0:0:0:0:
475,192,47956,1,0,0:0:0:0:
182,192,47956,1,0,0:0:0:0:
109,192,47956,1,0,0:0:0:0:
36,192,47956,1,0,0:0:0:0:
402,192,48100,1,0,0:0:0:0:
329,192,48100,1,0,0:0:0:0:
182,192,48100,1,0,0:0:0:0:
109,192,48100,1,0,0:0:0:0:
475,192,48100,1,0,0:0:0:0:
36,192,48100,1,0,0:0:0:0:
109,192,48243,1,0,0:0:0:0:
256,192,48243,1,0,0:0:0:0:
182,192,48243,1,0,0:0:0:0:
36,192,48243,1,0,0:0:0:0:
402,192,48387,1,0,0:0:0:0:
329,192,48387,1,0,0:0:0:0:
182,192,48387,1,0,0:0:0:0:
109,192,48387,1,0,0:0:0:0:
256,192,48387,1,0,0:0:0:0:
475,192,48387,1,0,0:0:0:0:
36,192,48387,1,0,0:0:0:0:
475,192,48530,1,0,0:0:0:0:
329,192,48530,1,0,0:0:0:0:
182,192,48530,1,0,0:0:0:0:
36,192,48530,1,0,0:0:0:0:
402,192,48674,1,0,0:0:0:0:
329,192,48674,1,0,0:0:0:0:
182,192,48674,1,0,0:0:0:0:
109,192,48674,1,0,0:0:0:0:
36,192,48674,1,0,0:0:0:0:
475,192,48674,1,0,0:0:0:0:
475,192,48818,1,0,0:0:0:0:
402,192,48818,1,0,0:0:0:0:
109,192,48818,1,0,0:0:0:0:
36,192,48818,1,0,0:0:0:0:
402,192,48961,1,0,0:0:0:0:
329,192,48961,1,0,0:0:0:0:
182,192,48961,1,0,0:0:0:0:
109,192,48961,1,0,0:0:0:0:
256,192,48961,1,0,0:0:0:0:
329,192,49105,1,0,0:0:0:0:
475,192,49105,1,0,0:0:0:0:
402,192,49105,1,0,0:0:0:0:
36,192,49105,1,0,0:0:0:0:
402,192,49249,1,0,0:0:0:0:
329,192,49249,1,0,0:0:0:0:
182,192,49249,1,0,0:0:0:0:
109,192,49249,1,0,0:0:0:0:
36,192,49249,1,0,0:0:0:0:
475,192,49249,1,0,0:0:0:0:
402,192,49391,1,0,0:0:0:0:
329,192,49391,1,0,0:0:0:0:
475,192,49391,1,0,0:0:0:0:
256,192,49391,1,0,0:0:0:0:
402,192,49535,1,0,0:0:0:0:
329,192,49535,1,0,0:0:0:0:
182,192,49535,1,0,0:0:0:0:
109,192,49535,1,0,0:0:0:0:
256,192,49535,1,0,0:0:0:0:
475,192,49535,1,0,0:0:0:0:
36,192,49535,1,0,0:0:0:0:
475,192,49679,1,0,0:0:0:0:
182,192,49679,1,0,0:0:0:0:
109,192,49679,1,0,0:0:0:0:
36,192,49679,1,0,0:0:0:0:
402,192,49822,1,0,0:0:0:0:
329,192,49822,1,0,0:0:0:0:
182,192,49822,1,0,0:0:0:0:
109,192,49822,1,0,0:0:0:0:
256,192,49822,1,0,0:0:0:0:
36,192,49822,1,0,0:0:0:0:
402,192,49966,1,0,0:0:0:0:
329,192,49966,1,0,0:0:0:0:
36,192,49966,1,0,0:0:0:0:
475,192,49966,1,0,0:0:0:0:
402,192,50110,1,0,0:0:0:0:
329,192,50110,1,0,0:0:0:0:
182,192,50110,1,0,0:0:0:0:
109,192,50110,1,0,0:0:0:0:
475,192,50110,1,0,0:0:0:0:
256,192,50110,1,0,0:0:0:0:
475,192,50253,1,0,0:0:0:0:
329,192,50253,1,0,0:0:0:0:
256,192,50253,1,0,0:0:0:0:
182,192,50253,1,0,0:0:0:0:
402,192,50397,1,0,0:0:0:0:
329,192,50397,1,0,0:0:0:0:
182,192,50397,1,0,0:0:0:0:
109,192,50397,1,0,0:0:0:0:
475,192,50397,1,0,0:0:0:0:
36,192,50397,1,0,0:0:0:0:
182,192,50540,1,0,0:0:0:0:
256,192,50540,1,0,0:0:0:0:
329,192,50540,1,0,0:0:0:0:
36,192,50540,1,0,0:0:0:0:
329,192,50683,1,0,0:0:0:0:
182,192,50683,1,0,0:0:0:0:
109,192,50683,1,0,0:0:0:0:
256,192,50683,1,0,0:0:0:0:
402,192,50683,1,0,0:0:0:0:
36,192,50683,1,0,0:0:0:0:
475,192,50683,1,0,0:0:0:0:
475,192,50827,1,0,0:0:0:0:
329,192,50827,1,0,0:0:0:0:
182,192,50827,1,0,0:0:0:0:
109,192,50827,1,0,0:0:0:0:
402,192,50970,1,0,0:0:0:0:
329,192,50970,1,0,0:0:0:0:
182,192,50970,1,0,0:0:0:0:
109,192,50970,1,0,0:0:0:0:
256,192,50970,1,0,0:0:0:0:
36,192,50970,1,0,0:0:0:0:
329,192,51114,1,0,0:0:0:0:
402,192,51114,1,0,0:0:0:0:
182,192,51114,1,0,0:0:0:0:
36,192,51114,1,0,0:0:0:0:
402,192,51258,1,0,0:0:0:0:
329,192,51258,1,0,0:0:0:0:
182,192,51258,1,0,0:0:0:0:
109,192,51258,1,0,0:0:0:0:
475,192,51258,1,0,0:0:0:0:
256,192,51258,1,0,0:0:0:0:
475,192,51401,1,0,0:0:0:0:
182,192,51401,1,0,0:0:0:0:
109,192,51401,1,0,0:0:0:0:
36,192,51401,1,0,0:0:0:0:
402,192,51545,1,0,0:0:0:0:
329,192,51545,1,0,0:0:0:0:
182,192,51545,1,0,0:0:0:0:
109,192,51545,1,0,0:0:0:0:
475,192,51545,1,0,0:0:0:0:
36,192,51545,1,0,0:0:0:0:
475,192,51689,1,0,0:0:0:0:
182,192,51689,1,0,0:0:0:0:
109,192,51689,1,0,0:0:0:0:
36,192,51689,1,0,0:0:0:0:
256,192,51689,1,0,0:0:0:0:
402,192,51832,1,0,0:0:0:0:
329,192,51832,1,0,0:0:0:0:
182,192,51832,1,0,0:0:0:0:
109,192,51832,1,0,0:0:0:0:
256,192,51832,1,0,0:0:0:0:
475,192,51832,1,0,0:0:0:0:
36,192,51832,1,0,0:0:0:0:
402,192,51976,1,0,0:0:0:0:
256,192,51976,1,0,0:0:0:0:
109,192,51976,1,0,0:0:0:0:
36,192,51976,1,0,0:0:0:0:
402,192,52119,1,0,0:0:0:0:
329,192,52119,1,0,0:0:0:0:
182,192,52119,1,0,0:0:0:0:
109,192,52119,1,0,0:0:0:0:
256,192,52119,1,0,0:0:0:0:
36,192,52119,1,0,0:0:0:0:
109,192,52262,1,0,0:0:0:0:
182,192,52262,1,0,0:0:0:0:
329,192,52262,1,0,0:0:0:0:
475,192,52262,1,0,0:0:0:0:
402,192,52406,1,0,0:0:0:0:
329,192,52406,1,0,0:0:0:0:
182,192,52406,1,0,0:0:0:0:
109,192,52406,1,0,0:0:0:0:
475,192,52406,1,0,0:0:0:0:
256,192,52406,1,0,0:0:0:0:
182,192,52550,1,0,0:0:0:0:
256,192,52550,1,0,0:0:0:0:
402,192,52550,1,0,0:0:0:0:
36,192,52550,1,0,0:0:0:0:
402,192,52693,1,0,0:0:0:0:
329,192,52693,1,0,0:0:0:0:
182,192,52693,1,0,0:0:0:0:
109,192,52693,1,0,0:0:0:0:
475,192,52693,1,0,0:0:0:0:
36,192,52693,1,0,0:0:0:0:
329,192,52837,1,0,0:0:0:0:
256,192,52837,1,0,0:0:0:0:
109,192,52837,1,0,0:0:0:0:
36,192,52837,1,0,0:0:0:0:
36,192,52980,1,0,0:0:0:0:
109,192,52980,1,0,0:0:0:0:
256,192,52980,1,0,0:0:0:0:
182,192,52980,1,0,0:0:0:0:
329,192,52980,1,0,0:0:0:0:
475,192,52980,1,0,0:0:0:0:
402,192,52980,1,0,0:0:0:0:
109,192,53268,1,0,0:0:0:0:
256,192,53268,1,0,0:0:0:0:
402,192,53268,1,0,0:0:0:0:
329,192,53340,1,0,0:0:0:0:
182,192,53340,1,0,0:0:0:0:
109,192,53410,1,0,0:0:0:0:
256,192,53410,1,0,0:0:0:0:
402,192,53410,1,0,0:0:0:0:
182,192,53482,1,0,0:0:0:0:
329,192,53482,1,0,0:0:0:0:
36,192,53554,1,0,0:0:0:0:
475,192,53554,1,0,0:0:0:0:
109,192,53554,1,0,0:0:0:0:
402,192,53554,1,0,0:0:0:0:
182,192,53698,1,0,0:0:0:0:
256,192,53698,1,0,0:0:0:0:
329,192,53698,1,0,0:0:0:0:
36,192,53841,1,0,0:0:0:0:
109,192,53841,1,0,0:0:0:0:
402,192,53841,1,0,0:0:0:0:
475,192,53841,1,0,0:0:0:0:
256,192,53841,1,0,0:0:0:0:
109,192,54129,1,0,0:0:0:0:
192,192,54129,1,0,0:0:0:0:
320,192,54129,1,0,0:0:0:0:
402,192,54129,1,0,0:0:0:0:
36,192,54129,1,0,0:0:0:0:
256,192,54129,1,0,0:0:0:0:
320,192,54272,1,0,0:0:0:0:
182,192,54272,1,0,0:0:0:0:
109,192,54416,1,0,0:0:0:0:
192,192,54416,1,0,0:0:0:0:
320,192,54416,1,0,0:0:0:0:
36,192,54416,1,0,0:0:0:0:
256,192,54416,1,0,0:0:0:0:
475,192,54416,1,0,0:0:0:0:
192,192,54560,1,0,0:0:0:0:
36,192,54560,1,0,0:0:0:0:
109,192,54703,1,0,0:0:0:0:
192,192,54703,1,0,0:0:0:0:
402,192,54703,1,0,0:0:0:0:
36,192,54703,1,0,0:0:0:0:
475,192,54703,1,0,0:0:0:0:
256,192,54703,1,0,0:0:0:0:
109,192,54846,1,0,0:0:0:0:
182,192,54846,1,0,0:0:0:0:
109,192,54990,1,0,0:0:0:0:
192,192,54990,1,0,0:0:0:0:
320,192,54990,1,0,0:0:0:0:
402,192,54990,1,0,0:0:0:0:
36,192,54990,1,0,0:0:0:0:
475,192,54990,1,0,0:0:0:0:
402,192,55133,1,0,0:0:0:0:
329,192,55133,1,0,0:0:0:0:
109,192,55277,1,0,0:0:0:0:
320,192,55277,1,0,0:0:0:0:
402,192,55277,1,0,0:0:0:0:
36,192,55277,1,0,0:0:0:0:
256,192,55277,1,0,0:0:0:0:
475,192,55277,1,0,0:0:0:0:
192,192,55420,1,0,0:0:0:0:
36,192,55420,1,0,0:0:0:0:
192,192,55564,1,0,0:0:0:0:
320,192,55564,1,0,0:0:0:0:
402,192,55564,1,0,0:0:0:0:
36,192,55564,1,0,0:0:0:0:
256,192,55564,1,0,0:0:0:0:
475,192,55564,1,0,0:0:0:0:
192,192,55708,1,0,0:0:0:0:
329,192,55708,1,0,0:0:0:0:
109,192,55851,1,0,0:0:0:0:
192,192,55851,1,0,0:0:0:0:
320,192,55851,1,0,0:0:0:0:
402,192,55851,1,0,0:0:0:0:
256,192,55851,1,0,0:0:0:0:
475,192,55851,1,0,0:0:0:0:
109,192,55995,1,0,0:0:0:0:
182,192,55995,1,0,0:0:0:0:
402,192,56138,1,0,0:0:0:0:
36,192,56138,1,0,0:0:0:0:
329,192,56138,1,0,0:0:0:0:
475,192,56138,1,0,0:0:0:0:
182,192,56138,1,0,0:0:0:0:
256,192,56138,1,0,0:0:0:0:
402,192,56281,1,0,0:0:0:0:
475,192,56281,1,0,0:0:0:0:
109,192,56425,1,0,0:0:0:0:
320,192,56425,1,0,0:0:0:0:
402,192,56425,1,0,0:0:0:0:
36,192,56425,1,0,0:0:0:0:
256,192,56425,1,0,0:0:0:0:
475,192,56425,1,0,0:0:0:0:
320,192,56569,1,0,0:0:0:0:
475,192,56569,1,0,0:0:0:0:
109,192,56712,1,0,0:0:0:0:
192,192,56712,1,0,0:0:0:0:
320,192,56712,1,0,0:0:0:0:
402,192,56712,1,0,0:0:0:0:
36,192,56712,1,0,0:0:0:0:
475,192,56712,1,0,0:0:0:0:
192,192,56856,1,0,0:0:0:0:
36,192,56856,1,0,0:0:0:0:
109,192,57000,1,0,0:0:0:0:
192,192,57000,1,0,0:0:0:0:
402,192,57000,1,0,0:0:0:0:
36,192,57000,1,0,0:0:0:0:
256,192,57000,1,0,0:0:0:0:
475,192,57000,1,0,0:0:0:0:
320,192,57143,1,0,0:0:0:0:
109,192,57143,1,0,0:0:0:0:
109,192,57287,1,0,0:0:0:0:
192,192,57287,1,0,0:0:0:0:
320,192,57287,1,0,0:0:0:0:
36,192,57287,1,0,0:0:0:0:
256,192,57287,1,0,0:0:0:0:
475,192,57287,1,0,0:0:0:0:
182,192,57430,1,0,0:0:0:0:
256,192,57430,1,0,0:0:0:0:
109,192,57573,1,0,0:0:0:0:
192,192,57573,1,0,0:0:0:0:
320,192,57573,1,0,0:0:0:0:
402,192,57573,1,0,0:0:0:0:
36,192,57573,1,0,0:0:0:0:
256,192,57573,1,0,0:0:0:0:
109,192,57717,1,0,0:0:0:0:
36,192,57717,1,0,0:0:0:0:
109,192,57860,1,0,0:0:0:0:
192,192,57860,1,0,0:0:0:0:
320,192,57860,1,0,0:0:0:0:
36,192,57860,1,0,0:0:0:0:
256,192,57860,1,0,0:0:0:0:
475,192,57860,1,0,0:0:0:0:
402,192,58004,1,0,0:0:0:0:
475,192,58004,1,0,0:0:0:0:
109,192,58148,1,0,0:0:0:0:
192,192,58148,1,0,0:0:0:0:
402,192,58148,1,0,0:0:0:0:
36,192,58148,1,0,0:0:0:0:
256,192,58148,1,0,0:0:0:0:
475,192,58148,1,0,0:0:0:0:
36,192,58291,1,0,0:0:0:0:
182,192,58291,1,0,0:0:0:0:
109,192,58435,1,0,0:0:0:0:
192,192,58435,1,0,0:0:0:0:
320,192,58435,1,0,0:0:0:0:
402,192,58435,1,0,0:0:0:0:
36,192,58435,1,0,0:0:0:0:
475,192,58435,1,0,0:0:0:0:
320,192,58579,1,0,0:0:0:0:
475,192,58579,1,0,0:0:0:0:
109,192,58722,1,0,0:0:0:0:
320,192,58722,1,0,0:0:0:0:
402,192,58722,1,0,0:0:0:0:
36,192,58722,1,0,0:0:0:0:
256,192,58722,1,0,0:0:0:0:
475,192,58722,1,0,0:0:0:0:
402,192,58865,1,0,0:0:0:0:
475,192,58865,1,0,0:0:0:0:
192,192,59009,1,0,0:0:0:0:
320,192,59009,1,0,0:0:0:0:
402,192,59009,1,0,0:0:0:0:
36,192,59009,1,0,0:0:0:0:
256,192,59009,1,0,0:0:0:0:
475,192,59009,1,0,0:0:0:0:
320,192,59152,1,0,0:0:0:0:
256,192,59152,1,0,0:0:0:0:
109,192,59296,1,0,0:0:0:0:
192,192,59296,1,0,0:0:0:0:
320,192,59296,1,0,0:0:0:0:
402,192,59296,1,0,0:0:0:0:
256,192,59296,1,0,0:0:0:0:
475,192,59296,1,0,0:0:0:0:
109,192,59440,1,0,0:0:0:0:
182,192,59440,1,0,0:0:0:0:
192,192,59583,1,0,0:0:0:0:
320,192,59583,1,0,0:0:0:0:
402,192,59583,1,0,0:0:0:0:
36,192,59583,1,0,0:0:0:0:
256,192,59583,1,0,0:0:0:0:
475,192,59583,1,0,0:0:0:0:
256,192,59727,1,0,0:0:0:0:
329,192,59727,1,0,0:0:0:0:
109,192,59870,1,0,0:0:0:0:
320,192,59870,1,0,0:0:0:0:
402,192,59870,1,0,0:0:0:0:
36,192,59870,1,0,0:0:0:0:
256,192,59870,1,0,0:0:0:0:
475,192,59870,1,0,0:0:0:0:
329,192,60014,1,0,0:0:0:0:
475,192,60014,1,0,0:0:0:0:
109,192,60158,1,0,0:0:0:0:
192,192,60158,1,0,0:0:0:0:
320,192,60158,1,0,0:0:0:0:
402,192,60158,1,0,0:0:0:0:
36,192,60158,1,0,0:0:0:0:
475,192,60158,1,0,0:0:0:0:
36,192,60300,1,0,0:0:0:0:
182,192,60300,1,0,0:0:0:0:
109,192,60444,1,0,0:0:0:0:
192,192,60444,1,0,0:0:0:0:
402,192,60444,1,0,0:0:0:0:
36,192,60444,1,0,0:0:0:0:
256,192,60444,1,0,0:0:0:0:
475,192,60444,1,0,0:0:0:0:
109,192,60588,1,0,0:0:0:0:
256,192,60588,1,0,0:0:0:0:
109,192,60731,1,0,0:0:0:0:
192,192,60731,1,0,0:0:0:0:
320,192,60731,1,0,0:0:0:0:
36,192,60731,1,0,0:0:0:0:
256,192,60731,1,0,0:0:0:0:
475,192,60731,1,0,0:0:0:0:
182,192,60875,1,0,0:0:0:0:
329,192,60875,1,0,0:0:0:0:
109,192,61019,1,0,0:0:0:0:
192,192,61019,1,0,0:0:0:0:
320,192,61019,1,0,0:0:0:0:
402,192,61019,1,0,0:0:0:0:
36,192,61019,1,0,0:0:0:0:
256,192,61019,1,0,0:0:0:0:
36,192,61162,1,0,0:0:0:0:
256,192,61162,1,0,0:0:0:0:
109,192,61306,1,0,0:0:0:0:
192,192,61306,1,0,0:0:0:0:
320,192,61306,1,0,0:0:0:0:
36,192,61306,1,0,0:0:0:0:
256,192,61306,1,0,0:0:0:0:
475,192,61306,1,0,0:0:0:0:
329,192,61450,1,0,0:0:0:0:
109,192,61450,1,0,0:0:0:0:
109,192,61592,1,0,0:0:0:0:
192,192,61592,1,0,0:0:0:0:
402,192,61592,1,0,0:0:0:0:
36,192,61592,1,0,0:0:0:0:
256,192,61592,1,0,0:0:0:0:
475,192,61592,1,0,0:0:0:0:
402,192,61736,1,0,0:0:0:0:
182,192,61736,1,0,0:0:0:0:
109,192,61880,1,0,0:0:0:0:
192,192,61880,1,0,0:0:0:0:
320,192,61880,1,0,0:0:0:0:
402,192,61880,1,0,0:0:0:0:
36,192,61880,1,0,0:0:0:0:
475,192,61880,1,0,0:0:0:0:
109,192,62023,1,0,0:0:0:0:
329,192,62023,1,0,0:0:0:0:
109,192,62167,1,0,0:0:0:0:
320,192,62167,1,0,0:0:0:0:
402,192,62167,1,0,0:0:0:0:
36,192,62167,1,0,0:0:0:0:
256,192,62167,1,0,0:0:0:0:
475,192,62167,1,0,0:0:0:0:
402,192,62310,1,0,0:0:0:0:
475,192,62310,1,0,0:0:0:0:
192,192,62454,1,0,0:0:0:0:
320,192,62454,1,0,0:0:0:0:
402,192,62454,1,0,0:0:0:0:
36,192,62454,1,0,0:0:0:0:
256,192,62454,1,0,0:0:0:0:
475,192,62454,1,0,0:0:0:0:
256,192,62598,1,0,0:0:0:0:
329,192,62598,1,0,0:0:0:0:
109,192,62741,1,0,0:0:0:0:
192,192,62741,1,0,0:0:0:0:
320,192,62741,1,0,0:0:0:0:
402,192,62741,1,0,0:0:0:0:
256,192,62741,1,0,0:0:0:0:
475,192,62741,1,0,0:0:0:0:
109,192,62885,1,0,0:0:0:0:
182,192,62885,1,0,0:0:0:0:
192,192,63028,1,0,0:0:0:0:
320,192,63028,1,0,0:0:0:0:
402,192,63028,1,0,0:0:0:0:
36,192,63028,1,0,0:0:0:0:
256,192,63028,1,0,0:0:0:0:
475,192,63028,1,0,0:0:0:0:
329,192,63171,1,0,0:0:0:0:
402,192,63171,1,0,0:0:0:0:
109,192,63315,1,0,0:0:0:0:
192,192,63315,1,0,0:0:0:0:
320,192,63315,1,0,0:0:0:0:
402,192,63315,1,0,0:0:0:0:
256,192,63315,1,0,0:0:0:0:
475,192,63315,1,0,0:0:0:0:
36,192,63459,1,0,0:0:0:0:
182,192,63459,1,0,0:0:0:0:
329,192,63459,1,0,0:0:0:0:
192,192,63602,1,0,0:0:0:0:
320,192,63602,1,0,0:0:0:0:
402,192,63602,1,0,0:0:0:0:
36,192,63602,1,0,0:0:0:0:
256,192,63602,1,0,0:0:0:0:
475,192,63602,1,0,0:0:0:0:
109,192,63746,1,0,0:0:0:0:
256,192,63746,1,0,0:0:0:0:
402,192,63746,1,0,0:0:0:0:
109,192,63890,1,0,0:0:0:0:
320,192,63890,1,0,0:0:0:0:
402,192,63890,1,0,0:0:0:0:
36,192,63890,1,0,0:0:0:0:
256,192,63890,1,0,0:0:0:0:
475,192,63890,1,0,0:0:0:0:
182,192,64033,1,0,0:0:0:0:
329,192,64033,1,0,0:0:0:0:
475,192,64033,1,0,0:0:0:0:
109,192,64177,1,0,0:0:0:0:
192,192,64177,1,0,0:0:0:0:
320,192,64177,1,0,0:0:0:0:
402,192,64177,1,0,0:0:0:0:
36,192,64177,1,0,0:0:0:0:
475,192,64177,1,0,0:0:0:0:
256,192,64320,1,0,0:0:0:0:
402,192,64320,1,0,0:0:0:0:
109,192,64320,1,0,0:0:0:0:
109,192,64463,1,0,0:0:0:0:
192,192,64463,1,0,0:0:0:0:
402,192,64463,1,0,0:0:0:0:
36,192,64463,1,0,0:0:0:0:
256,192,64463,1,0,0:0:0:0:
475,192,64463,1,0,0:0:0:0:
36,192,64607,1,0,0:0:0:0:
109,192,64607,1,0,0:0:0:0:
256,192,64607,1,0,0:0:0:0:
109,192,64750,1,0,0:0:0:0:
192,192,64750,1,0,0:0:0:0:
320,192,64750,1,0,0:0:0:0:
36,192,64750,1,0,0:0:0:0:
256,192,64750,1,0,0:0:0:0:
475,192,64750,1,0,0:0:0:0:
109,192,64894,1,0,0:0:0:0:
182,192,64894,1,0,0:0:0:0:
329,192,64894,1,0,0:0:0:0:
109,192,65038,1,0,0:0:0:0:
192,192,65038,1,0,0:0:0:0:
320,192,65038,1,0,0:0:0:0:
402,192,65038,1,0,0:0:0:0:
36,192,65038,1,0,0:0:0:0:
256,192,65038,1,0,0:0:0:0:
182,192,65181,1,0,0:0:0:0:
256,192,65181,1,0,0:0:0:0:
402,192,65181,1,0,0:0:0:0:
109,192,65325,1,0,0:0:0:0:
192,192,65325,1,0,0:0:0:0:
320,192,65325,1,0,0:0:0:0:
36,192,65325,1,0,0:0:0:0:
256,192,65325,1,0,0:0:0:0:
475,192,65325,1,0,0:0:0:0:
256,192,65469,1,0,0:0:0:0:
329,192,65469,1,0,0:0:0:0:
475,192,65469,1,0,0:0:0:0:
109,192,65612,1,0,0:0:0:0:
192,192,65612,1,0,0:0:0:0:
402,192,65612,1,0,0:0:0:0:
36,192,65612,1,0,0:0:0:0:
256,192,65612,1,0,0:0:0:0:
475,192,65612,1,0,0:0:0:0:
36,192,65755,1,0,0:0:0:0:
109,192,65755,1,0,0:0:0:0:
182,192,65755,1,0,0:0:0:0:
109,192,65899,1,0,0:0:0:0:
192,192,65899,1,0,0:0:0:0:
320,192,65899,1,0,0:0:0:0:
402,192,65899,1,0,0:0:0:0:
36,192,65899,1,0,0:0:0:0:
475,192,65899,1,0,0:0:0:0:
475,192,66042,1,0,0:0:0:0:
402,192,66042,1,0,0:0:0:0:
329,192,66042,1,0,0:0:0:0:
109,192,66186,1,0,0:0:0:0:
320,192,66186,1,0,0:0:0:0:
402,192,66186,1,0,0:0:0:0:
36,192,66186,1,0,0:0:0:0:
256,192,66186,1,0,0:0:0:0:
475,192,66186,1,0,0:0:0:0:
109,192,66330,1,0,0:0:0:0:
182,192,66330,1,0,0:0:0:0:
329,192,66330,1,0,0:0:0:0:
192,192,66473,1,0,0:0:0:0:
320,192,66473,1,0,0:0:0:0:
36,192,66473,1,0,0:0:0:0:
256,192,66473,1,0,0:0:0:0:
402,192,66473,1,0,0:0:0:0:
475,192,66473,1,0,0:0:0:0:
402,192,66617,1,0,0:0:0:0:
329,192,66617,1,0,0:0:0:0:
182,192,66617,1,0,0:0:0:0:
109,192,66760,1,0,0:0:0:0:
192,192,66760,1,0,0:0:0:0:
320,192,66760,1,0,0:0:0:0:
402,192,66760,1,0,0:0:0:0:
256,192,66760,1,0,0:0:0:0:
475,192,66760,1,0,0:0:0:0:
36,192,66904,1,0,0:0:0:0:
182,192,66904,1,0,0:0:0:0:
329,192,66904,1,0,0:0:0:0:
192,192,67047,1,0,0:0:0:0:
320,192,67047,1,0,0:0:0:0:
402,192,67047,1,0,0:0:0:0:
36,192,67047,1,0,0:0:0:0:
256,192,67047,1,0,0:0:0:0:
475,192,67047,1,0,0:0:0:0:
182,192,67190,1,0,0:0:0:0:
329,192,67190,1,0,0:0:0:0:
475,192,67190,1,0,0:0:0:0:
109,192,67334,1,0,0:0:0:0:
320,192,67334,1,0,0:0:0:0:
402,192,67334,1,0,0:0:0:0:
36,192,67334,1,0,0:0:0:0:
256,192,67334,1,0,0:0:0:0:
475,192,67334,1,0,0:0:0:0:
109,192,67478,1,0,0:0:0:0:
256,192,67478,1,0,0:0:0:0:
402,192,67478,1,0,0:0:0:0:
109,192,67621,1,0,0:0:0:0:
192,192,67621,1,0,0:0:0:0:
320,192,67621,1,0,0:0:0:0:
402,192,67621,1,0,0:0:0:0:
36,192,67621,1,0,0:0:0:0:
475,192,67621,1,0,0:0:0:0:
402,192,67765,1,0,0:0:0:0:
256,192,67765,1,0,0:0:0:0:
109,192,67765,1,0,0:0:0:0:
109,192,67909,1,0,0:0:0:0:
192,192,67909,1,0,0:0:0:0:
402,192,67909,1,0,0:0:0:0:
36,192,67909,1,0,0:0:0:0:
256,192,67909,1,0,0:0:0:0:
475,192,67909,1,0,0:0:0:0:
36,192,68052,1,0,0:0:0:0:
256,192,68052,1,0,0:0:0:0:
182,192,68052,1,0,0:0:0:0:
109,192,68196,1,0,0:0:0:0:
192,192,68196,1,0,0:0:0:0:
320,192,68196,1,0,0:0:0:0:
36,192,68196,1,0,0:0:0:0:
256,192,68196,1,0,0:0:0:0:
475,192,68196,1,0,0:0:0:0:
256,192,68340,1,0,0:0:0:0:
329,192,68340,1,0,0:0:0:0:
109,192,68340,1,0,0:0:0:0:
109,192,68482,1,0,0:0:0:0:
192,192,68482,1,0,0:0:0:0:
320,192,68482,1,0,0:0:0:0:
402,192,68482,1,0,0:0:0:0:
36,192,68482,1,0,0:0:0:0:
256,192,68482,1,0,0:0:0:0:
329,192,68626,1,0,0:0:0:0:
402,192,68626,1,0,0:0:0:0:
182,192,68626,1,0,0:0:0:0:
109,192,68770,1,0,0:0:0:0:
192,192,68770,1,0,0:0:0:0:
320,192,68770,1,0,0:0:0:0:
36,192,68770,1,0,0:0:0:0:
256,192,68770,1,0,0:0:0:0:
475,192,68770,1,0,0:0:0:0:
402,192,68913,1,0,0:0:0:0:
475,192,68913,1,0,0:0:0:0:
256,192,68913,1,0,0:0:0:0:
109,192,69057,1,0,0:0:0:0:
192,192,69057,1,0,0:0:0:0:
402,192,69057,1,0,0:0:0:0:
36,192,69057,1,0,0:0:0:0:
256,192,69057,1,0,0:0:0:0:
475,192,69057,1,0,0:0:0:0:
36,192,69200,1,0,0:0:0:0:
109,192,69200,1,0,0:0:0:0:
329,192,69200,1,0,0:0:0:0:
109,192,69344,1,0,0:0:0:0:
192,192,69344,1,0,0:0:0:0:
320,192,69344,1,0,0:0:0:0:
36,192,69344,1,0,0:0:0:0:
402,192,69344,1,0,0:0:0:0:
475,192,69344,1,0,0:0:0:0:
109,192,69488,1,0,0:0:0:0:
182,192,69488,1,0,0:0:0:0:
402,192,69488,1,0,0:0:0:0:
109,192,69631,1,0,0:0:0:0:
320,192,69631,1,0,0:0:0:0:
402,192,69631,1,0,0:0:0:0:
36,192,69631,1,0,0:0:0:0:
256,192,69631,1,0,0:0:0:0:
475,192,69631,1,0,0:0:0:0:
192,192,69774,1,0,0:0:0:0:
256,192,69774,1,0,0:0:0:0:
475,192,69774,1,0,0:0:0:0:
192,192,69918,1,0,0:0:0:0:
402,192,69918,1,0,0:0:0:0:
36,192,69918,1,0,0:0:0:0:
256,192,69918,1,0,0:0:0:0:
475,192,69918,1,0,0:0:0:0:
320,192,69918,1,0,0:0:0:0:
109,192,70061,1,0,0:0:0:0:
182,192,70061,1,0,0:0:0:0:
402,192,70061,1,0,0:0:0:0:
109,192,70205,1,0,0:0:0:0:
192,192,70205,1,0,0:0:0:0:
320,192,70205,1,0,0:0:0:0:
256,192,70205,1,0,0:0:0:0:
402,192,70205,1,0,0:0:0:0:
475,192,70205,1,0,0:0:0:0:
320,192,70349,1,0,0:0:0:0:
475,192,70349,1,0,0:0:0:0:
182,192,70349,1,0,0:0:0:0:
192,192,70492,1,0,0:0:0:0:
320,192,70492,1,0,0:0:0:0:
402,192,70492,1,0,0:0:0:0:
36,192,70492,1,0,0:0:0:0:
256,192,70492,1,0,0:0:0:0:
475,192,70492,1,0,0:0:0:0:
402,192,70636,1,0,0:0:0:0:
256,192,70636,1,0,0:0:0:0:
109,192,70636,1,0,0:0:0:0:
109,192,70780,1,0,0:0:0:0:
320,192,70780,1,0,0:0:0:0:
402,192,70780,1,0,0:0:0:0:
36,192,70780,1,0,0:0:0:0:
256,192,70780,1,0,0:0:0:0:
475,192,70780,1,0,0:0:0:0:
36,192,70923,1,0,0:0:0:0:
182,192,70923,1,0,0:0:0:0:
329,192,70923,1,0,0:0:0:0:
109,192,71067,1,0,0:0:0:0:
192,192,71067,1,0,0:0:0:0:
320,192,71067,1,0,0:0:0:0:
402,192,71067,1,0,0:0:0:0:
36,192,71067,1,0,0:0:0:0:
475,192,71067,1,0,0:0:0:0:
109,192,71210,1,0,0:0:0:0:
256,192,71210,1,0,0:0:0:0:
402,192,71210,1,0,0:0:0:0:
109,192,71353,1,0,0:0:0:0:
192,192,71353,1,0,0:0:0:0:
402,192,71353,1,0,0:0:0:0:
36,192,71353,1,0,0:0:0:0:
256,192,71353,1,0,0:0:0:0:
475,192,71353,1,0,0:0:0:0:
329,192,71497,1,0,0:0:0:0:
475,192,71497,1,0,0:0:0:0:
192,192,71640,1,0,0:0:0:0:
36,192,71640,1,0,0:0:0:0:
109,192,71784,1,0,0:0:0:0:
402,192,71784,1,0,0:0:0:0:
256,192,71784,1,0,0:0:0:0:
475,192,71784,1,0,0:0:0:0:
192,192,71928,1,0,0:0:0:0:
329,192,71928,1,0,0:0:0:0:
36,192,72071,1,0,0:0:0:0:
109,192,72071,1,0,0:0:0:0:
475,192,72071,1,0,0:0:0:0:
182,192,72215,1,0,0:0:0:0:
256,192,72215,1,0,0:0:0:0:
475,192,72215,1,0,0:0:0:0:
402,192,72359,1,0,0:0:0:0:
329,192,72359,1,0,0:0:0:0:
475,192,72359,1,0,0:0:0:0:
109,192,72501,1,0,0:0:0:0:
192,192,72501,1,0,0:0:0:0:
320,192,72501,1,0,0:0:0:0:
402,192,72501,1,0,0:0:0:0:
256,192,72501,1,0,0:0:0:0:
36,192,72501,1,0,0:0:0:0:
475,192,72645,1,0,0:0:0:0:
402,192,72645,1,0,0:0:0:0:
182,192,72645,1,0,0:0:0:0:
256,192,72645,1,0,0:0:0:0:
329,192,72645,1,0,0:0:0:0:
109,192,72789,1,0,0:0:0:0:
192,192,72789,1,0,0:0:0:0:
320,192,72789,1,0,0:0:0:0:
36,192,72789,1,0,0:0:0:0:
256,192,72789,1,0,0:0:0:0:
475,192,72789,1,0,0:0:0:0:
320,192,72932,1,0,0:0:0:0:
36,192,72932,1,0,0:0:0:0:
475,192,72932,1,0,0:0:0:0:
256,192,72932,1,0,0:0:0:0:
402,192,72932,1,0,0:0:0:0:
109,192,73076,1,0,0:0:0:0:
192,192,73076,1,0,0:0:0:0:
402,192,73076,1,0,0:0:0:0:
36,192,73076,1,0,0:0:0:0:
256,192,73076,1,0,0:0:0:0:
475,192,73076,1,0,0:0:0:0:
402,192,73220,1,0,0:0:0:0:
36,192,73220,1,0,0:0:0:0:
109,192,73220,1,0,0:0:0:0:
475,192,73220,1,0,0:0:0:0:
329,192,73220,1,0,0:0:0:0:
109,192,73363,1,0,0:0:0:0:
192,192,73363,1,0,0:0:0:0:
320,192,73363,1,0,0:0:0:0:
402,192,73363,1,0,0:0:0:0:
36,192,73363,1,0,0:0:0:0:
475,192,73363,1,0,0:0:0:0:
36,192,73507,1,0,0:0:0:0:
182,192,73507,1,0,0:0:0:0:
475,192,73507,1,0,0:0:0:0:
109,192,73507,1,0,0:0:0:0:
402,192,73507,1,0,0:0:0:0:
109,192,73650,1,0,0:0:0:0:
320,192,73650,1,0,0:0:0:0:
36,192,73650,1,0,0:0:0:0:
256,192,73650,1,0,0:0:0:0:
475,192,73650,1,0,0:0:0:0:
402,192,73650,1,0,0:0:0:0:
36,192,73794,1,0,0:0:0:0:
109,192,73794,1,0,0:0:0:0:
182,192,73794,1,0,0:0:0:0:
256,192,73794,1,0,0:0:0:0:
475,192,73794,1,0,0:0:0:0:
36,192,73937,1,0,0:0:0:0:
182,192,73937,1,0,0:0:0:0:
256,192,73937,1,0,0:0:0:0:
329,192,73937,1,0,0:0:0:0:
402,192,73937,1,0,0:0:0:0:
475,192,73937,1,0,0:0:0:0:
36,192,74080,1,0,0:0:0:0:
109,192,74080,1,0,0:0:0:0:
182,192,74080,1,0,0:0:0:0:
256,192,74080,1,0,0:0:0:0:
329,192,74080,1,0,0:0:0:0:
109,192,74224,1,0,0:0:0:0:
182,192,74224,1,0,0:0:0:0:
329,192,74224,1,0,0:0:0:0:
256,192,74224,1,0,0:0:0:0:
402,192,74224,1,0,0:0:0:0:
475,192,74224,1,0,0:0:0:0:
36,192,74368,1,0,0:0:0:0:
109,192,74368,1,0,0:0:0:0:
182,192,74368,1,0,0:0:0:0:
256,192,74368,1,0,0:0:0:0:
475,192,74368,1,0,0:0:0:0:
36,192,74511,1,0,0:0:0:0:
182,192,74511,1,0,0:0:0:0:
256,192,74511,1,0,0:0:0:0:
329,192,74511,1,0,0:0:0:0:
402,192,74511,1,0,0:0:0:0:
475,192,74511,1,0,0:0:0:0:
36,192,74655,1,0,0:0:0:0:
109,192,74655,1,0,0:0:0:0:
182,192,74655,1,0,0:0:0:0:
402,192,74655,1,0,0:0:0:0:
475,192,74655,1,0,0:0:0:0:
109,192,74799,1,0,0:0:0:0:
192,192,74799,1,0,0:0:0:0:
320,192,74799,1,0,0:0:0:0:
402,192,74799,1,0,0:0:0:0:
256,192,74799,1,0,0:0:0:0:
475,192,74799,1,0,0:0:0:0:
109,192,74942,1,0,0:0:0:0:
256,192,74942,1,0,0:0:0:0:
329,192,74942,1,0,0:0:0:0:
475,192,74942,1,0,0:0:0:0:
402,192,74942,1,0,0:0:0:0:
192,192,75086,1,0,0:0:0:0:
320,192,75086,1,0,0:0:0:0:
36,192,75086,1,0,0:0:0:0:
256,192,75086,1,0,0:0:0:0:
475,192,75086,1,0,0:0:0:0:
402,192,75086,1,0,0:0:0:0:
320,192,75229,1,0,0:0:0:0:
36,192,75229,1,0,0:0:0:0:
182,192,75229,1,0,0:0:0:0:
475,192,75229,1,0,0:0:0:0:
402,192,75229,1,0,0:0:0:0:
109,192,75372,1,0,0:0:0:0:
402,192,75372,1,0,0:0:0:0:
36,192,75372,1,0,0:0:0:0:
256,192,75372,1,0,0:0:0:0:
475,192,75372,1,0,0:0:0:0:
329,192,75372,1,0,0:0:0:0:
402,192,75516,1,0,0:0:0:0:
36,192,75516,1,0,0:0:0:0:
256,192,75516,1,0,0:0:0:0:
109,192,75516,1,0,0:0:0:0:
475,192,75516,1,0,0:0:0:0:
109,192,75660,1,0,0:0:0:0:
192,192,75660,1,0,0:0:0:0:
320,192,75660,1,0,0:0:0:0:
402,192,75660,1,0,0:0:0:0:
36,192,75660,1,0,0:0:0:0:
475,192,75660,1,0,0:0:0:0:
36,192,75803,1,0,0:0:0:0:
182,192,75803,1,0,0:0:0:0:
329,192,75803,1,0,0:0:0:0:
475,192,75803,1,0,0:0:0:0:
109,192,75803,1,0,0:0:0:0:
109,192,75947,1,0,0:0:0:0:
36,192,75947,1,0,0:0:0:0:
256,192,75947,1,0,0:0:0:0:
475,192,75947,1,0,0:0:0:0:
402,192,75947,1,0,0:0:0:0:
182,192,75947,1,0,0:0:0:0:
36,192,76090,1,0,0:0:0:0:
109,192,76090,1,0,0:0:0:0:
256,192,76090,1,0,0:0:0:0:
182,192,76090,1,0,0:0:0:0:
402,192,76090,1,0,0:0:0:0:
36,192,76234,1,0,0:0:0:0:
109,192,76234,1,0,0:0:0:0:
182,192,76234,1,0,0:0:0:0:
329,192,76234,1,0,0:0:0:0:
256,192,76234,1,0,0:0:0:0:
475,192,76234,1,0,0:0:0:0:
36,192,76378,1,0,0:0:0:0:
109,192,76378,1,0,0:0:0:0:
182,192,76378,1,0,0:0:0:0:
329,192,76378,1,0,0:0:0:0:
475,192,76378,1,0,0:0:0:0:
36,192,76521,1,0,0:0:0:0:
109,192,76521,1,0,0:0:0:0:
182,192,76521,1,0,0:0:0:0:
256,192,76521,1,0,0:0:0:0:
329,192,76521,1,0,0:0:0:0:
402,192,76521,1,0,0:0:0:0:
36,192,76664,1,0,0:0:0:0:
109,192,76664,1,0,0:0:0:0:
256,192,76664,1,0,0:0:0:0:
402,192,76664,1,0,0:0:0:0:
475,192,76664,1,0,0:0:0:0:
36,192,76808,1,0,0:0:0:0:
109,192,76808,1,0,0:0:0:0:
182,192,76808,1,0,0:0:0:0:
256,192,76808,1,0,0:0:0:0:
329,192,76808,1,0,0:0:0:0:
475,192,76808,1,0,0:0:0:0:
36,192,76951,1,0,0:0:0:0:
182,192,76951,1,0,0:0:0:0:
329,192,76951,1,0,0:0:0:0:
402,192,76951,1,0,0:0:0:0:
475,192,76951,1,0,0:0:0:0:
256,192,77095,1,0,0:0:0:0:
475,192,77095,1,0,0:0:0:0:
402,192,77095,1,0,0:0:0:0:
109,192,77095,1,0,0:0:0:0:
192,192,77095,1,0,0:0:0:0:
320,192,77095,1,0,0:0:0:0:
329,192,77239,1,0,0:0:0:0:
192,192,77239,1,0,0:0:0:0:
256,192,77239,1,0,0:0:0:0:
36,192,77239,1,0,0:0:0:0:
109,192,77239,1,0,0:0:0:0:
256,192,77382,1,0,0:0:0:0:
475,192,77382,1,0,0:0:0:0:
402,192,77382,1,0,0:0:0:0:
36,192,77382,1,0,0:0:0:0:
192,192,77382,1,0,0:0:0:0:
320,192,77382,1,0,0:0:0:0:
475,192,77526,1,0,0:0:0:0:
256,192,77526,1,0,0:0:0:0:
182,192,77526,1,0,0:0:0:0:
109,192,77526,1,0,0:0:0:0:
36,192,77526,1,0,0:0:0:0:
256,192,77670,1,0,0:0:0:0:
475,192,77670,1,0,0:0:0:0:
329,192,77670,1,0,0:0:0:0:
36,192,77670,1,0,0:0:0:0:
109,192,77670,1,0,0:0:0:0:
402,192,77670,1,0,0:0:0:0:
475,192,77813,1,0,0:0:0:0:
182,192,77813,1,0,0:0:0:0:
109,192,77813,1,0,0:0:0:0:
402,192,77813,1,0,0:0:0:0:
36,192,77813,1,0,0:0:0:0:
36,192,77956,1,0,0:0:0:0:
475,192,77956,1,0,0:0:0:0:
402,192,77956,1,0,0:0:0:0:
109,192,77956,1,0,0:0:0:0:
192,192,77956,1,0,0:0:0:0:
320,192,77956,1,0,0:0:0:0:
475,192,78100,1,0,0:0:0:0:
109,192,78100,1,0,0:0:0:0:
402,192,78100,1,0,0:0:0:0:
36,192,78100,1,0,0:0:0:0:
329,192,78100,1,0,0:0:0:0:
475,192,78243,1,0,0:0:0:0:
402,192,78243,1,0,0:0:0:0:
182,192,78243,1,0,0:0:0:0:
256,192,78243,1,0,0:0:0:0:
109,192,78243,1,0,0:0:0:0:
36,192,78243,1,0,0:0:0:0:
329,192,78387,1,0,0:0:0:0:
402,192,78387,1,0,0:0:0:0:
475,192,78387,1,0,0:0:0:0:
36,192,78387,1,0,0:0:0:0:
256,192,78387,1,0,0:0:0:0:
256,192,78530,1,0,0:0:0:0:
475,192,78530,1,0,0:0:0:0:
329,192,78530,1,0,0:0:0:0:
36,192,78530,1,0,0:0:0:0:
109,192,78530,1,0,0:0:0:0:
182,192,78530,1,0,0:0:0:0:
329,192,78674,1,0,0:0:0:0:
475,192,78674,1,0,0:0:0:0:
402,192,78674,1,0,0:0:0:0:
256,192,78674,1,0,0:0:0:0:
182,192,78674,1,0,0:0:0:0:
329,192,78818,1,0,0:0:0:0:
402,192,78818,1,0,0:0:0:0:
256,192,78818,1,0,0:0:0:0:
36,192,78818,1,0,0:0:0:0:
109,192,78818,1,0,0:0:0:0:
182,192,78818,1,0,0:0:0:0:
329,192,78961,1,0,0:0:0:0:
402,192,78961,1,0,0:0:0:0:
475,192,78961,1,0,0:0:0:0:
256,192,78961,1,0,0:0:0:0:
36,192,78961,1,0,0:0:0:0:
329,192,79105,1,0,0:0:0:0:
475,192,79105,1,0,0:0:0:0:
256,192,79105,1,0,0:0:0:0:
36,192,79105,1,0,0:0:0:0:
109,192,79105,1,0,0:0:0:0:
182,192,79105,1,0,0:0:0:0:
329,192,79249,1,0,0:0:0:0:
402,192,79249,1,0,0:0:0:0:
475,192,79249,1,0,0:0:0:0:
36,192,79249,1,0,0:0:0:0:
109,192,79249,1,0,0:0:0:0:
109,192,79391,1,0,0:0:0:0:
192,192,79391,1,0,0:0:0:0:
320,192,79391,1,0,0:0:0:0:
402,192,79391,1,0,0:0:0:0:
256,192,79391,1,0,0:0:0:0:
36,192,79391,1,0,0:0:0:0:
109,192,79535,1,0,0:0:0:0:
192,192,79535,1,0,0:0:0:0:
256,192,79535,1,0,0:0:0:0:
36,192,79535,1,0,0:0:0:0:
402,192,79535,1,0,0:0:0:0:
109,192,79679,1,0,0:0:0:0:
192,192,79679,1,0,0:0:0:0:
320,192,79679,1,0,0:0:0:0:
36,192,79679,1,0,0:0:0:0:
256,192,79679,1,0,0:0:0:0:
475,192,79679,1,0,0:0:0:0:
109,192,79822,1,0,0:0:0:0:
320,192,79822,1,0,0:0:0:0:
36,192,79822,1,0,0:0:0:0:
182,192,79822,1,0,0:0:0:0:
475,192,79822,1,0,0:0:0:0:
109,192,79966,1,0,0:0:0:0:
192,192,79966,1,0,0:0:0:0:
402,192,79966,1,0,0:0:0:0:
36,192,79966,1,0,0:0:0:0:
256,192,79966,1,0,0:0:0:0:
475,192,79966,1,0,0:0:0:0:
402,192,80110,1,0,0:0:0:0:
36,192,80110,1,0,0:0:0:0:
256,192,80110,1,0,0:0:0:0:
109,192,80110,1,0,0:0:0:0:
475,192,80110,1,0,0:0:0:0:
109,192,80253,1,0,0:0:0:0:
192,192,80253,1,0,0:0:0:0:
320,192,80253,1,0,0:0:0:0:
402,192,80253,1,0,0:0:0:0:
36,192,80253,1,0,0:0:0:0:
475,192,80253,1,0,0:0:0:0:
402,192,80397,1,0,0:0:0:0:
36,192,80397,1,0,0:0:0:0:
182,192,80397,1,0,0:0:0:0:
329,192,80397,1,0,0:0:0:0:
475,192,80397,1,0,0:0:0:0:
109,192,80540,1,0,0:0:0:0:
320,192,80540,1,0,0:0:0:0:
36,192,80540,1,0,0:0:0:0:
256,192,80540,1,0,0:0:0:0:
475,192,80540,1,0,0:0:0:0:
402,192,80540,1,0,0:0:0:0:
109,192,80683,1,0,0:0:0:0:
256,192,80683,1,0,0:0:0:0:
329,192,80683,1,0,0:0:0:0:
402,192,80683,1,0,0:0:0:0:
475,192,80683,1,0,0:0:0:0:
36,192,80827,1,0,0:0:0:0:
182,192,80827,1,0,0:0:0:0:
329,192,80827,1,0,0:0:0:0:
256,192,80827,1,0,0:0:0:0:
402,192,80827,1,0,0:0:0:0:
475,192,80827,1,0,0:0:0:0:
36,192,80970,1,0,0:0:0:0:
182,192,80970,1,0,0:0:0:0:
329,192,80970,1,0,0:0:0:0:
475,192,80970,1,0,0:0:0:0:
402,192,80970,1,0,0:0:0:0:
109,192,81114,1,0,0:0:0:0:
182,192,81114,1,0,0:0:0:0:
256,192,81114,1,0,0:0:0:0:
329,192,81114,1,0,0:0:0:0:
475,192,81114,1,0,0:0:0:0:
402,192,81114,1,0,0:0:0:0:
36,192,81258,1,0,0:0:0:0:
109,192,81258,1,0,0:0:0:0:
256,192,81258,1,0,0:0:0:0:
402,192,81258,1,0,0:0:0:0:
475,192,81258,1,0,0:0:0:0:
36,192,81401,1,0,0:0:0:0:
182,192,81401,1,0,0:0:0:0:
256,192,81401,1,0,0:0:0:0:
329,192,81401,1,0,0:0:0:0:
402,192,81401,1,0,0:0:0:0:
475,192,81401,1,0,0:0:0:0:
36,192,81545,1,0,0:0:0:0:
182,192,81545,1,0,0:0:0:0:
109,192,81545,1,0,0:0:0:0:
329,192,81545,1,0,0:0:0:0:
475,192,81545,1,0,0:0:0:0:
109,192,81689,1,0,0:0:0:0:
192,192,81689,1,0,0:0:0:0:
320,192,81689,1,0,0:0:0:0:
402,192,81689,1,0,0:0:0:0:
256,192,81689,1,0,0:0:0:0:
36,192,81689,1,0,0:0:0:0:
192,192,81832,1,0,0:0:0:0:
256,192,81832,1,0,0:0:0:0:
329,192,81832,1,0,0:0:0:0:
475,192,81832,1,0,0:0:0:0:
402,192,81832,1,0,0:0:0:0:
109,192,81976,1,0,0:0:0:0:
192,192,81976,1,0,0:0:0:0:
320,192,81976,1,0,0:0:0:0:
36,192,81976,1,0,0:0:0:0:
256,192,81976,1,0,0:0:0:0:
475,192,81976,1,0,0:0:0:0:
109,192,82119,1,0,0:0:0:0:
320,192,82119,1,0,0:0:0:0:
36,192,82119,1,0,0:0:0:0:
182,192,82119,1,0,0:0:0:0:
256,192,82119,1,0,0:0:0:0:
402,192,82262,1,0,0:0:0:0:
36,192,82262,1,0,0:0:0:0:
256,192,82262,1,0,0:0:0:0:
475,192,82262,1,0,0:0:0:0:
109,192,82262,1,0,0:0:0:0:
182,192,82262,1,0,0:0:0:0:
402,192,82406,1,0,0:0:0:0:
36,192,82406,1,0,0:0:0:0:
256,192,82406,1,0,0:0:0:0:
475,192,82406,1,0,0:0:0:0:
329,192,82406,1,0,0:0:0:0:
109,192,82550,1,0,0:0:0:0:
192,192,82550,1,0,0:0:0:0:
320,192,82550,1,0,0:0:0:0:
402,192,82550,1,0,0:0:0:0:
36,192,82550,1,0,0:0:0:0:
475,192,82550,1,0,0:0:0:0:
36,192,82693,1,0,0:0:0:0:
182,192,82693,1,0,0:0:0:0:
475,192,82693,1,0,0:0:0:0:
109,192,82693,1,0,0:0:0:0:
256,192,82693,1,0,0:0:0:0:
109,192,82837,1,0,0:0:0:0:
320,192,82837,1,0,0:0:0:0:
36,192,82837,1,0,0:0:0:0:
256,192,82837,1,0,0:0:0:0:
475,192,82837,1,0,0:0:0:0:
402,192,82837,1,0,0:0:0:0:
36,192,82980,1,0,0:0:0:0:
109,192,82980,1,0,0:0:0:0:
329,192,82980,1,0,0:0:0:0:
402,192,82980,1,0,0:0:0:0:
475,192,82980,1,0,0:0:0:0:
36,192,83124,1,0,0:0:0:0:
182,192,83124,1,0,0:0:0:0:
329,192,83124,1,0,0:0:0:0:
256,192,83124,1,0,0:0:0:0:
402,192,83124,1,0,0:0:0:0:
475,192,83124,1,0,0:0:0:0:
36,192,83268,1,0,0:0:0:0:
109,192,83268,1,0,0:0:0:0:
182,192,83268,1,0,0:0:0:0:
475,192,83268,1,0,0:0:0:0:
402,192,83268,1,0,0:0:0:0:
109,192,83410,1,0,0:0:0:0:
182,192,83410,1,0,0:0:0:0:
256,192,83410,1,0,0:0:0:0:
329,192,83410,1,0,0:0:0:0:
475,192,83410,1,0,0:0:0:0:
402,192,83410,1,0,0:0:0:0:
36,192,83554,1,0,0:0:0:0:
256,192,83554,1,0,0:0:0:0:
329,192,83554,1,0,0:0:0:0:
402,192,83554,1,0,0:0:0:0:
475,192,83554,1,0,0:0:0:0:
36,192,83698,1,0,0:0:0:0:
182,192,83698,1,0,0:0:0:0:
256,192,83698,1,0,0:0:0:0:
329,192,83698,1,0,0:0:0:0:
402,192,83698,1,0,0:0:0:0:
475,192,83698,1,0,0:0:0:0:
36,192,83841,1,0,0:0:0:0:
182,192,83841,1,0,0:0:0:0:
109,192,83841,1,0,0:0:0:0:
256,192,83841,1,0,0:0:0:0:
475,192,83841,1,0,0:0:0:0:
256,192,83985,1,0,0:0:0:0:
36,192,83985,1,0,0:0:0:0:
475,192,83985,1,0,0:0:0:0:
402,192,83985,1,0,0:0:0:0:
109,192,83985,1,0,0:0:0:0:
320,192,83985,1,0,0:0:0:0:
329,192,84129,1,0,0:0:0:0:
475,192,84129,1,0,0:0:0:0:
402,192,84129,1,0,0:0:0:0:
109,192,84129,1,0,0:0:0:0:
192,192,84129,1,0,0:0:0:0:
475,192,84272,1,0,0:0:0:0:
402,192,84272,1,0,0:0:0:0:
36,192,84272,1,0,0:0:0:0:
109,192,84272,1,0,0:0:0:0:
192,192,84272,1,0,0:0:0:0:
320,192,84272,1,0,0:0:0:0:
475,192,84416,1,0,0:0:0:0:
256,192,84416,1,0,0:0:0:0:
402,192,84416,1,0,0:0:0:0:
182,192,84416,1,0,0:0:0:0:
36,192,84416,1,0,0:0:0:0:
256,192,84560,1,0,0:0:0:0:
475,192,84560,1,0,0:0:0:0:
36,192,84560,1,0,0:0:0:0:
109,192,84560,1,0,0:0:0:0:
192,192,84560,1,0,0:0:0:0:
402,192,84560,1,0,0:0:0:0:
475,192,84703,1,0,0:0:0:0:
329,192,84703,1,0,0:0:0:0:
109,192,84703,1,0,0:0:0:0:
36,192,84703,1,0,0:0:0:0:
256,192,84703,1,0,0:0:0:0:
36,192,84846,1,0,0:0:0:0:
475,192,84846,1,0,0:0:0:0:
256,192,84846,1,0,0:0:0:0:
109,192,84846,1,0,0:0:0:0:
192,192,84846,1,0,0:0:0:0:
320,192,84846,1,0,0:0:0:0:
109,192,84990,1,0,0:0:0:0:
329,192,84990,1,0,0:0:0:0:
402,192,84990,1,0,0:0:0:0:
36,192,84990,1,0,0:0:0:0:
182,192,84990,1,0,0:0:0:0:
402,192,85133,1,0,0:0:0:0:
182,192,85133,1,0,0:0:0:0:
256,192,85133,1,0,0:0:0:0:
109,192,85133,1,0,0:0:0:0:
320,192,85133,1,0,0:0:0:0:
36,192,85133,1,0,0:0:0:0:
329,192,85277,1,0,0:0:0:0:
402,192,85277,1,0,0:0:0:0:
475,192,85277,1,0,0:0:0:0:
182,192,85277,1,0,0:0:0:0:
109,192,85277,1,0,0:0:0:0:
256,192,85420,1,0,0:0:0:0:
475,192,85420,1,0,0:0:0:0:
329,192,85420,1,0,0:0:0:0:
36,192,85420,1,0,0:0:0:0:
109,192,85420,1,0,0:0:0:0:
182,192,85420,1,0,0:0:0:0:
475,192,85564,1,0,0:0:0:0:
402,192,85564,1,0,0:0:0:0:
36,192,85564,1,0,0:0:0:0:
182,192,85564,1,0,0:0:0:0:
256,192,85564,1,0,0:0:0:0:
475,192,85708,1,0,0:0:0:0:
402,192,85708,1,0,0:0:0:0:
256,192,85708,1,0,0:0:0:0:
36,192,85708,1,0,0:0:0:0:
109,192,85708,1,0,0:0:0:0:
182,192,85708,1,0,0:0:0:0:
329,192,85851,1,0,0:0:0:0:
475,192,85851,1,0,0:0:0:0:
256,192,85851,1,0,0:0:0:0:
36,192,85851,1,0,0:0:0:0:
109,192,85851,1,0,0:0:0:0:
329,192,85995,1,0,0:0:0:0:
402,192,85995,1,0,0:0:0:0:
475,192,85995,1,0,0:0:0:0:
36,192,85995,1,0,0:0:0:0:
109,192,85995,1,0,0:0:0:0:
182,192,85995,1,0,0:0:0:0:
329,192,86138,1,0,0:0:0:0:
402,192,86138,1,0,0:0:0:0:
36,192,86138,1,0,0:0:0:0:
182,192,86138,1,0,0:0:0:0:
109,192,86138,1,0,0:0:0:0:
36,192,86281,1,0,0:0:0:0:
109,192,86281,1,0,0:0:0:0:
256,192,86281,1,0,0:0:0:0:
402,192,86281,1,0,0:0:0:0:
329,192,86281,1,0,0:0:0:0:
475,192,86281,1,0,0:0:0:0:
256,192,86425,1,0,0:0:0:0:
182,192,86425,1,0,0:0:0:0:
329,192,86425,1,0,0:0:0:0:
402,192,86425,1,0,0:0:0:0:
475,192,86425,1,0,0:0:0:0:
402,192,86569,1,0,0:0:0:0:
320,192,86569,1,0,0:0:0:0:
256,192,86569,1,0,0:0:0:0:
192,192,86569,1,0,0:0:0:0:
36,192,86569,1,0,0:0:0:0:
475,192,86569,1,0,0:0:0:0:
182,192,86712,1,0,0:0:0:0:
109,192,86712,1,0,0:0:0:0:
36,192,86712,1,0,0:0:0:0:
320,192,86856,1,0,0:0:0:0:
402,192,86856,1,0,0:0:0:0:
475,192,86856,1,0,0:0:0:0:
109,192,86928,1,0,0:0:0:0:
192,192,86928,1,0,0:0:0:0:
36,192,86928,1,0,0:0:0:0:
320,192,87000,1,0,0:0:0:0:
402,192,87000,1,0,0:0:0:0:
475,192,87000,1,0,0:0:0:0:
109,192,87071,1,0,0:0:0:0:
192,192,87071,1,0,0:0:0:0:
36,192,87071,1,0,0:0:0:0:
320,192,87143,1,0,0:0:0:0:
402,192,87143,1,0,0:0:0:0:
475,192,87143,1,0,0:0:0:0:
109,192,87215,1,0,0:0:0:0:
192,192,87215,1,0,0:0:0:0:
36,192,87215,1,0,0:0:0:0:
320,192,87287,1,0,0:0:0:0:
402,192,87287,1,0,0:0:0:0:
475,192,87287,1,0,0:0:0:0:
109,192,87359,1,0,0:0:0:0:
192,192,87359,1,0,0:0:0:0:
36,192,87359,1,0,0:0:0:0:
320,192,87430,1,0,0:0:0:0:
402,192,87430,1,0,0:0:0:0:
475,192,87430,1,0,0:0:0:0:
109,192,87501,1,0,0:0:0:0:
192,192,87501,1,0,0:0:0:0:
36,192,87501,1,0,0:0:0:0:
320,192,87573,1,0,0:0:0:0:
402,192,87573,1,0,0:0:0:0:
475,192,87573,1,0,0:0:0:0:
109,192,87645,1,0,0:0:0:0:
192,192,87645,1,0,0:0:0:0:
36,192,87645,1,0,0:0:0:0:
320,192,87717,1,0,0:0:0:0:
402,192,87717,1,0,0:0:0:0:
475,192,87717,1,0,0:0:0:0:
109,192,87789,1,0,0:0:0:0:
192,192,87789,1,0,0:0:0:0:
36,192,87789,1,0,0:0:0:0:
320,192,87860,1,0,0:0:0:0:
402,192,87860,1,0,0:0:0:0:
475,192,87860,1,0,0:0:0:0:
109,192,87932,1,0,0:0:0:0:
192,192,87932,1,0,0:0:0:0:
36,192,87932,1,0,0:0:0:0:
320,192,88004,1,0,0:0:0:0:
402,192,88004,1,0,0:0:0:0:
475,192,88004,1,0,0:0:0:0:
109,192,88076,1,0,0:0:0:0:
192,192,88076,1,0,0:0:0:0:
36,192,88076,1,0,0:0:0:0:
320,192,88148,1,0,0:0:0:0:
402,192,88148,1,0,0:0:0:0:
475,192,88148,1,0,0:0:0:0:
109,192,88220,1,0,0:0:0:0:
192,192,88220,1,0,0:0:0:0:
36,192,88220,1,0,0:0:0:0:
320,192,88291,1,0,0:0:0:0:
402,192,88291,1,0,0:0:0:0:
475,192,88291,1,0,0:0:0:0:
109,192,88363,1,0,0:0:0:0:
192,192,88363,1,0,0:0:0:0:
36,192,88363,1,0,0:0:0:0:
320,192,88435,1,0,0:0:0:0:
402,192,88435,1,0,0:0:0:0:
475,192,88435,1,0,0:0:0:0:
109,192,88507,1,0,0:0:0:0:
192,192,88507,1,0,0:0:0:0:
36,192,88507,1,0,0:0:0:0:
320,192,88579,1,0,0:0:0:0:
402,192,88579,1,0,0:0:0:0:
475,192,88579,1,0,0:0:0:0:
109,192,88650,1,0,0:0:0:0:
192,192,88650,1,0,0:0:0:0:
36,192,88650,1,0,0:0:0:0:
320,192,88722,1,0,0:0:0:0:
402,192,88722,1,0,0:0:0:0:
475,192,88722,1,0,0:0:0:0:
109,192,88794,1,0,0:0:0:0:
192,192,88794,1,0,0:0:0:0:
36,192,88794,1,0,0:0:0:0:
320,192,88865,1,0,0:0:0:0:
402,192,88865,1,0,0:0:0:0:
475,192,88865,1,0,0:0:0:0:
109,192,88937,1,0,0:0:0:0:
192,192,88937,1,0,0:0:0:0:
36,192,88937,1,0,0:0:0:0:
320,192,89009,1,0,0:0:0:0:
402,192,89009,1,0,0:0:0:0:
475,192,89009,1,0,0:0:0:0:
109,192,89080,1,0,0:0:0:0:
192,192,89080,1,0,0:0:0:0:
36,192,89080,1,0,0:0:0:0:
320,192,89152,1,0,0:0:0:0:
402,192,89152,1,0,0:0:0:0:
475,192,89152,1,0,0:0:0:0:
109,192,89224,1,0,0:0:0:0:
192,192,89224,1,0,0:0:0:0:
36,192,89224,1,0,0:0:0:0:
320,192,89296,1,0,0:0:0:0:
402,192,89296,1,0,0:0:0:0:
475,192,89296,1,0,0:0:0:0:
109,192,89368,1,0,0:0:0:0:
192,192,89368,1,0,0:0:0:0:
36,192,89368,1,0,0:0:0:0:
320,192,89440,1,0,0:0:0:0:
402,192,89440,1,0,0:0:0:0:
475,192,89440,1,0,0:0:0:0:
109,192,89511,1,0,0:0:0:0:
192,192,89511,1,0,0:0:0:0:
36,192,89511,1,0,0:0:0:0:
320,192,89583,1,0,0:0:0:0:
402,192,89583,1,0,0:0:0:0:
475,192,89583,1,0,0:0:0:0:
109,192,89655,1,0,0:0:0:0:
192,192,89655,1,0,0:0:0:0:
36,192,89655,1,0,0:0:0:0:
320,192,89727,1,0,0:0:0:0:
402,192,89727,1,0,0:0:0:0:
475,192,89727,1,0,0:0:0:0:
36,192,89799,1,0,0:0:0:0:
109,192,89799,1,0,0:0:0:0:
182,192,89799,1,0,0:0:0:0:
329,192,89870,1,0,0:0:0:0:
402,192,89870,1,0,0:0:0:0:
475,192,89870,1,0,0:0:0:0:
36,192,89942,1,0,0:0:0:0:
109,192,89942,1,0,0:0:0:0:
182,192,89942,1,0,0:0:0:0:
329,192,90014,1,0,0:0:0:0:
475,192,90014,1,0,0:0:0:0:
402,192,90014,1,0,0:0:0:0:
182,192,90086,1,0,0:0:0:0:
109,192,90086,1,0,0:0:0:0:
36,192,90086,1,0,0:0:0:0:
329,192,90158,1,0,0:0:0:0:
402,192,90158,1,0,0:0:0:0:
475,192,90158,1,0,0:0:0:0:
36,192,90229,1,0,0:0:0:0:
109,192,90229,1,0,0:0:0:0:
182,192,90229,1,0,0:0:0:0:
329,192,90300,1,0,0:0:0:0:
402,192,90300,1,0,0:0:0:0:
475,192,90300,1,0,0:0:0:0:
320,192,90444,1,0,0:0:0:0:
402,192,90444,1,0,0:0:0:0:
36,192,90444,1,0,0:0:0:0:
109,192,90444,1,0,0:0:0:0:
109,192,90588,1,0,0:0:0:0:
192,192,90588,1,0,0:0:0:0:
402,192,90588,1,0,0:0:0:0:
475,192,90588,1,0,0:0:0:0:
320,192,90731,1,0,0:0:0:0:
402,192,90731,1,0,0:0:0:0:
36,192,90731,1,0,0:0:0:0:
109,192,90731,1,0,0:0:0:0:
109,192,90875,1,0,0:0:0:0:
192,192,90875,1,0,0:0:0:0:
320,192,90875,1,0,0:0:0:0:
402,192,90875,1,0,0:0:0:0:
475,192,90875,1,0,0:0:0:0:
36,192,90875,1,0,0:0:0:0:
109,192,91019,1,0,0:0:0:0:
256,192,91019,1,0,0:0:0:0:
329,192,91019,1,0,0:0:0:0:
320,192,91162,1,0,0:0:0:0:
182,192,91162,1,0,0:0:0:0:
36,192,91162,1,0,0:0:0:0:
402,192,91306,1,0,0:0:0:0:
475,192,91306,1,0,0:0:0:0:
109,192,91306,1,0,0:0:0:0:
109,192,91450,1,0,0:0:0:0:
329,192,91450,1,0,0:0:0:0:
182,192,91450,1,0,0:0:0:0:
402,192,91592,1,0,0:0:0:0:
475,192,91592,1,0,0:0:0:0:
256,192,91592,1,0,0:0:0:0:
109,192,91736,1,0,0:0:0:0:
182,192,91736,1,0,0:0:0:0:
329,192,91736,1,0,0:0:0:0:
402,192,91736,1,0,0:0:0:0:
36,192,91736,1,0,0:0:0:0:
475,192,91736,1,0,0:0:0:0:
36,192,91880,1,0,0:0:0:0:
182,192,91880,1,0,0:0:0:0:
329,192,91880,1,0,0:0:0:0:
109,192,92023,1,0,0:0:0:0:
329,192,92023,1,0,0:0:0:0:
402,192,92023,1,0,0:0:0:0:
182,192,92023,1,0,0:0:0:0:
475,192,92023,1,0,0:0:0:0:
256,192,92023,1,0,0:0:0:0:
256,192,92167,1,0,0:0:0:0:
402,192,92167,1,0,0:0:0:0:
475,192,92167,1,0,0:0:0:0:
182,192,92310,1,0,0:0:0:0:
475,192,92310,1,0,0:0:0:0:
36,192,92310,1,0,0:0:0:0:
109,192,92454,1,0,0:0:0:0:
256,192,92454,1,0,0:0:0:0:
402,192,92454,1,0,0:0:0:0:
182,192,92598,1,0,0:0:0:0:
109,192,92598,1,0,0:0:0:0:
475,192,92598,1,0,0:0:0:0:
256,192,92741,1,0,0:0:0:0:
329,192,92741,1,0,0:0:0:0:
402,192,92741,1,0,0:0:0:0:
182,192,92885,1,0,0:0:0:0:
402,192,92885,1,0,0:0:0:0:
475,192,92885,1,0,0:0:0:0:
109,192,93028,1,0,0:0:0:0:
256,192,93028,1,0,0:0:0:0:
329,192,93028,1,0,0:0:0:0:
182,192,93171,1,0,0:0:0:0:
402,192,93171,1,0,0:0:0:0:
329,192,93171,1,0,0:0:0:0:
475,192,93171,1,0,0:0:0:0:
36,192,93171,1,0,0:0:0:0:
109,192,93171,1,0,0:0:0:0:
109,192,93315,1,0,0:0:0:0:
256,192,93315,1,0,0:0:0:0:
475,192,93315,1,0,0:0:0:0:
329,192,93459,1,0,0:0:0:0:
182,192,93459,1,0,0:0:0:0:
475,192,93459,1,0,0:0:0:0:
36,192,93602,1,0,0:0:0:0:
109,192,93602,1,0,0:0:0:0:
329,192,93602,1,0,0:0:0:0:
182,192,93746,1,0,0:0:0:0:
36,192,93746,1,0,0:0:0:0:
402,192,93746,1,0,0:0:0:0:
256,192,93890,1,0,0:0:0:0:
475,192,93890,1,0,0:0:0:0:
109,192,93890,1,0,0:0:0:0:
182,192,94033,1,0,0:0:0:0:
329,192,94033,1,0,0:0:0:0:
402,192,94033,1,0,0:0:0:0:
475,192,94033,1,0,0:0:0:0:
256,192,94033,1,0,0:0:0:0:
109,192,94033,1,0,0:0:0:0:
402,192,94177,1,0,0:0:0:0:
475,192,94177,1,0,0:0:0:0:
182,192,94177,1,0,0:0:0:0:
182,192,94320,1,0,0:0:0:0:
329,192,94320,1,0,0:0:0:0:
36,192,94320,1,0,0:0:0:0:
109,192,94320,1,0,0:0:0:0:
402,192,94320,1,0,0:0:0:0:
256,192,94320,1,0,0:0:0:0:
109,192,94463,1,0,0:0:0:0:
402,192,94463,1,0,0:0:0:0:
475,192,94463,1,0,0:0:0:0:
36,192,94607,1,0,0:0:0:0:
182,192,94607,1,0,0:0:0:0:
329,192,94607,1,0,0:0:0:0:
109,192,94750,1,0,0:0:0:0:
36,192,94750,1,0,0:0:0:0:
402,192,94750,1,0,0:0:0:0:
329,192,94750,1,0,0:0:0:0:
182,192,94750,1,0,0:0:0:0:
475,192,94750,1,0,0:0:0:0:
182,192,94894,1,0,0:0:0:0:
329,192,94894,1,0,0:0:0:0:
475,192,94894,1,0,0:0:0:0:
109,192,95038,1,0,0:0:0:0:
402,192,95038,1,0,0:0:0:0:
182,192,95038,1,0,0:0:0:0:
475,192,95038,1,0,0:0:0:0:
329,192,95038,1,0,0:0:0:0:
256,192,95038,1,0,0:0:0:0:
182,192,95181,1,0,0:0:0:0:
36,192,95181,1,0,0:0:0:0:
475,192,95181,1,0,0:0:0:0:
329,192,95181,1,0,0:0:0:0:
402,192,95181,1,0,0:0:0:0:
256,192,95181,1,0,0:0:0:0:
402,192,95325,1,0,0:0:0:0:
329,192,95325,1,0,0:0:0:0:
36,192,95325,1,0,0:0:0:0:
109,192,95325,1,0,0:0:0:0:
475,192,95325,1,0,0:0:0:0:
256,192,95325,1,0,0:0:0:0:
36,192,95469,1,0,0:0:0:0:
182,192,95469,1,0,0:0:0:0:
475,192,95469,1,0,0:0:0:0:
109,192,95469,1,0,0:0:0:0:
329,192,95469,1,0,0:0:0:0:
402,192,95469,1,0,0:0:0:0:
109,192,95612,1,0,0:0:0:0:
256,192,95612,1,0,0:0:0:0:
329,192,95612,1,0,0:0:0:0:
182,192,95755,1,0,0:0:0:0:
329,192,95755,1,0,0:0:0:0:
475,192,95755,1,0,0:0:0:0:
36,192,95899,1,0,0:0:0:0:
109,192,95899,1,0,0:0:0:0:
256,192,95899,1,0,0:0:0:0:
109,192,96042,1,0,0:0:0:0:
329,192,96042,1,0,0:0:0:0:
475,192,96042,1,0,0:0:0:0:
402,192,96186,1,0,0:0:0:0:
182,192,96186,1,0,0:0:0:0:
36,192,96186,1,0,0:0:0:0:
109,192,96330,1,0,0:0:0:0:
182,192,96330,1,0,0:0:0:0:
329,192,96330,1,0,0:0:0:0:
36,192,96330,1,0,0:0:0:0:
402,192,96330,1,0,0:0:0:0:
475,192,96330,1,0,0:0:0:0:
256,192,96473,1,0,0:0:0:0:
402,192,96473,1,0,0:0:0:0:
475,192,96473,1,0,0:0:0:0:
109,192,96617,1,0,0:0:0:0:
329,192,96617,1,0,0:0:0:0:
182,192,96617,1,0,0:0:0:0:
402,192,96617,1,0,0:0:0:0:
256,192,96617,1,0,0:0:0:0:
36,192,96617,1,0,0:0:0:0:
182,192,96760,1,0,0:0:0:0:
402,192,96760,1,0,0:0:0:0:
256,192,96760,1,0,0:0:0:0:
36,192,96904,1,0,0:0:0:0:
109,192,96904,1,0,0:0:0:0:
329,192,96904,1,0,0:0:0:0:
256,192,97047,1,0,0:0:0:0:
402,192,97047,1,0,0:0:0:0:
475,192,97047,1,0,0:0:0:0:
256,192,97190,1,0,0:0:0:0:
475,192,97190,1,0,0:0:0:0:
36,192,97190,1,0,0:0:0:0:
109,192,97334,1,0,0:0:0:0:
402,192,97334,1,0,0:0:0:0:
329,192,97334,1,0,0:0:0:0:
182,192,97478,1,0,0:0:0:0:
36,192,97478,1,0,0:0:0:0:
329,192,97478,1,0,0:0:0:0:
109,192,97621,1,0,0:0:0:0:
402,192,97621,1,0,0:0:0:0:
256,192,97621,1,0,0:0:0:0:
475,192,97765,1,0,0:0:0:0:
329,192,97765,1,0,0:0:0:0:
109,192,97765,1,0,0:0:0:0:
36,192,97765,1,0,0:0:0:0:
182,192,97765,1,0,0:0:0:0:
402,192,97765,1,0,0:0:0:0:
36,192,97909,1,0,0:0:0:0:
182,192,97909,1,0,0:0:0:0:
402,192,97909,1,0,0:0:0:0:
109,192,98052,1,0,0:0:0:0:
256,192,98052,1,0,0:0:0:0:
475,192,98052,1,0,0:0:0:0:
182,192,98196,1,0,0:0:0:0:
329,192,98196,1,0,0:0:0:0:
402,192,98196,1,0,0:0:0:0:
36,192,98340,1,0,0:0:0:0:
109,192,98340,1,0,0:0:0:0:
256,192,98340,1,0,0:0:0:0:
182,192,98482,1,0,0:0:0:0:
329,192,98482,1,0,0:0:0:0:
475,192,98482,1,0,0:0:0:0:
109,192,98626,1,0,0:0:0:0:
402,192,98626,1,0,0:0:0:0:
256,192,98626,1,0,0:0:0:0:
182,192,98626,1,0,0:0:0:0:
329,192,98626,1,0,0:0:0:0:
475,192,98626,1,0,0:0:0:0:
36,192,98770,1,0,0:0:0:0:
182,192,98770,1,0,0:0:0:0:
329,192,98770,1,0,0:0:0:0:
109,192,98913,1,0,0:0:0:0:
256,192,98913,1,0,0:0:0:0:
402,192,98913,1,0,0:0:0:0:
36,192,98913,1,0,0:0:0:0:
182,192,98913,1,0,0:0:0:0:
329,192,98913,1,0,0:0:0:0:
182,192,99057,1,0,0:0:0:0:
329,192,99057,1,0,0:0:0:0:
36,192,99057,1,0,0:0:0:0:
109,192,99200,1,0,0:0:0:0:
256,192,99200,1,0,0:0:0:0:
475,192,99200,1,0,0:0:0:0:
182,192,99344,1,0,0:0:0:0:
329,192,99344,1,0,0:0:0:0:
402,192,99344,1,0,0:0:0:0:
36,192,99344,1,0,0:0:0:0:
109,192,99344,1,0,0:0:0:0:
475,192,99344,1,0,0:0:0:0:
256,192,99488,1,0,0:0:0:0:
109,192,99488,1,0,0:0:0:0:
475,192,99488,1,0,0:0:0:0:
36,192,99631,1,0,0:0:0:0:
182,192,99631,1,0,0:0:0:0:
402,192,99631,1,0,0:0:0:0:
109,192,99631,1,0,0:0:0:0:
329,192,99631,1,0,0:0:0:0:
256,192,99631,1,0,0:0:0:0:
256,192,99774,1,0,0:0:0:0:
329,192,99774,1,0,0:0:0:0:
475,192,99774,1,0,0:0:0:0:
182,192,99774,1,0,0:0:0:0:
109,192,99774,1,0,0:0:0:0:
36,192,99774,1,0,0:0:0:0:
182,192,99918,1,0,0:0:0:0:
109,192,99918,1,0,0:0:0:0:
402,192,99918,1,0,0:0:0:0:
36,192,99918,1,0,0:0:0:0:
256,192,99918,1,0,0:0:0:0:
475,192,99918,1,0,0:0:0:0:
192,192,100061,1,0,0:0:0:0:
320,192,100061,1,0,0:0:0:0:
402,0,100061,128,0,100133:1:0:0:0:
475,192,100061,128,0,100133:0:0:0:0:
36,192,100061,128,0,100133:0:0:0:0:
109,192,100061,128,0,100133:0:0:0:0:
402,192,100205,1,0,0:0:0:0:
256,192,100205,1,0,0:0:0:0:
109,192,100205,1,0,0:0:0:0:
182,192,100349,1,0,0:0:0:0:
329,192,100349,1,0,0:0:0:0:
475,192,100349,1,0,0:0:0:0:
109,192,100492,1,0,0:0:0:0:
36,192,100492,1,0,0:0:0:0:
475,192,100492,1,0,0:0:0:0:
402,192,100636,1,0,0:0:0:0:
182,192,100636,1,0,0:0:0:0:
329,192,100636,1,0,0:0:0:0:
109,192,100780,1,0,0:0:0:0:
36,192,100780,1,0,0:0:0:0:
256,192,100780,1,0,0:0:0:0:
402,192,100923,1,0,0:0:0:0:
329,192,100923,1,0,0:0:0:0:
182,192,100923,1,0,0:0:0:0:
109,192,100923,1,0,0:0:0:0:
475,192,100923,1,0,0:0:0:0:
36,192,100923,1,0,0:0:0:0:
475,192,101067,1,0,0:0:0:0:
329,192,101067,1,0,0:0:0:0:
182,192,101067,1,0,0:0:0:0:
402,192,101210,1,0,0:0:0:0:
182,192,101210,1,0,0:0:0:0:
109,192,101210,1,0,0:0:0:0:
329,192,101210,1,0,0:0:0:0:
36,192,101210,1,0,0:0:0:0:
256,192,101210,1,0,0:0:0:0:
256,192,101353,1,0,0:0:0:0:
109,192,101353,1,0,0:0:0:0:
36,192,101353,1,0,0:0:0:0:
329,192,101497,1,0,0:0:0:0:
182,192,101497,1,0,0:0:0:0:
475,192,101497,1,0,0:0:0:0:
402,192,101640,1,0,0:0:0:0:
182,192,101640,1,0,0:0:0:0:
109,192,101640,1,0,0:0:0:0:
329,192,101784,1,0,0:0:0:0:
475,192,101784,1,0,0:0:0:0:
36,192,101784,1,0,0:0:0:0:
256,192,101928,1,0,0:0:0:0:
182,192,101928,1,0,0:0:0:0:
109,192,101928,1,0,0:0:0:0:
475,192,102071,1,0,0:0:0:0:
329,192,102071,1,0,0:0:0:0:
109,192,102071,1,0,0:0:0:0:
402,192,102215,1,0,0:0:0:0:
256,192,102215,1,0,0:0:0:0:
182,192,102215,1,0,0:0:0:0:
329,192,102359,1,0,0:0:0:0:
109,192,102359,1,0,0:0:0:0:
182,192,102359,1,0,0:0:0:0:
36,192,102359,1,0,0:0:0:0:
475,192,102359,1,0,0:0:0:0:
402,192,102359,1,0,0:0:0:0:
402,192,102501,1,0,0:0:0:0:
256,192,102501,1,0,0:0:0:0:
36,192,102501,1,0,0:0:0:0:
182,192,102645,1,0,0:0:0:0:
329,192,102645,1,0,0:0:0:0:
109,192,102645,1,0,0:0:0:0:
475,192,102789,1,0,0:0:0:0:
402,192,102789,1,0,0:0:0:0:
182,192,102789,1,0,0:0:0:0:
329,192,102932,1,0,0:0:0:0:
475,192,102932,1,0,0:0:0:0:
109,192,102932,1,0,0:0:0:0:
256,192,103076,1,0,0:0:0:0:
36,192,103076,1,0,0:0:0:0:
402,192,103076,1,0,0:0:0:0:
329,192,103220,1,0,0:0:0:0:
182,192,103220,1,0,0:0:0:0:
109,192,103220,1,0,0:0:0:0:
36,192,103220,1,0,0:0:0:0:
256,192,103220,1,0,0:0:0:0:
402,192,103220,1,0,0:0:0:0:
109,192,103363,1,0,0:0:0:0:
36,192,103363,1,0,0:0:0:0:
329,192,103363,1,0,0:0:0:0:
329,192,103507,1,0,0:0:0:0:
182,192,103507,1,0,0:0:0:0:
475,192,103507,1,0,0:0:0:0:
402,192,103507,1,0,0:0:0:0:
109,192,103507,1,0,0:0:0:0:
256,192,103507,1,0,0:0:0:0:
402,192,103650,1,0,0:0:0:0:
109,192,103650,1,0,0:0:0:0:
36,192,103650,1,0,0:0:0:0:
475,192,103794,1,0,0:0:0:0:
329,192,103794,1,0,0:0:0:0:
182,192,103794,1,0,0:0:0:0:
402,192,103937,1,0,0:0:0:0:
475,192,103937,1,0,0:0:0:0:
109,192,103937,1,0,0:0:0:0:
182,192,103937,1,0,0:0:0:0:
329,192,103937,1,0,0:0:0:0:
36,192,103937,1,0,0:0:0:0:
329,192,104080,1,0,0:0:0:0:
182,192,104080,1,0,0:0:0:0:
36,192,104080,1,0,0:0:0:0:
402,192,104224,1,0,0:0:0:0:
109,192,104224,1,0,0:0:0:0:
329,192,104224,1,0,0:0:0:0:
36,192,104224,1,0,0:0:0:0:
182,192,104224,1,0,0:0:0:0:
256,192,104224,1,0,0:0:0:0:
329,192,104368,1,0,0:0:0:0:
475,192,104368,1,0,0:0:0:0:
36,192,104368,1,0,0:0:0:0:
182,192,104368,1,0,0:0:0:0:
109,192,104368,1,0,0:0:0:0:
256,192,104368,1,0,0:0:0:0:
109,192,104511,1,0,0:0:0:0:
182,192,104511,1,0,0:0:0:0:
475,192,104511,1,0,0:0:0:0:
402,192,104511,1,0,0:0:0:0:
36,192,104511,1,0,0:0:0:0:
256,192,104511,1,0,0:0:0:0:
475,192,104655,1,0,0:0:0:0:
329,192,104655,1,0,0:0:0:0:
36,192,104655,1,0,0:0:0:0:
402,192,104655,1,0,0:0:0:0:
182,192,104655,1,0,0:0:0:0:
109,192,104655,1,0,0:0:0:0:
402,192,104799,1,0,0:0:0:0:
329,192,104799,1,0,0:0:0:0:
182,192,104799,1,0,0:0:0:0:
256,192,104942,1,0,0:0:0:0:
109,192,104942,1,0,0:0:0:0:
36,192,104942,1,0,0:0:0:0:
402,192,105086,1,0,0:0:0:0:
329,192,105086,1,0,0:0:0:0:
475,192,105086,1,0,0:0:0:0:
36,192,105158,1,0,0:0:0:0:
109,192,105158,1,0,0:0:0:0:
182,192,105158,1,0,0:0:0:0:
475,192,105229,1,0,0:0:0:0:
402,192,105229,1,0,0:0:0:0:
320,192,105229,1,0,0:0:0:0:
36,192,105300,1,0,0:0:0:0:
192,192,105300,1,0,0:0:0:0:
109,192,105300,1,0,0:0:0:0:
475,192,105372,1,0,0:0:0:0:
402,192,105372,1,0,0:0:0:0:
320,192,105372,1,0,0:0:0:0:
36,192,105444,1,0,0:0:0:0:
192,192,105444,1,0,0:0:0:0:
109,192,105444,1,0,0:0:0:0:
475,192,105516,1,0,0:0:0:0:
402,192,105516,1,0,0:0:0:0:
320,192,105516,1,0,0:0:0:0:
36,192,105588,1,0,0:0:0:0:
192,192,105588,1,0,0:0:0:0:
109,192,105588,1,0,0:0:0:0:
475,192,105660,1,0,0:0:0:0:
402,192,105660,1,0,0:0:0:0:
320,192,105660,1,0,0:0:0:0:
36,192,105731,1,0,0:0:0:0:
192,192,105731,1,0,0:0:0:0:
109,192,105731,1,0,0:0:0:0:
475,192,105803,1,0,0:0:0:0:
402,192,105803,1,0,0:0:0:0:
320,192,105803,1,0,0:0:0:0:
36,192,105875,1,0,0:0:0:0:
192,192,105875,1,0,0:0:0:0:
109,192,105875,1,0,0:0:0:0:
475,192,105947,1,0,0:0:0:0:
402,192,105947,1,0,0:0:0:0:
320,192,105947,1,0,0:0:0:0:
36,192,106019,1,0,0:0:0:0:
192,192,106019,1,0,0:0:0:0:
109,192,106019,1,0,0:0:0:0:
475,192,106090,1,0,0:0:0:0:
402,192,106090,1,0,0:0:0:0:
320,192,106090,1,0,0:0:0:0:
36,192,106162,1,0,0:0:0:0:
192,192,106162,1,0,0:0:0:0:
109,192,106162,1,0,0:0:0:0:
475,192,106234,1,0,0:0:0:0:
402,192,106234,1,0,0:0:0:0:
320,192,106234,1,0,0:0:0:0:
36,192,106306,1,0,0:0:0:0:
192,192,106306,1,0,0:0:0:0:
109,192,106306,1,0,0:0:0:0:
475,192,106378,1,0,0:0:0:0:
402,192,106378,1,0,0:0:0:0:
320,192,106378,1,0,0:0:0:0:
36,192,106450,1,0,0:0:0:0:
192,192,106450,1,0,0:0:0:0:
109,192,106450,1,0,0:0:0:0:
475,192,106521,1,0,0:0:0:0:
402,192,106521,1,0,0:0:0:0:
320,192,106521,1,0,0:0:0:0:
36,192,106592,1,0,0:0:0:0:
192,192,106592,1,0,0:0:0:0:
109,192,106592,1,0,0:0:0:0:
475,192,106664,1,0,0:0:0:0:
402,192,106664,1,0,0:0:0:0:
320,192,106664,1,0,0:0:0:0:
36,192,106736,1,0,0:0:0:0:
192,192,106736,1,0,0:0:0:0:
109,192,106736,1,0,0:0:0:0:
475,192,106808,1,0,0:0:0:0:
402,192,106808,1,0,0:0:0:0:
320,192,106808,1,0,0:0:0:0:
36,192,106880,1,0,0:0:0:0:
192,192,106880,1,0,0:0:0:0:
109,192,106880,1,0,0:0:0:0:
475,192,106951,1,0,0:0:0:0:
402,192,106951,1,0,0:0:0:0:
320,192,106951,1,0,0:0:0:0:
36,192,107023,1,0,0:0:0:0:
192,192,107023,1,0,0:0:0:0:
109,192,107023,1,0,0:0:0:0:
475,192,107095,1,0,0:0:0:0:
402,192,107095,1,0,0:0:0:0:
320,192,107095,1,0,0:0:0:0:
36,192,107167,1,0,0:0:0:0:
192,192,107167,1,0,0:0:0:0:
109,192,107167,1,0,0:0:0:0:
475,192,107239,1,0,0:0:0:0:
402,192,107239,1,0,0:0:0:0:
320,192,107239,1,0,0:0:0:0:
36,192,107310,1,0,0:0:0:0:
192,192,107310,1,0,0:0:0:0:
109,192,107310,1,0,0:0:0:0:
475,192,107382,1,0,0:0:0:0:
402,192,107382,1,0,0:0:0:0:
320,192,107382,1,0,0:0:0:0:
36,192,107454,1,0,0:0:0:0:
192,192,107454,1,0,0:0:0:0:
109,192,107454,1,0,0:0:0:0:
475,192,107526,1,0,0:0:0:0:
402,192,107526,1,0,0:0:0:0:
320,192,107526,1,0,0:0:0:0:
36,192,107598,1,0,0:0:0:0:
192,192,107598,1,0,0:0:0:0:
109,192,107598,1,0,0:0:0:0:
475,192,107670,1,0,0:0:0:0:
402,192,107670,1,0,0:0:0:0:
320,192,107670,1,0,0:0:0:0:
36,192,107741,1,0,0:0:0:0:
192,192,107741,1,0,0:0:0:0:
109,192,107741,1,0,0:0:0:0:
475,192,107813,1,0,0:0:0:0:
402,192,107813,1,0,0:0:0:0:
320,192,107813,1,0,0:0:0:0:
36,192,107885,1,0,0:0:0:0:
192,192,107885,1,0,0:0:0:0:
109,192,107885,1,0,0:0:0:0:
475,192,107956,1,0,0:0:0:0:
402,192,107956,1,0,0:0:0:0:
320,192,107956,1,0,0:0:0:0:
36,192,108028,1,0,0:0:0:0:
192,192,108028,1,0,0:0:0:0:
109,192,108028,1,0,0:0:0:0:
475,192,108100,1,0,0:0:0:0:
402,192,108100,1,0,0:0:0:0:
320,192,108100,1,0,0:0:0:0:
182,192,108171,1,0,0:0:0:0:
109,192,108171,1,0,0:0:0:0:
36,192,108171,1,0,0:0:0:0:
475,192,108243,1,0,0:0:0:0:
329,192,108243,1,0,0:0:0:0:
402,192,108243,1,0,0:0:0:0:
36,192,108315,1,0,0:0:0:0:
109,192,108315,1,0,0:0:0:0:
182,192,108315,1,0,0:0:0:0:
329,192,108387,1,0,0:0:0:0:
402,192,108387,1,0,0:0:0:0:
475,192,108387,1,0,0:0:0:0:
36,192,108459,1,0,0:0:0:0:
182,192,108459,1,0,0:0:0:0:
109,192,108459,1,0,0:0:0:0:
329,192,108530,1,0,0:0:0:0:
402,192,108530,1,0,0:0:0:0:
475,192,108530,1,0,0:0:0:0:
182,192,108602,1,0,0:0:0:0:
36,192,108602,1,0,0:0:0:0:
109,192,108602,1,0,0:0:0:0:
475,192,108674,1,0,0:0:0:0:
329,192,108674,1,0,0:0:0:0:
402,192,108674,1,0,0:0:0:0:
36,192,108818,1,0,0:0:0:0:
109,192,108818,1,0,0:0:0:0:
320,192,108818,1,0,0:0:0:0:
402,192,108818,1,0,0:0:0:0:
402,192,108961,1,0,0:0:0:0:
475,192,108961,1,0,0:0:0:0:
109,192,108961,1,0,0:0:0:0:
192,192,108961,1,0,0:0:0:0:
36,192,109105,1,0,0:0:0:0:
109,192,109105,1,0,0:0:0:0:
320,192,109105,1,0,0:0:0:0:
402,192,109105,1,0,0:0:0:0:
36,192,109249,1,0,0:0:0:0:
109,192,109249,1,0,0:0:0:0:
182,192,109249,1,0,0:0:0:0:
329,192,109249,1,0,0:0:0:0:
475,192,109249,1,0,0:0:0:0:
402,192,109249,1,0,0:0:0:0:
256,192,109249,1,0,0:0:0:0:
